  0
SECTION
  2
HEADER
  9
$ACADVER
  1
AC1014
  9
$ACADMAINTVER
 70
     9
  9
$DWGCODEPAGE
  3
ANSI_1252
  9
$INSBASE
 10
0.0
 20
0.0
 30
0.0
  9
$EXTMIN
 10
141.0592157869134
 20
17.83625720616216
 30
0.0
  9
$EXTMAX
 10
371.3007532083885
 20
124.9183256340915
 30
0.0
  9
$LIMMIN
 10
0.0
 20
0.0
  9
$LIMMAX
 10
12.0
 20
9.0
  9
$ORTHOMODE
 70
     0
  9
$REGENMODE
 70
     1
  9
$FILLMODE
 70
     1
  9
$QTEXTMODE
 70
     0
  9
$MIRRTEXT
 70
     0
  9
$DRAGMODE
 70
     2
  9
$LTSCALE
 40
1.0
  9
$OSMODE
 70
   511
  9
$ATTMODE
 70
     1
  9
$TEXTSIZE
 40
0.2
  9
$TRACEWID
 40
0.05
  9
$TEXTSTYLE
  7
STANDARD
  9
$CLAYER
  8
OBRYS
  9
$CELTYPE
  6
BYLAYER
  9
$CECOLOR
 62
   256
  9
$CELTSCALE
 40
1.0
  9
$DELOBJ
 70
     1
  9
$DISPSILH
 70
     0
  9
$DIMSCALE
 40
1.0
  9
$DIMASZ
 40
0.18
  9
$DIMEXO
 40
0.0625
  9
$DIMDLI
 40
0.38
  9
$DIMRND
 40
0.0
  9
$DIMDLE
 40
0.0
  9
$DIMEXE
 40
0.18
  9
$DIMTP
 40
0.0
  9
$DIMTM
 40
0.0
  9
$DIMTXT
 40
0.18
  9
$DIMCEN
 40
0.09
  9
$DIMTSZ
 40
0.0
  9
$DIMTOL
 70
     0
  9
$DIMLIM
 70
     0
  9
$DIMTIH
 70
     1
  9
$DIMTOH
 70
     1
  9
$DIMSE1
 70
     0
  9
$DIMSE2
 70
     0
  9
$DIMTAD
 70
     0
  9
$DIMZIN
 70
     0
  9
$DIMBLK
  1

  9
$DIMASO
 70
     1
  9
$DIMSHO
 70
     1
  9
$DIMPOST
  1

  9
$DIMAPOST
  1

  9
$DIMALT
 70
     0
  9
$DIMALTD
 70
     2
  9
$DIMALTF
 40
25.4
  9
$DIMLFAC
 40
1.0
  9
$DIMTOFL
 70
     0
  9
$DIMTVP
 40
0.0
  9
$DIMTIX
 70
     0
  9
$DIMSOXD
 70
     0
  9
$DIMSAH
 70
     0
  9
$DIMBLK1
  1

  9
$DIMBLK2
  1

  9
$DIMSTYLE
  2
STANDARD
  9
$DIMCLRD
 70
     0
  9
$DIMCLRE
 70
     0
  9
$DIMCLRT
 70
     0
  9
$DIMTFAC
 40
1.0
  9
$DIMGAP
 40
0.09
  9
$DIMJUST
 70
     0
  9
$DIMSD1
 70
     0
  9
$DIMSD2
 70
     0
  9
$DIMTOLJ
 70
     1
  9
$DIMTZIN
 70
     0
  9
$DIMALTZ
 70
     0
  9
$DIMALTTZ
 70
     0
  9
$DIMFIT
 70
     5
  9
$DIMUPT
 70
     0
  9
$DIMUNIT
 70
     2
  9
$DIMDEC
 70
     4
  9
$DIMTDEC
 70
     4
  9
$DIMALTU
 70
     2
  9
$DIMALTTD
 70
     2
  9
$DIMTXSTY
  7
STANDARD
  9
$DIMAUNIT
 70
     0
  9
$LUNITS
 70
     2
  9
$LUPREC
 70
     4
  9
$SKETCHINC
 40
0.1
  9
$FILLETRAD
 40
0.0
  9
$AUNITS
 70
     0
  9
$AUPREC
 70
     0
  9
$MENU
  1
.
  9
$ELEVATION
 40
0.0
  9
$PELEVATION
 40
0.0
  9
$THICKNESS
 40
0.0
  9
$LIMCHECK
 70
     0
  9
$CHAMFERA
 40
0.0
  9
$CHAMFERB
 40
0.0
  9
$CHAMFERC
 40
0.0
  9
$CHAMFERD
 40
0.0
  9
$SKPOLY
 70
     0
  9
$TDCREATE
 40
2452643.105050926
  9
$TDUPDATE
 40
2458101.598613333
  9
$TDINDWG
 40
0.131866956
  9
$TDUSRTIMER
 40
2458101.427156481
  9
$USRTIMER
 70
     1
  9
$ANGBASE
 50
0.0
  9
$ANGDIR
 70
     0
  9
$PDMODE
 70
     0
  9
$PDSIZE
 40
0.0
  9
$PLINEWID
 40
0.0
  9
$COORDS
 70
     1
  9
$SPLFRAME
 70
     0
  9
$SPLINETYPE
 70
     6
  9
$SPLINESEGS
 70
     8
  9
$ATTDIA
 70
     0
  9
$ATTREQ
 70
     1
  9
$HANDLING
 70
     1
  9
$HANDSEED
  5
AD8
  9
$SURFTAB1
 70
     6
  9
$SURFTAB2
 70
     6
  9
$SURFTYPE
 70
     6
  9
$SURFU
 70
     6
  9
$SURFV
 70
     6
  9
$UCSNAME
  2

  9
$UCSORG
 10
0.0
 20
0.0
 30
0.0
  9
$UCSXDIR
 10
1.0
 20
0.0
 30
0.0
  9
$UCSYDIR
 10
0.0
 20
1.0
 30
0.0
  9
$PUCSNAME
  2

  9
$PUCSORG
 10
0.0
 20
0.0
 30
0.0
  9
$PUCSXDIR
 10
1.0
 20
0.0
 30
0.0
  9
$PUCSYDIR
 10
0.0
 20
1.0
 30
0.0
  9
$USERI1
 70
     0
  9
$USERI2
 70
     0
  9
$USERI3
 70
     0
  9
$USERI4
 70
     0
  9
$USERI5
 70
     0
  9
$USERR1
 40
0.0
  9
$USERR2
 40
0.0
  9
$USERR3
 40
0.0
  9
$USERR4
 40
0.0
  9
$USERR5
 40
0.0
  9
$WORLDVIEW
 70
     1
  9
$SHADEDGE
 70
     3
  9
$SHADEDIF
 70
    70
  9
$TILEMODE
 70
     1
  9
$MAXACTVP
 70
    64
  9
$PINSBASE
 10
0.0
 20
0.0
 30
0.0
  9
$PLIMCHECK
 70
     0
  9
$PEXTMIN
 10
0.0
 20
0.0
 30
0.0
  9
$PEXTMAX
 10
0.0
 20
0.0
 30
0.0
  9
$PLIMMIN
 10
0.0
 20
0.0
  9
$PLIMMAX
 10
0.0
 20
0.0
  9
$UNITMODE
 70
     0
  9
$VISRETAIN
 70
     1
  9
$PLINEGEN
 70
     0
  9
$PSLTSCALE
 70
     1
  9
$TREEDEPTH
 70
  3020
  9
$PICKSTYLE
 70
     1
  9
$CMLSTYLE
  2
STANDARD
  9
$CMLJUST
 70
     0
  9
$CMLSCALE
 40
1.0
  9
$PROXYGRAPHICS
 70
     1
  9
$MEASUREMENT
 70
     0
  0
ENDSEC
  0
SECTION
  2
CLASSES
  0
CLASS
  1
ACDBDICTIONARYWDFLT
  2
AcDbDictionaryWithDefault
  3
ObjectDBX Classes
 90
        0
280
     0
281
     0
  0
CLASS
  1
ACDBPLACEHOLDER
  2
AcDbPlaceHolder
  3
ObjectDBX Classes
 90
        0
280
     0
281
     0
  0
CLASS
  1
LAYOUT
  2
AcDbLayout
  3
ObjectDBX Classes
 90
        0
280
     0
281
     0
  0
CLASS
  1
DICTIONARYVAR
  2
AcDbDictionaryVar
  3
ObjectDBX Classes
 90
        0
280
     0
281
     0
  0
CLASS
  1
TABLESTYLE
  2
AcDbTableStyle
  3
ObjectDBX Classes
 90
     4095
280
     0
281
     0
  0
CLASS
  1
MATERIAL
  2
AcDbMaterial
  3
ObjectDBX Classes
 90
     1153
280
     0
281
     0
  0
CLASS
  1
VISUALSTYLE
  2
AcDbVisualStyle
  3
ObjectDBX Classes
 90
     4095
280
     0
281
     0
  0
CLASS
  1
SCALE
  2
AcDbScale
  3
ObjectDBX Classes
 90
     1153
280
     0
281
     0
  0
CLASS
  1
CELLSTYLEMAP
  2
AcDbCellStyleMap
  3
ObjectDBX Classes
 90
     1152
280
     0
281
     0
  0
CLASS
  1
RASTERVARIABLES
  2
AcDbRasterVariables
  3
ISM
 90
        0
280
     0
281
     0
  0
CLASS
  1
DIMASSOC
  2
AcDbDimAssoc
  3
"AcDbDimAssoc|Product Desc:     AcDim ARX App For Dimension|Company:          Autodesk, Inc.|WEB Address:      www.autodesk.com"
 90
        0
280
     0
281
     0
  0
CLASS
  1
XRECORD
  2
AcDbXrecord
  3
AutoCAD 2000
 90
        0
280
     0
281
     0
  0
CLASS
  1
LWPOLYLINE
  2
AcDbPolyline
  3
AutoCAD 2000
 90
        0
280
     0
281
     1
  0
CLASS
  1
HATCH
  2
AcDbHatch
  3
AutoCAD 2000
 90
        0
280
     0
281
     1
  0
ENDSEC
  0
SECTION
  2
TABLES
  0
TABLE
  2
VPORT
  5
8
330
0
100
AcDbSymbolTable
 70
     1
  0
VPORT
  5
94
330
8
100
AcDbSymbolTableRecord
100
AcDbViewportTableRecord
  2
*ACTIVE
 70
     0
 10
0.0
 20
0.0
 11
1.0
 21
1.0
 12
256.3847800348934
 22
91.29766080919687
 13
0.0
 23
0.0
 14
0.5
 24
0.5
 15
0.5
 25
0.5
 16
0.0
 26
0.0
 36
1.0
 17
-27.66959356597999
 27
-19.53870295786207
 37
0.0
 40
129.2377127455664
 41
2.037688442211055
 42
50.0
 43
0.0
 44
0.0
 50
0.0
 51
0.0
 71
    16
 72
  1000
 73
     1
 74
     3
 75
     0
 76
     0
 77
     0
 78
     0
  0
ENDTAB
  0
TABLE
  2
LTYPE
  5
5
330
0
100
AcDbSymbolTable
 70
     1
  0
LTYPE
  5
14
330
5
100
AcDbSymbolTableRecord
100
AcDbLinetypeTableRecord
  2
BYBLOCK
 70
     0
  3

 72
    65
 73
     0
 40
0.0
  0
LTYPE
  5
15
330
5
100
AcDbSymbolTableRecord
100
AcDbLinetypeTableRecord
  2
BYLAYER
 70
     0
  3
Solid line
 72
    65
 73
     0
 40
0.0
  0
LTYPE
  5
16
330
5
100
AcDbSymbolTableRecord
100
AcDbLinetypeTableRecord
  2
CONTINUOUS
 70
     0
  3
Solid line
 72
    65
 73
     0
 40
0.0
  0
ENDTAB
  0
TABLE
  2
LAYER
  5
2
102
{ACAD_XDICTIONARY
360
679
102
}
330
0
100
AcDbSymbolTable
 70
     5
  0
LAYER
  5
10
330
2
100
AcDbSymbolTableRecord
100
AcDbLayerTableRecord
  2
0
 70
     0
 62
     7
  6
CONTINUOUS
  0
LAYER
  5
E4
330
2
100
AcDbSymbolTableRecord
100
AcDbLayerTableRecord
  2
OBRYS
 70
     0
 62
     5
  6
CONTINUOUS
1001
ACAECLAYERSTANDARD
1000

1000

  0
LAYER
  5
67C
330
2
100
AcDbSymbolTableRecord
100
AcDbLayerTableRecord
  2
KOTY
 70
     0
 62
     1
  6
CONTINUOUS
1001
ACAECLAYERSTANDARD
1000

1000

  0
LAYER
  5
67E
330
2
100
AcDbSymbolTableRecord
100
AcDbLayerTableRecord
  2
DEFPOINTS
 70
     0
 62
     7
  6
CONTINUOUS
  0
LAYER
  5
764
330
2
100
AcDbSymbolTableRecord
100
AcDbLayerTableRecord
  2
VRSTVA_1
 70
     0
 62
     7
  6
CONTINUOUS
  0
ENDTAB
  0
TABLE
  2
STYLE
  5
3
330
0
100
AcDbSymbolTable
 70
     1
  0
STYLE
  5
11
330
3
100
AcDbSymbolTableRecord
100
AcDbTextStyleTableRecord
  2
STANDARD
 70
     0
 40
0.0
 41
1.0
 50
0.0
 71
     0
 42
0.2
  3
arial.ttf
  4

1001
ACAD
1000
Arial
1071
        0
  0
ENDTAB
  0
TABLE
  2
VIEW
  5
6
330
0
100
AcDbSymbolTable
 70
     0
  0
ENDTAB
  0
TABLE
  2
UCS
  5
7
330
0
100
AcDbSymbolTable
 70
     0
  0
ENDTAB
  0
TABLE
  2
APPID
  5
9
330
0
100
AcDbSymbolTable
 70
     2
  0
APPID
  5
12
330
9
100
AcDbSymbolTableRecord
100
AcDbRegAppTableRecord
  2
ACAD
 70
     0
  0
APPID
  5
E6
330
9
100
AcDbSymbolTableRecord
100
AcDbRegAppTableRecord
  2
ACAECLAYERSTANDARD
 70
     0
  0
ENDTAB
  0
TABLE
  2
DIMSTYLE
  5
A
330
0
100
AcDbSymbolTable
 70
     1
  0
DIMSTYLE
105
27
102
{ACAD_REACTORS
330
67F
330
692
330
6B2
330
6C2
330
6D2
102
}
330
A
100
AcDbSymbolTableRecord
100
AcDbDimStyleTableRecord
  2
STANDARD
 70
     0
  3

  4

  5

  6

  7

 40
1.0
 41
0.18
 42
0.0625
 43
0.38
 44
0.18
 45
0.0
 46
0.0
 47
0.0
 48
0.0
140
0.18
141
0.09
142
0.0
143
25.4
144
1.0
145
0.0
146
1.0
147
0.09
 71
     0
 72
     0
 73
     1
 74
     1
 75
     0
 76
     0
 77
     0
 78
     0
170
     0
171
     2
172
     0
173
     0
174
     0
175
     0
176
     0
177
     0
178
     0
270
     2
271
     4
272
     4
273
     2
274
     2
340
11
275
     0
280
     0
281
     0
282
     0
283
     1
284
     0
285
     0
286
     0
287
     3
288
     0
  0
ENDTAB
  0
TABLE
  2
BLOCK_RECORD
  5
1
330
0
100
AcDbSymbolTable
 70
     8
  0
BLOCK_RECORD
  5
1F
330
1
100
AcDbSymbolTableRecord
100
AcDbBlockTableRecord
  2
*MODEL_SPACE
  0
BLOCK_RECORD
  5
58
330
1
100
AcDbSymbolTableRecord
100
AcDbBlockTableRecord
  2
*PAPER_SPACE
  0
BLOCK_RECORD
  5
5D
330
1
100
AcDbSymbolTableRecord
100
AcDbBlockTableRecord
  2
*PAPER_SPACE0
  0
BLOCK_RECORD
  5
682
330
1
100
AcDbSymbolTableRecord
100
AcDbBlockTableRecord
  2
*D1
  0
BLOCK_RECORD
  5
695
330
1
100
AcDbSymbolTableRecord
100
AcDbBlockTableRecord
  2
*D2
  0
BLOCK_RECORD
  5
6A5
330
1
100
AcDbSymbolTableRecord
100
AcDbBlockTableRecord
  2
*D3
  0
BLOCK_RECORD
  5
6B5
330
1
100
AcDbSymbolTableRecord
100
AcDbBlockTableRecord
  2
*D4
  0
BLOCK_RECORD
  5
6C5
330
1
100
AcDbSymbolTableRecord
100
AcDbBlockTableRecord
  2
*D5
  0
BLOCK_RECORD
  5
6D5
330
1
100
AcDbSymbolTableRecord
100
AcDbBlockTableRecord
  2
*D6
  0
ENDTAB
  0
ENDSEC
  0
SECTION
  2
BLOCKS
  0
BLOCK
  5
20
330
1F
100
AcDbEntity
  8
0
100
AcDbBlockBegin
  2
*MODEL_SPACE
 70
     0
 10
0.0
 20
0.0
 30
0.0
  3
*MODEL_SPACE
  1

  0
ENDBLK
  5
21
330
1F
100
AcDbEntity
  8
0
100
AcDbBlockEnd
  0
BLOCK
  5
5A
330
58
100
AcDbEntity
 67
     1
  8
0
100
AcDbBlockBegin
  2
*PAPER_SPACE
 70
     0
 10
0.0
 20
0.0
 30
0.0
  3
*PAPER_SPACE
  1

  0
ENDBLK
  5
5B
330
58
100
AcDbEntity
 67
     1
  8
0
100
AcDbBlockEnd
  0
BLOCK
  5
5F
330
5D
100
AcDbEntity
  8
0
100
AcDbBlockBegin
  2
*PAPER_SPACE0
 70
     0
 10
0.0
 20
0.0
 30
0.0
  3
*PAPER_SPACE0
  1

  0
ENDBLK
  5
60
330
5D
100
AcDbEntity
  8
0
100
AcDbBlockEnd
  0
BLOCK
  5
68D
330
682
100
AcDbEntity
  8
0
100
AcDbBlockBegin
  2
*D1
 70
     1
 10
0.0
 20
0.0
 30
0.0
  3
*D1
  1

  0
LINE
  5
683
330
682
100
AcDbEntity
  8
KOTY
 62
     0
100
AcDbLine
 10
186.387293243696
 20
124.9183256340915
 30
0.0
 11
147.9942157869134
 21
124.9183256340915
 31
0.0
  0
LINE
  5
684
330
682
100
AcDbEntity
  8
KOTY
 62
     0
100
AcDbLine
 10
183.9295605031661
 20
53.04152856085779
 30
0.0
 11
147.9942157869134
 21
53.04152856085779
 31
0.0
  0
LINE
  5
685
330
682
100
AcDbEntity
  8
KOTY
 62
     0
100
AcDbLine
 10
148.1742157869134
 20
119.9183256340915
 30
0.0
 11
148.1742157869134
 21
58.04152856085779
 31
0.0
  0
SOLID
  5
686
330
682
100
AcDbEntity
  8
KOTY
 62
     0
100
AcDbTrace
 10
149.0075491202468
 20
119.9183256340915
 30
0.0
 11
147.3408824535801
 21
119.9183256340915
 31
0.0
 12
148.1742157869134
 22
124.9183256340915
 32
0.0
 13
148.1742157869134
 23
124.9183256340915
 33
0.0
  0
SOLID
  5
687
330
682
100
AcDbEntity
  8
KOTY
 62
     0
100
AcDbTrace
 10
147.3408824535801
 20
58.04152856085779
 30
0.0
 11
149.0075491202468
 21
58.04152856085779
 31
0.0
 12
148.1742157869134
 22
53.04152856085779
 32
0.0
 13
148.1742157869134
 23
53.04152856085779
 33
0.0
  0
MTEXT
  5
688
330
682
100
AcDbEntity
  8
KOTY
 62
     0
100
AcDbMText
 10
143.6217157869134
 20
88.97992709747464
 30
0.0
 40
5.0
 41
0.0
 71
     5
 72
     1
  1
\A1;113
 11
0.0
 21
1.0
 31
0.0
  0
POINT
  5
689
330
682
100
AcDbEntity
  8
DEFPOINTS
 62
     0
100
AcDbPoint
 10
186.449793243696
 20
124.9183256340915
 30
0.0
  0
POINT
  5
68A
330
682
100
AcDbEntity
  8
DEFPOINTS
 62
     0
100
AcDbPoint
 10
183.9920605031661
 20
53.04152856085779
 30
0.0
  0
POINT
  5
68B
330
682
100
AcDbEntity
  8
DEFPOINTS
 62
     0
100
AcDbPoint
 10
148.1742157869134
 20
53.04152856085779
 30
0.0
  0
ENDBLK
  5
68E
330
682
100
AcDbEntity
  8
0
100
AcDbBlockEnd
  0
BLOCK
  5
6A0
330
695
100
AcDbEntity
  8
0
100
AcDbBlockBegin
  2
*D2
 70
     1
 10
0.0
 20
0.0
 30
0.0
  3
*D2
  1

  0
LINE
  5
696
330
695
100
AcDbEntity
  8
KOTY
 62
     0
100
AcDbLine
 10
159.5924999791467
 20
59.37858296519655
 30
0.0
 11
159.5924999791467
 21
18.66959053949549
 31
0.0
  0
LINE
  5
697
330
695
100
AcDbEntity
  8
KOTY
 62
     0
100
AcDbLine
 10
220.5921142145002
 20
59.37898666582322
 30
0.0
 11
220.5921142145002
 21
18.66959053949549
 31
0.0
  0
LINE
  5
698
330
695
100
AcDbEntity
  8
KOTY
 62
     0
100
AcDbLine
 10
164.5924999791467
 20
18.84959053949549
 30
0.0
 11
215.5921142145002
 21
18.84959053949549
 31
0.0
  0
SOLID
  5
699
330
695
100
AcDbEntity
  8
KOTY
 62
     0
100
AcDbTrace
 10
164.5924999791467
 20
19.68292387282882
 30
0.0
 11
164.5924999791467
 21
18.01625720616216
 31
0.0
 12
159.5924999791467
 22
18.84959053949549
 32
0.0
 13
159.5924999791467
 23
18.84959053949549
 33
0.0
  0
SOLID
  5
69A
330
695
100
AcDbEntity
  8
KOTY
 62
     0
100
AcDbTrace
 10
215.5921142145002
 20
18.01625720616216
 30
0.0
 11
215.5921142145002
 21
19.68292387282882
 31
0.0
 12
220.5921142145002
 22
18.84959053949549
 32
0.0
 13
220.5921142145002
 23
18.84959053949549
 33
0.0
  0
MTEXT
  5
69B
330
695
100
AcDbEntity
  8
KOTY
 62
     0
100
AcDbMText
 10
190.0923070968234
 20
23.40209053949549
 30
0.0
 40
5.0
 41
0.0
 71
     5
 72
     1
  1
\A1;61
  0
POINT
  5
69C
330
695
100
AcDbEntity
  8
DEFPOINTS
 62
     0
100
AcDbPoint
 10
159.5924999791467
 20
59.44108296519655
 30
0.0
  0
POINT
  5
69D
330
695
100
AcDbEntity
  8
DEFPOINTS
 62
     0
100
AcDbPoint
 10
220.5921142145002
 20
59.44148666582322
 30
0.0
  0
POINT
  5
69E
330
695
100
AcDbEntity
  8
DEFPOINTS
 62
     0
100
AcDbPoint
 10
220.5921142145002
 20
18.84959053949549
 30
0.0
  0
ENDBLK
  5
6A1
330
695
100
AcDbEntity
  8
0
100
AcDbBlockEnd
  0
BLOCK
  5
6B0
330
6A5
100
AcDbEntity
  8
0
100
AcDbBlockBegin
  2
*D3
 70
     1
 10
0.0
 20
0.0
 30
0.0
  3
*D3
  1

  0
LINE
  5
6A6
330
6A5
100
AcDbEntity
  8
KOTY
 62
     0
100
AcDbLine
 10
203.9922310272369
 20
52.97902856085779
 30
0.0
 11
203.9922310272369
 21
38.2017408304504
 31
0.0
  0
LINE
  5
6A7
330
6A5
100
AcDbEntity
  8
KOTY
 62
     0
100
AcDbLine
 10
178.247773260368
 20
44.75760148626307
 30
0.0
 11
178.247773260368
 21
38.2017408304504
 31
0.0
  0
LINE
  5
6A8
330
6A5
100
AcDbEntity
  8
KOTY
 62
     0
100
AcDbLine
 10
198.9922310272369
 20
38.3817408304504
 30
0.0
 11
183.247773260368
 21
38.3817408304504
 31
0.0
  0
SOLID
  5
6A9
330
6A5
100
AcDbEntity
  8
KOTY
 62
     0
100
AcDbTrace
 10
198.9922310272369
 20
37.54840749711706
 30
0.0
 11
198.9922310272369
 21
39.21507416378373
 31
0.0
 12
203.9922310272369
 22
38.3817408304504
 32
0.0
 13
203.9922310272369
 23
38.3817408304504
 33
0.0
  0
SOLID
  5
6AA
330
6A5
100
AcDbEntity
  8
KOTY
 62
     0
100
AcDbTrace
 10
183.247773260368
 20
39.21507416378373
 30
0.0
 11
183.247773260368
 21
37.54840749711706
 31
0.0
 12
178.247773260368
 22
38.3817408304504
 32
0.0
 13
178.247773260368
 23
38.3817408304504
 33
0.0
  0
MTEXT
  5
6AB
330
6A5
100
AcDbEntity
  8
KOTY
 62
     0
100
AcDbMText
 10
191.1200021438025
 20
42.9342408304504
 30
0.0
 40
5.0
 41
0.0
 71
     5
 72
     1
  1
\A1;600
  0
POINT
  5
6AC
330
6A5
100
AcDbEntity
  8
DEFPOINTS
 62
     0
100
AcDbPoint
 10
203.9922310272369
 20
53.04152856085779
 30
0.0
  0
POINT
  5
6AD
330
6A5
100
AcDbEntity
  8
DEFPOINTS
 62
     0
100
AcDbPoint
 10
178.247773260368
 20
44.82010148626307
 30
0.0
  0
POINT
  5
6AE
330
6A5
100
AcDbEntity
  8
DEFPOINTS
 62
     0
100
AcDbPoint
 10
178.247773260368
 20
38.3817408304504
 30
0.0
  0
ENDBLK
  5
6B1
330
6A5
100
AcDbEntity
  8
0
100
AcDbBlockEnd
  0
BLOCK
  5
6C0
330
6B5
100
AcDbEntity
  8
0
100
AcDbBlockBegin
  2
*D4
 70
     1
 10
0.0
 20
0.0
 30
0.0
  3
*D4
  1

  0
LINE
  5
6B6
330
6B5
100
AcDbEntity
  8
KOTY
 62
     0
100
AcDbLine
 10
249.6545371661846
 20
57.69708994038634
 30
0.0
 11
249.6545371661846
 21
38.79416243028103
 31
0.0
  0
LINE
  5
6B7
330
6B5
100
AcDbEntity
  8
KOTY
 62
     0
100
AcDbLine
 10
275.0545539160844
 20
57.69708994038634
 30
0.0
 11
275.0545539160844
 21
38.79416243028103
 31
0.0
  0
LINE
  5
6B8
330
6B5
100
AcDbEntity
  8
KOTY
 62
     0
100
AcDbLine
 10
254.6545371661846
 20
38.97416243028103
 30
0.0
 11
270.0545539160844
 21
38.97416243028103
 31
0.0
  0
SOLID
  5
6B9
330
6B5
100
AcDbEntity
  8
KOTY
 62
     0
100
AcDbTrace
 10
254.6545371661846
 20
39.80749576361436
 30
0.0
 11
254.6545371661846
 21
38.14082909694769
 31
0.0
 12
249.6545371661846
 22
38.97416243028103
 32
0.0
 13
249.6545371661846
 23
38.97416243028103
 33
0.0
  0
SOLID
  5
6BA
330
6B5
100
AcDbEntity
  8
KOTY
 62
     0
100
AcDbTrace
 10
270.0545539160844
 20
38.14082909694769
 30
0.0
 11
270.0545539160844
 21
39.80749576361436
 31
0.0
 12
275.0545539160844
 22
38.97416243028103
 32
0.0
 13
275.0545539160844
 23
38.97416243028103
 33
0.0
  0
MTEXT
  5
6BB
330
6B5
100
AcDbEntity
  8
KOTY
 62
     0
100
AcDbMText
 10
262.3545455411345
 20
43.52666243028103
 30
0.0
 40
5.0
 41
0.0
 71
     5
 72
     1
  1
\A1;25
  0
POINT
  5
6BC
330
6B5
100
AcDbEntity
  8
DEFPOINTS
 62
     0
100
AcDbPoint
 10
249.6545371661846
 20
57.75958994038634
 30
0.0
  0
POINT
  5
6BD
330
6B5
100
AcDbEntity
  8
DEFPOINTS
 62
     0
100
AcDbPoint
 10
275.0545539160844
 20
57.75958994038634
 30
0.0
  0
POINT
  5
6BE
330
6B5
100
AcDbEntity
  8
DEFPOINTS
 62
     0
100
AcDbPoint
 10
275.0545539160844
 20
38.97416243028103
 30
0.0
  0
ENDBLK
  5
6C1
330
6B5
100
AcDbEntity
  8
0
100
AcDbBlockEnd
  0
BLOCK
  5
6D0
330
6C5
100
AcDbEntity
  8
0
100
AcDbBlockBegin
  2
*D5
 70
     1
 10
0.0
 20
0.0
 30
0.0
  3
*D5
  1

  0
LINE
  5
6C6
330
6C5
100
AcDbEntity
  8
KOTY
 62
     0
100
AcDbLine
 10
270.398992536556
 20
78.44154531075773
 30
0.0
 11
291.7139759897848
 21
78.44154531075773
 31
0.0
  0
LINE
  5
6C7
330
6C5
100
AcDbEntity
  8
KOTY
 62
     0
100
AcDbLine
 10
270.398992536556
 20
53.04152856085781
 30
0.0
 11
291.7139759897848
 21
53.04152856085781
 31
0.0
  0
LINE
  5
6C8
330
6C5
100
AcDbEntity
  8
KOTY
 62
     0
100
AcDbLine
 10
291.5339759897848
 20
73.44154531075773
 30
0.0
 11
291.5339759897848
 21
58.04152856085781
 31
0.0
  0
SOLID
  5
6C9
330
6C5
100
AcDbEntity
  8
KOTY
 62
     0
100
AcDbTrace
 10
292.3673093231181
 20
73.44154531075773
 30
0.0
 11
290.7006426564515
 21
73.44154531075773
 31
0.0
 12
291.5339759897848
 22
78.44154531075773
 32
0.0
 13
291.5339759897848
 23
78.44154531075773
 33
0.0
  0
SOLID
  5
6CA
330
6C5
100
AcDbEntity
  8
KOTY
 62
     0
100
AcDbTrace
 10
290.7006426564515
 20
58.04152856085781
 30
0.0
 11
292.3673093231181
 21
58.04152856085781
 31
0.0
 12
291.5339759897848
 22
53.04152856085781
 32
0.0
 13
291.5339759897848
 23
53.04152856085781
 33
0.0
  0
MTEXT
  5
6CB
330
6C5
100
AcDbEntity
  8
KOTY
 62
     0
100
AcDbMText
 10
286.9814759897848
 20
65.74153693580777
 30
0.0
 40
5.0
 41
0.0
 71
     5
 72
     1
  1
\A1;25
 11
0.0
 21
1.0
 31
0.0
  0
POINT
  5
6CC
330
6C5
100
AcDbEntity
  8
DEFPOINTS
 62
     0
100
AcDbPoint
 10
270.336492536556
 20
78.44154531075773
 30
0.0
  0
POINT
  5
6CD
330
6C5
100
AcDbEntity
  8
DEFPOINTS
 62
     0
100
AcDbPoint
 10
270.336492536556
 20
53.04152856085781
 30
0.0
  0
POINT
  5
6CE
330
6C5
100
AcDbEntity
  8
DEFPOINTS
 62
     0
100
AcDbPoint
 10
291.5339759897848
 20
53.04152856085781
 30
0.0
  0
ENDBLK
  5
6D1
330
6C5
100
AcDbEntity
  8
0
100
AcDbBlockEnd
  0
BLOCK
  5
6E0
330
6D5
100
AcDbEntity
  8
0
100
AcDbBlockBegin
  2
*D6
 70
     1
 10
0.0
 20
0.0
 30
0.0
  3
*D6
  1

  0
LINE
  5
6D6
330
6D5
100
AcDbEntity
  8
KOTY
 62
     0
100
AcDbLine
 10
275.0545539160844
 20
57.69708994038638
 30
0.0
 11
275.0545539160844
 21
18.48959053949551
 31
0.0
  0
LINE
  5
6D7
330
6D5
100
AcDbEntity
  8
KOTY
 62
     0
100
AcDbLine
 10
244.6405418892473
 20
65.14125717578996
 30
0.0
 11
244.6405418892473
 21
18.48959053949551
 31
0.0
  0
LINE
  5
6D8
330
6D5
100
AcDbEntity
  8
KOTY
 62
     0
100
AcDbLine
 10
270.0545539160844
 20
18.66959053949551
 30
0.0
 11
249.6405418892473
 21
18.66959053949551
 31
0.0
  0
SOLID
  5
6D9
330
6D5
100
AcDbEntity
  8
KOTY
 62
     0
100
AcDbTrace
 10
270.0545539160844
 20
17.83625720616217
 30
0.0
 11
270.0545539160844
 21
19.50292387282884
 31
0.0
 12
275.0545539160844
 22
18.66959053949551
 32
0.0
 13
275.0545539160844
 23
18.66959053949551
 33
0.0
  0
SOLID
  5
6DA
330
6D5
100
AcDbEntity
  8
KOTY
 62
     0
100
AcDbTrace
 10
249.6405418892473
 20
19.50292387282884
 30
0.0
 11
249.6405418892473
 21
17.83625720616217
 31
0.0
 12
244.6405418892473
 22
18.66959053949551
 32
0.0
 13
244.6405418892473
 23
18.66959053949551
 33
0.0
  0
MTEXT
  5
6DB
330
6D5
100
AcDbEntity
  8
KOTY
 62
     0
100
AcDbMText
 10
259.8475479026658
 20
23.2220905394955
 30
0.0
 40
5.0
 41
0.0
 71
     5
 72
     1
  1
\A1;30
  0
POINT
  5
6DC
330
6D5
100
AcDbEntity
  8
DEFPOINTS
 62
     0
100
AcDbPoint
 10
275.0545539160844
 20
57.75958994038638
 30
0.0
  0
POINT
  5
6DD
330
6D5
100
AcDbEntity
  8
DEFPOINTS
 62
     0
100
AcDbPoint
 10
244.6405418892473
 20
65.20375717578996
 30
0.0
  0
POINT
  5
6DE
330
6D5
100
AcDbEntity
  8
DEFPOINTS
 62
     0
100
AcDbPoint
 10
244.6405418892473
 20
18.66959053949551
 30
0.0
  0
ENDBLK
  5
6E1
330
6D5
100
AcDbEntity
  8
0
100
AcDbBlockEnd
  0
ENDSEC
  0
SECTION
  2
ENTITIES
  0
LINE
  5
3E7
330
1F
100
AcDbEntity
  8
OBRYS
100
AcDbLine
 10
186.2000236562436
 20
123.9182137549552
 30
0.0
 11
186.0921920964195
 21
123.9182137549552
 31
0.0
  0
LINE
  5
3E8
330
1F
100
AcDbEntity
  8
OBRYS
100
AcDbLine
 10
201.8920994339834
 20
124.618257619373
 30
0.0
 11
186.0921920964195
 21
124.618257619373
 31
0.0
  0
LINE
  5
3E9
330
1F
100
AcDbEntity
  8
OBRYS
100
AcDbLine
 10
201.5348427964828
 20
124.9183256340915
 30
0.0
 11
186.449793243696
 21
124.9183256340915
 31
0.0
  0
LINE
  5
3EA
330
1F
100
AcDbEntity
  8
OBRYS
100
AcDbLine
 10
186.449793243696
 20
124.9183256340915
 30
0.0
 11
186.0921920964195
 21
124.618257619373
 31
0.0
  0
LINE
  5
3EB
330
1F
100
AcDbEntity
  8
OBRYS
100
AcDbLine
 10
201.8920994339834
 20
124.618257619373
 30
0.0
 11
201.5348427964828
 21
124.9183256340915
 31
0.0
  0
LINE
  5
3EC
330
1F
100
AcDbEntity
  8
OBRYS
100
AcDbLine
 10
201.8920994339834
 20
123.9182137549552
 30
0.0
 11
186.0921920964195
 21
123.9182137549552
 31
0.0
  0
LINE
  5
3ED
330
1F
100
AcDbEntity
  8
OBRYS
100
AcDbLine
 10
186.0921920964195
 20
124.618257619373
 30
0.0
 11
186.0921920964195
 21
96.4521718796056
 31
0.0
  0
LINE
  5
3EE
330
1F
100
AcDbEntity
  8
OBRYS
100
AcDbLine
 10
201.8920994339834
 20
96.4521718796056
 30
0.0
 11
201.8920994339834
 21
124.618257619373
 31
0.0
  0
LINE
  5
3EF
330
1F
100
AcDbEntity
  8
OBRYS
100
AcDbLine
 10
180.5421396083433
 20
74.94132598866864
 30
0.0
 11
180.4618688305827
 21
75.24139400338711
 31
0.0
  0
LINE
  5
3F0
330
1F
100
AcDbEntity
  8
OBRYS
100
AcDbLine
 10
180.4618688305827
 20
56.24133535845261
 30
0.0
 11
180.5421396083433
 21
56.54140337317107
 31
0.0
  0
LINE
  5
3F1
330
1F
100
AcDbEntity
  8
OBRYS
100
AcDbLine
 10
177.1225355737905
 20
56.24133535845261
 30
0.0
 11
180.4618688305827
 21
56.24133535845261
 31
0.0
  0
LINE
  5
3F2
330
1F
100
AcDbEntity
  8
OBRYS
100
AcDbLine
 10
177.04226479603
 20
56.54140337317107
 30
0.0
 11
177.1225355737905
 21
56.24133535845261
 31
0.0
  0
LINE
  5
3F3
330
1F
100
AcDbEntity
  8
OBRYS
100
AcDbLine
 10
177.1225355737905
 20
75.24139400338711
 30
0.0
 11
177.04226479603
 21
74.94132598866864
 31
0.0
  0
LINE
  5
3F4
330
1F
100
AcDbEntity
  8
OBRYS
100
AcDbLine
 10
162.0557450391208
 20
73.33487690413111
 30
0.0
 11
161.9954558283565
 21
73.43960787597314
 31
0.0
  0
LINE
  5
3F5
330
1F
100
AcDbEntity
  8
OBRYS
100
AcDbLine
 10
172.1471253917422
 20
73.67904217015149
 30
0.0
 11
171.9452426631257
 21
73.33487690413111
 31
0.0
  0
LINE
  5
3F6
330
1F
100
AcDbEntity
  8
OBRYS
100
AcDbLine
 10
170.5224172890875
 20
73.33487690413111
 30
0.0
 11
170.3208790702467
 21
73.67904217015149
 31
0.0
  0
LINE
  5
3F7
330
1F
100
AcDbEntity
  8
OBRYS
100
AcDbLine
 10
162.6221191105298
 20
73.67904217015149
 30
0.0
 11
162.4202363819132
 21
73.33487690413111
 31
0.0
  0
LINE
  5
3F8
330
1F
100
AcDbEntity
  8
OBRYS
100
AcDbLine
 10
176.8724214765625
 20
73.33487690413111
 30
0.0
 11
176.6708832577217
 21
73.67904217015149
 31
0.0
  0
LINE
  5
3F9
330
1F
100
AcDbEntity
  8
OBRYS
100
AcDbLine
 10
168.9721232980047
 20
73.67904217015149
 30
0.0
 11
168.7674844911818
 21
73.32970925749419
 31
0.0
  0
LINE
  5
3FA
330
1F
100
AcDbEntity
  8
OBRYS
100
AcDbLine
 10
174.2637934542339
 20
73.67904217015149
 30
0.0
 11
174.0619107256173
 21
73.33487690413111
 31
0.0
  0
LINE
  5
3FB
330
1F
100
AcDbEntity
  8
OBRYS
100
AcDbLine
 10
165.2307471328583
 20
73.33487690413111
 30
0.0
 11
165.0292089140176
 21
73.67904217015149
 31
0.0
  0
LINE
  5
3FC
330
1F
100
AcDbEntity
  8
OBRYS
100
AcDbLine
 10
162.383373835903
 20
57.80403170146403
 30
0.0
 11
162.5849824530889
 21
58.1478524577086
 31
0.0
  0
LINE
  5
3FD
330
1F
100
AcDbEntity
  8
OBRYS
100
AcDbLine
 10
170.8500460858696
 20
57.80403170146403
 30
0.0
 11
171.0515843047104
 21
58.1478524577086
 31
0.0
  0
LINE
  5
3FE
330
1F
100
AcDbEntity
  8
OBRYS
100
AcDbLine
 10
171.9083801171155
 20
57.80403170146403
 30
0.0
 11
172.1099887343013
 21
58.1478524577086
 31
0.0
  0
LINE
  5
3FF
330
1F
100
AcDbEntity
  8
OBRYS
100
AcDbLine
 10
168.2410735537653
 20
58.1478524577086
 30
0.0
 11
168.4429562823817
 21
57.80403170146403
 31
0.0
  0
LINE
  5
400
330
1F
100
AcDbEntity
  8
OBRYS
100
AcDbLine
 10
163.6804531417756
 20
73.67904217015149
 30
0.0
 11
163.478570413159
 21
73.33487690413111
 31
0.0
  0
LINE
  5
401
330
1F
100
AcDbEntity
  8
OBRYS
100
AcDbLine
 10
175.083382210853
 20
57.80403170146403
 30
0.0
 11
175.2849908280388
 21
58.1478524577086
 31
0.0
  0
LINE
  5
402
330
1F
100
AcDbEntity
  8
OBRYS
100
AcDbLine
 10
176.1417162420988
 20
57.80403170146403
 30
0.0
 11
176.3433248592846
 21
58.1478524577086
 31
0.0
  0
LINE
  5
403
330
1F
100
AcDbEntity
  8
OBRYS
100
AcDbLine
 10
176.7077458037319
 20
58.1478524577086
 30
0.0
 11
176.9096285323485
 21
57.80403170146403
 31
0.0
  0
LINE
  5
404
330
1F
100
AcDbEntity
  8
OBRYS
100
AcDbLine
 10
164.7387871730214
 20
73.67904217015149
 30
0.0
 11
164.5369044444049
 21
73.33487690413111
 31
0.0
  0
LINE
  5
405
330
1F
100
AcDbEntity
  8
OBRYS
100
AcDbLine
 10
174.0250481796072
 20
57.80403170146403
 30
0.0
 11
174.2266567967931
 21
58.1478524577086
 31
0.0
  0
LINE
  5
406
330
1F
100
AcDbEntity
  8
OBRYS
100
AcDbLine
 10
171.4160756475027
 20
58.1478524577086
 30
0.0
 11
171.6179583761193
 21
57.80403170146403
 31
0.0
  0
LINE
  5
407
330
1F
100
AcDbEntity
  8
OBRYS
100
AcDbLine
 10
171.5807513203333
 20
73.33487690413111
 30
0.0
 11
171.3792131014926
 21
73.67904217015149
 31
0.0
  0
LINE
  5
408
330
1F
100
AcDbEntity
  8
OBRYS
100
AcDbLine
 10
165.5583759296404
 20
57.80403170146403
 30
0.0
 11
165.7599845468262
 21
58.1478524577086
 31
0.0
  0
LINE
  5
409
330
1F
100
AcDbEntity
  8
OBRYS
100
AcDbLine
 10
174.7557534140708
 20
73.33487690413111
 30
0.0
 11
174.5542151952299
 21
73.67904217015149
 31
0.0
  0
LINE
  5
40A
330
1F
100
AcDbEntity
  8
OBRYS
100
AcDbLine
 10
172.9667141483613
 20
57.80403170146403
 30
0.0
 11
173.1682523672021
 21
58.1478524577086
 31
0.0
  0
LINE
  5
40B
330
1F
100
AcDbEntity
  8
OBRYS
100
AcDbLine
 10
169.2994075850111
 20
58.1478524577086
 30
0.0
 11
169.5012903136275
 21
57.80403170146403
 31
0.0
  0
LINE
  5
40C
330
1F
100
AcDbEntity
  8
OBRYS
100
AcDbLine
 10
167.9137892667589
 20
73.67904217015149
 30
0.0
 11
167.7119065381422
 21
73.33487690413111
 31
0.0
  0
LINE
  5
40D
330
1F
100
AcDbEntity
  8
OBRYS
100
AcDbLine
 10
161.9954558283565
 20
73.43960787597314
 30
0.0
 11
161.2096290297654
 21
72.65860421424324
 31
0.0
  0
LINE
  5
40E
330
1F
100
AcDbEntity
  8
OBRYS
100
AcDbLine
 10
172.4744096787486
 20
58.1478524577086
 30
0.0
 11
172.6762924073651
 21
57.80403170146403
 31
0.0
  0
LINE
  5
40F
330
1F
100
AcDbEntity
  8
OBRYS
100
AcDbLine
 10
166.6167099608863
 20
57.80403170146403
 30
0.0
 11
166.8182481797271
 21
58.1478524577086
 31
0.0
  0
LINE
  5
410
330
1F
100
AcDbEntity
  8
OBRYS
100
AcDbLine
 10
165.7971212042671
 20
73.67904217015149
 30
0.0
 11
165.5952384756507
 21
73.33487690413111
 31
0.0
  0
LINE
  5
411
330
1F
100
AcDbEntity
  8
OBRYS
100
AcDbLine
 10
166.8554552355131
 20
73.67904217015149
 30
0.0
 11
166.6535725068965
 21
73.33487690413111
 31
0.0
  0
LINE
  5
412
330
1F
100
AcDbEntity
  8
OBRYS
100
AcDbLine
 10
176.3804615167255
 20
73.67904217015149
 30
0.0
 11
176.178578788109
 21
73.33487690413111
 31
0.0
  0
LINE
  5
413
330
1F
100
AcDbEntity
  8
OBRYS
100
AcDbLine
 10
169.7917120546238
 20
57.80403170146403
 30
0.0
 11
169.9933206718096
 21
58.1478524577086
 31
0.0
  0
LINE
  5
414
330
1F
100
AcDbEntity
  8
OBRYS
100
AcDbLine
 10
164.0077374287819
 20
58.1478524577086
 30
0.0
 11
164.2096201573985
 21
57.80403170146403
 31
0.0
  0
LINE
  5
415
330
1F
100
AcDbEntity
  8
OBRYS
100
AcDbLine
 10
173.205459422988
 20
73.67904217015149
 30
0.0
 11
173.1000394315944
 21
73.50196414539226
 31
0.0
  0
LINE
  5
416
330
1F
100
AcDbEntity
  8
OBRYS
100
AcDbLine
 10
173.1000394315944
 20
73.50196414539226
 30
0.0
 11
173.0035766943714
 21
73.33487690413111
 31
0.0
  0
LINE
  5
417
330
1F
100
AcDbEntity
  8
OBRYS
100
AcDbLine
 10
162.9494033975361
 20
58.1478524577086
 30
0.0
 11
163.1512861261527
 21
57.80403170146403
 31
0.0
  0
LINE
  5
418
330
1F
100
AcDbEntity
  8
OBRYS
100
AcDbLine
 10
164.1724131016125
 20
73.33487690413111
 30
0.0
 11
163.9708748827717
 21
73.67904217015149
 31
0.0
  0
LINE
  5
419
330
1F
100
AcDbEntity
  8
OBRYS
100
AcDbLine
 10
166.6535725068965
 20
73.33487690413111
 30
0.0
 11
166.2890811641041
 21
73.33487690413111
 31
0.0
  0
LINE
  5
41A
330
1F
100
AcDbEntity
  8
OBRYS
100
AcDbLine
 10
174.5542151952299
 20
73.67904217015149
 30
0.0
 11
174.2637934542339
 21
73.67904217015149
 31
0.0
  0
LINE
  5
41B
330
1F
100
AcDbEntity
  8
OBRYS
100
AcDbLine
 10
177.04226479603
 20
73.33487690413111
 30
0.0
 11
176.8724214765625
 21
73.33487690413111
 31
0.0
  0
LINE
  5
41C
330
1F
100
AcDbEntity
  8
OBRYS
100
AcDbLine
 10
176.178578788109
 20
73.33487690413111
 30
0.0
 11
175.8140874453167
 21
73.33487690413111
 31
0.0
  0
LINE
  5
41D
330
1F
100
AcDbEntity
  8
OBRYS
100
AcDbLine
 10
168.7702405693882
 20
73.33487690413111
 30
0.0
 11
168.4057492265958
 21
73.33487690413111
 31
0.0
  0
LINE
  5
41E
330
1F
100
AcDbEntity
  8
OBRYS
100
AcDbLine
 10
170.8869086318799
 20
73.33487690413111
 30
0.0
 11
170.5224172890875
 21
73.33487690413111
 31
0.0
  0
LINE
  5
41F
330
1F
100
AcDbEntity
  8
OBRYS
100
AcDbLine
 10
162.5849120547438
 20
58.1478524577086
 30
0.0
 11
162.9494033975361
 21
58.1478524577086
 31
0.0
  0
LINE
  5
420
330
1F
100
AcDbEntity
  8
OBRYS
100
AcDbLine
 10
171.0515843047104
 20
58.1478524577086
 30
0.0
 11
171.4160756475027
 21
58.1478524577086
 31
0.0
  0
LINE
  5
421
330
1F
100
AcDbEntity
  8
OBRYS
100
AcDbLine
 10
162.9125408515258
 20
73.67904217015149
 30
0.0
 11
162.6221191105298
 21
73.67904217015149
 31
0.0
  0
LINE
  5
422
330
1F
100
AcDbEntity
  8
OBRYS
100
AcDbLine
 10
169.2625450390009
 20
73.67904217015149
 30
0.0
 11
168.9721232980047
 21
73.67904217015149
 31
0.0
  0
LINE
  5
423
330
1F
100
AcDbEntity
  8
OBRYS
100
AcDbLine
 10
169.828574600634
 20
73.33487690413111
 30
0.0
 11
169.4640832578417
 21
73.33487690413111
 31
0.0
  0
LINE
  5
424
330
1F
100
AcDbEntity
  8
OBRYS
100
AcDbLine
 10
163.1140790703667
 20
73.33487690413111
 30
0.0
 11
162.9183975177144
 21
73.67387452351454
 31
0.0
  0
LINE
  5
425
330
1F
100
AcDbEntity
  8
OBRYS
100
AcDbLine
 10
175.3221274854797
 20
73.67904217015149
 30
0.0
 11
175.1202447568631
 21
73.33487690413111
 31
0.0
  0
LINE
  5
426
330
1F
100
AcDbEntity
  8
OBRYS
100
AcDbLine
 10
162.0529889609145
 20
73.33487690413111
 30
0.0
 11
162.0522999413629
 21
73.33487690413111
 31
0.0
  0
LINE
  5
427
330
1F
100
AcDbEntity
  8
OBRYS
100
AcDbLine
 10
162.4202363819132
 20
73.33487690413111
 30
0.0
 11
162.0529889609145
 21
73.33487690413111
 31
0.0
  0
LINE
  5
428
330
1F
100
AcDbEntity
  8
OBRYS
100
AcDbLine
 10
169.4640832578417
 20
73.33487690413111
 30
0.0
 11
169.2625450390009
 21
73.67904217015149
 31
0.0
  0
LINE
  5
429
330
1F
100
AcDbEntity
  8
OBRYS
100
AcDbLine
 10
166.0875429452634
 20
73.67904217015149
 30
0.0
 11
165.7971212042671
 21
73.67904217015149
 31
0.0
  0
LINE
  5
42A
330
1F
100
AcDbEntity
  8
OBRYS
100
AcDbLine
 10
166.2890811641041
 20
73.33487690413111
 30
0.0
 11
166.0875429452634
 21
73.67904217015149
 31
0.0
  0
LINE
  5
42B
330
1F
100
AcDbEntity
  8
OBRYS
100
AcDbLine
 10
160.926441994061
 20
72.54147089047254
 30
0.0
 11
160.0920393170827
 21
72.54147089047254
 31
0.0
  0
LINE
  5
42C
330
1F
100
AcDbEntity
  8
OBRYS
100
AcDbLine
 10
167.34741519535
 20
73.33487690413111
 30
0.0
 11
167.1517336426978
 21
73.67387452351454
 31
0.0
  0
LINE
  5
42D
330
1F
100
AcDbEntity
  8
OBRYS
100
AcDbLine
 10
163.1512861261527
 20
57.80403170146403
 30
0.0
 11
163.4417078671488
 21
57.80403170146403
 31
0.0
  0
LINE
  5
42E
330
1F
100
AcDbEntity
  8
OBRYS
100
AcDbLine
 10
164.5369044444049
 20
73.33487690413111
 30
0.0
 11
164.1696570234062
 21
73.33487690413111
 31
0.0
  0
LINE
  5
42F
330
1F
100
AcDbEntity
  8
OBRYS
100
AcDbLine
 10
172.1099183359563
 20
58.1478524577086
 30
0.0
 11
172.4744096787486
 21
58.1478524577086
 31
0.0
  0
LINE
  5
430
330
1F
100
AcDbEntity
  8
OBRYS
100
AcDbLine
 10
174.0619107256173
 20
73.33487690413111
 30
0.0
 11
173.697419382825
 21
73.33487690413111
 31
0.0
  0
LINE
  5
431
330
1F
100
AcDbEntity
  8
OBRYS
100
AcDbLine
 10
165.5952384756507
 20
73.33487690413111
 30
0.0
 11
165.2307471328583
 21
73.33487690413111
 31
0.0
  0
LINE
  5
432
330
1F
100
AcDbEntity
  8
OBRYS
100
AcDbLine
 10
167.8765822109729
 20
58.1478524577086
 30
0.0
 11
168.2441741417474
 21
58.1478524577086
 31
0.0
  0
LINE
  5
433
330
1F
100
AcDbEntity
  8
OBRYS
100
AcDbLine
 10
167.1458769765092
 20
73.67904217015149
 30
0.0
 11
166.8554552355131
 21
73.67904217015149
 31
0.0
  0
LINE
  5
434
330
1F
100
AcDbEntity
  8
OBRYS
100
AcDbLine
 10
176.6708832577217
 20
73.67904217015149
 30
0.0
 11
176.3804615167255
 21
73.67904217015149
 31
0.0
  0
LINE
  5
435
330
1F
100
AcDbEntity
  8
OBRYS
100
AcDbLine
 10
175.6125492264759
 20
73.67904217015149
 30
0.0
 11
175.3221274854797
 21
73.67904217015149
 31
0.0
  0
LINE
  5
436
330
1F
100
AcDbEntity
  8
OBRYS
100
AcDbLine
 10
175.8140874453167
 20
73.33487690413111
 30
0.0
 11
175.6125492264759
 21
73.67904217015149
 31
0.0
  0
LINE
  5
437
330
1F
100
AcDbEntity
  8
OBRYS
100
AcDbLine
 10
160.0920393170827
 20
58.94125847136718
 30
0.0
 11
160.926441994061
 21
58.94125847136718
 31
0.0
  0
LINE
  5
438
330
1F
100
AcDbEntity
  8
OBRYS
100
AcDbLine
 10
163.6432460859895
 20
58.1478524577086
 30
0.0
 11
164.0077374287819
 21
58.1478524577086
 31
0.0
  0
LINE
  5
439
330
1F
100
AcDbEntity
  8
OBRYS
100
AcDbLine
 10
164.5000418983946
 20
57.80403170146403
 30
0.0
 11
164.7016505155805
 21
58.1478524577086
 31
0.0
  0
LINE
  5
43A
330
1F
100
AcDbEntity
  8
OBRYS
100
AcDbLine
 10
163.4417078671488
 20
57.80403170146403
 30
0.0
 11
163.6433164843347
 21
58.1478524577086
 31
0.0
  0
LINE
  5
43B
330
1F
100
AcDbEntity
  8
OBRYS
100
AcDbLine
 10
161.2096290297654
 20
58.8241251475965
 30
0.0
 11
162.2297224758979
 21
57.80403170146403
 31
0.0
  0
LINE
  5
43C
330
1F
100
AcDbEntity
  8
OBRYS
100
AcDbLine
 10
161.8855572098776
 20
62.26302172959384
 30
0.0
 11
161.8855572098776
 21
58.1478524577086
 31
0.0
  0
LINE
  5
43D
330
1F
100
AcDbEntity
  8
OBRYS
100
AcDbLine
 10
166.1244054912736
 20
58.1478524577086
 30
0.0
 11
166.3262882198902
 21
57.80403170146403
 31
0.0
  0
LINE
  5
43E
330
1F
100
AcDbEntity
  8
OBRYS
100
AcDbLine
 10
163.478570413159
 20
73.33487690413111
 30
0.0
 11
163.1140790703667
 21
73.33487690413111
 31
0.0
  0
LINE
  5
43F
330
1F
100
AcDbEntity
  8
OBRYS
100
AcDbLine
 10
170.3208790702467
 20
73.67904217015149
 30
0.0
 11
170.0304573292506
 21
73.67904217015149
 31
0.0
  0
LINE
  5
440
330
1F
100
AcDbEntity
  8
OBRYS
100
AcDbLine
 10
166.8182481797271
 20
58.1478524577086
 30
0.0
 11
167.1827395225195
 21
58.1478524577086
 31
0.0
  0
LINE
  5
441
330
1F
100
AcDbEntity
  8
OBRYS
100
AcDbLine
 10
176.9096285323485
 20
57.80403170146403
 30
0.0
 11
177.04226479603
 21
57.80403170146403
 31
0.0
  0
LINE
  5
442
330
1F
100
AcDbEntity
  8
OBRYS
100
AcDbLine
 10
175.8512945011026
 20
57.80403170146403
 30
0.0
 11
176.1417162420988
 21
57.80403170146403
 31
0.0
  0
LINE
  5
443
330
1F
100
AcDbEntity
  8
OBRYS
100
AcDbLine
 10
170.0304573292506
 20
73.67904217015149
 30
0.0
 11
169.828574600634
 21
73.33487690413111
 31
0.0
  0
LINE
  5
444
330
1F
100
AcDbEntity
  8
OBRYS
100
AcDbLine
 10
162.2297224758979
 20
57.80403170146403
 30
0.0
 11
162.383373835903
 21
57.80403170146403
 31
0.0
  0
LINE
  5
445
330
1F
100
AcDbEntity
  8
OBRYS
100
AcDbLine
 10
176.3432544609394
 20
58.1478524577086
 30
0.0
 11
176.7077458037319
 21
58.1478524577086
 31
0.0
  0
LINE
  5
446
330
1F
100
AcDbEntity
  8
OBRYS
100
AcDbLine
 10
175.649411772486
 20
58.1478524577086
 30
0.0
 11
175.8512945011026
 21
57.80403170146403
 31
0.0
  0
LINE
  5
447
330
1F
100
AcDbEntity
  8
OBRYS
100
AcDbLine
 10
175.2849204296936
 20
58.1478524577086
 30
0.0
 11
175.649411772486
 21
58.1478524577086
 31
0.0
  0
LINE
  5
448
330
1F
100
AcDbEntity
  8
OBRYS
100
AcDbLine
 10
168.204211007755
 20
73.67904217015149
 30
0.0
 11
167.9137892667589
 21
73.67904217015149
 31
0.0
  0
LINE
  5
449
330
1F
100
AcDbEntity
  8
OBRYS
100
AcDbLine
 10
167.6750439921321
 20
57.80403170146403
 30
0.0
 11
167.8765822109729
 21
58.1478524577086
 31
0.0
  0
LINE
  5
44A
330
1F
100
AcDbEntity
  8
OBRYS
100
AcDbLine
 10
168.4057492265958
 20
73.33487690413111
 30
0.0
 11
168.204211007755
 21
73.67904217015149
 31
0.0
  0
LINE
  5
44B
330
1F
100
AcDbEntity
  8
OBRYS
100
AcDbLine
 10
165.0292089140176
 20
73.67904217015149
 30
0.0
 11
164.7387871730214
 21
73.67904217015149
 31
0.0
  0
LINE
  5
44C
330
1F
100
AcDbEntity
  8
OBRYS
100
AcDbLine
 10
174.7929604698568
 20
57.80403170146403
 30
0.0
 11
175.083382210853
 21
57.80403170146403
 31
0.0
  0
LINE
  5
44D
330
1F
100
AcDbEntity
  8
OBRYS
100
AcDbLine
 10
173.0035766943714
 20
73.33487690413111
 30
0.0
 11
172.6390853515791
 21
73.33487690413111
 31
0.0
  0
LINE
  5
44E
330
1F
100
AcDbEntity
  8
OBRYS
100
AcDbLine
 10
174.2265863984479
 20
58.1478524577086
 30
0.0
 11
174.5910777412403
 21
58.1478524577086
 31
0.0
  0
LINE
  5
44F
330
1F
100
AcDbEntity
  8
OBRYS
100
AcDbLine
 10
174.5910777412403
 20
58.1478524577086
 30
0.0
 11
174.7929604698568
 21
57.80403170146403
 31
0.0
  0
LINE
  5
450
330
1F
100
AcDbEntity
  8
OBRYS
100
AcDbLine
 10
171.6179583761193
 20
57.80403170146403
 30
0.0
 11
171.9083801171155
 21
57.80403170146403
 31
0.0
  0
LINE
  5
451
330
1F
100
AcDbEntity
  8
OBRYS
100
AcDbLine
 10
165.2679541886443
 20
57.80403170146403
 30
0.0
 11
165.5583759296404
 21
57.80403170146403
 31
0.0
  0
LINE
  5
452
330
1F
100
AcDbEntity
  8
OBRYS
100
AcDbLine
 10
165.7599141484812
 20
58.1478524577086
 30
0.0
 11
166.1244054912736
 21
58.1478524577086
 31
0.0
  0
LINE
  5
453
330
1F
100
AcDbEntity
  8
OBRYS
100
AcDbLine
 10
171.9452426631257
 20
73.33487690413111
 30
0.0
 11
171.5807513203333
 21
73.33487690413111
 31
0.0
  0
LINE
  5
454
330
1F
100
AcDbEntity
  8
OBRYS
100
AcDbLine
 10
175.1202447568631
 20
73.33487690413111
 30
0.0
 11
174.7557534140708
 21
73.33487690413111
 31
0.0
  0
LINE
  5
455
330
1F
100
AcDbEntity
  8
OBRYS
100
AcDbLine
 10
168.733378023378
 20
57.80403170146403
 30
0.0
 11
168.9349162422187
 21
58.1478524577086
 31
0.0
  0
LINE
  5
456
330
1F
100
AcDbEntity
  8
OBRYS
100
AcDbLine
 10
168.9349162422187
 20
58.1478524577086
 30
0.0
 11
169.2994075850111
 21
58.1478524577086
 31
0.0
  0
LINE
  5
457
330
1F
100
AcDbEntity
  8
OBRYS
100
AcDbLine
 10
168.4429562823817
 20
57.80403170146403
 30
0.0
 11
168.733378023378
 21
57.80403170146403
 31
0.0
  0
LINE
  5
458
330
1F
100
AcDbEntity
  8
OBRYS
100
AcDbLine
 10
170.5596243448735
 20
57.80403170146403
 30
0.0
 11
170.8500460858696
 21
57.80403170146403
 31
0.0
  0
LINE
  5
459
330
1F
100
AcDbEntity
  8
OBRYS
100
AcDbLine
 10
169.9932502734646
 20
58.1478524577086
 30
0.0
 11
170.3577416162568
 21
58.1478524577086
 31
0.0
  0
LINE
  5
45A
330
1F
100
AcDbEntity
  8
OBRYS
100
AcDbLine
 10
170.3577416162568
 20
58.1478524577086
 30
0.0
 11
170.5596243448735
 21
57.80403170146403
 31
0.0
  0
LINE
  5
45B
330
1F
100
AcDbEntity
  8
OBRYS
100
AcDbLine
 10
173.697419382825
 20
73.33487690413111
 30
0.0
 11
173.4958811639842
 21
73.67904217015149
 31
0.0
  0
LINE
  5
45C
330
1F
100
AcDbEntity
  8
OBRYS
100
AcDbLine
 10
173.7346264386109
 20
57.80403170146403
 30
0.0
 11
174.0250481796072
 21
57.80403170146403
 31
0.0
  0
LINE
  5
45D
330
1F
100
AcDbEntity
  8
OBRYS
100
AcDbLine
 10
173.5327437099944
 20
58.1478524577086
 30
0.0
 11
173.7346264386109
 21
57.80403170146403
 31
0.0
  0
LINE
  5
45E
330
1F
100
AcDbEntity
  8
OBRYS
100
AcDbLine
 10
173.1682523672021
 20
58.1478524577086
 30
0.0
 11
173.5327437099944
 21
58.1478524577086
 31
0.0
  0
LINE
  5
45F
330
1F
100
AcDbEntity
  8
OBRYS
100
AcDbLine
 10
167.1827395225195
 20
58.1478524577086
 30
0.0
 11
167.384622251136
 21
57.80403170146403
 31
0.0
  0
LINE
  5
460
330
1F
100
AcDbEntity
  8
OBRYS
100
AcDbLine
 10
165.0660714600278
 20
58.1478524577086
 30
0.0
 11
165.2679541886443
 21
57.80403170146403
 31
0.0
  0
LINE
  5
461
330
1F
100
AcDbEntity
  8
OBRYS
100
AcDbLine
 10
164.7015801172354
 20
58.1478524577086
 30
0.0
 11
165.0660714600278
 21
58.1478524577086
 31
0.0
  0
LINE
  5
462
330
1F
100
AcDbEntity
  8
OBRYS
100
AcDbLine
 10
167.384622251136
 20
57.80403170146403
 30
0.0
 11
167.6750439921321
 21
57.80403170146403
 31
0.0
  0
LINE
  5
463
330
1F
100
AcDbEntity
  8
OBRYS
100
AcDbLine
 10
169.5012903136275
 20
57.80403170146403
 30
0.0
 11
169.7917120546238
 21
57.80403170146403
 31
0.0
  0
LINE
  5
464
330
1F
100
AcDbEntity
  8
OBRYS
100
AcDbLine
 10
171.3792131014926
 20
73.67904217015149
 30
0.0
 11
171.0887913604963
 21
73.67904217015149
 31
0.0
  0
LINE
  5
465
330
1F
100
AcDbEntity
  8
OBRYS
100
AcDbLine
 10
171.0887913604963
 20
73.67904217015149
 30
0.0
 11
170.8869086318799
 21
73.33487690413111
 31
0.0
  0
LINE
  5
466
330
1F
100
AcDbEntity
  8
OBRYS
100
AcDbLine
 10
167.7119065381422
 20
73.33487690413111
 30
0.0
 11
167.34741519535
 21
73.33487690413111
 31
0.0
  0
LINE
  5
467
330
1F
100
AcDbEntity
  8
OBRYS
100
AcDbLine
 10
172.6762924073651
 20
57.80403170146403
 30
0.0
 11
172.9667141483613
 21
57.80403170146403
 31
0.0
  0
LINE
  5
468
330
1F
100
AcDbEntity
  8
OBRYS
100
AcDbLine
 10
166.3262882198902
 20
57.80403170146403
 30
0.0
 11
166.6167099608863
 21
57.80403170146403
 31
0.0
  0
LINE
  5
469
330
1F
100
AcDbEntity
  8
OBRYS
100
AcDbLine
 10
172.6390853515791
 20
73.33487690413111
 30
0.0
 11
172.4375471327384
 21
73.67904217015149
 31
0.0
  0
LINE
  5
46A
330
1F
100
AcDbEntity
  8
OBRYS
100
AcDbLine
 10
172.4375471327384
 20
73.67904217015149
 30
0.0
 11
172.1471253917422
 21
73.67904217015149
 31
0.0
  0
LINE
  5
46B
330
1F
100
AcDbEntity
  8
OBRYS
100
AcDbLine
 10
163.9708748827717
 20
73.67904217015149
 30
0.0
 11
163.6804531417756
 21
73.67904217015149
 31
0.0
  0
LINE
  5
46C
330
1F
100
AcDbEntity
  8
OBRYS
100
AcDbLine
 10
164.2096201573985
 20
57.80403170146403
 30
0.0
 11
164.5000418983946
 21
57.80403170146403
 31
0.0
  0
LINE
  5
46D
330
1F
100
AcDbEntity
  8
OBRYS
100
AcDbLine
 10
173.4958811639842
 20
73.67904217015149
 30
0.0
 11
173.205459422988
 21
73.67904217015149
 31
0.0
  0
LINE
  5
46E
330
1F
100
AcDbEntity
  8
OBRYS
100
AcDbLine
 10
161.8855572098776
 20
69.21970763224587
 30
0.0
 11
162.2441918864814
 21
69.21970763224587
 31
0.0
  0
LINE
  5
46F
330
1F
100
AcDbEntity
  8
OBRYS
100
AcDbLine
 10
160.0920393170827
 20
66.5645707901848
 30
0.0
 11
160.926441994061
 21
66.5645707901848
 31
0.0
  0
LINE
  5
470
330
1F
100
AcDbEntity
  8
OBRYS
100
AcDbLine
 10
160.926441994061
 20
64.91815857165491
 30
0.0
 11
160.0920393170827
 21
64.91815857165491
 31
0.0
  0
LINE
  5
471
330
1F
100
AcDbEntity
  8
OBRYS
100
AcDbLine
 10
162.0839948407361
 20
62.26302172959384
 30
0.0
 11
161.8855572098776
 21
62.26302172959384
 31
0.0
  0
LINE
  5
472
330
1F
100
AcDbEntity
  8
OBRYS
100
AcDbLine
 10
162.0839948407361
 20
62.26302172959384
 30
0.0
 11
162.2686520805629
 21
61.5650449238308
 31
0.0
  0
LINE
  5
473
330
1F
100
AcDbEntity
  8
OBRYS
100
AcDbLine
 10
162.2686520805629
 20
61.5650449238308
 30
0.0
 11
162.5501165673882
 21
61.5650449238308
 31
0.0
  0
LINE
  5
474
330
1F
100
AcDbEntity
  8
OBRYS
100
AcDbLine
 10
162.5501165673882
 20
61.5650449238308
 30
0.0
 11
162.7613010599514
 21
62.26302172959384
 31
0.0
  0
LINE
  5
475
330
1F
100
AcDbEntity
  8
OBRYS
100
AcDbLine
 10
163.142328871982
 20
62.26302172959384
 30
0.0
 11
162.7613010599514
 21
62.26302172959384
 31
0.0
  0
LINE
  5
476
330
1F
100
AcDbEntity
  8
OBRYS
100
AcDbLine
 10
163.142328871982
 20
62.26302172959384
 30
0.0
 11
163.3269861118087
 21
61.5650449238308
 31
0.0
  0
LINE
  5
477
330
1F
100
AcDbEntity
  8
OBRYS
100
AcDbLine
 10
163.3269861118087
 20
61.5650449238308
 30
0.0
 11
163.6084505986342
 21
61.5650449238308
 31
0.0
  0
LINE
  5
478
330
1F
100
AcDbEntity
  8
OBRYS
100
AcDbLine
 10
163.6084505986342
 20
61.5650449238308
 30
0.0
 11
163.8196350911973
 21
62.26302172959384
 31
0.0
  0
LINE
  5
479
330
1F
100
AcDbEntity
  8
OBRYS
100
AcDbLine
 10
164.2006629032278
 20
62.26302172959384
 30
0.0
 11
163.8196350911973
 21
62.26302172959384
 31
0.0
  0
LINE
  5
47A
330
1F
100
AcDbEntity
  8
OBRYS
100
AcDbLine
 10
164.2006629032278
 20
62.26302172959384
 30
0.0
 11
164.3853201430545
 21
61.5650449238308
 31
0.0
  0
LINE
  5
47B
330
1F
100
AcDbEntity
  8
OBRYS
100
AcDbLine
 10
164.3853201430545
 20
61.5650449238308
 30
0.0
 11
164.66678462988
 21
61.5650449238308
 31
0.0
  0
LINE
  5
47C
330
1F
100
AcDbEntity
  8
OBRYS
100
AcDbLine
 10
164.66678462988
 20
61.5650449238308
 30
0.0
 11
164.8779691224431
 21
62.26302172959384
 31
0.0
  0
LINE
  5
47D
330
1F
100
AcDbEntity
  8
OBRYS
100
AcDbLine
 10
165.2589969344736
 20
62.26302172959384
 30
0.0
 11
164.8779691224431
 21
62.26302172959384
 31
0.0
  0
LINE
  5
47E
330
1F
100
AcDbEntity
  8
OBRYS
100
AcDbLine
 10
165.2589969344736
 20
62.26302172959384
 30
0.0
 11
165.4436541743003
 21
61.5650449238308
 31
0.0
  0
LINE
  5
47F
330
1F
100
AcDbEntity
  8
OBRYS
100
AcDbLine
 10
165.4436541743003
 20
61.5650449238308
 30
0.0
 11
165.7251186611259
 21
61.5650449238308
 31
0.0
  0
LINE
  5
480
330
1F
100
AcDbEntity
  8
OBRYS
100
AcDbLine
 10
165.7251186611259
 20
61.5650449238308
 30
0.0
 11
165.9363031536889
 21
62.26302172959384
 31
0.0
  0
LINE
  5
481
330
1F
100
AcDbEntity
  8
OBRYS
100
AcDbLine
 10
166.3173309657195
 20
62.26302172959384
 30
0.0
 11
165.9363031536889
 21
62.26302172959384
 31
0.0
  0
LINE
  5
482
330
1F
100
AcDbEntity
  8
OBRYS
100
AcDbLine
 10
166.3173309657195
 20
62.26302172959384
 30
0.0
 11
166.5019882055462
 21
61.5650449238308
 31
0.0
  0
LINE
  5
483
330
1F
100
AcDbEntity
  8
OBRYS
100
AcDbLine
 10
166.5019882055462
 20
61.5650449238308
 30
0.0
 11
166.7834526923717
 21
61.5650449238308
 31
0.0
  0
LINE
  5
484
330
1F
100
AcDbEntity
  8
OBRYS
100
AcDbLine
 10
166.7834526923717
 20
61.5650449238308
 30
0.0
 11
166.9946371849346
 21
62.26302172959384
 31
0.0
  0
LINE
  5
485
330
1F
100
AcDbEntity
  8
OBRYS
100
AcDbLine
 10
167.3756649969653
 20
62.26302172959384
 30
0.0
 11
166.9946371849346
 21
62.26302172959384
 31
0.0
  0
LINE
  5
486
330
1F
100
AcDbEntity
  8
OBRYS
100
AcDbLine
 10
167.3756649969653
 20
62.26302172959384
 30
0.0
 11
167.560322236792
 21
61.5650449238308
 31
0.0
  0
LINE
  5
487
330
1F
100
AcDbEntity
  8
OBRYS
100
AcDbLine
 10
167.560322236792
 20
61.5650449238308
 30
0.0
 11
167.8417867236174
 21
61.5650449238308
 31
0.0
  0
LINE
  5
488
330
1F
100
AcDbEntity
  8
OBRYS
100
AcDbLine
 10
167.8417867236174
 20
61.5650449238308
 30
0.0
 11
168.0529712161805
 21
62.26302172959384
 31
0.0
  0
LINE
  5
489
330
1F
100
AcDbEntity
  8
OBRYS
100
AcDbLine
 10
168.433999028211
 20
62.26302172959384
 30
0.0
 11
168.0529712161805
 21
62.26302172959384
 31
0.0
  0
LINE
  5
48A
330
1F
100
AcDbEntity
  8
OBRYS
100
AcDbLine
 10
168.433999028211
 20
62.26302172959384
 30
0.0
 11
168.6186562680379
 21
61.5650449238308
 31
0.0
  0
LINE
  5
48B
330
1F
100
AcDbEntity
  8
OBRYS
100
AcDbLine
 10
168.6186562680379
 20
61.5650449238308
 30
0.0
 11
168.9001207548633
 21
61.5650449238308
 31
0.0
  0
LINE
  5
48C
330
1F
100
AcDbEntity
  8
OBRYS
100
AcDbLine
 10
168.9001207548633
 20
61.5650449238308
 30
0.0
 11
169.1113052474264
 21
62.26302172959384
 31
0.0
  0
LINE
  5
48D
330
1F
100
AcDbEntity
  8
OBRYS
100
AcDbLine
 10
169.4923330594569
 20
62.26302172959384
 30
0.0
 11
169.1113052474264
 21
62.26302172959384
 31
0.0
  0
LINE
  5
48E
330
1F
100
AcDbEntity
  8
OBRYS
100
AcDbLine
 10
169.4923330594569
 20
62.26302172959384
 30
0.0
 11
169.6769902992837
 21
61.5650449238308
 31
0.0
  0
LINE
  5
48F
330
1F
100
AcDbEntity
  8
OBRYS
100
AcDbLine
 10
169.6769902992837
 20
61.5650449238308
 30
0.0
 11
169.9584547861091
 21
61.5650449238308
 31
0.0
  0
LINE
  5
490
330
1F
100
AcDbEntity
  8
OBRYS
100
AcDbLine
 10
169.9584547861091
 20
61.5650449238308
 30
0.0
 11
170.1696392786722
 21
62.26302172959384
 31
0.0
  0
LINE
  5
491
330
1F
100
AcDbEntity
  8
OBRYS
100
AcDbLine
 10
170.5506670907028
 20
62.26302172959384
 30
0.0
 11
170.1696392786722
 21
62.26302172959384
 31
0.0
  0
LINE
  5
492
330
1F
100
AcDbEntity
  8
OBRYS
100
AcDbLine
 10
170.5506670907028
 20
62.26302172959384
 30
0.0
 11
170.7353243305295
 21
61.5650449238308
 31
0.0
  0
LINE
  5
493
330
1F
100
AcDbEntity
  8
OBRYS
100
AcDbLine
 10
170.7353243305295
 20
61.5650449238308
 30
0.0
 11
171.016788817355
 21
61.5650449238308
 31
0.0
  0
LINE
  5
494
330
1F
100
AcDbEntity
  8
OBRYS
100
AcDbLine
 10
171.016788817355
 20
61.5650449238308
 30
0.0
 11
171.227973309918
 21
62.26302172959384
 31
0.0
  0
LINE
  5
495
330
1F
100
AcDbEntity
  8
OBRYS
100
AcDbLine
 10
171.6090011219486
 20
62.26302172959384
 30
0.0
 11
171.227973309918
 21
62.26302172959384
 31
0.0
  0
LINE
  5
496
330
1F
100
AcDbEntity
  8
OBRYS
100
AcDbLine
 10
171.6090011219486
 20
62.26302172959384
 30
0.0
 11
171.7936583617752
 21
61.5650449238308
 31
0.0
  0
LINE
  5
497
330
1F
100
AcDbEntity
  8
OBRYS
100
AcDbLine
 10
171.7936583617752
 20
61.5650449238308
 30
0.0
 11
172.0751228486008
 21
61.5650449238308
 31
0.0
  0
LINE
  5
498
330
1F
100
AcDbEntity
  8
OBRYS
100
AcDbLine
 10
172.0751228486008
 20
61.5650449238308
 30
0.0
 11
172.2863073411638
 21
62.26302172959384
 31
0.0
  0
LINE
  5
499
330
1F
100
AcDbEntity
  8
OBRYS
100
AcDbLine
 10
172.6673351531944
 20
62.26302172959384
 30
0.0
 11
172.2863073411638
 21
62.26302172959384
 31
0.0
  0
LINE
  5
49A
330
1F
100
AcDbEntity
  8
OBRYS
100
AcDbLine
 10
172.6673351531944
 20
62.26302172959384
 30
0.0
 11
172.8519923930212
 21
61.5650449238308
 31
0.0
  0
LINE
  5
49B
330
1F
100
AcDbEntity
  8
OBRYS
100
AcDbLine
 10
172.8519923930212
 20
61.5650449238308
 30
0.0
 11
173.1334568798466
 21
61.5650449238308
 31
0.0
  0
LINE
  5
49C
330
1F
100
AcDbEntity
  8
OBRYS
100
AcDbLine
 10
173.1334568798466
 20
61.5650449238308
 30
0.0
 11
173.3446413724097
 21
62.26302172959384
 31
0.0
  0
LINE
  5
49D
330
1F
100
AcDbEntity
  8
OBRYS
100
AcDbLine
 10
173.7256691844402
 20
62.26302172959384
 30
0.0
 11
173.3446413724097
 21
62.26302172959384
 31
0.0
  0
LINE
  5
49E
330
1F
100
AcDbEntity
  8
OBRYS
100
AcDbLine
 10
173.7256691844402
 20
62.26302172959384
 30
0.0
 11
173.910326424267
 21
61.5650449238308
 31
0.0
  0
LINE
  5
49F
330
1F
100
AcDbEntity
  8
OBRYS
100
AcDbLine
 10
173.910326424267
 20
61.5650449238308
 30
0.0
 11
174.1917909110925
 21
61.5650449238308
 31
0.0
  0
LINE
  5
4A0
330
1F
100
AcDbEntity
  8
OBRYS
100
AcDbLine
 10
174.1917909110925
 20
61.5650449238308
 30
0.0
 11
174.4029754036555
 21
62.26302172959384
 31
0.0
  0
LINE
  5
4A1
330
1F
100
AcDbEntity
  8
OBRYS
100
AcDbLine
 10
174.7840032156861
 20
62.26302172959384
 30
0.0
 11
174.4029754036555
 21
62.26302172959384
 31
0.0
  0
LINE
  5
4A2
330
1F
100
AcDbEntity
  8
OBRYS
100
AcDbLine
 10
174.7840032156861
 20
62.26302172959384
 30
0.0
 11
174.9686604555129
 21
61.5650449238308
 31
0.0
  0
LINE
  5
4A3
330
1F
100
AcDbEntity
  8
OBRYS
100
AcDbLine
 10
174.9686604555129
 20
61.5650449238308
 30
0.0
 11
175.2501249423383
 21
61.5650449238308
 31
0.0
  0
LINE
  5
4A4
330
1F
100
AcDbEntity
  8
OBRYS
100
AcDbLine
 10
175.2501249423383
 20
61.5650449238308
 30
0.0
 11
175.4613094349014
 21
62.26302172959384
 31
0.0
  0
LINE
  5
4A5
330
1F
100
AcDbEntity
  8
OBRYS
100
AcDbLine
 10
175.8423372469319
 20
62.26302172959384
 30
0.0
 11
175.4613094349014
 21
62.26302172959384
 31
0.0
  0
LINE
  5
4A6
330
1F
100
AcDbEntity
  8
OBRYS
100
AcDbLine
 10
175.8423372469319
 20
62.26302172959384
 30
0.0
 11
176.0269944867587
 21
61.5650449238308
 31
0.0
  0
LINE
  5
4A7
330
1F
100
AcDbEntity
  8
OBRYS
100
AcDbLine
 10
176.0269944867587
 20
61.5650449238308
 30
0.0
 11
176.3084589735842
 21
61.5650449238308
 31
0.0
  0
LINE
  5
4A8
330
1F
100
AcDbEntity
  8
OBRYS
100
AcDbLine
 10
176.3084589735842
 20
61.5650449238308
 30
0.0
 11
176.5196434661472
 21
62.26302172959384
 31
0.0
  0
LINE
  5
4A9
330
1F
100
AcDbEntity
  8
OBRYS
100
AcDbLine
 10
176.9006712781778
 20
62.26302172959384
 30
0.0
 11
176.5196434661472
 21
62.26302172959384
 31
0.0
  0
LINE
  5
4AA
330
1F
100
AcDbEntity
  8
OBRYS
100
AcDbLine
 10
176.9006712781778
 20
62.26302172959384
 30
0.0
 11
177.04226479603
 21
61.71904079361169
 31
0.0
  0
LINE
  5
4AB
330
1F
100
AcDbEntity
  8
OBRYS
100
AcDbLine
 10
176.6794960021166
 20
69.21970763224587
 30
0.0
 11
177.04226479603
 21
69.21970763224587
 31
0.0
  0
LINE
  5
4AC
330
1F
100
AcDbEntity
  8
OBRYS
100
AcDbLine
 10
176.6794960021166
 20
69.21970763224587
 30
0.0
 11
176.4948387622898
 21
69.9176844380089
 31
0.0
  0
LINE
  5
4AD
330
1F
100
AcDbEntity
  8
OBRYS
100
AcDbLine
 10
176.4948387622898
 20
69.9176844380089
 30
0.0
 11
176.2137187852402
 21
69.9176844380089
 31
0.0
  0
LINE
  5
4AE
330
1F
100
AcDbEntity
  8
OBRYS
100
AcDbLine
 10
176.2137187852402
 20
69.9176844380089
 30
0.0
 11
176.0025342926771
 21
69.21970763224587
 31
0.0
  0
LINE
  5
4AF
330
1F
100
AcDbEntity
  8
OBRYS
100
AcDbLine
 10
175.6211619708708
 20
69.21970763224587
 30
0.0
 11
176.0025342926771
 21
69.21970763224587
 31
0.0
  0
LINE
  5
4B0
330
1F
100
AcDbEntity
  8
OBRYS
100
AcDbLine
 10
175.6211619708708
 20
69.21970763224587
 30
0.0
 11
175.4365047310441
 21
69.9176844380089
 31
0.0
  0
LINE
  5
4B1
330
1F
100
AcDbEntity
  8
OBRYS
100
AcDbLine
 10
175.4365047310441
 20
69.9176844380089
 30
0.0
 11
175.1553847539944
 21
69.9176844380089
 31
0.0
  0
LINE
  5
4B2
330
1F
100
AcDbEntity
  8
OBRYS
100
AcDbLine
 10
175.1553847539944
 20
69.9176844380089
 30
0.0
 11
174.9442002614313
 21
69.21970763224587
 31
0.0
  0
LINE
  5
4B3
330
1F
100
AcDbEntity
  8
OBRYS
100
AcDbLine
 10
174.562827939625
 20
69.21970763224587
 30
0.0
 11
174.9442002614313
 21
69.21970763224587
 31
0.0
  0
LINE
  5
4B4
330
1F
100
AcDbEntity
  8
OBRYS
100
AcDbLine
 10
174.562827939625
 20
69.21970763224587
 30
0.0
 11
174.3781706997982
 21
69.9176844380089
 31
0.0
  0
LINE
  5
4B5
330
1F
100
AcDbEntity
  8
OBRYS
100
AcDbLine
 10
174.3781706997982
 20
69.9176844380089
 30
0.0
 11
174.0970507227485
 21
69.9176844380089
 31
0.0
  0
LINE
  5
4B6
330
1F
100
AcDbEntity
  8
OBRYS
100
AcDbLine
 10
174.0970507227485
 20
69.9176844380089
 30
0.0
 11
173.8858662301855
 21
69.21970763224587
 31
0.0
  0
LINE
  5
4B7
330
1F
100
AcDbEntity
  8
OBRYS
100
AcDbLine
 10
173.5044939083791
 20
69.21970763224587
 30
0.0
 11
173.8858662301855
 21
69.21970763224587
 31
0.0
  0
LINE
  5
4B8
330
1F
100
AcDbEntity
  8
OBRYS
100
AcDbLine
 10
173.5044939083791
 20
69.21970763224587
 30
0.0
 11
173.3198366685524
 21
69.9176844380089
 31
0.0
  0
LINE
  5
4B9
330
1F
100
AcDbEntity
  8
OBRYS
100
AcDbLine
 10
173.3198366685524
 20
69.9176844380089
 30
0.0
 11
173.0387166915027
 21
69.9176844380089
 31
0.0
  0
LINE
  5
4BA
330
1F
100
AcDbEntity
  8
OBRYS
100
AcDbLine
 10
173.0387166915027
 20
69.9176844380089
 30
0.0
 11
172.8275321989397
 21
69.21970763224587
 31
0.0
  0
LINE
  5
4BB
330
1F
100
AcDbEntity
  8
OBRYS
100
AcDbLine
 10
172.4461598771333
 20
69.21970763224587
 30
0.0
 11
172.8275321989397
 21
69.21970763224587
 31
0.0
  0
LINE
  5
4BC
330
1F
100
AcDbEntity
  8
OBRYS
100
AcDbLine
 10
172.4461598771333
 20
69.21970763224587
 30
0.0
 11
172.2615026373064
 21
69.9176844380089
 31
0.0
  0
LINE
  5
4BD
330
1F
100
AcDbEntity
  8
OBRYS
100
AcDbLine
 10
172.2615026373064
 20
69.9176844380089
 30
0.0
 11
171.9803826602569
 21
69.9176844380089
 31
0.0
  0
LINE
  5
4BE
330
1F
100
AcDbEntity
  8
OBRYS
100
AcDbLine
 10
171.9803826602569
 20
69.9176844380089
 30
0.0
 11
171.7691981676938
 21
69.21970763224587
 31
0.0
  0
LINE
  5
4BF
330
1F
100
AcDbEntity
  8
OBRYS
100
AcDbLine
 10
171.3878258458874
 20
69.21970763224587
 30
0.0
 11
171.7691981676938
 21
69.21970763224587
 31
0.0
  0
LINE
  5
4C0
330
1F
100
AcDbEntity
  8
OBRYS
100
AcDbLine
 10
171.3878258458874
 20
69.21970763224587
 30
0.0
 11
171.2031686060606
 21
69.9176844380089
 31
0.0
  0
LINE
  5
4C1
330
1F
100
AcDbEntity
  8
OBRYS
100
AcDbLine
 10
171.2031686060606
 20
69.9176844380089
 30
0.0
 11
170.922048629011
 21
69.9176844380089
 31
0.0
  0
LINE
  5
4C2
330
1F
100
AcDbEntity
  8
OBRYS
100
AcDbLine
 10
170.922048629011
 20
69.9176844380089
 30
0.0
 11
170.710864136448
 21
69.21970763224587
 31
0.0
  0
LINE
  5
4C3
330
1F
100
AcDbEntity
  8
OBRYS
100
AcDbLine
 10
170.3294918146416
 20
69.21970763224587
 30
0.0
 11
170.710864136448
 21
69.21970763224587
 31
0.0
  0
LINE
  5
4C4
330
1F
100
AcDbEntity
  8
OBRYS
100
AcDbLine
 10
170.3294918146416
 20
69.21970763224587
 30
0.0
 11
170.1448345748149
 21
69.9176844380089
 31
0.0
  0
LINE
  5
4C5
330
1F
100
AcDbEntity
  8
OBRYS
100
AcDbLine
 10
170.1448345748149
 20
69.9176844380089
 30
0.0
 11
169.8637145977652
 21
69.9176844380089
 31
0.0
  0
LINE
  5
4C6
330
1F
100
AcDbEntity
  8
OBRYS
100
AcDbLine
 10
169.8637145977652
 20
69.9176844380089
 30
0.0
 11
169.6525301052021
 21
69.21970763224587
 31
0.0
  0
LINE
  5
4C7
330
1F
100
AcDbEntity
  8
OBRYS
100
AcDbLine
 10
169.2711577833958
 20
69.21970763224587
 30
0.0
 11
169.6525301052021
 21
69.21970763224587
 31
0.0
  0
LINE
  5
4C8
330
1F
100
AcDbEntity
  8
OBRYS
100
AcDbLine
 10
169.2711577833958
 20
69.21970763224587
 30
0.0
 11
169.0865005435691
 21
69.9176844380089
 31
0.0
  0
LINE
  5
4C9
330
1F
100
AcDbEntity
  8
OBRYS
100
AcDbLine
 10
169.0865005435691
 20
69.9176844380089
 30
0.0
 11
168.8053805665193
 21
69.9176844380089
 31
0.0
  0
LINE
  5
4CA
330
1F
100
AcDbEntity
  8
OBRYS
100
AcDbLine
 10
168.8053805665193
 20
69.9176844380089
 30
0.0
 11
168.5941960739563
 21
69.21970763224587
 31
0.0
  0
LINE
  5
4CB
330
1F
100
AcDbEntity
  8
OBRYS
100
AcDbLine
 10
168.2128237521499
 20
69.21970763224587
 30
0.0
 11
168.5941960739563
 21
69.21970763224587
 31
0.0
  0
LINE
  5
4CC
330
1F
100
AcDbEntity
  8
OBRYS
100
AcDbLine
 10
168.2128237521499
 20
69.21970763224587
 30
0.0
 11
168.0281665123233
 21
69.9176844380089
 31
0.0
  0
LINE
  5
4CD
330
1F
100
AcDbEntity
  8
OBRYS
100
AcDbLine
 10
168.0281665123233
 20
69.9176844380089
 30
0.0
 11
167.7470465352736
 21
69.9176844380089
 31
0.0
  0
LINE
  5
4CE
330
1F
100
AcDbEntity
  8
OBRYS
100
AcDbLine
 10
167.7470465352736
 20
69.9176844380089
 30
0.0
 11
167.5358620427105
 21
69.21970763224587
 31
0.0
  0
LINE
  5
4CF
330
1F
100
AcDbEntity
  8
OBRYS
100
AcDbLine
 10
167.1544897209042
 20
69.21970763224587
 30
0.0
 11
167.5358620427105
 21
69.21970763224587
 31
0.0
  0
LINE
  5
4D0
330
1F
100
AcDbEntity
  8
OBRYS
100
AcDbLine
 10
167.1544897209042
 20
69.21970763224587
 30
0.0
 11
166.9698324810774
 21
69.9176844380089
 31
0.0
  0
LINE
  5
4D1
330
1F
100
AcDbEntity
  8
OBRYS
100
AcDbLine
 10
166.9698324810774
 20
69.9176844380089
 30
0.0
 11
166.6887125040277
 21
69.9176844380089
 31
0.0
  0
LINE
  5
4D2
330
1F
100
AcDbEntity
  8
OBRYS
100
AcDbLine
 10
166.6887125040277
 20
69.9176844380089
 30
0.0
 11
166.4775280114646
 21
69.21970763224587
 31
0.0
  0
LINE
  5
4D3
330
1F
100
AcDbEntity
  8
OBRYS
100
AcDbLine
 10
166.0961556896583
 20
69.21970763224587
 30
0.0
 11
166.4775280114646
 21
69.21970763224587
 31
0.0
  0
LINE
  5
4D4
330
1F
100
AcDbEntity
  8
OBRYS
100
AcDbLine
 10
166.0961556896583
 20
69.21970763224587
 30
0.0
 11
165.9114984498316
 21
69.9176844380089
 31
0.0
  0
LINE
  5
4D5
330
1F
100
AcDbEntity
  8
OBRYS
100
AcDbLine
 10
165.9114984498316
 20
69.9176844380089
 30
0.0
 11
165.6303784727819
 21
69.9176844380089
 31
0.0
  0
LINE
  5
4D6
330
1F
100
AcDbEntity
  8
OBRYS
100
AcDbLine
 10
165.6303784727819
 20
69.9176844380089
 30
0.0
 11
165.4191939802188
 21
69.21970763224587
 31
0.0
  0
LINE
  5
4D7
330
1F
100
AcDbEntity
  8
OBRYS
100
AcDbLine
 10
165.0378216584125
 20
69.21970763224587
 30
0.0
 11
165.4191939802188
 21
69.21970763224587
 31
0.0
  0
LINE
  5
4D8
330
1F
100
AcDbEntity
  8
OBRYS
100
AcDbLine
 10
165.0378216584125
 20
69.21970763224587
 30
0.0
 11
164.8531644185857
 21
69.9176844380089
 31
0.0
  0
LINE
  5
4D9
330
1F
100
AcDbEntity
  8
OBRYS
100
AcDbLine
 10
164.8531644185857
 20
69.9176844380089
 30
0.0
 11
164.572044441536
 21
69.9176844380089
 31
0.0
  0
LINE
  5
4DA
330
1F
100
AcDbEntity
  8
OBRYS
100
AcDbLine
 10
164.572044441536
 20
69.9176844380089
 30
0.0
 11
164.3608599489729
 21
69.21970763224587
 31
0.0
  0
LINE
  5
4DB
330
1F
100
AcDbEntity
  8
OBRYS
100
AcDbLine
 10
163.9794876271665
 20
69.21970763224587
 30
0.0
 11
164.3608599489729
 21
69.21970763224587
 31
0.0
  0
LINE
  5
4DC
330
1F
100
AcDbEntity
  8
OBRYS
100
AcDbLine
 10
163.9794876271665
 20
69.21970763224587
 30
0.0
 11
163.7948303873399
 21
69.9176844380089
 31
0.0
  0
LINE
  5
4DD
330
1F
100
AcDbEntity
  8
OBRYS
100
AcDbLine
 10
163.7948303873399
 20
69.9176844380089
 30
0.0
 11
163.5137104102901
 21
69.9176844380089
 31
0.0
  0
LINE
  5
4DE
330
1F
100
AcDbEntity
  8
OBRYS
100
AcDbLine
 10
163.5137104102901
 20
69.9176844380089
 30
0.0
 11
163.3025259177272
 21
69.21970763224587
 31
0.0
  0
LINE
  5
4DF
330
1F
100
AcDbEntity
  8
OBRYS
100
AcDbLine
 10
162.9211535959207
 20
69.21970763224587
 30
0.0
 11
163.3025259177272
 21
69.21970763224587
 31
0.0
  0
LINE
  5
4E0
330
1F
100
AcDbEntity
  8
OBRYS
100
AcDbLine
 10
162.9211535959207
 20
69.21970763224587
 30
0.0
 11
162.7364963560941
 21
69.9176844380089
 31
0.0
  0
LINE
  5
4E1
330
1F
100
AcDbEntity
  8
OBRYS
100
AcDbLine
 10
162.7364963560941
 20
69.9176844380089
 30
0.0
 11
162.4553763790444
 21
69.9176844380089
 31
0.0
  0
LINE
  5
4E2
330
1F
100
AcDbEntity
  8
OBRYS
100
AcDbLine
 10
162.4553763790444
 20
69.9176844380089
 30
0.0
 11
162.2441918864814
 21
69.21970763224587
 31
0.0
  0
LINE
  5
4E6
330
1F
100
AcDbEntity
  8
OBRYS
100
AcDbLine
 10
180.9920693755331
 20
54.74133979463608
 30
0.0
 11
183.5924291632425
 21
54.74133979463608
 31
0.0
  0
LINE
  5
4E7
330
1F
100
AcDbEntity
  8
OBRYS
100
AcDbLine
 10
183.5924291632425
 20
76.74138956720364
 30
0.0
 11
180.9920693755331
 21
76.74138956720364
 31
0.0
  0
LINE
  5
4E8
330
1F
100
AcDbEntity
  8
OBRYS
100
AcDbLine
 10
203.9922310272369
 20
78.44154531075773
 30
0.0
 11
183.9920605031661
 21
78.44154531075773
 31
0.0
  0
LINE
  5
4E9
330
1F
100
AcDbEntity
  8
OBRYS
100
AcDbLine
 10
203.9922310272369
 20
73.7231394214534
 30
0.0
 11
183.9920605031661
 21
73.7231394214534
 31
0.0
  0
LINE
  5
4EA
330
1F
100
AcDbEntity
  8
OBRYS
100
AcDbLine
 10
203.9922310272369
 20
78.44154531075773
 30
0.0
 11
203.9922310272369
 21
53.04152856085779
 31
0.0
  0
LINE
  5
4EB
330
1F
100
AcDbEntity
  8
OBRYS
100
AcDbLine
 10
203.9922310272369
 20
53.04152856085779
 30
0.0
 11
183.9920605031661
 21
53.04152856085779
 31
0.0
  0
LINE
  5
4EC
330
1F
100
AcDbEntity
  8
OBRYS
100
AcDbLine
 10
183.9920605031661
 20
57.75958994038633
 30
0.0
 11
203.9922310272369
 21
57.75958994038633
 31
0.0
  0
LINE
  5
4F1
330
1F
100
AcDbEntity
  8
OBRYS
100
AcDbLine
 10
186.0921920964195
 20
90.45218962433961
 30
0.0
 11
186.0921920964195
 21
78.44154531075773
 31
0.0
  0
LINE
  5
4F2
330
1F
100
AcDbEntity
  8
OBRYS
100
AcDbLine
 10
201.8920994339834
 20
78.44154531075773
 30
0.0
 11
201.8920994339834
 21
90.45218962433961
 31
0.0
  0
LINE
  5
4F9
330
1F
100
AcDbEntity
  8
OBRYS
100
AcDbLine
 10
269.8968980626402
 20
124.9183256340915
 30
0.0
 11
254.8118485098533
 21
124.9183256340915
 31
0.0
  0
LINE
  5
4FA
330
1F
100
AcDbEntity
  8
OBRYS
100
AcDbLine
 10
254.8118485098533
 20
124.9183256340915
 30
0.0
 11
254.4545918723526
 21
124.618257619373
 31
0.0
  0
LINE
  5
4FB
330
1F
100
AcDbEntity
  8
OBRYS
100
AcDbLine
 10
270.2544992099164
 20
124.618257619373
 30
0.0
 11
269.8968980626402
 21
124.9183256340915
 31
0.0
  0
LINE
  5
4FC
330
1F
100
AcDbEntity
  8
OBRYS
100
AcDbLine
 10
270.2544992099164
 20
123.9182137549552
 30
0.0
 11
254.4545918723526
 21
123.9182137549552
 31
0.0
  0
LINE
  5
4FD
330
1F
100
AcDbEntity
  8
OBRYS
100
AcDbLine
 10
270.2544992099164
 20
124.618257619373
 30
0.0
 11
254.4545918723526
 21
124.618257619373
 31
0.0
  0
LINE
  5
4FE
330
1F
100
AcDbEntity
  8
OBRYS
100
AcDbLine
 10
254.4545918723526
 20
124.618257619373
 30
0.0
 11
254.4545918723526
 21
96.45217187960561
 31
0.0
  0
LINE
  5
4FF
330
1F
100
AcDbEntity
  8
OBRYS
100
AcDbLine
 10
270.2544992099164
 20
96.45217187960561
 30
0.0
 11
270.2544992099164
 21
124.618257619373
 31
0.0
  0
LINE
  5
500
330
1F
100
AcDbEntity
  8
OBRYS
100
AcDbLine
 10
248.9045393842763
 20
60.98144536363211
 30
0.0
 11
248.9045393842763
 21
70.50128399820765
 31
0.0
  0
LINE
  5
501
330
1F
100
AcDbEntity
  8
OBRYS
100
AcDbLine
 10
248.9045393842763
 20
60.98144536363211
 30
0.0
 11
249.6545371661846
 21
60.98144536363211
 31
0.0
  0
LINE
  5
502
330
1F
100
AcDbEntity
  8
OBRYS
100
AcDbLine
 10
249.6545371661846
 20
70.50128399820765
 30
0.0
 11
248.9045393842763
 21
70.50128399820765
 31
0.0
  0
LINE
  5
503
330
1F
100
AcDbEntity
  8
OBRYS
100
AcDbLine
 10
273.1507928950348
 20
66.04126044075043
 30
0.0
 11
268.012429589035
 21
74.94132598866865
 31
0.0
  0
LINE
  5
504
330
1F
100
AcDbEntity
  8
OBRYS
100
AcDbLine
 10
267.4929088471345
 20
75.24139400338713
 30
0.0
 11
257.2161822351347
 21
75.24139400338713
 31
0.0
  0
LINE
  5
505
330
1F
100
AcDbEntity
  8
OBRYS
100
AcDbLine
 10
257.2161822351347
 20
75.24139400338713
 30
0.0
 11
257.137978516029
 21
75.23622635675018
 31
0.0
  0
LINE
  5
506
330
1F
100
AcDbEntity
  8
OBRYS
100
AcDbLine
 10
257.137978516029
 20
75.23622635675018
 30
0.0
 11
257.0611528360263
 21
75.22106792661516
 31
0.0
  0
LINE
  5
507
330
1F
100
AcDbEntity
  8
OBRYS
100
AcDbLine
 10
257.0611528360263
 20
75.22106792661516
 30
0.0
 11
257.0236012704646
 21
75.2096991040139
 31
0.0
  0
LINE
  5
508
330
1F
100
AcDbEntity
  8
OBRYS
100
AcDbLine
 10
257.0236012704646
 20
75.2096991040139
 30
0.0
 11
256.9867387244545
 21
75.19591871298202
 31
0.0
  0
LINE
  5
509
330
1F
100
AcDbEntity
  8
OBRYS
100
AcDbLine
 10
256.9867387244545
 20
75.19591871298202
 30
0.0
 11
256.9509097077716
 21
75.1797267535196
 31
0.0
  0
LINE
  5
50A
330
1F
100
AcDbEntity
  8
OBRYS
100
AcDbLine
 10
256.9509097077716
 20
75.1797267535196
 30
0.0
 11
256.9164587301921
 21
75.16112322562661
 31
0.0
  0
LINE
  5
50B
330
1F
100
AcDbEntity
  8
OBRYS
100
AcDbLine
 10
256.9164587301921
 20
75.16112322562661
 30
0.0
 11
256.8830412819399
 21
75.14045263907884
 31
0.0
  0
LINE
  5
50C
330
1F
100
AcDbEntity
  8
OBRYS
100
AcDbLine
 10
256.8830412819399
 20
75.14045263907884
 30
0.0
 11
256.850657363015
 21
75.1173704841005
 31
0.0
  0
LINE
  5
50D
330
1F
100
AcDbEntity
  8
OBRYS
100
AcDbLine
 10
256.850657363015
 20
75.1173704841005
 30
0.0
 11
256.8203405027448
 21
75.09222127046739
 31
0.0
  0
LINE
  5
50E
330
1F
100
AcDbEntity
  8
OBRYS
100
AcDbLine
 10
256.8203405027448
 20
75.09222127046739
 30
0.0
 11
256.7917461913538
 21
75.06569401773108
 31
0.0
  0
LINE
  5
50F
330
1F
100
AcDbEntity
  8
OBRYS
100
AcDbLine
 10
256.7917461913538
 20
75.06569401773108
 30
0.0
 11
256.7648744288418
 21
75.03709970633999
 31
0.0
  0
LINE
  5
510
330
1F
100
AcDbEntity
  8
OBRYS
100
AcDbLine
 10
256.7648744288418
 20
75.03709970633999
 30
0.0
 11
256.7400697249844
 21
75.00678284606992
 31
0.0
  0
LINE
  5
511
330
1F
100
AcDbEntity
  8
OBRYS
100
AcDbLine
 10
256.7400697249844
 20
75.00678284606992
 30
0.0
 11
256.7173320797818
 21
74.97474343692089
 31
0.0
  0
LINE
  5
512
330
1F
100
AcDbEntity
  8
OBRYS
100
AcDbLine
 10
256.7173320797818
 20
74.97474343692089
 30
0.0
 11
256.6963169834584
 21
74.94132598866865
 31
0.0
  0
LINE
  5
513
330
1F
100
AcDbEntity
  8
OBRYS
100
AcDbLine
 10
256.6963169834584
 20
74.94132598866865
 30
0.0
 11
251.5579536774584
 21
66.04126044075043
 31
0.0
  0
LINE
  5
514
330
1F
100
AcDbEntity
  8
OBRYS
100
AcDbLine
 10
251.5579536774584
 20
65.44146892108931
 30
0.0
 11
256.6963169834584
 21
56.54140337317109
 31
0.0
  0
LINE
  5
515
330
1F
100
AcDbEntity
  8
OBRYS
100
AcDbLine
 10
257.2161822351347
 20
56.24133535845262
 30
0.0
 11
267.4929088471345
 21
56.24133535845262
 31
0.0
  0
LINE
  5
516
330
1F
100
AcDbEntity
  8
OBRYS
100
AcDbLine
 10
268.012429589035
 20
56.54140337317109
 30
0.0
 11
273.1507928950348
 21
65.44146892108931
 31
0.0
  0
LINE
  5
517
330
1F
100
AcDbEntity
  8
OBRYS
100
AcDbLine
 10
249.6545371661846
 20
57.75958994038634
 30
0.0
 11
249.6545371661846
 21
73.72313942145341
 31
0.0
  0
LINE
  5
518
330
1F
100
AcDbEntity
  8
OBRYS
100
AcDbLine
 10
270.336492536556
 20
53.04152856085781
 30
0.0
 11
254.3725985457133
 21
53.04152856085781
 31
0.0
  0
LINE
  5
519
330
1F
100
AcDbEntity
  8
OBRYS
100
AcDbLine
 10
275.0545539160844
 20
73.72313942145341
 30
0.0
 11
275.0545539160844
 21
57.75958994038634
 31
0.0
  0
LINE
  5
51A
330
1F
100
AcDbEntity
  8
OBRYS
100
AcDbLine
 10
254.3725985457133
 20
78.44154531075775
 30
0.0
 11
270.336492536556
 21
78.44154531075775
 31
0.0
  0
LINE
  5
51B
330
1F
100
AcDbEntity
  8
OBRYS
100
AcDbLine
 10
255.6045655039601
 20
61.56504492383081
 30
0.0
 11
255.6045655039601
 21
69.91768443800892
 31
0.0
  0
LINE
  5
51C
330
1F
100
AcDbEntity
  8
OBRYS
100
AcDbLine
 10
269.1045255783089
 20
69.91768443800892
 30
0.0
 11
269.1045255783089
 21
61.56504492383081
 31
0.0
  0
LINE
  5
51D
330
1F
100
AcDbEntity
  8
OBRYS
100
AcDbLine
 10
244.9175277489874
 20
66.27897218604978
 30
0.0
 11
244.6405418892473
 21
66.27897218604978
 31
0.0
  0
LINE
  5
51E
330
1F
100
AcDbEntity
  8
OBRYS
100
AcDbLine
 10
248.4043111898202
 20
66.19146670299757
 30
0.0
 11
248.4043111898202
 21
65.29126265884217
 31
0.0
  0
LINE
  5
51F
330
1F
100
AcDbEntity
  8
OBRYS
100
AcDbLine
 10
244.9175277489874
 20
65.20375717578996
 30
0.0
 11
244.6405418892473
 21
65.20375717578996
 31
0.0
  0
LINE
  5
520
330
1F
100
AcDbEntity
  8
OBRYS
100
AcDbLine
 10
245.5717518132242
 20
69.55491564409557
 30
0.0
 11
245.5717518132242
 21
61.92781371774417
 31
0.0
  0
LINE
  5
521
330
1F
100
AcDbEntity
  8
OBRYS
100
AcDbLine
 10
245.5717518132242
 20
61.92781371774417
 30
0.0
 11
247.7042673254024
 21
61.74143392903846
 31
0.0
  0
LINE
  5
522
330
1F
100
AcDbEntity
  8
OBRYS
100
AcDbLine
 10
247.7042673254024
 20
69.7412954328013
 30
0.0
 11
245.5717518132242
 21
69.55491564409557
 31
0.0
  0
LINE
  5
523
330
1F
100
AcDbEntity
  8
OBRYS
100
AcDbLine
 10
254.4545918723526
 20
90.45218962433962
 30
0.0
 11
254.4545918723526
 21
78.44154531075775
 31
0.0
  0
LINE
  5
524
330
1F
100
AcDbEntity
  8
OBRYS
100
AcDbLine
 10
270.2544992099164
 20
78.44154531075775
 30
0.0
 11
270.2544992099164
 21
90.45218962433962
 31
0.0
  0
LINE
  5
525
330
1F
100
AcDbEntity
  8
OBRYS
100
AcDbLine
 10
247.7042673254024
 20
66.19146670299757
 30
0.0
 11
248.9045393842763
 21
66.19146670299757
 31
0.0
  0
LINE
  5
526
330
1F
100
AcDbEntity
  8
OBRYS
100
AcDbLine
 10
248.9045393842763
 20
65.29126265884217
 30
0.0
 11
247.7042673254024
 21
65.29126265884217
 31
0.0
  0
LINE
  5
527
330
1F
100
AcDbEntity
  8
OBRYS
100
AcDbLine
 10
247.7042673254024
 20
62.24131761371871
 30
0.0
 11
248.9045393842763
 21
62.24131761371871
 31
0.0
  0
LINE
  5
528
330
1F
100
AcDbEntity
  8
OBRYS
100
AcDbLine
 10
248.9045393842763
 20
69.24141174812105
 30
0.0
 11
247.7042673254024
 21
69.24141174812105
 31
0.0
  0
LINE
  5
529
330
1F
100
AcDbEntity
  8
OBRYS
100
AcDbLine
 10
257.2161822351347
 20
75.24139400338713
 30
0.0
 11
257.137978516029
 21
75.23622635675018
 31
0.0
  0
LINE
  5
52A
330
1F
100
AcDbEntity
  8
OBRYS
100
AcDbLine
 10
257.137978516029
 20
75.23622635675018
 30
0.0
 11
257.0611528360263
 21
75.22106792661516
 31
0.0
  0
LINE
  5
52B
330
1F
100
AcDbEntity
  8
OBRYS
100
AcDbLine
 10
257.0611528360263
 20
75.22106792661516
 30
0.0
 11
257.0236012704646
 21
75.2096991040139
 31
0.0
  0
LINE
  5
52C
330
1F
100
AcDbEntity
  8
OBRYS
100
AcDbLine
 10
257.0236012704646
 20
75.2096991040139
 30
0.0
 11
256.9867387244545
 21
75.19591871298202
 31
0.0
  0
LINE
  5
52D
330
1F
100
AcDbEntity
  8
OBRYS
100
AcDbLine
 10
256.9867387244545
 20
75.19591871298202
 30
0.0
 11
256.9509097077716
 21
75.1797267535196
 31
0.0
  0
LINE
  5
52E
330
1F
100
AcDbEntity
  8
OBRYS
100
AcDbLine
 10
256.9509097077716
 20
75.1797267535196
 30
0.0
 11
256.9164587301921
 21
75.16112322562661
 31
0.0
  0
LINE
  5
52F
330
1F
100
AcDbEntity
  8
OBRYS
100
AcDbLine
 10
256.9164587301921
 20
75.16112322562661
 30
0.0
 11
256.8830412819399
 21
75.14045263907884
 31
0.0
  0
LINE
  5
530
330
1F
100
AcDbEntity
  8
OBRYS
100
AcDbLine
 10
256.8830412819399
 20
75.14045263907884
 30
0.0
 11
256.850657363015
 21
75.1173704841005
 31
0.0
  0
LINE
  5
531
330
1F
100
AcDbEntity
  8
OBRYS
100
AcDbLine
 10
256.850657363015
 20
75.1173704841005
 30
0.0
 11
256.8203405027448
 21
75.09222127046739
 31
0.0
  0
LINE
  5
532
330
1F
100
AcDbEntity
  8
OBRYS
100
AcDbLine
 10
256.8203405027448
 20
75.09222127046739
 30
0.0
 11
256.7917461913538
 21
75.06569401773108
 31
0.0
  0
LINE
  5
533
330
1F
100
AcDbEntity
  8
OBRYS
100
AcDbLine
 10
256.7917461913538
 20
75.06569401773108
 30
0.0
 11
256.7648744288418
 21
75.03709970633999
 31
0.0
  0
LINE
  5
534
330
1F
100
AcDbEntity
  8
OBRYS
100
AcDbLine
 10
256.7648744288418
 20
75.03709970633999
 30
0.0
 11
256.7400697249844
 21
75.00678284606992
 31
0.0
  0
LINE
  5
535
330
1F
100
AcDbEntity
  8
OBRYS
100
AcDbLine
 10
256.7400697249844
 20
75.00678284606992
 30
0.0
 11
256.7173320797818
 21
74.97474343692089
 31
0.0
  0
LINE
  5
536
330
1F
100
AcDbEntity
  8
OBRYS
100
AcDbLine
 10
256.7173320797818
 20
74.97474343692089
 30
0.0
 11
256.6963169834584
 21
74.94132598866865
 31
0.0
  0
LINE
  5
537
330
1F
100
AcDbEntity
  8
OBRYS
100
AcDbLine
 10
177.4711794668962
 20
56.54140337317107
 30
0.0
 11
180.1135694472528
 21
56.54140337317107
 31
0.0
  0
LINE
  5
538
330
1F
100
AcDbEntity
  8
OBRYS
100
AcDbLine
 10
180.1135694472528
 20
74.94132598866864
 30
0.0
 11
177.4711794668962
 21
74.94132598866864
 31
0.0
  0
LINE
  5
539
330
1F
100
AcDbEntity
  8
OBRYS
100
AcDbLine
 10
177.4711794668962
 20
66.04126044075042
 30
0.0
 11
180.1135694472528
 21
66.04126044075042
 31
0.0
  0
LINE
  5
53F
330
1F
100
AcDbEntity
  8
OBRYS
100
AcDbLine
 10
247.7952179062128
 20
66.19146670299757
 30
0.0
 11
247.7952179062128
 21
65.29126265884217
 31
0.0
  0
LINE
  5
540
330
1F
100
AcDbEntity
  8
OBRYS
100
AcDbLine
 10
159.5925001421782
 20
59.44148666582321
 30
0.0
 11
159.5925001421782
 21
72.0412426960165
 31
0.0
  0
ARC
  5
541
330
1F
100
AcDbEntity
  8
OBRYS
100
AcDbCircle
 10
160.092324554365
 20
59.44108296519655
 30
0.0
 40
0.4998245752182343
100
AcDbArc
 50
179.953723074542
 51
269.967302741536
  0
ARC
  5
542
330
1F
100
AcDbEntity
  8
OBRYS
100
AcDbCircle
 10
160.092324554365
 20
72.04164639664319
 30
0.0
 40
0.4998245752182189
100
AcDbArc
 50
90.03269725846397
 51
180.0462769254612
  0
LINE
  5
543
330
1F
100
AcDbEntity
  8
OBRYS
100
AcDbLine
 10
160.0920393170827
 20
66.5645707901848
 30
0.0
 11
160.0920393170827
 21
72.54147089047254
 31
0.0
  0
LINE
  5
544
330
1F
100
AcDbEntity
  8
OBRYS
100
AcDbLine
 10
160.0920393170827
 20
58.94125847136718
 30
0.0
 11
160.0920393170827
 21
64.91815857165491
 31
0.0
  0
ARC
  5
545
330
1F
100
AcDbEntity
  8
OBRYS
100
AcDbCircle
 10
161.5381065634475
 20
65.74136468091987
 30
0.0
 40
1.663964777073235
100
AcDbArc
 50
150.3483368697035
 51
209.6516631302973
  0
LINE
  5
546
330
1F
100
AcDbEntity
  8
OBRYS
100
AcDbLine
 10
160.926441994061
 20
72.54147089047254
 30
0.0
 11
160.926441994061
 21
66.5645707901848
 31
0.0
  0
LINE
  5
547
330
1F
100
AcDbEntity
  8
OBRYS
100
AcDbLine
 10
161.2096290297654
 20
72.65860421424324
 30
0.0
 11
161.2096290297654
 21
67.34852283191375
 31
0.0
  0
ARC
  5
548
330
1F
100
AcDbEntity
  8
OBRYS
100
AcDbCircle
 10
160.9265952573076
 20
72.94199016790424
 30
0.0
 40
0.4005193067556573
100
AcDbArc
 50
269.9780751208469
 51
314.9643753685864
  0
LINE
  5
549
330
1F
100
AcDbEntity
  8
OBRYS
100
AcDbLine
 10
161.8855572098776
 20
69.21970763224587
 30
0.0
 11
160.926441994061
 21
66.5645707901848
 31
0.0
  0
LINE
  5
54A
330
1F
100
AcDbEntity
  8
OBRYS
100
AcDbLine
 10
161.8855572098776
 20
62.26302172959384
 30
0.0
 11
160.926441994061
 21
64.91815857165491
 31
0.0
  0
LINE
  5
54B
330
1F
100
AcDbEntity
  8
OBRYS
100
AcDbLine
 10
160.926441994061
 20
64.91815857165491
 30
0.0
 11
160.926441994061
 21
58.94125847136718
 31
0.0
  0
LINE
  5
54C
330
1F
100
AcDbEntity
  8
OBRYS
100
AcDbLine
 10
161.2096290297654
 20
58.82412514759648
 30
0.0
 11
161.2096290297654
 21
64.13420652992596
 31
0.0
  0
ARC
  5
54D
330
1F
100
AcDbEntity
  8
OBRYS
100
AcDbCircle
 10
160.9265952573077
 20
58.54073919393557
 30
0.0
 40
0.4005193067555721
100
AcDbArc
 50
45.03562463141293
 51
90.02192487916123
  0
LINE
  5
54E
330
1F
100
AcDbEntity
  8
OBRYS
100
AcDbLine
 10
162.0557450391208
 20
73.33487690413111
 30
0.0
 11
161.9066630966074
 21
70.03013398508017
 31
0.0
  0
LINE
  5
54F
330
1F
100
AcDbEntity
  8
OBRYS
100
AcDbLine
 10
161.8855572098776
 20
69.21970763224587
 30
0.0
 11
161.9954558283565
 21
73.43960787597314
 31
0.0
  0
LINE
  5
550
330
1F
100
AcDbEntity
  8
OBRYS
100
AcDbLine
 10
162.2441918864814
 20
69.21970763224587
 30
0.0
 11
162.4202363819132
 21
73.33487690413111
 31
0.0
  0
LINE
  5
551
330
1F
100
AcDbEntity
  8
OBRYS
100
AcDbLine
 10
162.4553763790444
 20
69.9176844380089
 30
0.0
 11
162.6221191105298
 21
73.67904217015149
 31
0.0
  0
LINE
  5
552
330
1F
100
AcDbEntity
  8
OBRYS
100
AcDbLine
 10
162.7364963560941
 20
69.9176844380089
 30
0.0
 11
162.9125408515258
 21
73.67904217015149
 31
0.0
  0
LINE
  5
553
330
1F
100
AcDbEntity
  8
OBRYS
100
AcDbLine
 10
162.9211535959207
 20
69.21970763224587
 30
0.0
 11
163.1140790703667
 21
73.33487690413111
 31
0.0
  0
LINE
  5
554
330
1F
100
AcDbEntity
  8
OBRYS
100
AcDbLine
 10
163.3025259177272
 20
69.21970763224587
 30
0.0
 11
163.478570413159
 21
73.33487690413111
 31
0.0
  0
LINE
  5
555
330
1F
100
AcDbEntity
  8
OBRYS
100
AcDbLine
 10
163.5137104102901
 20
69.9176844380089
 30
0.0
 11
163.6804531417756
 21
73.67904217015149
 31
0.0
  0
LINE
  5
556
330
1F
100
AcDbEntity
  8
OBRYS
100
AcDbLine
 10
163.7948303873399
 20
69.9176844380089
 30
0.0
 11
163.9708748827717
 21
73.67904217015149
 31
0.0
  0
LINE
  5
557
330
1F
100
AcDbEntity
  8
OBRYS
100
AcDbLine
 10
163.9794876271665
 20
69.21970763224587
 30
0.0
 11
164.1696570234062
 21
73.33487690413111
 31
0.0
  0
LINE
  5
558
330
1F
100
AcDbEntity
  8
OBRYS
100
AcDbLine
 10
164.3608599489729
 20
69.21970763224587
 30
0.0
 11
164.5369044444049
 21
73.33487690413111
 31
0.0
  0
LINE
  5
559
330
1F
100
AcDbEntity
  8
OBRYS
100
AcDbLine
 10
164.572044441536
 20
69.9176844380089
 30
0.0
 11
164.7387871730214
 21
73.67904217015149
 31
0.0
  0
LINE
  5
55A
330
1F
100
AcDbEntity
  8
OBRYS
100
AcDbLine
 10
164.8531644185857
 20
69.9176844380089
 30
0.0
 11
165.0292089140176
 21
73.67904217015149
 31
0.0
  0
LINE
  5
55B
330
1F
100
AcDbEntity
  8
OBRYS
100
AcDbLine
 10
165.0378216584125
 20
69.21970763224587
 30
0.0
 11
165.2307471328583
 21
73.33487690413111
 31
0.0
  0
LINE
  5
55C
330
1F
100
AcDbEntity
  8
OBRYS
100
AcDbLine
 10
165.4191939802188
 20
69.21970763224587
 30
0.0
 11
165.5952384756507
 21
73.33487690413111
 31
0.0
  0
LINE
  5
55D
330
1F
100
AcDbEntity
  8
OBRYS
100
AcDbLine
 10
165.6303784727819
 20
69.9176844380089
 30
0.0
 11
165.7971212042671
 21
73.67904217015149
 31
0.0
  0
LINE
  5
55E
330
1F
100
AcDbEntity
  8
OBRYS
100
AcDbLine
 10
165.9114984498316
 20
69.9176844380089
 30
0.0
 11
166.0875429452634
 21
73.67904217015149
 31
0.0
  0
LINE
  5
55F
330
1F
100
AcDbEntity
  8
OBRYS
100
AcDbLine
 10
166.0961556896583
 20
69.21970763224587
 30
0.0
 11
166.2890811641041
 21
73.33487690413111
 31
0.0
  0
LINE
  5
560
330
1F
100
AcDbEntity
  8
OBRYS
100
AcDbLine
 10
166.4775280114646
 20
69.21970763224587
 30
0.0
 11
166.6535725068965
 21
73.33487690413111
 31
0.0
  0
LINE
  5
561
330
1F
100
AcDbEntity
  8
OBRYS
100
AcDbLine
 10
166.6887125040277
 20
69.97016026652523
 30
0.0
 11
166.8554552355131
 21
73.67904217015149
 31
0.0
  0
LINE
  5
562
330
1F
100
AcDbEntity
  8
OBRYS
100
AcDbLine
 10
166.9698324810774
 20
69.9176844380089
 30
0.0
 11
167.1517336426978
 21
73.67387452351454
 31
0.0
  0
LINE
  5
563
330
1F
100
AcDbEntity
  8
OBRYS
100
AcDbLine
 10
167.1544897209042
 20
69.21970763224587
 30
0.0
 11
167.34741519535
 21
73.33487690413111
 31
0.0
  0
LINE
  5
564
330
1F
100
AcDbEntity
  8
OBRYS
100
AcDbLine
 10
167.5358620427105
 20
69.21970763224587
 30
0.0
 11
167.7119065381422
 21
73.33487690413111
 31
0.0
  0
LINE
  5
565
330
1F
100
AcDbEntity
  8
OBRYS
100
AcDbLine
 10
167.7470465352736
 20
69.9176844380089
 30
0.0
 11
167.9137892667589
 21
73.67904217015149
 31
0.0
  0
LINE
  5
566
330
1F
100
AcDbEntity
  8
OBRYS
100
AcDbLine
 10
168.0281665123233
 20
69.9176844380089
 30
0.0
 11
168.204211007755
 21
73.67904217015149
 31
0.0
  0
LINE
  5
567
330
1F
100
AcDbEntity
  8
OBRYS
100
AcDbLine
 10
168.2128237521499
 20
69.21970763224587
 30
0.0
 11
168.4057492265958
 21
73.33487690413111
 31
0.0
  0
LINE
  5
568
330
1F
100
AcDbEntity
  8
OBRYS
100
AcDbLine
 10
168.5941960739563
 20
69.21970763224587
 30
0.0
 11
168.7674844911818
 21
73.32970925749419
 31
0.0
  0
LINE
  5
569
330
1F
100
AcDbEntity
  8
OBRYS
100
AcDbLine
 10
168.8053805665193
 20
69.9176844380089
 30
0.0
 11
168.9721232980047
 21
73.67904217015149
 31
0.0
  0
LINE
  5
56A
330
1F
100
AcDbEntity
  8
OBRYS
100
AcDbLine
 10
169.0865005435691
 20
69.9176844380089
 30
0.0
 11
169.2625450390009
 21
73.67904217015149
 31
0.0
  0
LINE
  5
56B
330
1F
100
AcDbEntity
  8
OBRYS
100
AcDbLine
 10
169.2711577833958
 20
69.21970763224587
 30
0.0
 11
169.4640832578417
 21
73.33487690413111
 31
0.0
  0
LINE
  5
56C
330
1F
100
AcDbEntity
  8
OBRYS
100
AcDbLine
 10
169.6525301052021
 20
69.21970763224587
 30
0.0
 11
169.828574600634
 21
73.33487690413111
 31
0.0
  0
LINE
  5
56D
330
1F
100
AcDbEntity
  8
OBRYS
100
AcDbLine
 10
169.8637145977652
 20
69.9176844380089
 30
0.0
 11
170.0304573292506
 21
73.67904217015149
 31
0.0
  0
LINE
  5
56E
330
1F
100
AcDbEntity
  8
OBRYS
100
AcDbLine
 10
170.1448345748149
 20
69.9176844380089
 30
0.0
 11
170.3208790702467
 21
73.67904217015149
 31
0.0
  0
LINE
  5
56F
330
1F
100
AcDbEntity
  8
OBRYS
100
AcDbLine
 10
170.3294918146416
 20
69.21970763224587
 30
0.0
 11
170.5224172890875
 21
73.33487690413111
 31
0.0
  0
LINE
  5
570
330
1F
100
AcDbEntity
  8
OBRYS
100
AcDbLine
 10
170.710864136448
 20
69.21970763224587
 30
0.0
 11
170.8869086318799
 21
73.33487690413111
 31
0.0
  0
LINE
  5
571
330
1F
100
AcDbEntity
  8
OBRYS
100
AcDbLine
 10
170.922048629011
 20
69.9176844380089
 30
0.0
 11
171.0887913604963
 21
73.67904217015149
 31
0.0
  0
LINE
  5
572
330
1F
100
AcDbEntity
  8
OBRYS
100
AcDbLine
 10
171.2031686060606
 20
69.9176844380089
 30
0.0
 11
171.3792131014926
 21
73.67904217015149
 31
0.0
  0
LINE
  5
573
330
1F
100
AcDbEntity
  8
OBRYS
100
AcDbLine
 10
171.3878258458874
 20
69.21970763224587
 30
0.0
 11
171.5807513203333
 21
73.33487690413111
 31
0.0
  0
LINE
  5
574
330
1F
100
AcDbEntity
  8
OBRYS
100
AcDbLine
 10
171.7691981676938
 20
69.21970763224587
 30
0.0
 11
171.9452426631257
 21
73.33487690413111
 31
0.0
  0
LINE
  5
575
330
1F
100
AcDbEntity
  8
OBRYS
100
AcDbLine
 10
171.9803826602569
 20
69.9176844380089
 30
0.0
 11
172.1471253917422
 21
73.67904217015149
 31
0.0
  0
LINE
  5
576
330
1F
100
AcDbEntity
  8
OBRYS
100
AcDbLine
 10
172.2615026373064
 20
69.9176844380089
 30
0.0
 11
172.4375471327384
 21
73.67904217015149
 31
0.0
  0
LINE
  5
577
330
1F
100
AcDbEntity
  8
OBRYS
100
AcDbLine
 10
172.4461598771333
 20
69.21970763224587
 30
0.0
 11
172.6390853515791
 21
73.33487690413111
 31
0.0
  0
LINE
  5
578
330
1F
100
AcDbEntity
  8
OBRYS
100
AcDbLine
 10
172.8275321989397
 20
69.21970763224587
 30
0.0
 11
173.0035766943714
 21
73.33487690413111
 31
0.0
  0
LINE
  5
579
330
1F
100
AcDbEntity
  8
OBRYS
100
AcDbLine
 10
173.0387166915027
 20
69.9176844380089
 30
0.0
 11
173.205459422988
 21
73.67904217015149
 31
0.0
  0
LINE
  5
57A
330
1F
100
AcDbEntity
  8
OBRYS
100
AcDbLine
 10
173.3198366685524
 20
69.9176844380089
 30
0.0
 11
173.4958811639842
 21
73.67904217015149
 31
0.0
  0
LINE
  5
57B
330
1F
100
AcDbEntity
  8
OBRYS
100
AcDbLine
 10
173.5044939083791
 20
69.21970763224587
 30
0.0
 11
173.697419382825
 21
73.33487690413111
 31
0.0
  0
LINE
  5
57C
330
1F
100
AcDbEntity
  8
OBRYS
100
AcDbLine
 10
173.8858662301855
 20
69.21970763224587
 30
0.0
 11
174.0619107256173
 21
73.33487690413111
 31
0.0
  0
LINE
  5
57D
330
1F
100
AcDbEntity
  8
OBRYS
100
AcDbLine
 10
174.0970507227485
 20
69.9176844380089
 30
0.0
 11
174.2637934542339
 21
73.67904217015149
 31
0.0
  0
LINE
  5
57E
330
1F
100
AcDbEntity
  8
OBRYS
100
AcDbLine
 10
174.3781706997982
 20
69.9176844380089
 30
0.0
 11
174.5542151952299
 21
73.67904217015149
 31
0.0
  0
LINE
  5
57F
330
1F
100
AcDbEntity
  8
OBRYS
100
AcDbLine
 10
174.562827939625
 20
69.21970763224587
 30
0.0
 11
174.7557534140708
 21
73.33487690413111
 31
0.0
  0
LINE
  5
580
330
1F
100
AcDbEntity
  8
OBRYS
100
AcDbLine
 10
174.9442002614313
 20
69.21970763224587
 30
0.0
 11
175.1202447568631
 21
73.33487690413111
 31
0.0
  0
LINE
  5
581
330
1F
100
AcDbEntity
  8
OBRYS
100
AcDbLine
 10
175.1553847539944
 20
69.9176844380089
 30
0.0
 11
175.3221274854797
 21
73.67904217015149
 31
0.0
  0
LINE
  5
582
330
1F
100
AcDbEntity
  8
OBRYS
100
AcDbLine
 10
175.4365047310441
 20
69.9176844380089
 30
0.0
 11
175.6125492264759
 21
73.67904217015149
 31
0.0
  0
LINE
  5
583
330
1F
100
AcDbEntity
  8
OBRYS
100
AcDbLine
 10
175.6211619708708
 20
69.21970763224587
 30
0.0
 11
175.8140874453167
 21
73.33487690413111
 31
0.0
  0
LINE
  5
584
330
1F
100
AcDbEntity
  8
OBRYS
100
AcDbLine
 10
176.0025342926771
 20
69.21970763224587
 30
0.0
 11
176.178578788109
 21
73.33487690413111
 31
0.0
  0
LINE
  5
585
330
1F
100
AcDbEntity
  8
OBRYS
100
AcDbLine
 10
176.2137187852402
 20
69.9176844380089
 30
0.0
 11
176.3804615167255
 21
73.67904217015149
 31
0.0
  0
LINE
  5
586
330
1F
100
AcDbEntity
  8
OBRYS
100
AcDbLine
 10
176.4948387622898
 20
69.9176844380089
 30
0.0
 11
176.6708832577217
 21
73.67904217015149
 31
0.0
  0
LINE
  5
587
330
1F
100
AcDbEntity
  8
OBRYS
100
AcDbLine
 10
176.8724214765625
 20
73.33487690413111
 30
0.0
 11
176.6794960021166
 21
69.21970763224587
 31
0.0
  0
LINE
  5
588
330
1F
100
AcDbEntity
  8
OBRYS
100
AcDbLine
 10
162.0839948407361
 20
62.26302172959384
 30
0.0
 11
161.8855572098776
 21
58.14819696748433
 31
0.0
  0
LINE
  5
589
330
1F
100
AcDbEntity
  8
OBRYS
100
AcDbLine
 10
176.9096285323485
 20
57.80403170146403
 30
0.0
 11
177.04226479603
 21
60.10673504288562
 31
0.0
  0
LINE
  5
58A
330
1F
100
AcDbEntity
  8
OBRYS
100
AcDbLine
 10
163.1512861261527
 20
57.80403170146403
 30
0.0
 11
163.3269861118087
 21
61.5650449238308
 31
0.0
  0
LINE
  5
58B
330
1F
100
AcDbEntity
  8
OBRYS
100
AcDbLine
 10
162.9494033975361
 20
58.1478524577086
 30
0.0
 11
163.142328871982
 21
62.26302172959384
 31
0.0
  0
LINE
  5
58C
330
1F
100
AcDbEntity
  8
OBRYS
100
AcDbLine
 10
162.5849120547438
 20
58.1478524577086
 30
0.0
 11
162.7613010599514
 21
62.26302172959384
 31
0.0
  0
LINE
  5
58D
330
1F
100
AcDbEntity
  8
OBRYS
100
AcDbLine
 10
162.383373835903
 20
57.80403170146403
 30
0.0
 11
162.5501165673882
 21
61.5650449238308
 31
0.0
  0
LINE
  5
58E
330
1F
100
AcDbEntity
  8
OBRYS
100
AcDbLine
 10
162.2297224758979
 20
57.80403170146403
 30
0.0
 11
162.2686520805629
 21
61.5650449238308
 31
0.0
  0
LINE
  5
58F
330
1F
100
AcDbEntity
  8
OBRYS
100
AcDbLine
 10
163.4417078671488
 20
57.80403170146403
 30
0.0
 11
163.6084505986342
 21
61.5650449238308
 31
0.0
  0
LINE
  5
590
330
1F
100
AcDbEntity
  8
OBRYS
100
AcDbLine
 10
163.6432460859895
 20
58.1478524577086
 30
0.0
 11
163.8196350911973
 21
62.26302172959384
 31
0.0
  0
LINE
  5
591
330
1F
100
AcDbEntity
  8
OBRYS
100
AcDbLine
 10
164.0077374287819
 20
58.1478524577086
 30
0.0
 11
164.2006629032278
 21
62.26302172959384
 31
0.0
  0
LINE
  5
592
330
1F
100
AcDbEntity
  8
OBRYS
100
AcDbLine
 10
164.2096201573985
 20
57.80403170146403
 30
0.0
 11
164.3853201430545
 21
61.5650449238308
 31
0.0
  0
LINE
  5
593
330
1F
100
AcDbEntity
  8
OBRYS
100
AcDbLine
 10
164.5000418983946
 20
57.80403170146403
 30
0.0
 11
164.66678462988
 21
61.5650449238308
 31
0.0
  0
LINE
  5
594
330
1F
100
AcDbEntity
  8
OBRYS
100
AcDbLine
 10
164.7015801172354
 20
58.1478524577086
 30
0.0
 11
164.8779691224431
 21
62.26302172959384
 31
0.0
  0
LINE
  5
595
330
1F
100
AcDbEntity
  8
OBRYS
100
AcDbLine
 10
165.0660714600278
 20
58.1478524577086
 30
0.0
 11
165.2589969344736
 21
62.26302172959384
 31
0.0
  0
LINE
  5
596
330
1F
100
AcDbEntity
  8
OBRYS
100
AcDbLine
 10
165.2679541886443
 20
57.80403170146403
 30
0.0
 11
165.4436541743003
 21
61.5650449238308
 31
0.0
  0
LINE
  5
597
330
1F
100
AcDbEntity
  8
OBRYS
100
AcDbLine
 10
165.5583759296404
 20
57.80403170146403
 30
0.0
 11
165.7251186611259
 21
61.5650449238308
 31
0.0
  0
LINE
  5
598
330
1F
100
AcDbEntity
  8
OBRYS
100
AcDbLine
 10
165.7599845468262
 20
58.1478524577086
 30
0.0
 11
165.9363031536889
 21
62.26302172959384
 31
0.0
  0
LINE
  5
599
330
1F
100
AcDbEntity
  8
OBRYS
100
AcDbLine
 10
166.1244054912736
 20
58.1478524577086
 30
0.0
 11
166.3173309657195
 21
62.26302172959384
 31
0.0
  0
LINE
  5
59A
330
1F
100
AcDbEntity
  8
OBRYS
100
AcDbLine
 10
166.3262882198902
 20
57.80403170146403
 30
0.0
 11
166.5019882055462
 21
61.5650449238308
 31
0.0
  0
LINE
  5
59B
330
1F
100
AcDbEntity
  8
OBRYS
100
AcDbLine
 10
166.6167099608863
 20
57.80403170146403
 30
0.0
 11
166.7834526923717
 21
61.5650449238308
 31
0.0
  0
LINE
  5
59C
330
1F
100
AcDbEntity
  8
OBRYS
100
AcDbLine
 10
166.8182481797271
 20
58.1478524577086
 30
0.0
 11
166.9946371849346
 21
62.26302172959384
 31
0.0
  0
LINE
  5
59D
330
1F
100
AcDbEntity
  8
OBRYS
100
AcDbLine
 10
167.1827395225195
 20
58.1478524577086
 30
0.0
 11
167.3756649969653
 21
62.26302172959384
 31
0.0
  0
LINE
  5
59E
330
1F
100
AcDbEntity
  8
OBRYS
100
AcDbLine
 10
167.384622251136
 20
57.80403170146403
 30
0.0
 11
167.560322236792
 21
61.5650449238308
 31
0.0
  0
LINE
  5
59F
330
1F
100
AcDbEntity
  8
OBRYS
100
AcDbLine
 10
167.6750439921321
 20
57.80403170146403
 30
0.0
 11
167.8417867236174
 21
61.5650449238308
 31
0.0
  0
LINE
  5
5A0
330
1F
100
AcDbEntity
  8
OBRYS
100
AcDbLine
 10
167.8765822109729
 20
58.1478524577086
 30
0.0
 11
168.0529712161805
 21
62.26302172959384
 31
0.0
  0
LINE
  5
5A1
330
1F
100
AcDbEntity
  8
OBRYS
100
AcDbLine
 10
168.2410735537653
 20
58.1478524577086
 30
0.0
 11
168.433999028211
 21
62.26302172959384
 31
0.0
  0
LINE
  5
5A2
330
1F
100
AcDbEntity
  8
OBRYS
100
AcDbLine
 10
168.4429562823817
 20
57.80403170146403
 30
0.0
 11
168.6186562680379
 21
61.5650449238308
 31
0.0
  0
LINE
  5
5A3
330
1F
100
AcDbEntity
  8
OBRYS
100
AcDbLine
 10
168.733378023378
 20
57.80403170146403
 30
0.0
 11
168.9001207548633
 21
61.5650449238308
 31
0.0
  0
LINE
  5
5A4
330
1F
100
AcDbEntity
  8
OBRYS
100
AcDbLine
 10
168.9349162422187
 20
58.1478524577086
 30
0.0
 11
169.1113052474264
 21
62.26302172959384
 31
0.0
  0
LINE
  5
5A5
330
1F
100
AcDbEntity
  8
OBRYS
100
AcDbLine
 10
169.2994075850111
 20
58.1478524577086
 30
0.0
 11
169.4923330594569
 21
62.26302172959384
 31
0.0
  0
LINE
  5
5A6
330
1F
100
AcDbEntity
  8
OBRYS
100
AcDbLine
 10
169.5012903136275
 20
57.80403170146403
 30
0.0
 11
169.6769902992837
 21
61.5650449238308
 31
0.0
  0
LINE
  5
5A7
330
1F
100
AcDbEntity
  8
OBRYS
100
AcDbLine
 10
169.7917120546238
 20
57.80403170146403
 30
0.0
 11
169.9584547861091
 21
61.5650449238308
 31
0.0
  0
LINE
  5
5A8
330
1F
100
AcDbEntity
  8
OBRYS
100
AcDbLine
 10
169.9932502734646
 20
58.1478524577086
 30
0.0
 11
170.1696392786722
 21
62.26302172959384
 31
0.0
  0
LINE
  5
5A9
330
1F
100
AcDbEntity
  8
OBRYS
100
AcDbLine
 10
170.5506670907028
 20
62.26302172959384
 30
0.0
 11
170.3577416162568
 21
58.1478524577086
 31
0.0
  0
LINE
  5
5AA
330
1F
100
AcDbEntity
  8
OBRYS
100
AcDbLine
 10
170.5596243448735
 20
57.80403170146403
 30
0.0
 11
170.7353243305295
 21
61.5650449238308
 31
0.0
  0
LINE
  5
5AB
330
1F
100
AcDbEntity
  8
OBRYS
100
AcDbLine
 10
171.016788817355
 20
61.5650449238308
 30
0.0
 11
170.8500460858696
 21
57.80403170146403
 31
0.0
  0
LINE
  5
5AC
330
1F
100
AcDbEntity
  8
OBRYS
100
AcDbLine
 10
171.227973309918
 20
62.26302172959384
 30
0.0
 11
171.0515843047104
 21
58.1478524577086
 31
0.0
  0
LINE
  5
5AD
330
1F
100
AcDbEntity
  8
OBRYS
100
AcDbLine
 10
171.6090011219486
 20
62.26302172959384
 30
0.0
 11
171.4160756475027
 21
58.1478524577086
 31
0.0
  0
LINE
  5
5AE
330
1F
100
AcDbEntity
  8
OBRYS
100
AcDbLine
 10
171.7936583617752
 20
61.5650449238308
 30
0.0
 11
171.6179583761193
 21
57.80403170146403
 31
0.0
  0
LINE
  5
5AF
330
1F
100
AcDbEntity
  8
OBRYS
100
AcDbLine
 10
172.0751228486008
 20
61.5650449238308
 30
0.0
 11
171.9083801171155
 21
57.80403170146403
 31
0.0
  0
LINE
  5
5B0
330
1F
100
AcDbEntity
  8
OBRYS
100
AcDbLine
 10
172.2863073411638
 20
62.26302172959384
 30
0.0
 11
172.1099887343013
 21
58.1478524577086
 31
0.0
  0
LINE
  5
5B1
330
1F
100
AcDbEntity
  8
OBRYS
100
AcDbLine
 10
172.6673351531944
 20
62.26302172959384
 30
0.0
 11
172.4744096787486
 21
58.1478524577086
 31
0.0
  0
LINE
  5
5B2
330
1F
100
AcDbEntity
  8
OBRYS
100
AcDbLine
 10
172.8519923930212
 20
61.5650449238308
 30
0.0
 11
172.6762924073651
 21
57.80403170146403
 31
0.0
  0
LINE
  5
5B3
330
1F
100
AcDbEntity
  8
OBRYS
100
AcDbLine
 10
173.1334568798466
 20
61.5650449238308
 30
0.0
 11
172.9667141483613
 21
57.80403170146403
 31
0.0
  0
LINE
  5
5B4
330
1F
100
AcDbEntity
  8
OBRYS
100
AcDbLine
 10
173.3446413724097
 20
62.26302172959384
 30
0.0
 11
173.1682523672021
 21
58.1478524577086
 31
0.0
  0
LINE
  5
5B5
330
1F
100
AcDbEntity
  8
OBRYS
100
AcDbLine
 10
173.7256691844402
 20
62.26302172959384
 30
0.0
 11
173.5327437099944
 21
58.1478524577086
 31
0.0
  0
LINE
  5
5B6
330
1F
100
AcDbEntity
  8
OBRYS
100
AcDbLine
 10
173.910326424267
 20
61.5650449238308
 30
0.0
 11
173.7346264386109
 21
57.80403170146403
 31
0.0
  0
LINE
  5
5B7
330
1F
100
AcDbEntity
  8
OBRYS
100
AcDbLine
 10
174.1917909110925
 20
61.5650449238308
 30
0.0
 11
174.0250481796072
 21
57.80403170146403
 31
0.0
  0
LINE
  5
5B8
330
1F
100
AcDbEntity
  8
OBRYS
100
AcDbLine
 10
174.4029754036555
 20
62.26302172959384
 30
0.0
 11
174.2266567967931
 21
58.1478524577086
 31
0.0
  0
LINE
  5
5B9
330
1F
100
AcDbEntity
  8
OBRYS
100
AcDbLine
 10
174.7840032156861
 20
62.26302172959384
 30
0.0
 11
174.5910777412403
 21
58.1478524577086
 31
0.0
  0
LINE
  5
5BA
330
1F
100
AcDbEntity
  8
OBRYS
100
AcDbLine
 10
174.9686604555129
 20
61.5650449238308
 30
0.0
 11
174.7929604698568
 21
57.80403170146403
 31
0.0
  0
LINE
  5
5BB
330
1F
100
AcDbEntity
  8
OBRYS
100
AcDbLine
 10
175.2501249423383
 20
61.5650449238308
 30
0.0
 11
175.083382210853
 21
57.80403170146403
 31
0.0
  0
LINE
  5
5BC
330
1F
100
AcDbEntity
  8
OBRYS
100
AcDbLine
 10
175.4613094349014
 20
62.26302172959384
 30
0.0
 11
175.2849204296936
 21
58.1478524577086
 31
0.0
  0
LINE
  5
5BD
330
1F
100
AcDbEntity
  8
OBRYS
100
AcDbLine
 10
175.8423372469319
 20
62.26302172959384
 30
0.0
 11
175.649411772486
 21
58.1478524577086
 31
0.0
  0
LINE
  5
5BE
330
1F
100
AcDbEntity
  8
OBRYS
100
AcDbLine
 10
176.0269944867587
 20
61.5650449238308
 30
0.0
 11
175.8512945011026
 21
57.80403170146403
 31
0.0
  0
LINE
  5
5BF
330
1F
100
AcDbEntity
  8
OBRYS
100
AcDbLine
 10
176.3084589735842
 20
61.5650449238308
 30
0.0
 11
176.1417162420988
 21
57.80403170146403
 31
0.0
  0
LINE
  5
5C0
330
1F
100
AcDbEntity
  8
OBRYS
100
AcDbLine
 10
176.5196434661472
 20
62.26302172959384
 30
0.0
 11
176.3433248592846
 21
58.1478524577086
 31
0.0
  0
LINE
  5
5C1
330
1F
100
AcDbEntity
  8
OBRYS
100
AcDbLine
 10
176.9006712781778
 20
62.26302172959384
 30
0.0
 11
176.7077458037319
 21
58.1478524577086
 31
0.0
  0
LINE
  5
5C2
330
1F
100
AcDbEntity
  8
OBRYS
100
AcDbLine
 10
177.04226479603
 20
56.54140337317107
 30
0.0
 11
177.04226479603
 21
74.94132598866864
 31
0.0
  0
LINE
  5
5C3
330
1F
100
AcDbEntity
  8
OBRYS
100
AcDbLine
 10
177.1225355737905
 20
75.24139400338711
 30
0.0
 11
180.4618688305827
 21
75.24139400338711
 31
0.0
  0
ARC
  5
5C4
330
1F
100
AcDbEntity
  8
OBRYS
100
AcDbCircle
 10
205.6965973134429
 20
70.49129321470954
 30
0.0
 40
28.57406173965234
100
AcDbArc
 50
171.0404696074439
 51
188.959530392556
  0
LINE
  5
5C5
330
1F
100
AcDbEntity
  8
OBRYS
100
AcDbLine
 10
177.4711794668962
 20
74.94132598866838
 30
0.0
 11
177.4711794668962
 21
75.24139400338711
 31
0.0
  0
LINE
  5
5C6
330
1F
100
AcDbEntity
  8
OBRYS
100
AcDbLine
 10
180.1135694472528
 20
74.94132598866864
 30
0.0
 11
180.1135694472528
 21
75.24139400338711
 31
0.0
  0
ARC
  5
5C7
330
1F
100
AcDbEntity
  8
OBRYS
100
AcDbCircle
 10
151.8598886041875
 20
70.49129321470954
 30
0.0
 40
28.60198022639525
100
AcDbArc
 50
351.0492869145566
 51
8.950713085443352
  0
LINE
  5
5C8
330
1F
100
AcDbEntity
  8
OBRYS
100
AcDbLine
 10
177.4711794668962
 20
56.54140337317107
 30
0.0
 11
177.4711794668962
 21
56.24133535845261
 31
0.0
  0
LINE
  5
5C9
330
1F
100
AcDbEntity
  8
OBRYS
100
AcDbLine
 10
180.1135694472528
 20
56.54140337317107
 30
0.0
 11
180.1135694472528
 21
56.24133535845261
 31
0.0
  0
ARC
  5
5CA
330
1F
100
AcDbEntity
  8
OBRYS
100
AcDbCircle
 10
209.5244170068535
 20
61.29133190696076
 30
0.0
 40
32.40326924662131
100
AcDbArc
 50
171.5707558114338
 51
188.4292441885662
  0
ARC
  5
5CB
330
1F
100
AcDbEntity
  8
OBRYS
100
AcDbCircle
 10
148.0282827389738
 20
61.29133190696076
 30
0.0
 40
32.43497254860203
100
AcDbArc
 50
351.5790547798003
 51
8.42094522019969
  0
LINE
  5
5CC
330
1F
100
AcDbEntity
  8
OBRYS
100
AcDbLine
 10
180.5421396083433
 20
74.94132598866864
 30
0.0
 11
180.5421396083433
 21
56.54140337317107
 31
0.0
  0
ARC
  5
5CD
330
1F
100
AcDbEntity
  8
OBRYS
100
AcDbCircle
 10
181.4424643898311
 20
56.84141554813967
 30
0.0
 40
0.900324783219481
100
AcDbArc
 50
179.9964464134967
 51
239.9829044813559
  0
ARC
  5
5CE
330
1F
100
AcDbEntity
  8
OBRYS
100
AcDbCircle
 10
181.4424643898311
 20
74.64131381370007
 30
0.0
 40
0.9003247832194278
100
AcDbArc
 50
120.0170955186419
 51
180.0035535865042
  0
LINE
  5
5CF
330
1F
100
AcDbEntity
  8
OBRYS
100
AcDbLine
 10
180.9920693755331
 20
54.74133979463608
 30
0.0
 11
180.9920693755331
 21
76.74138956720364
 31
0.0
  0
LINE
  5
5D0
330
1F
100
AcDbEntity
  8
OBRYS
100
AcDbLine
 10
183.5924291632425
 20
54.74133979463608
 30
0.0
 11
183.5924291632425
 21
76.74138956720364
 31
0.0
  0
ARC
  5
5D1
330
1F
100
AcDbEntity
  8
OBRYS
100
AcDbCircle
 10
183.5922893152773
 20
77.1411607830054
 30
0.0
 40
0.39977124026257
100
AcDbArc
 50
270.0200432085653
 51
0.0293284208785656
  0
ARC
  5
5D2
330
1F
100
AcDbEntity
  8
OBRYS
100
AcDbCircle
 10
183.5922893152773
 20
54.34156857883435
 30
0.0
 40
0.3997712402625416
100
AcDbArc
 50
359.9706715791174
 51
89.97995679143466
  0
LINE
  5
5D3
330
1F
100
AcDbEntity
  8
OBRYS
100
AcDbLine
 10
183.9920605031661
 20
53.04152856085779
 30
0.0
 11
183.9920605031661
 21
78.44154531075773
 31
0.0
  0
ARC
  5
5D4
330
1F
100
AcDbEntity
  8
OBRYS
100
AcDbCircle
 10
189.8894968909648
 20
90.36348095849831
 30
0.0
 40
3.100172755132474
100
AcDbArc
 50
30.82770226230421
 51
149.1722977376958
  0
LINE
  5
5D5
330
1F
100
AcDbEntity
  8
OBRYS
100
AcDbLine
 10
186.0921920964195
 20
90.45218962433961
 30
0.0
 11
187.227340643344
 21
91.95218962433961
 31
0.0
  0
LINE
  5
5D6
330
1F
100
AcDbEntity
  8
OBRYS
100
AcDbLine
 10
192.5516531385856
 20
91.95218962433961
 30
0.0
 11
195.4323648347763
 21
88.95218962433961
 31
0.0
  0
LINE
  5
5D7
330
1F
100
AcDbEntity
  8
OBRYS
100
AcDbLine
 10
200.7577441920403
 20
88.95218962433961
 30
0.0
 11
201.8920994339834
 21
90.45218962433961
 31
0.0
  0
ARC
  5
5D8
330
1F
100
AcDbEntity
  8
OBRYS
100
AcDbCircle
 10
198.0950545134083
 20
90.54136999203061
 30
0.0
 40
3.100872549097835
100
AcDbArc
 50
210.8301356332997
 51
329.1698643667002
  0
LINE
  5
5D9
330
1F
100
AcDbEntity
  8
OBRYS
100
AcDbLine
 10
186.0921920964195
 20
96.4521718796056
 30
0.0
 11
187.227340643344
 21
97.9521718796056
 31
0.0
  0
ARC
  5
5DA
330
1F
100
AcDbEntity
  8
OBRYS
100
AcDbCircle
 10
189.8894968909648
 20
96.3634632137643
 30
0.0
 40
3.100172755132474
100
AcDbArc
 50
30.82770226230466
 51
149.1722977376953
  0
LINE
  5
5DB
330
1F
100
AcDbEntity
  8
OBRYS
100
AcDbLine
 10
192.5516531385856
 20
97.9521718796056
 30
0.0
 11
195.4323648347763
 21
94.9521718796056
 31
0.0
  0
ARC
  5
5DC
330
1F
100
AcDbEntity
  8
OBRYS
100
AcDbCircle
 10
198.0950545134083
 20
96.5413522472966
 30
0.0
 40
3.100872549097835
100
AcDbArc
 50
210.8301356332992
 51
329.1698643667008
  0
LINE
  5
5DD
330
1F
100
AcDbEntity
  8
OBRYS
100
AcDbLine
 10
200.7577441920403
 20
94.9521718796056
 30
0.0
 11
201.8920994339834
 21
96.4521718796056
 31
0.0
  0
ARC
  5
5DE
330
1F
100
AcDbEntity
  8
OBRYS
100
AcDbCircle
 10
204.3922962627119
 20
74.04155584006459
 30
0.0
 40
0.4000652454605261
100
AcDbArc
 50
180.0128014812273
 51
269.9871985187726
  0
ARC
  5
5DF
330
1F
100
AcDbEntity
  8
OBRYS
100
AcDbCircle
 10
204.3922962627119
 20
57.44151803155093
 30
0.0
 40
0.4000652454605261
100
AcDbArc
 50
90.01280148122737
 51
179.9871985187747
  0
CIRCLE
  5
64D
330
1F
100
AcDbEntity
  8
OBRYS
100
AcDbCircle
 10
262.3543732862702
 20
65.74136468091986
 30
0.0
 40
1.499780902431612
  0
LINE
  5
64E
330
1F
100
AcDbEntity
  8
OBRYS
100
AcDbLine
 10
260.8679858585742
 20
65.94135260576955
 30
0.0
 11
261.5797430553691
 21
65.94135260576955
 31
0.0
  0
LINE
  5
64F
330
1F
100
AcDbEntity
  8
OBRYS
100
AcDbLine
 10
260.8679858585742
 20
65.54137675607019
 30
0.0
 11
261.5797430553691
 21
65.54137675607019
 31
0.0
  0
CIRCLE
  5
650
330
1F
100
AcDbEntity
  8
OBRYS
100
AcDbCircle
 10
262.3543732862702
 20
65.74136468091986
 30
0.0
 40
0.8000294774017105
  0
LINE
  5
651
330
1F
100
AcDbEntity
  8
OBRYS
100
AcDbLine
 10
262.1542070444787
 20
67.22772810584179
 30
0.0
 11
262.1543853613892
 21
66.51599491181291
 31
0.0
  0
LINE
  5
652
330
1F
100
AcDbEntity
  8
OBRYS
100
AcDbLine
 10
262.5546178703981
 20
67.2277175534996
 30
0.0
 11
262.5543612110962
 21
66.51599491179756
 31
0.0
  0
LINE
  5
653
330
1F
100
AcDbEntity
  8
OBRYS
100
AcDbLine
 10
263.1290035171614
 20
65.94135260580812
 30
0.0
 11
263.840731903975
 21
65.94156661615874
 31
0.0
  0
LINE
  5
654
330
1F
100
AcDbEntity
  8
OBRYS
100
AcDbLine
 10
263.1290035171244
 20
65.54137675607019
 30
0.0
 11
263.8411052236951
 21
65.54137675607019
 31
0.0
  0
LINE
  5
655
330
1F
100
AcDbEntity
  8
OBRYS
100
AcDbLine
 10
262.1543853613746
 20
64.96673445003053
 30
0.0
 11
262.154385361397
 21
64.2546327434715
 31
0.0
  0
LINE
  5
656
330
1F
100
AcDbEntity
  8
OBRYS
100
AcDbLine
 10
262.5543612111272
 20
64.96673445002058
 30
0.0
 11
262.554666995912
 21
64.2550184274592
 31
0.0
  0
CIRCLE
  5
657
330
1F
100
AcDbEntity
  8
OBRYS
100
AcDbCircle
 10
262.3543732862702
 20
65.74136468091986
 30
0.0
 40
4.04988467303516
  0
CIRCLE
  5
658
330
1F
100
AcDbEntity
  8
OBRYS
100
AcDbCircle
 10
262.3543732862702
 20
65.74136468091986
 30
0.0
 40
4.349952674799042
  0
ARC
  5
659
330
1F
100
AcDbEntity
  8
OBRYS
100
AcDbCircle
 10
262.3541859523208
 20
65.74155204197872
 30
0.0
 40
1.099703878284757
100
AcDbArc
 50
100.4720434329851
 51
169.5320324941715
  0
ARC
  5
65A
330
1F
100
AcDbEntity
  8
OBRYS
100
AcDbCircle
 10
262.3549271246648
 20
65.74191852088337
 30
0.0
 40
1.09927692891112
100
AcDbArc
 50
10.45265473702607
 51
79.54147861829622
  0
ARC
  5
65B
330
1F
100
AcDbEntity
  8
OBRYS
100
AcDbCircle
 10
262.3541858951
 20
65.74117728977306
 30
0.0
 40
1.099703816549693
100
AcDbArc
 50
190.4679665059574
 51
259.5320334940381
  0
ARC
  5
65C
330
1F
100
AcDbEntity
  8
OBRYS
100
AcDbCircle
 10
262.3549271240145
 20
65.74081084129817
 30
0.0
 40
1.099276929612618
100
AcDbArc
 50
280.4596442801639
 51
349.5473452516029
  0
ARC
  5
65D
330
1F
100
AcDbEntity
  8
OBRYS
100
AcDbCircle
 10
262.3494364430233
 20
65.74664603391902
 30
0.0
 40
6.911012152946097
100
AcDbArc
 50
12.19387798830007
 51
167.4113432829133
  0
ARC
  5
65E
330
1F
100
AcDbEntity
  8
OBRYS
100
AcDbCircle
 10
262.3545455411345
 20
65.74119242603193
 30
0.0
 40
6.917113040191204
100
AcDbArc
 50
192.6207354277287
 51
347.3792645722714
  0
CIRCLE
  5
65F
330
1F
100
AcDbEntity
  8
OBRYS
100
AcDbCircle
 10
262.3549271240145
 20
65.74081084129817
 30
0.0
 40
7.93746510777295
  0
CIRCLE
  5
660
330
1F
100
AcDbEntity
  8
OBRYS
100
AcDbCircle
 10
262.3541858951
 20
65.74117728977306
 30
0.0
 40
9.201704123578985
  0
ARC
  5
661
330
1F
100
AcDbEntity
  8
OBRYS
100
AcDbCircle
 10
267.4924061440943
 20
74.64075527091022
 30
0.0
 40
0.60063894284488
100
AcDbArc
 50
30.02767826324349
 51
89.95204645610038
  0
ARC
  5
662
330
1F
100
AcDbEntity
  8
OBRYS
100
AcDbCircle
 10
272.6304984910951
 20
65.74136468091986
 30
0.0
 40
0.6005362050163747
100
AcDbArc
 50
330.0410115261903
 51
29.95898847380971
  0
ARC
  5
663
330
1F
100
AcDbEntity
  8
OBRYS
100
AcDbCircle
 10
267.4918230707013
 20
56.84298359113249
 30
0.0
 40
0.6016492124130692
100
AcDbArc
 50
270.1033998542728
 51
329.916875426374
  0
ARC
  5
664
330
1F
100
AcDbEntity
  8
OBRYS
100
AcDbCircle
 10
257.2163399104552
 20
56.84197357298582
 30
0.0
 40
0.6006382352291133
100
AcDbArc
 50
210.0276602114881
 51
269.9849591151951
  0
ARC
  5
665
330
1F
100
AcDbEntity
  8
OBRYS
100
AcDbCircle
 10
252.0795442683201
 20
65.74136468091989
 30
0.0
 40
0.6016595476179314
100
AcDbArc
 50
150.102652667155
 51
209.8973473328473
  0
CIRCLE
  5
666
330
1F
100
AcDbEntity
  8
OBRYS
100
AcDbCircle
 10
262.3549271240145
 20
65.74081084129817
 30
0.0
 40
11.40055458199074
  0
ARC
  5
667
330
1F
100
AcDbEntity
  8
OBRYS
100
AcDbCircle
 10
262.3512587344815
 20
65.73825012915488
 30
0.0
 40
14.99552456537267
100
AcDbArc
 50
212.145384710887
 51
237.8546152891144
  0
ARC
  5
668
330
1F
100
AcDbEntity
  8
OBRYS
100
AcDbCircle
 10
262.3578323477889
 20
65.7382501291534
 30
0.0
 40
14.9955245653708
100
AcDbArc
 50
302.145384710885
 51
327.8546152891153
  0
ARC
  5
669
330
1F
100
AcDbEntity
  8
OBRYS
100
AcDbCircle
 10
262.3541119087745
 20
65.74168611655911
 30
0.0
 40
15.00016080044652
100
AcDbArc
 50
32.14685682076843
 51
57.84895963138804
  0
ARC
  5
66A
330
1F
100
AcDbEntity
  8
OBRYS
100
AcDbCircle
 10
262.3549791734958
 20
65.74168611655763
 30
0.0
 40
15.00016080044839
100
AcDbArc
 50
122.1510403686127
 51
147.8531431792293
  0
LINE
  5
66B
330
1F
100
AcDbEntity
  8
OBRYS
100
AcDbLine
 10
247.7042673254024
 20
69.7412954328013
 30
0.0
 11
247.7042673254024
 21
61.74143392903846
 31
0.0
  0
ARC
  5
66C
330
1F
100
AcDbEntity
  8
OBRYS
100
AcDbCircle
 10
252.23646208447
 20
65.89010175759763
 30
0.0
 40
7.605867723167235
100
AcDbArc
 50
151.194333375518
 51
177.0693215218421
  0
ARC
  5
66D
330
1F
100
AcDbEntity
  8
OBRYS
100
AcDbCircle
 10
252.5696174491845
 20
65.74136468091986
 30
0.0
 40
7.670951610421924
100
AcDbArc
 50
175.9812140507328
 51
184.0187859492669
  0
ARC
  5
66E
330
1F
100
AcDbEntity
  8
OBRYS
100
AcDbCircle
 10
252.2364620844702
 20
65.59262760424217
 30
0.0
 40
7.605867723167411
100
AcDbArc
 50
182.9306784781583
 51
208.8056666244815
  0
LINE
  5
66F
330
1F
100
AcDbEntity
  8
OBRYS
100
AcDbLine
 10
254.4545918723526
 20
96.45217187960561
 30
0.0
 11
255.5897404192771
 21
97.95217187960561
 31
0.0
  0
ARC
  5
670
330
1F
100
AcDbEntity
  8
OBRYS
100
AcDbCircle
 10
258.2518966668979
 20
96.36346321376432
 30
0.0
 40
3.100172755132474
100
AcDbArc
 50
30.82770226230489
 51
149.172297737696
  0
LINE
  5
671
330
1F
100
AcDbEntity
  8
OBRYS
100
AcDbLine
 10
260.9140529145185
 20
97.95217187960561
 30
0.0
 11
263.7947646107093
 21
94.95217187960561
 31
0.0
  0
ARC
  5
672
330
1F
100
AcDbEntity
  8
OBRYS
100
AcDbCircle
 10
266.4574542893413
 20
96.54135224729662
 30
0.0
 40
3.100872549097835
100
AcDbArc
 50
210.8301356333
 51
329.1698643667019
  0
LINE
  5
673
330
1F
100
AcDbEntity
  8
OBRYS
100
AcDbLine
 10
269.1201439679735
 20
94.95217187960561
 30
0.0
 11
270.2544992099164
 21
96.45217187960561
 31
0.0
  0
LINE
  5
674
330
1F
100
AcDbEntity
  8
OBRYS
100
AcDbLine
 10
254.4545918723526
 20
90.45218962433962
 30
0.0
 11
255.5897404192771
 21
91.95218962433962
 31
0.0
  0
ARC
  5
675
330
1F
100
AcDbEntity
  8
OBRYS
100
AcDbCircle
 10
258.2518966668979
 20
90.36348095849833
 30
0.0
 40
3.100172755132474
100
AcDbArc
 50
30.82770226230489
 51
149.172297737696
  0
LINE
  5
676
330
1F
100
AcDbEntity
  8
OBRYS
100
AcDbLine
 10
260.9140529145185
 20
91.95218962433962
 30
0.0
 11
263.7947646107093
 21
88.95218962433962
 31
0.0
  0
ARC
  5
677
330
1F
100
AcDbEntity
  8
OBRYS
100
AcDbCircle
 10
266.4574542893413
 20
90.54136999203062
 30
0.0
 40
3.100872549097835
100
AcDbArc
 50
210.8301356333009
 51
329.1698643667019
  0
LINE
  5
678
330
1F
100
AcDbEntity
  8
OBRYS
100
AcDbLine
 10
269.1201439679735
 20
88.95218962433962
 30
0.0
 11
270.2544992099164
 21
90.45218962433962
 31
0.0
  0
DIMENSION
  5
67F
330
1F
100
AcDbEntity
  8
KOTY
100
AcDbDimension
  2
*D1
 10
148.1742157869134
 20
53.04152856085779
 30
0.0
 11
143.6217157869134
 21
88.97992709747464
 31
0.0
 70
    32
  1
113
  3
STANDARD
100
AcDbAlignedDimension
 13
186.449793243696
 23
124.9183256340915
 33
0.0
 14
183.9920605031661
 24
53.04152856085779
 34
0.0
 50
90.0
100
AcDbRotatedDimension
1001
ACAD
1000
DSTYLE
1002
{
1070
    73
1070
     0
1070
    77
1070
     1
1070
   271
1070
     0
1070
   278
1070
    44
1070
   140
1040
5.0
1070
   147
1040
2.0
1070
    41
1040
5.0
1002
}
  0
DIMENSION
  5
692
330
1F
100
AcDbEntity
  8
KOTY
100
AcDbDimension
  2
*D2
 10
220.5921142145002
 20
18.84959053949549
 30
0.0
 11
190.0923070968234
 21
23.40209053949549
 31
0.0
 70
    32
  3
STANDARD
100
AcDbAlignedDimension
 13
159.5924999791467
 23
59.44108296519655
 33
0.0
 14
220.5921142145002
 24
59.44148666582322
 34
0.0
100
AcDbRotatedDimension
1001
ACAD
1000
DSTYLE
1002
{
1070
    73
1070
     0
1070
    77
1070
     1
1070
   271
1070
     0
1070
   278
1070
    44
1070
   140
1040
5.0
1070
   147
1040
2.0
1070
    41
1040
5.0
1002
}
  0
DIMENSION
  5
6B2
330
1F
100
AcDbEntity
  8
KOTY
100
AcDbDimension
  2
*D4
 10
275.0545539160844
 20
38.97416243028103
 30
0.0
 11
262.3545455411345
 21
43.52666243028103
 31
0.0
 70
    32
  3
STANDARD
100
AcDbAlignedDimension
 13
249.6545371661846
 23
57.75958994038634
 33
0.0
 14
275.0545539160844
 24
57.75958994038634
 34
0.0
100
AcDbRotatedDimension
1001
ACAD
1000
DSTYLE
1002
{
1070
    73
1070
     0
1070
    77
1070
     1
1070
   271
1070
     0
1070
   278
1070
    44
1070
   140
1040
5.0
1070
   147
1040
2.0
1070
    41
1040
5.0
1002
}
  0
DIMENSION
  5
6C2
330
1F
100
AcDbEntity
  8
KOTY
100
AcDbDimension
  2
*D5
 10
291.5339759897848
 20
53.04152856085781
 30
0.0
 11
286.9814759897848
 21
65.74153693580777
 31
0.0
 70
    32
  3
STANDARD
100
AcDbAlignedDimension
 13
270.336492536556
 23
78.44154531075773
 33
0.0
 14
270.336492536556
 24
53.04152856085781
 34
0.0
 50
90.0
100
AcDbRotatedDimension
1001
ACAD
1000
DSTYLE
1002
{
1070
    73
1070
     0
1070
    77
1070
     1
1070
   271
1070
     0
1070
   278
1070
    44
1070
   140
1040
5.0
1070
   147
1040
2.0
1070
    41
1040
5.0
1002
}
  0
DIMENSION
  5
6D2
330
1F
100
AcDbEntity
  8
KOTY
100
AcDbDimension
  2
*D6
 10
244.6405418892473
 20
18.66959053949551
 30
0.0
 11
259.8475479026658
 21
23.2220905394955
 31
0.0
 70
    32
  3
STANDARD
100
AcDbAlignedDimension
 13
275.0545539160844
 23
57.75958994038638
 33
0.0
 14
244.6405418892473
 24
65.20375717578996
 34
0.0
100
AcDbRotatedDimension
1001
ACAD
1000
DSTYLE
1002
{
1070
    73
1070
     0
1070
    77
1070
     1
1070
   271
1070
     0
1070
   278
1070
    44
1070
   140
1040
5.0
1070
   147
1040
2.0
1070
    41
1040
5.0
1002
}
  0
LINE
  5
9CE
330
1F
100
AcDbEntity
  8
OBRYS
100
AcDbLine
 10
204.3922310272369
 20
73.6414906045897
 30
0.0
 11
204.3922310272369
 21
57.84158326702581
 31
0.0
  0
LINE
  5
A64
330
1F
100
AcDbEntity
  8
OBRYS
100
AcDbLine
 10
206.9922463051706
 20
73.6414906045897
 30
0.0
 11
204.3922068769364
 21
73.6414906045897
 31
0.0
  0
LINE
  5
A65
330
1F
100
AcDbEntity
  8
OBRYS
100
AcDbLine
 10
206.9922463051706
 20
57.84158326702581
 30
0.0
 11
204.3922310272369
 21
57.84158326702581
 31
0.0
  0
LINE
  5
A66
330
1F
100
AcDbEntity
  8
OBRYS
100
AcDbLine
 10
206.9922463051706
 20
73.6414906045897
 30
0.0
 11
206.9922463051706
 21
57.84158326702581
 31
0.0
  0
ARC
  5
A67
330
1F
100
AcDbEntity
  8
OBRYS
100
AcDbCircle
 10
207.3923115406454
 20
72.99183455321354
 30
0.0
 40
0.4000652454603982
100
AcDbArc
 50
180.012801481209
 51
269.9871985187808
  0
ARC
  5
A68
330
1F
100
AcDbEntity
  8
OBRYS
100
AcDbCircle
 10
207.3923115406454
 20
58.49158382817777
 30
0.0
 40
0.4000652454603982
100
AcDbArc
 50
90.01280148121921
 51
179.987198518791
  0
LINE
  5
A69
330
1F
100
AcDbEntity
  8
OBRYS
100
AcDbLine
 10
207.3922221548699
 20
72.59176931773878
 30
0.0
 11
207.3922221548699
 21
58.89164906365252
 31
0.0
  0
LINE
  5
A6A
330
1F
100
AcDbEntity
  8
OBRYS
100
AcDbLine
 10
208.326877176605
 20
72.59176931773878
 30
0.0
 11
208.326877176605
 21
58.89164906365252
 31
0.0
  0
ARC
  5
A6B
330
1F
100
AcDbEntity
  8
OBRYS
100
AcDbCircle
 10
208.3267554594047
 20
58.49212947609989
 30
0.0
 40
0.3995196060937461
100
AcDbArc
 50
44.97632446314113
 51
89.98254433105527
  0
ARC
  5
A6C
330
1F
100
AcDbEntity
  8
OBRYS
100
AcDbCircle
 10
208.3267554594047
 20
72.9912889052914
 30
0.0
 40
0.3995196060937319
100
AcDbArc
 50
270.0174556689447
 51
315.0236755368603
  0
LINE
  5
A6D
330
1F
100
AcDbEntity
  8
OBRYS
100
AcDbLine
 10
208.6093751927578
 20
72.70890264150947
 30
0.0
 11
208.6093751927578
 21
58.77451573988183
 31
0.0
  0
LINE
  5
A6E
330
1F
100
AcDbEntity
  8
OBRYS
100
AcDbLine
 10
208.6093751927578
 20
58.77451573988183
 30
0.0
 11
209.5798592311756
 21
57.80403170146403
 31
0.0
  0
LINE
  5
A6F
330
1F
100
AcDbEntity
  8
OBRYS
100
AcDbLine
 10
209.5798592311756
 20
73.67904217015149
 30
0.0
 11
208.6092083405583
 21
72.70873574997137
 31
0.0
  0
LINE
  5
A70
330
1F
100
AcDbEntity
  8
OBRYS
100
AcDbLine
 10
209.5798592311756
 20
73.67904217015149
 30
0.0
 11
209.5798592311756
 21
57.80403170146403
 31
0.0
  0
LINE
  5
A71
330
1F
100
AcDbEntity
  8
OBRYS
100
AcDbLine
 10
218.1509179432085
 20
58.1481969674844
 30
0.0
 11
217.9521358025741
 21
57.80403170146403
 31
0.0
  0
LINE
  5
A72
330
1F
100
AcDbEntity
  8
OBRYS
100
AcDbLine
 10
217.9521358025741
 20
57.80403170146403
 30
0.0
 11
217.3923074169054
 21
73.67904217015149
 31
0.0
  0
LINE
  5
A73
330
1F
100
AcDbEntity
  8
OBRYS
100
AcDbLine
 10
217.6324307306353
 20
57.80403170146403
 30
0.0
 11
217.0726023449665
 21
73.67904217015149
 31
0.0
  0
LINE
  5
A74
330
1F
100
AcDbEntity
  8
OBRYS
100
AcDbLine
 10
218.1509179432085
 20
58.1481969674844
 30
0.0
 11
217.5979797530557
 21
73.32902023794257
 31
0.0
  0
LINE
  5
A75
330
1F
100
AcDbEntity
  8
OBRYS
100
AcDbLine
 10
218.5415154649765
 20
58.3907788627845
 30
0.0
 11
217.9938214854455
 21
73.33522141390691
 31
0.0
  0
LINE
  5
A76
330
1F
100
AcDbEntity
  8
OBRYS
100
AcDbLine
 10
218.1054426528034
 20
73.52849139812857
 30
0.0
 11
217.9938214854455
 21
73.33522141390691
 31
0.0
  0
LINE
  5
A77
330
1F
100
AcDbEntity
  8
OBRYS
100
AcDbLine
 10
217.9938214854455
 20
73.33522141390691
 30
0.0
 11
217.5979797530557
 21
73.32902023794257
 31
0.0
  0
LINE
  5
A78
330
1F
100
AcDbEntity
  8
OBRYS
100
AcDbLine
 10
217.3923074169054
 20
73.67904217015149
 30
0.0
 11
217.0726023449665
 21
73.67904217015149
 31
0.0
  0
LINE
  5
A79
330
1F
100
AcDbEntity
  8
OBRYS
100
AcDbLine
 10
217.0726023449665
 20
73.67904217015149
 30
0.0
 11
216.8738202043321
 21
73.33522141390691
 31
0.0
  0
LINE
  5
A7A
330
1F
100
AcDbEntity
  8
OBRYS
100
AcDbLine
 10
216.8738202043321
 20
73.33522141390691
 30
0.0
 11
216.4779784719423
 21
73.32902023794257
 31
0.0
  0
LINE
  5
A7B
330
1F
100
AcDbEntity
  8
OBRYS
100
AcDbLine
 10
215.9522565540774
 20
73.67904217015149
 30
0.0
 11
216.2719616260162
 21
73.67904217015149
 31
0.0
  0
LINE
  5
A7C
330
1F
100
AcDbEntity
  8
OBRYS
100
AcDbLine
 10
215.9522565540774
 20
73.67904217015149
 30
0.0
 11
215.7538189232188
 21
73.33522141390691
 31
0.0
  0
LINE
  5
A7D
330
1F
100
AcDbEntity
  8
OBRYS
100
AcDbLine
 10
215.3576326810532
 20
73.32902023794257
 30
0.0
 11
215.7538189232188
 21
73.33522141390691
 31
0.0
  0
LINE
  5
A7E
330
1F
100
AcDbEntity
  8
OBRYS
100
AcDbLine
 10
214.6338176421054
 20
73.33522141390691
 30
0.0
 11
214.8325997827398
 21
73.67904217015149
 31
0.0
  0
LINE
  5
A7F
330
1F
100
AcDbEntity
  8
OBRYS
100
AcDbLine
 10
214.2379759097156
 20
73.32867572816679
 30
0.0
 11
214.6338176421054
 21
73.33522141390691
 31
0.0
  0
LINE
  5
A80
330
1F
100
AcDbEntity
  8
OBRYS
100
AcDbLine
 10
213.7122539918507
 20
73.67904217015149
 30
0.0
 11
213.5138163609921
 21
73.33522141390691
 31
0.0
  0
LINE
  5
A81
330
1F
100
AcDbEntity
  8
OBRYS
100
AcDbLine
 10
213.5138163609921
 20
73.33522141390691
 30
0.0
 11
213.1176301188265
 21
73.32936474771837
 31
0.0
  0
LINE
  5
A82
330
1F
100
AcDbEntity
  8
OBRYS
100
AcDbLine
 10
212.912302292452
 20
73.67904217015149
 30
0.0
 11
213.1176301188265
 21
73.32936474771837
 31
0.0
  0
LINE
  5
A83
330
1F
100
AcDbEntity
  8
OBRYS
100
AcDbLine
 10
212.5925972205131
 20
73.67904217015149
 30
0.0
 11
212.3938150798788
 21
73.33522141390691
 31
0.0
  0
LINE
  5
A84
330
1F
100
AcDbEntity
  8
OBRYS
100
AcDbLine
 10
211.9979733474889
 20
73.32902023794257
 30
0.0
 11
212.3938150798788
 21
73.33522141390691
 31
0.0
  0
LINE
  5
A85
330
1F
100
AcDbEntity
  8
OBRYS
100
AcDbLine
 10
211.7919565015629
 20
73.67904217015149
 30
0.0
 11
211.9979733474889
 21
73.32902023794257
 31
0.0
  0
LINE
  5
A86
330
1F
100
AcDbEntity
  8
OBRYS
100
AcDbLine
 10
211.472251429624
 20
73.67904217015149
 30
0.0
 11
211.2738137987654
 21
73.33522141390691
 31
0.0
  0
LINE
  5
A87
330
1F
100
AcDbEntity
  8
OBRYS
100
AcDbLine
 10
210.8776275565998
 20
73.32936474771837
 30
0.0
 11
211.2738137987654
 21
73.33522141390691
 31
0.0
  0
LINE
  5
A88
330
1F
100
AcDbEntity
  8
OBRYS
100
AcDbLine
 10
211.232128115894
 20
57.80403170146403
 30
0.0
 11
211.4309102565285
 21
58.1481969674844
 31
0.0
  0
LINE
  5
A89
330
1F
100
AcDbEntity
  8
OBRYS
100
AcDbLine
 10
211.830541596452
 20
58.1481969674844
 30
0.0
 11
212.0324243250686
 21
57.80403170146403
 31
0.0
  0
LINE
  5
A8A
330
1F
100
AcDbEntity
  8
OBRYS
100
AcDbLine
 10
212.0324243250686
 20
57.80403170146403
 30
0.0
 11
212.3590195925233
 21
57.81023287742835
 31
0.0
  0
LINE
  5
A8B
330
1F
100
AcDbEntity
  8
OBRYS
100
AcDbLine
 10
212.550567027866
 20
58.1481969674844
 30
0.0
 11
212.3590195925233
 21
57.81023287742835
 31
0.0
  0
LINE
  5
A8C
330
1F
100
AcDbEntity
  8
OBRYS
100
AcDbLine
 10
213.1524256061819
 20
57.80403170146403
 30
0.0
 11
212.9501983677896
 21
58.1481969674844
 31
0.0
  0
LINE
  5
A8D
330
1F
100
AcDbEntity
  8
OBRYS
100
AcDbLine
 10
212.550567027866
 20
58.1481969674844
 30
0.0
 11
212.9501983677896
 21
58.1481969674844
 31
0.0
  0
LINE
  5
A8E
330
1F
100
AcDbEntity
  8
OBRYS
100
AcDbLine
 10
213.4790208736367
 20
57.81023287742835
 30
0.0
 11
213.1524256061819
 21
57.80403170146403
 31
0.0
  0
LINE
  5
A8F
330
1F
100
AcDbEntity
  8
OBRYS
100
AcDbLine
 10
213.6709128187551
 20
58.1481969674844
 30
0.0
 11
213.4790208736367
 21
57.81023287742835
 31
0.0
  0
LINE
  5
A90
330
1F
100
AcDbEntity
  8
OBRYS
100
AcDbLine
 10
214.0705441586787
 20
58.1481969674844
 30
0.0
 11
214.2724268872952
 21
57.80403170146403
 31
0.0
  0
LINE
  5
A91
330
1F
100
AcDbEntity
  8
OBRYS
100
AcDbLine
 10
213.6709128187551
 20
58.1481969674844
 30
0.0
 11
214.0705441586787
 21
58.1481969674844
 31
0.0
  0
LINE
  5
A92
330
1F
100
AcDbEntity
  8
OBRYS
100
AcDbLine
 10
214.2724268872952
 20
57.80403170146403
 30
0.0
 11
214.59902215475
 21
57.80988836765256
 31
0.0
  0
LINE
  5
A93
330
1F
100
AcDbEntity
  8
OBRYS
100
AcDbLine
 10
214.7905695900927
 20
58.1481969674844
 30
0.0
 11
214.59902215475
 21
57.80988836765256
 31
0.0
  0
LINE
  5
A94
330
1F
100
AcDbEntity
  8
OBRYS
100
AcDbLine
 10
215.1902009300162
 20
58.1481969674844
 30
0.0
 11
215.3924281684086
 21
57.80403170146403
 31
0.0
  0
LINE
  5
A95
330
1F
100
AcDbEntity
  8
OBRYS
100
AcDbLine
 10
215.1902009300162
 20
58.1481969674844
 30
0.0
 11
214.7905695900927
 21
58.1481969674844
 31
0.0
  0
LINE
  5
A96
330
1F
100
AcDbEntity
  8
OBRYS
100
AcDbLine
 10
215.9109153809818
 20
58.1481969674844
 30
0.0
 11
215.7121332403474
 21
57.80403170146403
 31
0.0
  0
LINE
  5
A97
330
1F
100
AcDbEntity
  8
OBRYS
100
AcDbLine
 10
215.7121332403474
 20
57.80403170146403
 30
0.0
 11
215.3924281684086
 21
57.80403170146403
 31
0.0
  0
LINE
  5
A98
330
1F
100
AcDbEntity
  8
OBRYS
100
AcDbLine
 10
216.3105467209054
 20
58.1481969674844
 30
0.0
 11
216.5124294495219
 21
57.80403170146403
 31
0.0
  0
LINE
  5
A99
330
1F
100
AcDbEntity
  8
OBRYS
100
AcDbLine
 10
216.3105467209054
 20
58.1481969674844
 30
0.0
 11
215.9109153809818
 21
58.1481969674844
 31
0.0
  0
LINE
  5
A9A
330
1F
100
AcDbEntity
  8
OBRYS
100
AcDbLine
 10
217.0305721523194
 20
58.1481969674844
 30
0.0
 11
216.8321345214608
 21
57.80403170146403
 31
0.0
  0
LINE
  5
A9B
330
1F
100
AcDbEntity
  8
OBRYS
100
AcDbLine
 10
216.8321345214608
 20
57.80403170146403
 30
0.0
 11
216.5124294495219
 21
57.80403170146403
 31
0.0
  0
LINE
  5
A9C
330
1F
100
AcDbEntity
  8
OBRYS
100
AcDbLine
 10
217.4302034922429
 20
58.1481969674844
 30
0.0
 11
217.6324307306353
 21
57.80403170146403
 31
0.0
  0
LINE
  5
A9D
330
1F
100
AcDbEntity
  8
OBRYS
100
AcDbLine
 10
217.4302034922429
 20
58.1481969674844
 30
0.0
 11
217.0305721523194
 21
58.1481969674844
 31
0.0
  0
LINE
  5
A9E
330
1F
100
AcDbEntity
  8
OBRYS
100
AcDbLine
 10
217.9521358025741
 20
57.80403170146403
 30
0.0
 11
217.6324307306353
 21
57.80403170146403
 31
0.0
  0
LINE
  5
A9F
330
1F
100
AcDbEntity
  8
OBRYS
100
AcDbLine
 10
211.830541596452
 20
58.1481969674844
 30
0.0
 11
211.4309102565285
 21
58.1481969674844
 31
0.0
  0
LINE
  5
AA0
330
1F
100
AcDbEntity
  8
OBRYS
100
AcDbLine
 10
217.4302034922429
 20
58.1481969674844
 30
0.0
 11
216.8738202043321
 21
73.33522141390691
 31
0.0
  0
LINE
  5
AA1
330
1F
100
AcDbEntity
  8
OBRYS
100
AcDbLine
 10
211.472251429624
 20
73.67904217015149
 30
0.0
 11
211.7919565015629
 21
73.67904217015149
 31
0.0
  0
LINE
  5
AA3
330
1F
100
AcDbEntity
  8
OBRYS
100
AcDbLine
 10
212.5925972205131
 20
73.67904217015149
 30
0.0
 11
212.912302292452
 21
73.67904217015149
 31
0.0
  0
LINE
  5
AA5
330
1F
100
AcDbEntity
  8
OBRYS
100
AcDbLine
 10
213.7122539918507
 20
73.67904217015149
 30
0.0
 11
214.0319590637895
 21
73.67904217015149
 31
0.0
  0
LINE
  5
AA7
330
1F
100
AcDbEntity
  8
OBRYS
100
AcDbLine
 10
214.8325997827398
 20
73.67904217015149
 30
0.0
 11
215.1523048546787
 21
73.67904217015149
 31
0.0
  0
LINE
  5
AA8
330
1F
100
AcDbEntity
  8
OBRYS
100
AcDbLine
 10
216.2719616260162
 20
73.67904217015149
 30
0.0
 11
216.4779784719423
 21
73.32902023794257
 31
0.0
  0
LINE
  5
AA9
330
1F
100
AcDbEntity
  8
OBRYS
100
AcDbLine
 10
215.1523048546787
 20
73.67904217015149
 30
0.0
 11
215.3576326810532
 21
73.32902023794257
 31
0.0
  0
LINE
  5
AAA
330
1F
100
AcDbEntity
  8
OBRYS
100
AcDbLine
 10
217.5979797530557
 20
73.32902023794257
 30
0.0
 11
217.3923074169054
 21
73.67904217015149
 31
0.0
  0
LINE
  5
AAB
330
1F
100
AcDbEntity
  8
OBRYS
100
AcDbLine
 10
214.2379759097156
 20
73.32867572816679
 30
0.0
 11
214.0319590637895
 21
73.67904217015149
 31
0.0
  0
LINE
  5
AAC
330
1F
100
AcDbEntity
  8
OBRYS
100
AcDbLine
 10
217.0305721523194
 20
58.1481969674844
 30
0.0
 11
216.4779784719423
 21
73.32902023794257
 31
0.0
  0
LINE
  5
AAD
330
1F
100
AcDbEntity
  8
OBRYS
100
AcDbLine
 10
216.2719616260162
 20
73.67904217015149
 30
0.0
 11
216.8321345214608
 21
57.80403170146403
 31
0.0
  0
LINE
  5
AAE
330
1F
100
AcDbEntity
  8
OBRYS
100
AcDbLine
 10
216.5124294495219
 20
57.80403170146403
 30
0.0
 11
215.9522565540774
 21
73.67904217015149
 31
0.0
  0
LINE
  5
AAF
330
1F
100
AcDbEntity
  8
OBRYS
100
AcDbLine
 10
215.7538189232188
 20
73.33522141390691
 30
0.0
 11
216.3105467209054
 21
58.1481969674844
 31
0.0
  0
LINE
  5
AB0
330
1F
100
AcDbEntity
  8
OBRYS
100
AcDbLine
 10
215.9109153809818
 20
58.1481969674844
 30
0.0
 11
215.3576326810532
 21
73.32902023794257
 31
0.0
  0
LINE
  5
AB1
330
1F
100
AcDbEntity
  8
OBRYS
100
AcDbLine
 10
215.1523048546787
 20
73.67904217015149
 30
0.0
 11
215.7121332403474
 21
57.80403170146403
 31
0.0
  0
LINE
  5
AB2
330
1F
100
AcDbEntity
  8
OBRYS
100
AcDbLine
 10
215.3924281684086
 20
57.80403170146403
 30
0.0
 11
214.8325997827398
 21
73.67904217015149
 31
0.0
  0
LINE
  5
AB3
330
1F
100
AcDbEntity
  8
OBRYS
100
AcDbLine
 10
214.6338176421054
 20
73.33522141390691
 30
0.0
 11
215.1902009300162
 21
58.1481969674844
 31
0.0
  0
LINE
  5
AB4
330
1F
100
AcDbEntity
  8
OBRYS
100
AcDbLine
 10
214.7905695900927
 20
58.1481969674844
 30
0.0
 11
214.2379759097156
 21
73.32867572816679
 31
0.0
  0
LINE
  5
AB5
330
1F
100
AcDbEntity
  8
OBRYS
100
AcDbLine
 10
214.0319590637895
 20
73.67904217015149
 30
0.0
 11
214.59902215475
 21
57.80988836765256
 31
0.0
  0
LINE
  5
AB6
330
1F
100
AcDbEntity
  8
OBRYS
100
AcDbLine
 10
214.2724268872952
 20
57.80403170146403
 30
0.0
 11
213.7122539918507
 21
73.67904217015149
 31
0.0
  0
LINE
  5
AB7
330
1F
100
AcDbEntity
  8
OBRYS
100
AcDbLine
 10
213.5138163609921
 20
73.33522141390691
 30
0.0
 11
214.0705441586787
 21
58.1481969674844
 31
0.0
  0
LINE
  5
AB8
330
1F
100
AcDbEntity
  8
OBRYS
100
AcDbLine
 10
213.6709128187551
 20
58.1481969674844
 30
0.0
 11
213.1176301188265
 21
73.32936474771837
 31
0.0
  0
LINE
  5
AB9
330
1F
100
AcDbEntity
  8
OBRYS
100
AcDbLine
 10
212.912302292452
 20
73.67904217015149
 30
0.0
 11
213.4790208736367
 21
57.81023287742835
 31
0.0
  0
LINE
  5
ABA
330
1F
100
AcDbEntity
  8
OBRYS
100
AcDbLine
 10
213.1524256061819
 20
57.80403170146403
 30
0.0
 11
212.5925972205131
 21
73.67904217015149
 31
0.0
  0
LINE
  5
ABB
330
1F
100
AcDbEntity
  8
OBRYS
100
AcDbLine
 10
212.3938150798788
 20
73.33522141390691
 30
0.0
 11
212.9501983677896
 21
58.1481969674844
 31
0.0
  0
LINE
  5
ABC
330
1F
100
AcDbEntity
  8
OBRYS
100
AcDbLine
 10
212.550567027866
 20
58.1481969674844
 30
0.0
 11
211.9979733474889
 21
73.32902023794257
 31
0.0
  0
LINE
  5
ABD
330
1F
100
AcDbEntity
  8
OBRYS
100
AcDbLine
 10
211.7919565015629
 20
73.67904217015149
 30
0.0
 11
212.3590195925233
 21
57.81023287742835
 31
0.0
  0
LINE
  5
AC0
330
1F
100
AcDbEntity
  8
OBRYS
100
AcDbLine
 10
212.0324243250686
 20
57.80403170146403
 30
0.0
 11
211.472251429624
 21
73.67904217015149
 31
0.0
  0
LINE
  5
AC1
330
1F
100
AcDbEntity
  8
OBRYS
100
AcDbLine
 10
211.2738137987654
 20
73.33522141390691
 30
0.0
 11
211.830541596452
 21
58.1481969674844
 31
0.0
  0
LINE
  5
AC2
330
1F
100
AcDbEntity
  8
OBRYS
100
AcDbLine
 10
210.8776275565998
 20
73.32936474771837
 30
0.0
 11
211.4309102565285
 21
58.1481969674844
 31
0.0
  0
LINE
  5
AC3
330
1F
100
AcDbEntity
  8
OBRYS
100
AcDbLine
 10
211.232128115894
 20
57.80403170146403
 30
0.0
 11
210.6722997302253
 21
73.67904217015149
 31
0.0
  0
LINE
  5
AC4
330
1F
100
AcDbEntity
  8
OBRYS
100
AcDbLine
 10
210.8776275565998
 20
73.32936474771837
 30
0.0
 11
210.6722997302253
 21
73.67904217015149
 31
0.0
  0
LINE
  5
AC5
330
1F
100
AcDbEntity
  8
OBRYS
100
AcDbLine
 10
210.6722997302253
 20
73.67904217015149
 30
0.0
 11
209.5798592311756
 21
73.67904217015149
 31
0.0
  0
LINE
  5
AC6
330
1F
100
AcDbEntity
  8
OBRYS
100
AcDbLine
 10
209.5798592311756
 20
57.80403170146403
 30
0.0
 11
211.232128115894
 21
57.80403170146403
 31
0.0
  0
LINE
  5
AC7
330
1F
100
AcDbEntity
  8
OBRYS
100
AcDbLine
 10
207.3922221548699
 20
58.89164906365252
 30
0.0
 11
208.326877176605
 21
58.89164906365252
 31
0.0
  0
LINE
  5
AC8
330
1F
100
AcDbEntity
  8
OBRYS
100
AcDbLine
 10
208.326877176605
 20
72.59176931773878
 30
0.0
 11
207.3922221548699
 21
72.59176931773878
 31
0.0
  0
LINE
  5
AC9
330
1F
100
AcDbEntity
  8
OBRYS
100
AcDbLine
 10
218.974985326913
 20
72.65894872401903
 30
0.0
 11
218.1054426528034
 21
73.52849139812857
 31
0.0
  0
ARC
  5
ACA
330
1F
100
AcDbEntity
  8
OBRYS
100
AcDbCircle
 10
219.2580190993708
 20
72.94233467767994
 30
0.0
 40
0.4005193067555731
100
AcDbArc
 50
225.0356246314079
 51
270.0219248791572
  0
LINE
  5
ACB
330
1F
100
AcDbEntity
  8
OBRYS
100
AcDbLine
 10
218.2990571468008
 20
58.1481969674844
 30
0.0
 11
218.1509179432085
 21
58.1481969674844
 31
0.0
  0
LINE
  5
ACC
330
1F
100
AcDbEntity
  8
OBRYS
100
AcDbLine
 10
218.2990571468008
 20
58.1481969674844
 30
0.0
 11
218.974985326913
 21
58.82446965737228
 31
0.0
  0
ARC
  5
ACD
330
1F
100
AcDbEntity
  8
OBRYS
100
AcDbCircle
 10
219.2580190993708
 20
58.54108370371137
 30
0.0
 40
0.4005193067555731
100
AcDbArc
 50
89.97807512084285
 51
134.9643753685921
  0
LINE
  5
ACE
330
1F
100
AcDbEntity
  8
OBRYS
100
AcDbLine
 10
220.09223052982
 20
58.94160298114298
 30
0.0
 11
219.2581723626174
 21
58.94160298114298
 31
0.0
  0
ARC
  5
ACF
330
1F
100
AcDbEntity
  8
OBRYS
100
AcDbCircle
 10
220.0922900122015
 20
59.44142718344168
 30
0.0
 40
0.4998242058381024
100
AcDbArc
 50
269.9931814238228
 51
0.0068185761828467
  0
LINE
  5
AD0
330
1F
100
AcDbEntity
  8
OBRYS
100
AcDbLine
 10
219.2581723626174
 20
72.54181540024832
 30
0.0
 11
219.2581723626174
 21
58.94160298114298
 31
0.0
  0
LINE
  5
AD1
330
1F
100
AcDbEntity
  8
OBRYS
100
AcDbLine
 10
220.09223052982
 20
58.94160298114298
 30
0.0
 11
220.09223052982
 21
72.54181540024832
 31
0.0
  0
LINE
  5
AD2
330
1F
100
AcDbEntity
  8
OBRYS
100
AcDbLine
 10
220.09223052982
 20
72.54181540024832
 30
0.0
 11
219.2581723626174
 21
72.54181540024832
 31
0.0
  0
ARC
  5
AD3
330
1F
100
AcDbEntity
  8
OBRYS
100
AcDbCircle
 10
220.0922164444937
 20
72.04191752130956
 30
0.0
 40
0.4998978791372047
100
AcDbArc
 50
359.9621408947432
 51
89.998385610766
  0
LINE
  5
AD4
330
1F
100
AcDbEntity
  8
OBRYS
100
AcDbLine
 10
220.5921142145002
 20
72.0415872057923
 30
0.0
 11
220.5921142180396
 21
59.44142718344168
 31
0.0
  0
VIEWPORT
  5
722
330
58
100
AcDbEntity
 67
     1
  8
0
100
AcDbViewport
 10
5.25
 20
3.5
 30
0.0
 40
12.6
 41
8.4
 68
     1
 69
     1
1001
ACAD
1000
MVIEW
1002
{
1070
    16
1010
0.0
1020
0.0
1030
0.0
1010
0.0
1020
0.0
1030
1.0
1040
0.0
1040
8.4
1040
5.25
1040
3.5
1040
50.0
1040
0.0
1040
0.0
1070
     0
1070
   100
1070
     0
1070
     3
1070
     0
1070
     0
1070
     0
1070
     0
1040
0.0
1040
0.0
1040
0.0
1040
0.5
1040
0.5
1040
0.0
1040
0.0
1070
     0
1002
{
1002
}
1002
}
  0
VIEWPORT
  5
723
330
58
100
AcDbEntity
 67
     1
  8
0
100
AcDbViewport
 10
5.25
 20
3.5
 30
0.0
 40
8.4
 41
5.600000000000001
 68
     2
 69
     2
1001
ACAD
1000
MVIEW
1002
{
1070
    16
1010
0.0
1020
0.0
1030
0.0
1010
0.0
1020
0.0
1030
1.0
1040
0.0
1040
156.5642454466031
1040
256.1799844976509
1040
71.37729142012682
1040
50.0
1040
0.0
1040
0.0
1070
     0
1070
   100
1070
     0
1070
     3
1070
     0
1070
     0
1070
     0
1070
     0
1040
0.0
1040
0.0
1040
0.0
1040
0.5
1040
0.5
1040
0.0
1040
0.0
1070
     0
1002
{
1002
}
1002
}
  0
ENDSEC
  0
SECTION
  2
OBJECTS
  0
DICTIONARY
  5
C
330
0
100
AcDbDictionary
  3
ACAD_GROUP
350
D
  3
ACAD_IMAGE_VARS
350
DC
  3
ACAD_MLINESTYLE
350
17
  3
ACAD_SCALELIST
350
726
  3
ACDBVARIABLEDICTIONARY
350
66
  3
APPDATA
350
E1
  3
DWGPROPS
350
AD7
  0
DICTIONARY
  5
679
330
2
100
AcDbDictionary
280
     1
  3
ACAD_LAYERSTATES
360
67A
  3
ACLYDICTIONARY
360
A63
  0
DICTIONARY
  5
D
102
{ACAD_REACTORS
330
C
102
}
330
C
100
AcDbDictionary
  0
RASTERVARIABLES
  5
DC
102
{ACAD_REACTORS
330
C
102
}
330
C
100
AcDbRasterVariables
 90
        0
 70
     1
 71
     1
 72
     5
  0
DICTIONARY
  5
17
102
{ACAD_REACTORS
330
C
102
}
330
C
100
AcDbDictionary
  3
STANDARD
350
18
  0
DICTIONARY
  5
726
102
{ACAD_REACTORS
330
C
102
}
330
C
100
AcDbDictionary
  0
DICTIONARY
  5
66
102
{ACAD_REACTORS
330
C
102
}
330
C
100
AcDbDictionary
  3
CANNOSCALE
350
AD6
  3
DIMASSOC
350
67
  3
HIDETEXT
350
6B
  0
DICTIONARY
  5
E1
102
{ACAD_REACTORS
330
C
102
}
330
C
100
AcDbDictionary
  0
XRECORD
  5
AD7
102
{ACAD_REACTORS
330
C
102
}
330
C
100
AcDbXrecord
  1
DWGPROPS COOKIE
  2

  3

  4

  6

  7

  8
jaromir.podrabsky
  9

300
=
301
=
302
=
303
=
304
=
305
=
306
=
307
=
308
=
309
=
 40
0.0
 41
2452643.063384259
 42
2458101.556946666
  1

 90
        0
  0
DICTIONARY
  5
67A
102
{ACAD_REACTORS
330
679
102
}
330
679
100
AcDbDictionary
  0
DICTIONARY
  5
A63
102
{ACAD_REACTORS
330
679
102
}
330
679
100
AcDbDictionary
1001
ACAD
1000
<All
  0
MLINESTYLE
  5
18
102
{ACAD_REACTORS
330
17
102
}
330
17
100
AcDbMlineStyle
  2
STANDARD
 70
     0
  3

 62
   256
 51
90.0
 52
90.0
 71
     2
 49
0.5
 62
   256
  6
BYLAYER
 49
-0.5
 62
   256
  6
BYLAYER
  0
DICTIONARYVAR
  5
AD6
102
{ACAD_REACTORS
330
66
102
}
330
66
100
DictionaryVariables
280
     0
  1
1:1
  0
DICTIONARYVAR
  5
67
102
{ACAD_REACTORS
330
66
102
}
330
66
100
DictionaryVariables
280
     0
  1
2
  0
DICTIONARYVAR
  5
6B
102
{ACAD_REACTORS
330
66
102
}
330
66
100
DictionaryVariables
280
     0
  1
1
  0
ENDSEC
  0
EOF
