  0
SECTION
  2
HEADER
  9
$ACADVER
  1
AC1014
  9
$ACADMAINTVER
 70
     9
  9
$DWGCODEPAGE
  3
ANSI_1250
  9
$INSBASE
 10
0.0
 20
0.0
 30
0.0
  9
$EXTMIN
 10
51.28708820817015
 20
53.95329936502
 30
0.0
  9
$EXTMAX
 10
186.4250378947152
 20
126.19364392517
 30
0.0
  9
$LIMMIN
 10
0.0
 20
0.0
  9
$LIMMAX
 10
12.0
 20
9.0
  9
$ORTHOMODE
 70
     0
  9
$REGENMODE
 70
     1
  9
$FILLMODE
 70
     1
  9
$QTEXTMODE
 70
     0
  9
$MIRRTEXT
 70
     0
  9
$DRAGMODE
 70
     2
  9
$LTSCALE
 40
1.0
  9
$OSMODE
 70
 15359
  9
$ATTMODE
 70
     1
  9
$TEXTSIZE
 40
0.2
  9
$TRACEWID
 40
0.05
  9
$TEXTSTYLE
  7
STANDARD
  9
$CLAYER
  8
0
  9
$CELTYPE
  6
BYLAYER
  9
$CECOLOR
 62
   256
  9
$CELTSCALE
 40
1.0
  9
$DELOBJ
 70
     1
  9
$DISPSILH
 70
     0
  9
$DIMSCALE
 40
1.0
  9
$DIMASZ
 40
0.18
  9
$DIMEXO
 40
0.0625
  9
$DIMDLI
 40
0.38
  9
$DIMRND
 40
0.0
  9
$DIMDLE
 40
0.0
  9
$DIMEXE
 40
0.18
  9
$DIMTP
 40
0.0
  9
$DIMTM
 40
0.0
  9
$DIMTXT
 40
0.18
  9
$DIMCEN
 40
0.09
  9
$DIMTSZ
 40
0.0
  9
$DIMTOL
 70
     0
  9
$DIMLIM
 70
     0
  9
$DIMTIH
 70
     1
  9
$DIMTOH
 70
     1
  9
$DIMSE1
 70
     0
  9
$DIMSE2
 70
     0
  9
$DIMTAD
 70
     0
  9
$DIMZIN
 70
     0
  9
$DIMBLK
  1

  9
$DIMASO
 70
     1
  9
$DIMSHO
 70
     1
  9
$DIMPOST
  1

  9
$DIMAPOST
  1

  9
$DIMALT
 70
     0
  9
$DIMALTD
 70
     2
  9
$DIMALTF
 40
25.4
  9
$DIMLFAC
 40
1.0
  9
$DIMTOFL
 70
     0
  9
$DIMTVP
 40
0.0
  9
$DIMTIX
 70
     0
  9
$DIMSOXD
 70
     0
  9
$DIMSAH
 70
     0
  9
$DIMBLK1
  1

  9
$DIMBLK2
  1

  9
$DIMSTYLE
  2
STANDARD
  9
$DIMCLRD
 70
     0
  9
$DIMCLRE
 70
     0
  9
$DIMCLRT
 70
     0
  9
$DIMTFAC
 40
1.0
  9
$DIMGAP
 40
0.09
  9
$DIMJUST
 70
     0
  9
$DIMSD1
 70
     0
  9
$DIMSD2
 70
     0
  9
$DIMTOLJ
 70
     1
  9
$DIMTZIN
 70
     0
  9
$DIMALTZ
 70
     0
  9
$DIMALTTZ
 70
     0
  9
$DIMFIT
 70
     5
  9
$DIMUPT
 70
     0
  9
$DIMUNIT
 70
     2
  9
$DIMDEC
 70
     4
  9
$DIMTDEC
 70
     4
  9
$DIMALTU
 70
     2
  9
$DIMALTTD
 70
     2
  9
$DIMTXSTY
  7
STANDARD
  9
$DIMAUNIT
 70
     0
  9
$LUNITS
 70
     2
  9
$LUPREC
 70
     4
  9
$SKETCHINC
 40
0.1
  9
$FILLETRAD
 40
0.0
  9
$AUNITS
 70
     0
  9
$AUPREC
 70
     0
  9
$MENU
  1
.
  9
$ELEVATION
 40
0.0
  9
$PELEVATION
 40
0.0
  9
$THICKNESS
 40
0.0
  9
$LIMCHECK
 70
     0
  9
$CHAMFERA
 40
0.0
  9
$CHAMFERB
 40
0.0
  9
$CHAMFERC
 40
0.0
  9
$CHAMFERD
 40
0.0
  9
$SKPOLY
 70
     0
  9
$TDCREATE
 40
2452643.105050926
  9
$TDUPDATE
 40
2456727.407665787
  9
$TDINDWG
 40
0.0471183449
  9
$TDUSRTIMER
 40
2456727.32875294
  9
$USRTIMER
 70
     1
  9
$ANGBASE
 50
0.0
  9
$ANGDIR
 70
     0
  9
$PDMODE
 70
     0
  9
$PDSIZE
 40
0.0
  9
$PLINEWID
 40
0.0
  9
$COORDS
 70
     2
  9
$SPLFRAME
 70
     0
  9
$SPLINETYPE
 70
     6
  9
$SPLINESEGS
 70
     8
  9
$ATTDIA
 70
     0
  9
$ATTREQ
 70
     1
  9
$HANDLING
 70
     1
  9
$HANDSEED
  5
52A
  9
$SURFTAB1
 70
     6
  9
$SURFTAB2
 70
     6
  9
$SURFTYPE
 70
     6
  9
$SURFU
 70
     6
  9
$SURFV
 70
     6
  9
$UCSNAME
  2

  9
$UCSORG
 10
0.0
 20
0.0
 30
0.0
  9
$UCSXDIR
 10
1.0
 20
0.0
 30
0.0
  9
$UCSYDIR
 10
0.0
 20
1.0
 30
0.0
  9
$PUCSNAME
  2

  9
$PUCSORG
 10
0.0
 20
0.0
 30
0.0
  9
$PUCSXDIR
 10
1.0
 20
0.0
 30
0.0
  9
$PUCSYDIR
 10
0.0
 20
1.0
 30
0.0
  9
$USERI1
 70
     0
  9
$USERI2
 70
     0
  9
$USERI3
 70
     0
  9
$USERI4
 70
     0
  9
$USERI5
 70
     0
  9
$USERR1
 40
0.0
  9
$USERR2
 40
0.0
  9
$USERR3
 40
0.0
  9
$USERR4
 40
0.0
  9
$USERR5
 40
0.0
  9
$WORLDVIEW
 70
     1
  9
$SHADEDGE
 70
     3
  9
$SHADEDIF
 70
    70
  9
$TILEMODE
 70
     0
  9
$MAXACTVP
 70
    64
  9
$PINSBASE
 10
0.0
 20
0.0
 30
0.0
  9
$PLIMCHECK
 70
     0
  9
$PEXTMIN
 10
1.05
 20
0.7999999999999998
 30
0.0
  9
$PEXTMAX
 10
9.45
 20
7.2
 30
0.0
  9
$PLIMMIN
 10
0.8500000000000006
 20
0.5999999999999998
  9
$PLIMMAX
 10
9.650000000000002
 20
7.4
  9
$UNITMODE
 70
     0
  9
$VISRETAIN
 70
     1
  9
$PLINEGEN
 70
     0
  9
$PSLTSCALE
 70
     1
  9
$TREEDEPTH
 70
  3020
  9
$PICKSTYLE
 70
     0
  9
$CMLSTYLE
  2
STANDARD
  9
$CMLJUST
 70
     0
  9
$CMLSCALE
 40
1.0
  9
$PROXYGRAPHICS
 70
     1
  9
$MEASUREMENT
 70
     0
  0
ENDSEC
  0
SECTION
  2
CLASSES
  0
CLASS
  1
ACDBDICTIONARYWDFLT
  2
AcDbDictionaryWithDefault
  3
ObjectDBX Classes
 90
        0
280
     0
281
     0
  0
CLASS
  1
ACDBPLACEHOLDER
  2
AcDbPlaceHolder
  3
ObjectDBX Classes
 90
        0
280
     0
281
     0
  0
CLASS
  1
LAYOUT
  2
AcDbLayout
  3
ObjectDBX Classes
 90
        0
280
     0
281
     0
  0
CLASS
  1
DICTIONARYVAR
  2
AcDbDictionaryVar
  3
ObjectDBX Classes
 90
        0
280
     0
281
     0
  0
CLASS
  1
TABLESTYLE
  2
AcDbTableStyle
  3
ObjectDBX Classes
 90
     4095
280
     0
281
     0
  0
CLASS
  1
MATERIAL
  2
AcDbMaterial
  3
ObjectDBX Classes
 90
     1153
280
     0
281
     0
  0
CLASS
  1
VISUALSTYLE
  2
AcDbVisualStyle
  3
ObjectDBX Classes
 90
     4095
280
     0
281
     0
  0
CLASS
  1
SCALE
  2
AcDbScale
  3
ObjectDBX Classes
 90
     1153
280
     0
281
     0
  0
CLASS
  1
CELLSTYLEMAP
  2
AcDbCellStyleMap
  3
ObjectDBX Classes
 90
     1152
280
     0
281
     0
  0
CLASS
  1
RASTERVARIABLES
  2
AcDbRasterVariables
  3
ISM
 90
        0
280
     0
281
     0
  0
CLASS
  1
SUN
  2
AcDbSun
  3
SCENEOE
 90
     1153
280
     0
281
     0
  0
CLASS
  1
DIMASSOC
  2
AcDbDimAssoc
  3
"AcDbDimAssoc|Product Desc:     AcDim ARX App For Dimension|Company:          Autodesk, Inc.|WEB Address:      www.autodesk.com"
 90
        0
280
     0
281
     0
  0
CLASS
  1
XRECORD
  2
AcDbXrecord
  3
ObjectDBX Classes
 90
        0
280
     0
281
     0
  0
CLASS
  1
LWPOLYLINE
  2
AcDbPolyline
  3
ObjectDBX Classes
 90
        0
280
     0
281
     1
  0
CLASS
  1
HATCH
  2
AcDbHatch
  3
ObjectDBX Classes
 90
        0
280
     0
281
     1
  0
ENDSEC
  0
SECTION
  2
TABLES
  0
TABLE
  2
VPORT
  5
8
330
0
100
AcDbSymbolTable
 70
     1
  0
VPORT
  5
94
330
8
100
AcDbSymbolTableRecord
100
AcDbViewportTableRecord
  2
*ACTIVE
 70
     0
 10
0.0
 20
0.0
 11
1.0
 21
1.0
 12
155.4163849871857
 22
98.3636102767848
 13
0.0
 23
0.0
 14
0.5
 24
0.5
 15
0.5
 25
0.5
 16
0.0
 26
0.0
 36
1.0
 17
-27.66959356597975
 27
-19.53870295786206
 37
0.0
 40
106.282486601605
 41
1.697885196374622
 42
50.0
 43
0.0
 44
0.0
 50
0.0
 51
0.0
 71
    16
 72
  1000
 73
     1
 74
     3
 75
     0
 76
     0
 77
     0
 78
     0
  0
ENDTAB
  0
TABLE
  2
LTYPE
  5
5
330
0
100
AcDbSymbolTable
 70
     1
  0
LTYPE
  5
14
330
5
100
AcDbSymbolTableRecord
100
AcDbLinetypeTableRecord
  2
BYBLOCK
 70
     0
  3

 72
    65
 73
     0
 40
0.0
  0
LTYPE
  5
15
330
5
100
AcDbSymbolTableRecord
100
AcDbLinetypeTableRecord
  2
BYLAYER
 70
     0
  3

 72
    65
 73
     0
 40
0.0
  0
LTYPE
  5
16
330
5
100
AcDbSymbolTableRecord
100
AcDbLinetypeTableRecord
  2
CONTINUOUS
 70
     0
  3
Solid line
 72
    65
 73
     0
 40
0.0
  0
ENDTAB
  0
TABLE
  2
LAYER
  5
2
330
0
100
AcDbSymbolTable
 70
     4
  0
LAYER
  5
10
330
2
100
AcDbSymbolTableRecord
100
AcDbLayerTableRecord
  2
0
 70
     0
 62
     7
  6
CONTINUOUS
  0
LAYER
  5
125
330
2
100
AcDbSymbolTableRecord
100
AcDbLayerTableRecord
  2
DEFPOINTS
 70
     0
 62
     7
  6
CONTINUOUS
  0
LAYER
  5
126
330
2
100
AcDbSymbolTableRecord
100
AcDbLayerTableRecord
  2
OBRYS
 70
     0
 62
     5
  6
CONTINUOUS
  0
LAYER
  5
128
330
2
100
AcDbSymbolTableRecord
100
AcDbLayerTableRecord
  2
KOTY
 70
     0
 62
     1
  6
CONTINUOUS
  0
ENDTAB
  0
TABLE
  2
STYLE
  5
3
330
0
100
AcDbSymbolTable
 70
     1
  0
STYLE
  5
11
330
3
100
AcDbSymbolTableRecord
100
AcDbTextStyleTableRecord
  2
STANDARD
 70
     0
 40
0.0
 41
1.0
 50
0.0
 71
     0
 42
0.2
  3
arial.ttf
  4

1001
ACAD
1000
Arial
1071
        0
  0
ENDTAB
  0
TABLE
  2
VIEW
  5
6
330
0
100
AcDbSymbolTable
 70
     0
  0
ENDTAB
  0
TABLE
  2
UCS
  5
7
330
0
100
AcDbSymbolTable
 70
     0
  0
ENDTAB
  0
TABLE
  2
APPID
  5
9
330
0
100
AcDbSymbolTable
 70
     1
  0
APPID
  5
12
330
9
100
AcDbSymbolTableRecord
100
AcDbRegAppTableRecord
  2
ACAD
 70
     0
  0
ENDTAB
  0
TABLE
  2
DIMSTYLE
  5
A
330
0
100
AcDbSymbolTable
 70
     2
  0
DIMSTYLE
105
27
330
A
100
AcDbSymbolTableRecord
100
AcDbDimStyleTableRecord
  2
STANDARD
 70
     0
  3

  4

  5

  6

  7

 40
1.0
 41
0.18
 42
0.0625
 43
0.38
 44
0.18
 45
0.0
 46
0.0
 47
0.0
 48
0.0
140
0.18
141
0.09
142
0.0
143
25.4
144
1.0
145
0.0
146
1.0
147
0.09
 71
     0
 72
     0
 73
     1
 74
     1
 75
     0
 76
     0
 77
     0
 78
     0
170
     0
171
     2
172
     0
173
     0
174
     0
175
     0
176
     0
177
     0
178
     0
270
     2
271
     4
272
     4
273
     2
274
     2
340
11
275
     0
280
     0
281
     0
282
     0
283
     1
284
     0
285
     0
286
     0
287
     3
288
     0
  0
DIMSTYLE
105
129
102
{ACAD_REACTORS
330
4A3
330
4A6
330
4A9
330
4AC
102
}
330
A
100
AcDbSymbolTableRecord
100
AcDbDimStyleTableRecord
  2
ISO-25
 70
     0
  3

  4

  5

  6

  7

 40
1.0
 41
6.0
 42
0.0
 43
3.75
 44
1.25
 45
0.0
 46
0.0
 47
0.0
 48
0.0
140
3.0
141
2.5
142
0.0
143
0.03937007874016
144
1.0
145
0.0
146
1.0
147
0.625
 71
     0
 72
     0
 73
     0
 74
     1
 75
     0
 76
     0
 77
     1
 78
     8
170
     0
171
     3
172
     1
173
     0
174
     0
175
     0
176
     5
177
     5
178
     5
270
     2
271
     4
272
     4
273
     2
274
     2
340
11
275
     0
280
     0
281
     0
282
     0
283
     1
284
     0
285
     0
286
     0
287
     3
288
     0
  0
ENDTAB
  0
TABLE
  2
BLOCK_RECORD
  5
1
330
0
100
AcDbSymbolTable
 70
     5
  0
BLOCK_RECORD
  5
1F
330
1
100
AcDbSymbolTableRecord
100
AcDbBlockTableRecord
  2
*MODEL_SPACE
  0
BLOCK_RECORD
  5
58
330
1
100
AcDbSymbolTableRecord
100
AcDbBlockTableRecord
  2
*PAPER_SPACE
  0
BLOCK_RECORD
  5
5D
330
1
100
AcDbSymbolTableRecord
100
AcDbBlockTableRecord
  2
*PAPER_SPACE0
  0
BLOCK_RECORD
  5
4AF
330
1
100
AcDbSymbolTableRecord
100
AcDbBlockTableRecord
  2
*D1
  0
BLOCK_RECORD
  5
4BB
330
1
100
AcDbSymbolTableRecord
100
AcDbBlockTableRecord
  2
*D2
  0
BLOCK_RECORD
  5
4C7
330
1
100
AcDbSymbolTableRecord
100
AcDbBlockTableRecord
  2
*D3
  0
BLOCK_RECORD
  5
4D3
330
1
100
AcDbSymbolTableRecord
100
AcDbBlockTableRecord
  2
*D4
  0
ENDTAB
  0
ENDSEC
  0
SECTION
  2
BLOCKS
  0
BLOCK
  5
20
330
1F
100
AcDbEntity
  8
0
100
AcDbBlockBegin
  2
*MODEL_SPACE
 70
     0
 10
0.0
 20
0.0
 30
0.0
  3
*MODEL_SPACE
  1

  0
ENDBLK
  5
21
330
1F
100
AcDbEntity
  8
0
100
AcDbBlockEnd
  0
BLOCK
  5
5A
330
58
100
AcDbEntity
 67
     1
  8
0
100
AcDbBlockBegin
  2
*PAPER_SPACE
 70
     0
 10
0.0
 20
0.0
 30
0.0
  3
*PAPER_SPACE
  1

  0
ENDBLK
  5
5B
330
58
100
AcDbEntity
 67
     1
  8
0
100
AcDbBlockEnd
  0
BLOCK
  5
5F
330
5D
100
AcDbEntity
  8
0
100
AcDbBlockBegin
  2
*PAPER_SPACE0
 70
     0
 10
0.0
 20
0.0
 30
0.0
  3
*PAPER_SPACE0
  1
*PAPER_SPACE0
  0
ENDBLK
  5
60
330
5D
100
AcDbEntity
  8
0
100
AcDbBlockEnd
  0
BLOCK
  5
4B0
330
4AF
100
AcDbEntity
  8
0
100
AcDbBlockBegin
  2
*D1
 70
     1
 10
0.0
 20
0.0
 30
0.0
  3
*D1
  1
*D6
  0
LINE
  5
4B2
330
4AF
100
AcDbEntity
  8
KOTY
100
AcDbLine
 10
161.3898734420038
 20
105.6527417893744
 30
0.0
 11
161.3898734420038
 21
122.35164392517
 31
0.0
  0
LINE
  5
4B3
330
4AF
100
AcDbEntity
  8
KOTY
100
AcDbLine
 10
186.4250378947152
 20
105.3532555902895
 30
0.0
 11
186.4250378947152
 21
122.35164392517
 31
0.0
  0
LINE
  5
4B4
330
4AF
100
AcDbEntity
  8
KOTY
100
AcDbLine
 10
165.3898734420038
 20
121.10164392517
 30
0.0
 11
182.4250378947152
 21
121.10164392517
 31
0.0
  0
SOLID
  5
4B5
330
4AF
100
AcDbEntity
  8
KOTY
100
AcDbTrace
 10
165.3898734420038
 20
121.7683105918367
 30
0.0
 11
165.3898734420038
 21
120.4349772585033
 31
0.0
 12
161.3898734420038
 22
121.10164392517
 32
0.0
 13
161.3898734420038
 23
121.10164392517
 33
0.0
  0
SOLID
  5
4B6
330
4AF
100
AcDbEntity
  8
KOTY
100
AcDbTrace
 10
182.4250378947152
 20
120.4349772585033
 30
0.0
 11
182.4250378947152
 21
121.7683105918367
 31
0.0
 12
186.4250378947152
 22
121.10164392517
 32
0.0
 13
186.4250378947152
 23
121.10164392517
 33
0.0
  0
MTEXT
  5
4B7
330
4AF
100
AcDbEntity
  8
KOTY
100
AcDbMText
 10
173.9074556683595
 20
124.14364392517
 30
0.0
 40
4.0
 41
0.0
 71
     5
 72
     1
  1
\A1;25
  0
POINT
  5
4B8
330
4AF
100
AcDbEntity
  8
DEFPOINTS
 62
     0
100
AcDbPoint
 10
161.3898734420038
 20
105.6527417893744
 30
0.0
  0
POINT
  5
4B9
330
4AF
100
AcDbEntity
  8
DEFPOINTS
 62
     0
100
AcDbPoint
 10
186.4250378947152
 20
105.3532555902895
 30
0.0
  0
POINT
  5
4BA
330
4AF
100
AcDbEntity
  8
DEFPOINTS
 62
     0
100
AcDbPoint
 10
186.4250378947152
 20
121.10164392517
 30
0.0
  0
ENDBLK
  5
4B1
330
4AF
100
AcDbEntity
  8
0
100
AcDbBlockEnd
  0
BLOCK
  5
4BC
330
4BB
100
AcDbEntity
  8
0
100
AcDbBlockBegin
  2
*D2
 70
     1
 10
0.0
 20
0.0
 30
0.0
  3
*D2
  1
*D7
  0
LINE
  5
4BE
330
4BB
100
AcDbEntity
  8
KOTY
100
AcDbLine
 10
90.18767355245501
 20
108.0530155187493
 30
0.0
 11
90.18767355245501
 21
122.35164392517
 31
0.0
  0
LINE
  5
4BF
330
4BB
100
AcDbEntity
  8
KOTY
100
AcDbLine
 10
134.7871906854023
 20
108.0530155187493
 30
0.0
 11
134.7871906854023
 21
122.35164392517
 31
0.0
  0
LINE
  5
4C0
330
4BB
100
AcDbEntity
  8
KOTY
100
AcDbLine
 10
94.18767355245501
 20
121.10164392517
 30
0.0
 11
130.7871906854023
 21
121.10164392517
 31
0.0
  0
SOLID
  5
4C1
330
4BB
100
AcDbEntity
  8
KOTY
100
AcDbTrace
 10
94.18767355245501
 20
121.7683105918367
 30
0.0
 11
94.18767355245501
 21
120.4349772585033
 31
0.0
 12
90.18767355245501
 22
121.10164392517
 32
0.0
 13
90.18767355245501
 23
121.10164392517
 33
0.0
  0
SOLID
  5
4C2
330
4BB
100
AcDbEntity
  8
KOTY
100
AcDbTrace
 10
130.7871906854023
 20
120.4349772585033
 30
0.0
 11
130.7871906854023
 21
121.7683105918367
 31
0.0
 12
134.7871906854023
 22
121.10164392517
 32
0.0
 13
134.7871906854023
 23
121.10164392517
 33
0.0
  0
MTEXT
  5
4C3
330
4BB
100
AcDbEntity
  8
KOTY
100
AcDbMText
 10
112.4874321189287
 20
124.13564392517
 30
0.0
 40
4.0
 41
0.0
 71
     5
 72
     1
  1
\A1;45
  0
POINT
  5
4C4
330
4BB
100
AcDbEntity
  8
DEFPOINTS
 62
     0
100
AcDbPoint
 10
90.18767355245501
 20
108.0530155187493
 30
0.0
  0
POINT
  5
4C5
330
4BB
100
AcDbEntity
  8
DEFPOINTS
 62
     0
100
AcDbPoint
 10
134.7871906854023
 20
108.0530155187493
 30
0.0
  0
POINT
  5
4C6
330
4BB
100
AcDbEntity
  8
DEFPOINTS
 62
     0
100
AcDbPoint
 10
134.7871906854023
 20
121.10164392517
 30
0.0
  0
ENDBLK
  5
4BD
330
4BB
100
AcDbEntity
  8
0
100
AcDbBlockEnd
  0
BLOCK
  5
4C8
330
4C7
100
AcDbEntity
  8
0
100
AcDbBlockBegin
  2
*D3
 70
     1
 10
0.0
 20
0.0
 30
0.0
  3
*D3
  1
*D8
  0
LINE
  5
4CA
330
4C7
100
AcDbEntity
  8
KOTY
100
AcDbLine
 10
90.98693570503309
 20
108.3532555902893
 30
0.0
 11
55.10108820817018
 21
108.3532555902893
 31
0.0
  0
LINE
  5
4CB
330
4C7
100
AcDbEntity
  8
KOTY
100
AcDbLine
 10
100.4873086956543
 20
53.9533030756763
 30
0.0
 11
55.10108820817018
 21
53.9533030756763
 31
0.0
  0
LINE
  5
4CC
330
4C7
100
AcDbEntity
  8
KOTY
100
AcDbLine
 10
56.35108820817018
 20
104.3532555902893
 30
0.0
 11
56.35108820817018
 21
57.9533030756763
 31
0.0
  0
SOLID
  5
4CD
330
4C7
100
AcDbEntity
  8
KOTY
100
AcDbTrace
 10
57.01775487483684
 20
104.3532555902893
 30
0.0
 11
55.68442154150351
 21
104.3532555902893
 31
0.0
 12
56.35108820817018
 22
108.3532555902893
 32
0.0
 13
56.35108820817018
 23
108.3532555902893
 33
0.0
  0
SOLID
  5
4CE
330
4C7
100
AcDbEntity
  8
KOTY
100
AcDbTrace
 10
55.68442154150351
 20
57.9533030756763
 30
0.0
 11
57.01775487483684
 21
57.9533030756763
 31
0.0
 12
56.35108820817018
 22
53.9533030756763
 32
0.0
 13
56.35108820817018
 23
53.9533030756763
 33
0.0
  0
MTEXT
  5
4CF
330
4C7
100
AcDbEntity
  8
KOTY
100
AcDbMText
 10
53.31708820817017
 20
81.1532793329828
 30
0.0
 40
4.0
 41
0.0
 71
     5
 72
     1
  1
\A1;54
 11
0.0
 21
1.0
 31
0.0
  0
POINT
  5
4D0
330
4C7
100
AcDbEntity
  8
DEFPOINTS
 62
     0
100
AcDbPoint
 10
90.98693570503309
 20
108.3532555902893
 30
0.0
  0
POINT
  5
4D1
330
4C7
100
AcDbEntity
  8
DEFPOINTS
 62
     0
100
AcDbPoint
 10
100.4873086956543
 20
53.9533030756763
 30
0.0
  0
POINT
  5
4D2
330
4C7
100
AcDbEntity
  8
DEFPOINTS
 62
     0
100
AcDbPoint
 10
56.35108820817018
 20
53.9533030756763
 30
0.0
  0
ENDBLK
  5
4C9
330
4C7
100
AcDbEntity
  8
0
100
AcDbBlockEnd
  0
BLOCK
  5
4D4
330
4D3
100
AcDbEntity
  8
0
100
AcDbBlockBegin
  2
*D4
 70
     1
 10
0.0
 20
0.0
 30
0.0
  3
*D4
  1
*D9
  0
LINE
  5
4D6
330
4D3
100
AcDbEntity
  8
KOTY
100
AcDbLine
 10
90.98693570503309
 20
108.3532555902893
 30
0.0
 11
68.7983621511249
 21
108.3532555902893
 31
0.0
  0
LINE
  5
4D7
330
4D3
100
AcDbEntity
  8
KOTY
100
AcDbLine
 10
98.48741991502249
 20
61.45293143751721
 30
0.0
 11
68.7983621511249
 21
61.45293143751721
 31
0.0
  0
LINE
  5
4D8
330
4D3
100
AcDbEntity
  8
KOTY
100
AcDbLine
 10
70.0483621511249
 20
104.3532555902893
 30
0.0
 11
70.0483621511249
 21
65.45293143751721
 31
0.0
  0
SOLID
  5
4D9
330
4D3
100
AcDbEntity
  8
KOTY
100
AcDbTrace
 10
70.71502881779158
 20
104.3532555902893
 30
0.0
 11
69.38169548445823
 21
104.3532555902893
 31
0.0
 12
70.0483621511249
 22
108.3532555902893
 32
0.0
 13
70.0483621511249
 23
108.3532555902893
 33
0.0
  0
SOLID
  5
4DA
330
4D3
100
AcDbEntity
  8
KOTY
100
AcDbTrace
 10
69.38169548445823
 20
65.45293143751721
 30
0.0
 11
70.71502881779158
 21
65.45293143751721
 31
0.0
 12
70.0483621511249
 22
61.45293143751721
 32
0.0
 13
70.0483621511249
 23
61.45293143751721
 33
0.0
  0
MTEXT
  5
4DB
330
4D3
100
AcDbEntity
  8
KOTY
100
AcDbMText
 10
67.0483621511249
 20
84.90309351390326
 30
0.0
 40
4.0
 41
0.0
 71
     5
 72
     1
  1
\A1;47
 11
0.0
 21
1.0
 31
0.0
  0
POINT
  5
4DC
330
4D3
100
AcDbEntity
  8
DEFPOINTS
 62
     0
100
AcDbPoint
 10
90.98693570503309
 20
108.3532555902893
 30
0.0
  0
POINT
  5
4DD
330
4D3
100
AcDbEntity
  8
DEFPOINTS
 62
     0
100
AcDbPoint
 10
98.48741991502249
 20
61.45293143751721
 30
0.0
  0
POINT
  5
4DE
330
4D3
100
AcDbEntity
  8
DEFPOINTS
 62
     0
100
AcDbPoint
 10
70.0483621511249
 20
61.45293143751721
 30
0.0
  0
ENDBLK
  5
4D5
330
4D3
100
AcDbEntity
  8
0
100
AcDbBlockEnd
  0
ENDSEC
  0
SECTION
  2
ENTITIES
  0
LWPOLYLINE
  5
315
330
1F
100
AcDbEntity
  8
OBRYS
100
AcDbPolyline
 90
        2
 70
     0
 43
0.0
 10
133.9870672589531
 20
108.3532555902893
 10
90.98693570503309
 20
108.3532555902893
  0
LWPOLYLINE
  5
316
330
1F
100
AcDbEntity
  8
OBRYS
100
AcDbPolyline
 90
        2
 70
     0
 43
0.0
 10
90.98693570503309
 20
81.2892744772632
 10
133.9870672589531
 20
81.2892744772632
  0
LWPOLYLINE
  5
317
330
1F
100
AcDbEntity
  8
OBRYS
100
AcDbPolyline
 90
        2
 70
     0
 43
0.0
 10
90.98693570503309
 20
80.98593381978728
 10
133.9870672589531
 20
80.98593381978728
  0
LWPOLYLINE
  5
318
330
1F
100
AcDbEntity
  8
OBRYS
100
AcDbPolyline
 90
        2
 70
     0
 43
0.0
 10
90.98693570503309
 20
82.32986556858233
 10
133.9870672589531
 20
82.32986556858233
  0
LWPOLYLINE
  5
319
330
1F
100
AcDbEntity
  8
OBRYS
100
AcDbPolyline
 90
        2
 70
     0
 43
0.0
 10
90.98693570503309
 20
82.01911795581324
 10
133.9870672589531
 20
82.01911795581324
  0
LWPOLYLINE
  5
31A
330
1F
100
AcDbEntity
  8
OBRYS
100
AcDbPolyline
 90
        2
 70
     0
 43
0.0
 10
90.98693570503309
 20
83.37269597196834
 10
133.9870672589531
 20
83.37269597196834
  0
LWPOLYLINE
  5
31B
330
1F
100
AcDbEntity
  8
OBRYS
100
AcDbPolyline
 90
        2
 70
     0
 43
0.0
 10
90.98693570503309
 20
83.05454140390518
 10
133.9870672589531
 20
83.05454140390518
  0
LWPOLYLINE
  5
31C
330
1F
100
AcDbEntity
  8
OBRYS
100
AcDbPolyline
 90
        2
 70
     0
 43
0.0
 10
90.98693570503309
 20
84.41724892309523
 10
133.9870672589531
 20
84.41724892309523
  0
LWPOLYLINE
  5
31D
330
1F
100
AcDbEntity
  8
OBRYS
100
AcDbPolyline
 90
        2
 70
     0
 43
0.0
 10
90.98693570503309
 20
84.09134289019127
 10
133.9870672589531
 20
84.09134289019127
  0
LWPOLYLINE
  5
31E
330
1F
100
AcDbEntity
  8
OBRYS
100
AcDbPolyline
 90
        2
 70
     0
 43
0.0
 10
90.98693570503309
 20
85.46266314809415
 10
133.9870672589531
 20
85.46266314809415
  0
LWPOLYLINE
  5
31F
330
1F
100
AcDbEntity
  8
OBRYS
100
AcDbPolyline
 90
        2
 70
     0
 43
0.0
 10
90.98693570503309
 20
85.1295224146713
 10
133.9870672589531
 20
85.1295224146713
  0
LWPOLYLINE
  5
320
330
1F
100
AcDbEntity
  8
OBRYS
100
AcDbPolyline
 90
        2
 70
     0
 43
0.0
 10
90.98693570503309
 20
86.50893864696533
 10
133.9870672589531
 20
86.50893864696533
  0
LWPOLYLINE
  5
321
330
1F
100
AcDbEntity
  8
OBRYS
100
AcDbPolyline
 90
        2
 70
     0
 43
0.0
 10
90.98693570503309
 20
86.16890772257122
 10
133.9870672589531
 20
86.16890772257122
  0
LWPOLYLINE
  5
322
330
1F
100
AcDbEntity
  8
OBRYS
100
AcDbPolyline
 90
        2
 70
     0
 43
0.0
 10
90.98693570503309
 20
87.55607541970718
 10
133.9870672589531
 20
87.55607541970718
  0
LWPOLYLINE
  5
323
330
1F
100
AcDbEntity
  8
OBRYS
100
AcDbPolyline
 90
        2
 70
     0
 43
0.0
 10
90.98693570503309
 20
87.20812077569619
 10
133.9870672589531
 20
87.20812077569619
  0
LWPOLYLINE
  5
324
330
1F
100
AcDbEntity
  8
OBRYS
100
AcDbPolyline
 90
        2
 70
     0
 43
0.0
 10
133.9870672589531
 20
96.35312674129224
 10
90.98693570503309
 20
96.35312674129224
  0
LWPOLYLINE
  5
325
330
1F
100
AcDbEntity
  8
OBRYS
100
AcDbPolyline
 90
        2
 70
     0
 43
0.0
 10
90.98693570503309
 20
94.87328597560324
 10
133.9870672589531
 20
94.87328597560324
  0
LWPOLYLINE
  5
326
330
1F
100
AcDbEntity
  8
OBRYS
100
AcDbPolyline
 90
        2
 70
     0
 43
0.0
 10
133.9870672589531
 20
95.41726655272416
 10
90.98693570503309
 20
95.41726655272416
  0
LWPOLYLINE
  5
327
330
1F
100
AcDbEntity
  8
OBRYS
100
AcDbPolyline
 90
        2
 70
     0
 43
0.0
 10
90.98693570503309
 20
93.83148910086331
 10
133.9870672589531
 20
93.83148910086331
  0
LWPOLYLINE
  5
328
330
1F
100
AcDbEntity
  8
OBRYS
100
AcDbPolyline
 90
        2
 70
     0
 43
0.0
 10
90.98693570503309
 20
92.78814193315631
 10
133.9870672589531
 20
92.78814193315631
  0
LWPOLYLINE
  5
329
330
1F
100
AcDbEntity
  8
OBRYS
100
AcDbPolyline
 90
        2
 70
     0
 43
0.0
 10
90.98693570503309
 20
91.74307221770525
 10
133.9870672589531
 20
91.74307221770525
  0
LWPOLYLINE
  5
32A
330
1F
100
AcDbEntity
  8
OBRYS
100
AcDbPolyline
 90
        2
 70
     0
 43
0.0
 10
90.98693570503309
 20
90.6967967188352
 10
133.9870672589531
 20
90.6967967188352
  0
LWPOLYLINE
  5
32B
330
1F
100
AcDbEntity
  8
OBRYS
100
AcDbPolyline
 90
        2
 70
     0
 43
0.0
 10
90.98693570503309
 20
89.65000445564212
 10
133.9870672589531
 20
89.65000445564212
  0
LWPOLYLINE
  5
32C
330
1F
100
AcDbEntity
  8
OBRYS
100
AcDbPolyline
 90
        2
 70
     0
 43
0.0
 10
90.98693570503309
 20
88.60303993767431
 10
133.9870672589531
 20
88.60303993767431
  0
LWPOLYLINE
  5
32D
330
1F
100
AcDbEntity
  8
OBRYS
100
AcDbPolyline
 90
        2
 70
     0
 43
0.0
 10
90.98693570503309
 20
80.35306977914613
 10
133.9870672589531
 20
80.35306977914613
  0
LWPOLYLINE
  5
32E
330
1F
100
AcDbEntity
  8
OBRYS
100
AcDbPolyline
 90
        2
 70
     0
 43
0.0
 10
90.98693570503309
 20
88.24853961224218
 10
133.9870672589531
 20
88.24853961224218
  0
LWPOLYLINE
  5
32F
330
1F
100
AcDbEntity
  8
OBRYS
100
AcDbPolyline
 90
        2
 70
     0
 43
0.0
 10
133.9870672589531
 20
72.85292465298332
 10
90.98693570503309
 20
72.85292465298332
  0
LWPOLYLINE
  5
330
330
1F
100
AcDbEntity
  8
OBRYS
100
AcDbPolyline
 90
        2
 70
     0
 43
0.0
 10
133.9870672589531
 20
103.8532718674553
 10
90.98693570503309
 20
103.8532718674553
  0
LWPOLYLINE
  5
331
330
1F
100
AcDbEntity
  8
OBRYS
100
AcDbPolyline
 90
        2
 70
     0
 43
0.0
 10
90.98693570503309
 20
89.28878619401323
 10
133.9870672589531
 20
89.28878619401323
  0
LWPOLYLINE
  5
332
330
1F
100
AcDbEntity
  8
OBRYS
100
AcDbPolyline
 90
        2
 70
     0
 43
0.0
 10
90.98693570503309
 20
90.32886052101023
 10
133.9870672589531
 20
90.32886052101023
  0
LWPOLYLINE
  5
333
330
1F
100
AcDbEntity
  8
OBRYS
100
AcDbPolyline
 90
        2
 70
     0
 43
0.0
 10
90.98693570503309
 20
91.36772906458734
 10
133.9870672589531
 20
91.36772906458734
  0
LWPOLYLINE
  5
334
330
1F
100
AcDbEntity
  8
OBRYS
100
AcDbPolyline
 90
        2
 70
     0
 43
0.0
 10
90.98693570503309
 20
92.40642535339018
 10
133.9870672589531
 20
92.40642535339018
  0
LWPOLYLINE
  5
335
330
1F
100
AcDbEntity
  8
OBRYS
100
AcDbPolyline
 90
        2
 70
     0
 43
0.0
 10
90.98693570503309
 20
93.44357134922413
 10
133.9870672589531
 20
93.44357134922413
  0
LWPOLYLINE
  5
336
330
1F
100
AcDbEntity
  8
OBRYS
100
AcDbPolyline
 90
        2
 70
     0
 43
0.0
 10
90.98693570503309
 20
94.47899479731629
 10
133.9870672589531
 20
94.47899479731629
  0
LWPOLYLINE
  5
337
330
1F
100
AcDbEntity
  8
OBRYS
100
AcDbPolyline
 90
        2
 70
     0
 43
0.0
 10
90.98693570503309
 20
95.72026270065223
 10
133.9870672589531
 20
95.72026270065223
  0
LWPOLYLINE
  5
338
330
1F
100
AcDbEntity
  8
OBRYS
100
AcDbPolyline
 90
        2
 70
     0
 43
0.0
 10
104.5873114069281
 20
60.85314031353525
 10
104.5873114069281
 20
56.45340886932215
  0
LWPOLYLINE
  5
339
330
1F
100
AcDbEntity
  8
OBRYS
100
AcDbPolyline
 90
        2
 70
     0
 43
0.0
 10
109.3875352013009
 20
56.45340886932215
 10
109.3875352013009
 20
60.85314031353525
  0
LWPOLYLINE
  5
33A
330
1F
100
AcDbEntity
  8
OBRYS
100
AcDbPolyline
 90
       11
 70
     0
 43
0.0
 10
129.9876559101265
 20
60.45316472769829
 10
126.9876667615709
 20
60.45316472769829
 10
126.4873832874286
 20
60.45316472769829
 42
0.4142135623733614
 10
125.9873832874286
 20
59.95316472769829
 10
125.9873832874286
 20
55.4533030756763
 42
-0.4142135623730729
 10
124.4873832874286
 20
53.9533030756763
 10
100.4873086956543
 20
53.9533030756763
 42
-0.4142135623730729
 10
98.98730869565435
 20
55.4533030756763
 10
98.98730869565435
 20
59.95316472769829
 42
0.4142135623731616
 10
98.48730869565435
 20
60.45316472769829
 10
94.98703607295653
 20
60.48056067047689
  0
LWPOLYLINE
  5
33C
330
1F
100
AcDbEntity
  8
OBRYS
100
AcDbPolyline
 90
        2
 70
     0
 43
0.0
 10
120.3870360666065
 20
56.45340886932215
 10
120.3870360666065
 20
60.85314031353525
  0
LWPOLYLINE
  5
33D
330
1F
100
AcDbEntity
  8
OBRYS
100
AcDbPolyline
 90
        2
 70
     0
 43
0.0
 10
115.5871567817823
 20
60.85314031353525
 10
115.5871567817823
 20
56.45340886932215
  0
LWPOLYLINE
  5
33E
330
1F
100
AcDbEntity
  8
OBRYS
100
AcDbPolyline
 90
        2
 70
     0
 43
0.0
 10
124.4870442036024
 20
56.45340886932215
 10
100.4873032699322
 20
56.45340886932215
  0
LWPOLYLINE
  5
340
330
1F
100
AcDbEntity
  8
OBRYS
100
AcDbPolyline
 90
        2
 70
     0
 43
0.0
 10
124.4870442036024
 20
56.45340886932215
 10
124.4870442036024
 20
53.9533030756763
  0
LWPOLYLINE
  5
341
330
1F
100
AcDbEntity
  8
OBRYS
100
AcDbPolyline
 90
        2
 70
     0
 43
0.0
 10
129.9876559101265
 20
63.42283703598329
 10
126.9876667615709
 20
63.42283703598329
  0
LWPOLYLINE
  5
342
330
1F
100
AcDbEntity
  8
OBRYS
100
AcDbPolyline
 90
        2
 70
     0
 43
0.0
 10
97.98719747628621
 20
63.42283703598329
 10
94.98703607295653
 20
63.42283703598329
  0
LWPOLYLINE
  5
343
330
1F
100
AcDbEntity
  8
OBRYS
100
AcDbPolyline
 90
        2
 70
     0
 43
0.0
 10
90.18767355245501
 20
68.85316879460831
 10
83.18741178120166
 20
68.85316879460831
  0
LWPOLYLINE
  5
344
330
1F
100
AcDbEntity
  8
OBRYS
100
AcDbPolyline
 90
        2
 70
     0
 43
0.0
 10
90.18767355245501
 20
108.0530155187493
 10
90.98693570503309
 20
108.0530155187493
  0
LWPOLYLINE
  5
345
330
1F
100
AcDbEntity
  8
OBRYS
100
AcDbPolyline
 90
        2
 70
     0
 43
0.0
 10
82.18730056183364
 20
69.47690333221223
 10
83.18741178120166
 20
69.65329222105717
  0
LWPOLYLINE
  5
346
330
1F
100
AcDbEntity
  8
OBRYS
100
AcDbPolyline
 90
        2
 70
     0
 43
0.0
 10
82.18730056183364
 20
69.02955768345325
 10
82.18730056183364
 20
69.47690333221223
  0
LWPOLYLINE
  5
347
330
1F
100
AcDbEntity
  8
OBRYS
100
AcDbPolyline
 90
        2
 70
     0
 43
0.0
 10
83.18741178120166
 20
68.85316879460831
 10
82.18730056183364
 20
69.02955768345325
  0
LWPOLYLINE
  5
348
330
1F
100
AcDbEntity
  8
OBRYS
100
AcDbPolyline
 90
        2
 70
     0
 43
0.0
 10
90.18767355245501
 20
68.65318100168926
 10
90.98693570503309
 20
68.65318100168926
  0
LWPOLYLINE
  5
349
330
1F
100
AcDbEntity
  8
OBRYS
100
AcDbPolyline
 90
        2
 70
     0
 43
0.0
 10
90.98693570503309
 20
88.45765690819732
 10
90.98693570503309
 20
88.35327051499323
  0
LWPOLYLINE
  5
34A
330
1F
100
AcDbEntity
  8
OBRYS
100
AcDbPolyline
 90
        2
 70
     0
 43
0.0
 10
83.68729513611135
 20
69.65329222105717
 10
83.68729513611135
 20
68.85316879460831
  0
LWPOLYLINE
  5
34B
330
1F
100
AcDbEntity
  8
OBRYS
100
AcDbPolyline
 90
        2
 70
     0
 43
0.0
 10
90.18767355245501
 20
80.45280529344424
 10
90.98693570503309
 20
80.45280529344424
  0
LWPOLYLINE
  5
34C
330
1F
100
AcDbEntity
  8
OBRYS
100
AcDbPolyline
 90
        2
 70
     0
 43
0.0
 10
90.18767355245501
 20
72.95317693160425
 10
90.98693570503309
 20
72.95317693160425
  0
LWPOLYLINE
  5
34D
330
1F
100
AcDbEntity
  8
OBRYS
100
AcDbPolyline
 90
        2
 70
     0
 43
0.0
 10
90.18767355245501
 20
96.25304671744627
 10
90.98693570503309
 20
96.25304671744627
  0
LWPOLYLINE
  5
34E
330
1F
100
AcDbEntity
  8
OBRYS
100
AcDbPolyline
 90
        2
 70
     0
 43
0.0
 10
90.18767355245501
 20
103.7535363531572
 10
90.98693570503309
 20
103.7535363531572
  0
LWPOLYLINE
  5
34F
330
1F
100
AcDbEntity
  8
OBRYS
100
AcDbPolyline
 90
        2
 70
     0
 43
0.0
 10
120.9871717001369
 20
68.35328543969828
 10
120.9871717001369
 20
68.35328543969828
  0
LWPOLYLINE
  5
350
330
1F
100
AcDbEntity
  8
OBRYS
100
AcDbPolyline
 90
        2
 70
     0
 43
0.0
 10
103.9875202829459
 20
68.35328543969828
 10
103.9875202829459
 20
68.35328543969828
  0
LWPOLYLINE
  5
351
330
1F
100
AcDbEntity
  8
OBRYS
100
AcDbPolyline
 90
       15
 70
     0
 43
0.0
 10
126.9876667615709
 20
63.16204330775028
 10
125.1252183228424
 20
63.73121666622089
 42
-0.2827174100218965
 10
124.4322524104581
 20
64.51630502806026
 10
124.2260782205947
 20
65.7024567185733
 10
124.1025256649911
 20
66.7970949725511
 42
-0.4475298245400187
 10
124.5993708299757
 20
67.35317422033015
 10
126.3473866919171
 20
67.35317422033015
 42
-0.3563267539795182
 10
126.8372607737785
 20
66.95329107166114
 10
126.9520100232986
 20
66.39182032517121
 10
127.1018716769069
 20
65.85765827018324
 10
127.2899738904018
 20
65.33589855894226
 10
127.5149386255884
 20
64.8286082487393
 10
127.7760768633704
 20
64.33906018028526
 10
128.0716660560049
 20
63.86983817519419
 10
128.4001559105234
 20
63.42283703598329
  0
LWPOLYLINE
  5
352
330
1F
100
AcDbEntity
  8
OBRYS
100
AcDbPolyline
 90
       10
 70
     0
 43
0.0
 10
129.3229247362474
 20
63.42249252643521
 10
128.9680799012669
 20
63.83280339872815
 10
128.645963473396
 20
64.2691247419352
 10
128.3588147647003
 20
64.72921724398927
 10
128.1080118133744
 20
65.21032482850521
 10
127.8949326576115
 20
65.70917465476916
 10
127.721299845155
 20
66.2231829011682
 10
127.6243372909254
 20
66.60577158413591
 42
-0.4889295092349262
 10
128.2059492430404
 20
67.35317422033015
 10
128.9875446907586
 20
67.35317422033015
  0
LWPOLYLINE
  5
353
330
1F
100
AcDbEntity
  8
OBRYS
100
AcDbPolyline
 90
        8
 70
     0
 43
0.0
 10
95.62351746385633
 20
58.95317015342013
 10
95.98730734001737
 20
58.95317015342013
 42
0.4142135623729286
 10
96.18730734001741
 20
59.15317015342018
 10
96.18730734001741
 20
59.53829327986816
 42
0.2913874529270788
 10
95.9564695370986
 20
59.90076279731554
 10
95.10245497441593
 20
60.29932591175313
 42
-0.2913874529267581
 10
94.98703607295653
 20
60.48056067047693
 10
94.98703607295653
 20
63.42283703598329
  0
LWPOLYLINE
  5
354
330
1F
100
AcDbEntity
  8
OBRYS
100
AcDbPolyline
 90
       14
 70
     0
 43
0.0
 10
94.98703607295653
 20
62.45304265688512
 10
92.98704692440089
 20
62.45304265688512
 42
-0.4142135623730617
 10
91.98704692440089
 20
63.45304265688512
 10
91.98704692440089
 20
66.35317422033015
 42
-0.4142135623730617
 10
92.98704692440089
 20
67.35317422033015
 10
101.4871811991198
 20
67.35317422033015
 42
-0.4142135623732282
 10
102.4871811991198
 20
66.35317422033015
 10
102.4871811991198
 20
62.35325153290316
 42
-0.4142135623731616
 10
101.9871811991198
 20
61.85325153290316
 10
101.4288700253563
 20
61.85325153290316
 42
-0.1315182545930189
 10
101.1790986184383
 20
61.92010693316044
 10
100.370838867463
 20
62.38618725662784
 42
0.1315182545930189
 10
100.121067460545
 20
62.45304265688512
 10
97.98719747628621
 20
62.45304265688512
  0
LWPOLYLINE
  5
355
330
1F
100
AcDbEntity
  8
OBRYS
100
AcDbPolyline
 90
        5
 70
     0
 43
0.0
 10
123.3010700828051
 20
66.77836003861623
 10
123.4319837112445
 20
65.6051327711152
 10
123.6753825974043
 20
64.19929078706897
 42
0.2827978043473965
 10
124.7144765377704
 20
63.02083769331009
 10
126.9876667615709
 20
62.32522961438323
  0
LWPOLYLINE
  5
356
330
1F
100
AcDbEntity
  8
OBRYS
100
AcDbPolyline
 90
        6
 70
     0
 43
0.0
 10
128.9875446907586
 20
67.35317422033015
 10
134.0584425412544
 20
66.36752276934405
 42
0.4716288045236477
 10
135.4874063427793
 20
67.54547674874695
 10
135.4874063427793
 20
67.85294092835076
 42
0.4142112691032795
 10
134.9874102576388
 20
68.35294092833553
 10
90.98693570503309
 20
68.35328543969828
  0
LWPOLYLINE
  5
357
330
1F
100
AcDbEntity
  8
OBRYS
100
AcDbPolyline
 90
        8
 70
     0
 43
0.0
 10
90.98693570503309
 20
68.35328543969828
 10
90.98693570503309
 20
63.65293143751725
 42
0.4142135623730344
 10
93.18693570503314
 20
61.45293143751721
 10
93.787269363137
 20
61.45293143751721
 42
-0.414213562373428
 10
93.98726936313693
 20
61.25293143751716
 10
93.98726936313693
 20
60.35333197746624
 42
0.2914531075676747
 10
94.56458323244368
 20
59.44705584133587
 10
95.62351746385633
 20
58.95317015342013
  0
LWPOLYLINE
  5
358
330
1F
100
AcDbEntity
  8
OBRYS
100
AcDbPolyline
 90
        2
 70
     0
 43
0.0
 10
90.98693570503309
 20
68.35328543969828
 10
90.98693570503309
 20
68.35328543969828
  0
LWPOLYLINE
  5
359
330
1F
100
AcDbEntity
  8
OBRYS
100
AcDbPolyline
 90
        8
 70
     0
 43
0.0
 10
97.98719747628621
 20
61.45293143751721
 10
99.58561432991274
 20
61.45293143751721
 42
-0.1315368587238315
 10
100.3350236036068
 20
61.2523104201475
 10
100.6792821051205
 20
61.05376133090473
 42
0.13153685872368
 10
101.4286913788142
 20
60.85314031353525
 10
121.4871662744148
 20
60.85314031353525
 42
0.4142135623731949
 10
122.4871662744148
 20
61.85314031353525
 10
122.4871662744148
 20
66.74528712195817
  0
LWPOLYLINE
  5
35A
330
1F
100
AcDbEntity
  8
OBRYS
100
AcDbPolyline
 90
        2
 70
     0
 43
0.0
 10
134.7871906854023
 20
68.65318100168926
 10
133.9870672589531
 20
68.65318100168926
  0
LWPOLYLINE
  5
35B
330
1F
100
AcDbEntity
  8
OBRYS
100
AcDbPolyline
 90
        2
 70
     0
 43
0.0
 10
134.7871906854023
 20
108.0530155187493
 10
133.9870672589531
 20
108.0530155187493
  0
LWPOLYLINE
  5
35C
330
1F
100
AcDbEntity
  8
OBRYS
100
AcDbPolyline
 90
        2
 70
     0
 43
0.0
 10
133.9870672589531
 20
88.24853961224218
 10
133.9870672589531
 20
88.35327051499323
  0
LWPOLYLINE
  5
35D
330
1F
100
AcDbEntity
  8
OBRYS
100
AcDbPolyline
 90
        2
 70
     0
 43
0.0
 10
133.9870672589531
 20
94.68707856462512
 10
133.9870672589531
 20
94.47899479731629
  0
LWPOLYLINE
  5
35E
330
1F
100
AcDbEntity
  8
OBRYS
100
AcDbPolyline
 90
        2
 70
     0
 43
0.0
 10
134.7871906854023
 20
80.45280529344424
 10
133.9870672589531
 20
80.45280529344424
  0
LWPOLYLINE
  5
35F
330
1F
100
AcDbEntity
  8
OBRYS
100
AcDbPolyline
 90
        2
 70
     0
 43
0.0
 10
134.7871906854023
 20
96.25304671744627
 10
133.9870672589531
 20
96.25304671744627
  0
LWPOLYLINE
  5
360
330
1F
100
AcDbEntity
  8
OBRYS
100
AcDbPolyline
 90
        2
 70
     0
 43
0.0
 10
134.7871906854023
 20
72.95317693160425
 10
133.9870672589531
 20
72.95317693160425
  0
LWPOLYLINE
  5
361
330
1F
100
AcDbEntity
  8
OBRYS
100
AcDbPolyline
 90
        2
 70
     0
 43
0.0
 10
133.9870672589531
 20
108.0530155187493
 10
133.9870672589531
 20
108.0530155187493
  0
LWPOLYLINE
  5
362
330
1F
100
AcDbEntity
  8
OBRYS
100
AcDbPolyline
 90
        2
 70
     0
 43
0.0
 10
134.7871906854023
 20
103.7535363531572
 10
133.9870672589531
 20
103.7535363531572
  0
LWPOLYLINE
  5
363
330
1F
100
AcDbEntity
  8
OBRYS
100
AcDbPolyline
 90
        2
 70
     0
 43
0.0
 10
170.7002440618407
 20
69.65329222105717
 10
171.50036748829
 20
69.65329222105717
  0
LWPOLYLINE
  5
364
330
1F
100
AcDbEntity
  8
OBRYS
100
AcDbPolyline
 90
        2
 70
     0
 43
0.0
 10
176.2999022635658
 20
69.65329222105717
 10
177.1000256900152
 20
69.65329222105717
  0
LWPOLYLINE
  5
365
330
1F
100
AcDbEntity
  8
OBRYS
100
AcDbPolyline
 90
        2
 70
     0
 43
0.0
 10
164.8999090480997
 20
56.85303994561215
 10
164.4000256931902
 20
56.85303994561215
  0
LWPOLYLINE
  5
366
330
1F
100
AcDbEntity
  8
OBRYS
100
AcDbPolyline
 90
        2
 70
     0
 43
0.0
 10
164.4000256931902
 20
61.45293143751721
 10
183.4002440586657
 20
61.45293143751721
  0
LWPOLYLINE
  5
367
330
1F
100
AcDbEntity
  8
OBRYS
100
AcDbPolyline
 90
        2
 70
     0
 43
0.0
 10
183.4002440586657
 20
58.95317015342013
 10
164.4000256931902
 20
58.95317015342013
  0
LWPOLYLINE
  5
368
330
1F
100
AcDbEntity
  8
OBRYS
100
AcDbPolyline
 90
        4
 70
     0
 43
0.0
 10
176.2999022635658
 20
68.85316879460831
 10
175.8003634182045
 20
68.85316879460831
 10
171.9999063336512
 20
68.85316879460831
 10
171.50036748829
 20
68.85316879460831
  0
LWPOLYLINE
  5
369
330
1F
100
AcDbEntity
  8
OBRYS
100
AcDbPolyline
 90
        3
 70
     0
 43
0.0
 10
171.50036748829
 20
69.65329222105717
 10
171.9999063336512
 20
69.65329222105717
 10
176.2999022635658
 20
69.65329222105717
  0
LWPOLYLINE
  5
36A
330
1F
100
AcDbEntity
  8
OBRYS
100
AcDbPolyline
 90
        2
 70
     0
 43
0.0
 10
162.3500216246921
 20
75.41056354123313
 10
162.3500216246921
 20
80.45280529344424
  0
LWPOLYLINE
  5
36B
330
1F
100
AcDbEntity
  8
OBRYS
100
AcDbPolyline
 90
        2
 70
     0
 43
0.0
 10
185.4502481271637
 20
80.45280529344424
 10
185.4502481271637
 20
75.41056354123313
  0
LWPOLYLINE
  5
36C
330
1F
100
AcDbEntity
  8
OBRYS
100
AcDbPolyline
 90
        7
 70
     0
 43
0.0
 10
185.4502481271637
 20
75.41056354123313
 10
185.471435464398
 20
74.97665376486518
 10
185.5356864951978
 20
74.5470503578542
 10
185.6417954361436
 20
74.1260596895572
 10
185.7889010133637
 20
73.71729911023223
 10
185.9756251886643
 20
73.32524724401125
 10
186.2002454143026
 20
72.95352144115233
  0
LWPOLYLINE
  5
36D
330
1F
100
AcDbEntity
  8
OBRYS
100
AcDbPolyline
 90
        7
 70
     0
 43
0.0
 10
161.6000243375532
 20
72.95352144115233
 10
161.824816817966
 20
73.32524724401125
 10
162.0113687384922
 20
73.71729911023223
 10
162.1584743157123
 20
74.1260596895572
 10
162.264583256658
 20
74.5470503578542
 10
162.3288342874581
 20
74.97665376486518
 10
162.3500216246921
 20
75.41056354123313
  0
LWPOLYLINE
  5
36E
330
1F
100
AcDbEntity
  8
OBRYS
100
AcDbPolyline
 90
        2
 70
     0
 43
0.0
 10
162.3500216246921
 20
101.2959774887542
 10
162.3500216246921
 20
96.25304671744627
  0
LWPOLYLINE
  5
36F
330
1F
100
AcDbEntity
  8
OBRYS
100
AcDbPolyline
 90
        2
 70
     0
 43
0.0
 10
185.4502481271637
 20
96.25304671744627
 10
185.4502481271637
 20
101.2959774887542
  0
LWPOLYLINE
  5
370
330
1F
100
AcDbEntity
  8
OBRYS
100
AcDbPolyline
 90
        7
 70
     0
 43
0.0
 10
186.2002454143026
 20
103.7530195888353
 10
185.9756251886643
 20
103.3812937859763
 10
185.7889010133637
 20
102.9890696649802
 10
185.6417954361436
 20
102.5804813404302
 10
185.5356864951978
 20
102.1591461625833
 10
185.471435464398
 20
101.7295427555732
 10
185.4502481271637
 20
101.2959774887542
  0
LWPOLYLINE
  5
371
330
1F
100
AcDbEntity
  8
OBRYS
100
AcDbPolyline
 90
        6
 70
     0
 43
0.0
 10
186.2002454143026
 20
103.7535363531572
 10
186.2002454143026
 20
105.0530155187491
 42
0.4142135623731061
 10
183.2002454143026
 20
108.0530155187493
 10
164.600024337553
 20
108.0530155187493
 42
0.414213562373084
 10
161.6000243375532
 20
105.0530155187493
 10
161.6000243375532
 20
103.7535363531572
  0
LWPOLYLINE
  5
372
330
1F
100
AcDbEntity
  8
OBRYS
100
AcDbPolyline
 90
        7
 70
     0
 43
0.0
 10
162.3500216246921
 20
101.2959774887542
 10
162.3288342874581
 20
101.7295427555732
 10
162.264583256658
 20
102.1591461625833
 10
162.1584743157123
 20
102.5804813404302
 10
162.0113687384922
 20
102.9890696649802
 10
161.824816817966
 20
103.3812937859763
 10
161.6000243375532
 20
103.7530195888353
  0
LWPOLYLINE
  5
373
330
1F
100
AcDbEntity
  8
OBRYS
100
AcDbPolyline
 90
        7
 70
     0
 43
0.0
 10
161.7996676209236
 20
88.35292600544514
 10
161.8025959520859
 20
87.03173188685216
 10
161.8410087667466
 20
85.7110545325813
 10
161.9150783196794
 20
84.39192747127933
 10
162.024460101336
 20
83.07503972204219
 10
162.1694986212651
 20
81.76194157783922
 10
162.3496771151436
 20
80.45280529344424
  0
LWPOLYLINE
  5
374
330
1F
100
AcDbEntity
  8
OBRYS
100
AcDbPolyline
 90
        7
 70
     0
 43
0.0
 10
185.4502481271637
 20
80.45280529344424
 10
185.6305988758166
 20
81.76194157783922
 10
185.7756373957456
 20
83.07503972204219
 10
185.884846922628
 20
84.39192747127933
 10
185.9589164755609
 20
85.7110545325813
 10
185.9975015449957
 20
87.03173188685216
 10
186.0002576213838
 20
88.35292600544514
  0
LWPOLYLINE
  5
375
330
1F
100
AcDbEntity
  8
OBRYS
100
AcDbPolyline
 90
        7
 70
     0
 43
0.0
 10
162.3496771151436
 20
96.25304671744627
 10
162.1694986212651
 20
94.94425494259914
 10
162.024460101336
 20
93.63081228884832
 10
161.9150783196794
 20
92.31426904915926
 10
161.8410087667466
 20
90.99496973308325
 10
161.8025959520859
 20
89.67412012403813
 10
161.7996676209236
 20
88.35292600544514
  0
LWPOLYLINE
  5
376
330
1F
100
AcDbEntity
  8
OBRYS
100
AcDbPolyline
 90
        7
 70
     0
 43
0.0
 10
186.0002576213838
 20
88.35292600544514
 10
185.9975015449957
 20
89.67412012403813
 10
185.9589164755609
 20
90.99496973308325
 10
185.884846922628
 20
92.31426904915926
 10
185.7756373957456
 20
93.63081228884832
 10
185.6305988758166
 20
94.94425494259914
 10
185.4502481271637
 20
96.25304671744627
  0
LWPOLYLINE
  5
377
330
1F
100
AcDbEntity
  8
OBRYS
100
AcDbPolyline
 90
        2
 70
     0
 43
0.0
 10
177.1000256900152
 20
70.05326780689526
 10
177.1000256900152
 20
68.65318100168926
  0
LWPOLYLINE
  5
378
330
1F
100
AcDbEntity
  8
OBRYS
100
AcDbPolyline
 90
        2
 70
     0
 43
0.0
 10
170.7002440618407
 20
68.65318100168926
 10
170.7002440618407
 20
70.05292329734627
  0
LWPOLYLINE
  5
379
330
1F
100
AcDbEntity
  8
OBRYS
100
AcDbPolyline
 90
        4
 70
     0
 43
0.0
 10
171.50036748829
 20
68.85316879460831
 10
171.50036748829
 20
69.65329222105717
 10
171.50036748829
 20
69.85293550442722
 10
171.50036748829
 20
70.05326780689526
  0
LWPOLYLINE
  5
37A
330
1F
100
AcDbEntity
  8
OBRYS
100
AcDbPolyline
 90
        4
 70
     0
 43
0.0
 10
186.2002454143026
 20
72.95317693160425
 10
186.2002454143026
 20
71.65318100168926
 42
-0.4142135623731616
 10
183.2002454143026
 20
68.65318100168926
 10
177.1000256900152
 20
68.65318100168926
  0
LWPOLYLINE
  5
37B
330
1F
100
AcDbEntity
  8
OBRYS
100
AcDbPolyline
 90
        4
 70
     0
 43
0.0
 10
170.7002440618407
 20
68.65318100168926
 10
164.6000243375532
 20
68.65318100168926
 42
-0.4142135623730506
 10
161.6000243375532
 20
71.65318100168926
 10
161.6000243375532
 20
72.95317693160425
  0
LWPOLYLINE
  5
37C
330
1F
100
AcDbEntity
  8
OBRYS
100
AcDbPolyline
 90
        2
 70
     0
 43
0.0
 10
175.8003634182045
 20
68.85316879460831
 10
174.8002521988366
 20
69.02955768345325
  0
LWPOLYLINE
  5
37D
330
1F
100
AcDbEntity
  8
OBRYS
100
AcDbPolyline
 90
        2
 70
     0
 43
0.0
 10
174.8002521988366
 20
69.47690333221223
 10
175.8003634182045
 20
69.65329222105717
  0
LWPOLYLINE
  5
37E
330
1F
100
AcDbEntity
  8
OBRYS
100
AcDbPolyline
 90
        2
 70
     0
 43
0.0
 10
174.8002521988366
 20
69.02955768345325
 10
174.8002521988366
 20
69.47690333221223
  0
LWPOLYLINE
  5
37F
330
1F
100
AcDbEntity
  8
OBRYS
100
AcDbPolyline
 90
        2
 70
     0
 43
0.0
 10
171.9999063336512
 20
69.65329222105717
 10
173.0000175530193
 20
69.47690333221223
  0
LWPOLYLINE
  5
380
330
1F
100
AcDbEntity
  8
OBRYS
100
AcDbPolyline
 90
        2
 70
     0
 43
0.0
 10
173.0000175530193
 20
69.02955768345325
 10
171.9999063336512
 20
68.85316879460831
  0
LWPOLYLINE
  5
381
330
1F
100
AcDbEntity
  8
OBRYS
100
AcDbPolyline
 90
        2
 70
     0
 43
0.0
 10
173.0000175530193
 20
69.47690333221223
 10
173.0000175530193
 20
69.02955768345325
  0
LWPOLYLINE
  5
382
330
1F
100
AcDbEntity
  8
OBRYS
100
AcDbPolyline
 90
        2
 70
     0
 43
0.0
 10
174.8002521988366
 20
69.47690333221223
 10
173.0000175530193
 20
69.47690333221223
  0
LWPOLYLINE
  5
383
330
1F
100
AcDbEntity
  8
OBRYS
100
AcDbPolyline
 90
        2
 70
     0
 43
0.0
 10
173.0000175530193
 20
69.02955768345325
 10
174.8002521988366
 20
69.02955768345325
  0
LWPOLYLINE
  5
384
330
1F
100
AcDbEntity
  8
OBRYS
100
AcDbPolyline
 90
        2
 70
     0
 43
0.0
 10
162.3095417527405
 20
62.95947169321718
 10
162.6566351228795
 20
62.00552475335118
  0
LWPOLYLINE
  5
385
330
1F
100
AcDbEntity
  8
OBRYS
100
AcDbPolyline
 90
        2
 70
     0
 43
0.0
 10
161.672026833195
 20
62.84716158039734
 10
162.3095417527405
 20
62.95947169321718
  0
LWPOLYLINE
  5
386
330
1F
100
AcDbEntity
  8
OBRYS
100
AcDbPolyline
 90
        2
 70
     0
 43
0.0
 10
161.672026833195
 20
61.83154743134625
 10
161.672026833195
 20
62.84716158039734
  0
LWPOLYLINE
  5
387
330
1F
100
AcDbEntity
  8
OBRYS
100
AcDbPolyline
 90
        2
 70
     0
 43
0.0
 10
183.7475096835789
 20
63.42283703598329
 10
183.4002440586657
 20
61.682560929956
  0
LWPOLYLINE
  5
388
330
1F
100
AcDbEntity
  8
OBRYS
100
AcDbPolyline
 90
        2
 70
     0
 43
0.0
 10
184.7321179732632
 20
63.24885971397813
 10
183.7475096835789
 20
63.42283703598329
  0
LWPOLYLINE
  5
389
330
1F
100
AcDbEntity
  8
OBRYS
100
AcDbPolyline
 90
        2
 70
     0
 43
0.0
 10
164.052932323051
 20
63.42283703598329
 10
163.0679795238182
 20
63.24885971397813
  0
LWPOLYLINE
  5
38A
330
1F
100
AcDbEntity
  8
OBRYS
100
AcDbPolyline
 90
        2
 70
     0
 43
0.0
 10
164.4000256931902
 20
61.682560929956
 10
164.052932323051
 20
63.42283703598329
  0
LWPOLYLINE
  5
38B
330
1F
100
AcDbEntity
  8
OBRYS
100
AcDbPolyline
 90
       10
 70
     0
 43
0.0
 10
182.9000161942074
 20
54.95306978549613
 10
183.1000595968102
 20
54.95306978549613
 42
0.414213562373095
 10
183.6000595968102
 20
55.45306978549613
 10
183.6000595968102
 20
56.45340886932215
 10
184.6001708161783
 20
56.45340886932215
 10
184.6001708161783
 20
55.45329936476216
 42
-0.4142189930702393
 10
183.1001430038922
 20
53.95329936502
 10
164.3195634739182
 20
53.95364758558205
 42
-0.3639720698129842
 10
162.8423731388728
 20
55.19321228588157
 10
161.672026833195
 20
61.83154743134625
  0
LWPOLYLINE
  5
38C
330
1F
100
AcDbEntity
  8
OBRYS
100
AcDbPolyline
 90
        5
 70
     0
 43
0.0
 10
164.8999090480997
 20
54.95306978549613
 10
164.3198962447777
 20
54.95306978549613
 42
-0.36395751094915
 10
163.8274962706494
 20
55.36622356808581
 10
162.7434515291077
 20
61.51253158941219
 10
162.6566351228795
 20
62.00552475335118
  0
LWPOLYLINE
  5
38D
330
1F
100
AcDbEntity
  8
OBRYS
100
AcDbPolyline
 90
        3
 70
     0
 43
0.0
 10
182.9000161942074
 20
53.9533030756763
 10
182.9000161942074
 20
55.45329764995424
 10
182.9000161942074
 20
58.95317015342013
  0
LWPOLYLINE
  5
38E
330
1F
100
AcDbEntity
  8
OBRYS
100
AcDbPolyline
 90
        2
 70
     0
 43
0.0
 10
162.7434515291077
 20
61.51253158941219
 10
161.7588432394234
 20
61.33924328650411
  0
LWPOLYLINE
  5
38F
330
1F
100
AcDbEntity
  8
OBRYS
100
AcDbPolyline
 90
        6
 70
     0
 43
0.0
 10
162.0752752597436
 20
101.5690013059602
 10
162.0530543938636
 20
101.9870636430953
 10
161.9877698344182
 20
102.4004751013253
 10
161.8794215814071
 20
102.8047570565193
 10
161.7292154182501
 20
103.1957753940962
 10
161.5390461474645
 20
103.5688792351482
  0
LWPOLYLINE
  5
390
330
1F
100
AcDbEntity
  8
OBRYS
100
AcDbPolyline
 90
        6
 70
     0
 43
0.0
 10
161.5390461474645
 20
73.13731728529112
 10
161.7292154182501
 20
73.51042112634329
 10
161.8794215814071
 20
73.90143946391933
 10
161.9877698344182
 20
74.30572141911327
 10
162.0530543938636
 20
74.71947738689116
 10
162.0752752597436
 20
75.13753972402625
  0
LWPOLYLINE
  5
391
330
1F
100
AcDbEntity
  8
OBRYS
100
AcDbPolyline
 90
        2
 70
     0
 43
0.0
 10
162.2396063143901
 20
95.48220660262129
 10
161.9567639750509
 20
95.41726655272416
  0
LWPOLYLINE
  5
392
330
1F
100
AcDbEntity
  8
OBRYS
100
AcDbPolyline
 90
        2
 70
     0
 43
0.0
 10
162.0173976555913
 20
95.91370481214832
 10
162.280947460213
 20
95.77917383345013
  0
LWPOLYLINE
  5
393
330
1F
100
AcDbEntity
  8
OBRYS
100
AcDbPolyline
 90
        2
 70
     0
 43
0.0
 10
162.1105874884674
 20
94.44299354949518
 10
161.8423868049405
 20
94.37633095185512
  0
LWPOLYLINE
  5
394
330
1F
100
AcDbEntity
  8
OBRYS
100
AcDbPolyline
 90
        2
 70
     0
 43
0.0
 10
161.8945800015422
 20
94.87328597560324
 10
162.1460719719652
 20
94.75046832155428
  0
LWPOLYLINE
  5
395
330
1F
100
AcDbEntity
  8
OBRYS
100
AcDbPolyline
 90
        2
 70
     0
 43
0.0
 10
162.0032727641018
 20
93.40257471295033
 10
161.7460963861279
 20
93.33350054847025
  0
LWPOLYLINE
  5
396
330
1F
100
AcDbEntity
  8
OBRYS
100
AcDbPolyline
 90
        2
 70
     0
 43
0.0
 10
161.7898490987905
 20
93.83148910086331
 10
162.0335896043719
 20
93.71831771417325
  0
LWPOLYLINE
  5
397
330
1F
100
AcDbEntity
  8
OBRYS
100
AcDbPolyline
 90
        2
 70
     0
 43
0.0
 10
161.9181789056161
 20
92.36077783821017
 10
161.6684094829355
 20
92.28894759734314
  0
LWPOLYLINE
  5
398
330
1F
100
AcDbEntity
  8
OBRYS
100
AcDbPolyline
 90
        2
 70
     0
 43
0.0
 10
161.7033772021109
 20
92.78814193315631
 10
161.9422945740127
 20
92.68186073743615
  0
LWPOLYLINE
  5
399
330
1F
100
AcDbEntity
  8
OBRYS
100
AcDbPolyline
 90
        2
 70
     0
 43
0.0
 10
161.8561671868817
 20
91.31915321824519
 10
161.6088093310407
 20
91.24353337234422
  0
LWPOLYLINE
  5
39A
330
1F
100
AcDbEntity
  8
OBRYS
100
AcDbPolyline
 90
        2
 70
     0
 43
0.0
 10
161.6353365662772
 20
91.74307221770525
 10
161.8730481547594
 20
91.6419586652132
  0
LWPOLYLINE
  5
39B
330
1F
100
AcDbEntity
  8
OBRYS
100
AcDbPolyline
 90
        2
 70
     0
 43
0.0
 10
161.8158595697043
 20
90.27804536260211
 10
161.567640439992
 20
90.19725787347326
  0
LWPOLYLINE
  5
39C
330
1F
100
AcDbEntity
  8
OBRYS
100
AcDbPolyline
 90
        2
 70
     0
 43
0.0
 10
161.5848659174182
 20
90.6967967188352
 10
161.8261948561598
 20
90.59981728092518
  0
LWPOLYLINE
  5
39D
330
1F
100
AcDbEntity
  8
OBRYS
100
AcDbPolyline
 90
        2
 70
     0
 43
0.0
 10
161.7979450731809
 20
89.23762652605726
 10
161.5447305550152
 20
89.15012110073232
  0
LWPOLYLINE
  5
39E
330
1F
100
AcDbEntity
  8
OBRYS
100
AcDbPolyline
 90
        2
 70
     0
 43
0.0
 10
161.5535155485024
 20
89.65000445564212
 10
161.8010456591176
 20
89.55526432979715
  0
LWPOLYLINE
  5
39F
330
1F
100
AcDbEntity
  8
OBRYS
100
AcDbPolyline
 90
        2
 70
     0
 43
0.0
 10
162.0173976555913
 20
80.79283621783813
 10
162.0752752597436
 20
80.35306977914613
  0
LWPOLYLINE
  5
3A0
330
1F
100
AcDbEntity
  8
OBRYS
100
AcDbPolyline
 90
        2
 70
     0
 43
0.0
 10
161.8945800015422
 20
81.83256603528727
 10
161.9567639750509
 20
81.2892744772632
  0
LWPOLYLINE
  5
3A1
330
1F
100
AcDbEntity
  8
OBRYS
100
AcDbPolyline
 90
        2
 70
     0
 43
0.0
 10
161.7898490987905
 20
82.87470741957529
 10
161.8423868049405
 20
82.32986556858233
  0
LWPOLYLINE
  5
3A2
330
1F
100
AcDbEntity
  8
OBRYS
100
AcDbPolyline
 90
        2
 70
     0
 43
0.0
 10
161.7033772021109
 20
83.91857135160532
 10
161.7460963861279
 20
83.37269597196834
  0
LWPOLYLINE
  5
3A3
330
1F
100
AcDbEntity
  8
OBRYS
100
AcDbPolyline
 90
        2
 70
     0
 43
0.0
 10
161.6353365662772
 20
84.96346881228212
 10
161.6684094829355
 20
84.41724892309523
  0
LWPOLYLINE
  5
3A4
330
1F
100
AcDbEntity
  8
OBRYS
100
AcDbPolyline
 90
        2
 70
     0
 43
0.0
 10
161.5848659174182
 20
86.0093998016043
 10
161.6088093310407
 20
85.46266314809415
  0
LWPOLYLINE
  5
3A5
330
1F
100
AcDbEntity
  8
OBRYS
100
AcDbPolyline
 90
        2
 70
     0
 43
0.0
 10
161.5535155485024
 20
87.05619206479716
 10
161.567640439992
 20
86.50893864696533
  0
LWPOLYLINE
  5
3A6
330
1F
100
AcDbEntity
  8
OBRYS
100
AcDbPolyline
 90
        2
 70
     0
 43
0.0
 10
161.54007967611
 20
88.1031565827652
 10
161.5447305550152
 20
87.55607541970718
  0
LWPOLYLINE
  5
3A7
330
1F
100
AcDbEntity
  8
OBRYS
100
AcDbPolyline
 90
        2
 70
     0
 43
0.0
 10
162.0752752597436
 20
96.35312674129224
 10
162.0173976555913
 20
95.91370481214832
  0
LWPOLYLINE
  5
3A8
330
1F
100
AcDbEntity
  8
OBRYS
100
AcDbPolyline
 90
        2
 70
     0
 43
0.0
 10
161.9567639750509
 20
95.41726655272416
 10
161.8945800015422
 20
94.87328597560324
  0
LWPOLYLINE
  5
3A9
330
1F
100
AcDbEntity
  8
OBRYS
100
AcDbPolyline
 90
        2
 70
     0
 43
0.0
 10
161.8423868049405
 20
94.37633095185512
 10
161.7898490987905
 20
93.83148910086331
  0
LWPOLYLINE
  5
3AA
330
1F
100
AcDbEntity
  8
OBRYS
100
AcDbPolyline
 90
        2
 70
     0
 43
0.0
 10
161.7460963861279
 20
93.33350054847025
 10
161.7033772021109
 20
92.78814193315631
  0
LWPOLYLINE
  5
3AB
330
1F
100
AcDbEntity
  8
OBRYS
100
AcDbPolyline
 90
        2
 70
     0
 43
0.0
 10
161.6684094829355
 20
92.28894759734314
 10
161.6353365662772
 20
91.74307221770525
  0
LWPOLYLINE
  5
3AC
330
1F
100
AcDbEntity
  8
OBRYS
100
AcDbPolyline
 90
        2
 70
     0
 43
0.0
 10
161.6088093310407
 20
91.24353337234422
 10
161.5848659174182
 20
90.6967967188352
  0
LWPOLYLINE
  5
3AD
330
1F
100
AcDbEntity
  8
OBRYS
100
AcDbPolyline
 90
        2
 70
     0
 43
0.0
 10
161.5447305550152
 20
89.15012110073232
 10
161.54007967611
 20
88.60303993767431
  0
LWPOLYLINE
  5
3AE
330
1F
100
AcDbEntity
  8
OBRYS
100
AcDbPolyline
 90
        2
 70
     0
 43
0.0
 10
161.567640439992
 20
90.19725787347326
 10
161.5535155485024
 20
89.65000445564212
  0
LWPOLYLINE
  5
3AF
330
1F
100
AcDbEntity
  8
OBRYS
100
AcDbPolyline
 90
        2
 70
     0
 43
0.0
 10
161.798634092278
 20
88.19737994428621
 10
161.54007967611
 20
88.1031565827652
  0
LWPOLYLINE
  5
3B0
330
1F
100
AcDbEntity
  8
OBRYS
100
AcDbPolyline
 90
        2
 70
     0
 43
0.0
 10
161.54007967611
 20
88.60303993767431
 10
161.798634092278
 20
88.50881657615216
  0
LWPOLYLINE
  5
3B1
330
1F
100
AcDbEntity
  8
OBRYS
100
AcDbPolyline
 90
        2
 70
     0
 43
0.0
 10
167.5750256923964
 20
108.3532555902893
 10
167.5750256923964
 20
108.0530155187493
  0
LWPOLYLINE
  5
3B2
330
1F
100
AcDbEntity
  8
OBRYS
100
AcDbPolyline
 90
        4
 70
     0
 43
0.0
 10
161.3748873475924
 20
103.8532718674553
 10
161.3748873475924
 20
105.3532555902893
 42
-0.4142135623730618
 10
164.3748873475924
 20
108.3532555902893
 10
167.5750256923964
 20
108.3532555902893
  0
LWPOLYLINE
  5
3B3
330
1F
100
AcDbEntity
  8
OBRYS
100
AcDbPolyline
 90
        2
 70
     0
 43
0.0
 10
161.3748873475924
 20
103.8532718674553
 10
161.5390461474645
 20
103.5688792351482
  0
LWPOLYLINE
  5
3B4
330
1F
100
AcDbEntity
  8
OBRYS
100
AcDbPolyline
 90
        2
 70
     0
 43
0.0
 10
162.0752752597436
 20
101.5690013059602
 10
162.0752752597436
 20
96.35312674129224
  0
LWPOLYLINE
  5
3B5
330
1F
100
AcDbEntity
  8
OBRYS
100
AcDbPolyline
 90
        2
 70
     0
 43
0.0
 10
162.0752752597436
 20
80.35306977914613
 10
162.0752752597436
 20
75.13753972402625
  0
LWPOLYLINE
  5
3B6
330
1F
100
AcDbEntity
  8
OBRYS
100
AcDbPolyline
 90
        5
 70
     0
 43
0.0
 10
167.5750256923964
 20
68.35328543969828
 10
164.3748873475924
 20
68.35328543969828
 42
-0.4142135623731728
 10
161.3748873475924
 20
71.35328543969828
 10
161.3748873475924
 20
72.85292465298332
 10
161.5390461474645
 20
73.13731728529112
  0
LWPOLYLINE
  5
3B7
330
1F
100
AcDbEntity
  8
OBRYS
100
AcDbPolyline
 90
        2
 70
     0
 43
0.0
 10
167.5750256923964
 20
68.65318100168926
 10
167.5750256923964
 20
68.35328543969828
  0
LWPOLYLINE
  5
3B8
330
1F
100
AcDbEntity
  8
OBRYS
100
AcDbPolyline
 90
        2
 70
     0
 43
0.0
 10
161.5447305550152
 20
87.55607541970718
 10
161.7979450731809
 20
87.46856999438134
  0
LWPOLYLINE
  5
3B9
330
1F
100
AcDbEntity
  8
OBRYS
100
AcDbPolyline
 90
        2
 70
     0
 43
0.0
 10
161.8010456591176
 20
87.15093219064121
 10
161.5535155485024
 20
87.05619206479716
  0
LWPOLYLINE
  5
3BA
330
1F
100
AcDbEntity
  8
OBRYS
100
AcDbPolyline
 90
        2
 70
     0
 43
0.0
 10
161.567640439992
 20
86.50893864696533
 10
161.8158595697043
 20
86.42815115783625
  0
LWPOLYLINE
  5
3BB
330
1F
100
AcDbEntity
  8
OBRYS
100
AcDbPolyline
 90
        2
 70
     0
 43
0.0
 10
161.8261948561598
 20
86.10637923951433
 10
161.5848659174182
 20
86.00905529205531
  0
LWPOLYLINE
  5
3BC
330
1F
100
AcDbEntity
  8
OBRYS
100
AcDbPolyline
 90
        2
 70
     0
 43
0.0
 10
161.6088093310407
 20
85.46266314809415
 10
161.8561671868817
 20
85.38704330219318
  0
LWPOLYLINE
  5
3BD
330
1F
100
AcDbEntity
  8
OBRYS
100
AcDbPolyline
 90
        2
 70
     0
 43
0.0
 10
161.8730481547594
 20
85.06475461954821
 10
161.6353365662772
 20
84.96346881228212
  0
LWPOLYLINE
  5
3BE
330
1F
100
AcDbEntity
  8
OBRYS
100
AcDbPolyline
 90
        2
 70
     0
 43
0.0
 10
161.6684094829355
 20
84.41724892309523
 10
161.9181789056161
 20
84.3454186822282
  0
LWPOLYLINE
  5
3BF
330
1F
100
AcDbEntity
  8
OBRYS
100
AcDbPolyline
 90
        2
 70
     0
 43
0.0
 10
161.9422945740127
 20
84.02468029255121
 10
161.7033772021109
 20
83.91857135160532
  0
LWPOLYLINE
  5
3C0
330
1F
100
AcDbEntity
  8
OBRYS
100
AcDbPolyline
 90
        2
 70
     0
 43
0.0
 10
161.7460963861279
 20
83.37269597196834
 10
162.0032727641018
 20
83.30396631703726
  0
LWPOLYLINE
  5
3C1
330
1F
100
AcDbEntity
  8
OBRYS
100
AcDbPolyline
 90
        2
 70
     0
 43
0.0
 10
162.0332450948234
 20
82.98822331581434
 10
161.7898490987905
 20
82.87470741957529
  0
LWPOLYLINE
  5
3C2
330
1F
100
AcDbEntity
  8
OBRYS
100
AcDbPolyline
 90
        2
 70
     0
 43
0.0
 10
161.8423868049405
 20
82.32986556858233
 10
162.1105874884674
 20
82.26320297094318
  0
LWPOLYLINE
  5
3C3
330
1F
100
AcDbEntity
  8
OBRYS
100
AcDbPolyline
 90
        2
 70
     0
 43
0.0
 10
162.1460719719652
 20
81.95572819888432
 10
161.8945800015422
 20
81.83256603528727
  0
LWPOLYLINE
  5
3C4
330
1F
100
AcDbEntity
  8
OBRYS
100
AcDbPolyline
 90
        2
 70
     0
 43
0.0
 10
161.9567639750509
 20
81.2892744772632
 10
162.2396063143901
 20
81.22364540826922
  0
LWPOLYLINE
  5
3C5
330
1F
100
AcDbEntity
  8
OBRYS
100
AcDbPolyline
 90
        2
 70
     0
 43
0.0
 10
162.280947460213
 20
80.92736719653723
 10
162.0173976555913
 20
80.79283621783813
  0
LWPOLYLINE
  5
3C6
330
1F
100
AcDbEntity
  8
OBRYS
100
AcDbPolyline
 90
        6
 70
     0
 43
0.0
 10
185.7246499825638
 20
75.13753972402625
 10
185.7466985936694
 20
74.71947738689116
 10
185.8121554078892
 20
74.30572141911327
 10
185.9205036609002
 20
73.90143946391933
 10
186.0708820788315
 20
73.51042112634329
 10
186.2607068400687
 20
73.13731728529112
  0
LWPOLYLINE
  5
3C7
330
1F
100
AcDbEntity
  8
OBRYS
100
AcDbPolyline
 90
        6
 70
     0
 43
0.0
 10
186.2607068400687
 20
103.5688792351482
 10
186.0708820788315
 20
103.1957753940962
 10
185.9205036609002
 20
102.8047570565193
 10
185.8121554078892
 20
102.4004751013253
 10
185.7466985936694
 20
101.9870636430953
 10
185.7246499825638
 20
101.5690013059602
  0
LWPOLYLINE
  5
3C8
330
1F
100
AcDbEntity
  8
OBRYS
100
AcDbPolyline
 90
        2
 70
     0
 43
0.0
 10
185.5606634374658
 20
81.2239899178173
 10
185.8436780315793
 20
81.2892744772632
  0
LWPOLYLINE
  5
3C9
330
1F
100
AcDbEntity
  8
OBRYS
100
AcDbPolyline
 90
        2
 70
     0
 43
0.0
 10
185.7821830771675
 20
80.79283621783813
 10
185.5194945464171
 20
80.92736719653723
  0
LWPOLYLINE
  5
3CA
330
1F
100
AcDbEntity
  8
OBRYS
100
AcDbPolyline
 90
        2
 70
     0
 43
0.0
 10
185.6898545181628
 20
82.26371973526622
 10
185.9575384373667
 20
82.32986556858233
  0
LWPOLYLINE
  5
3CB
330
1F
100
AcDbEntity
  8
OBRYS
100
AcDbPolyline
 90
        2
 70
     0
 43
0.0
 10
185.9053452407654
 20
81.83256603528727
 10
185.6538532703418
 20
81.95538368933623
  0
LWPOLYLINE
  5
3CC
330
1F
100
AcDbEntity
  8
OBRYS
100
AcDbPolyline
 90
        2
 70
     0
 43
0.0
 10
185.796996987754
 20
83.30396631703726
 10
186.0538288561795
 20
83.37269597196834
  0
LWPOLYLINE
  5
3CD
330
1F
100
AcDbEntity
  8
OBRYS
100
AcDbPolyline
 90
        2
 70
     0
 43
0.0
 10
186.0100761435168
 20
82.87470741957529
 10
185.7666801474839
 20
82.98822331581434
  0
LWPOLYLINE
  5
3CE
330
1F
100
AcDbEntity
  8
OBRYS
100
AcDbPolyline
 90
        2
 70
     0
 43
0.0
 10
185.8814018271425
 20
84.3454186822282
 10
186.1315157593719
 20
84.41724892309523
  0
LWPOLYLINE
  5
3CF
330
1F
100
AcDbEntity
  8
OBRYS
100
AcDbPolyline
 90
        2
 70
     0
 43
0.0
 10
186.0965480401966
 20
83.91857135160532
 10
185.8581474326174
 20
84.02468029255121
  0
LWPOLYLINE
  5
3D0
330
1F
100
AcDbEntity
  8
OBRYS
100
AcDbPolyline
 90
        2
 70
     0
 43
0.0
 10
185.9441025649741
 20
85.38704330219318
 10
186.1911159112666
 20
85.46266314809415
  0
LWPOLYLINE
  5
3D1
330
1F
100
AcDbEntity
  8
OBRYS
100
AcDbPolyline
 90
        2
 70
     0
 43
0.0
 10
186.1649331855788
 20
84.96346881228212
 10
185.9272215970968
 20
85.06389334567731
  0
LWPOLYLINE
  5
3D2
330
1F
100
AcDbEntity
  8
OBRYS
100
AcDbPolyline
 90
        2
 70
     0
 43
0.0
 10
185.9844101821516
 20
86.42815115783625
 10
186.2328015666382
 20
86.50893864696533
  0
LWPOLYLINE
  5
3D3
330
1F
100
AcDbEntity
  8
OBRYS
100
AcDbPolyline
 90
        2
 70
     0
 43
0.0
 10
186.2150593248891
 20
86.00905529205531
 10
185.974074895696
 20
86.10637923951433
  0
LWPOLYLINE
  5
3D4
330
1F
100
AcDbEntity
  8
OBRYS
100
AcDbPolyline
 90
        2
 70
     0
 43
0.0
 10
186.0019801691264
 20
87.46856999438134
 10
186.2553669420666
 20
87.55607541970718
  0
LWPOLYLINE
  5
3D5
330
1F
100
AcDbEntity
  8
OBRYS
100
AcDbPolyline
 90
        2
 70
     0
 43
0.0
 10
186.2469264581277
 20
87.05619206479716
 10
185.9992240927382
 20
87.15093219064121
  0
LWPOLYLINE
  5
3D6
330
1F
100
AcDbEntity
  8
OBRYS
100
AcDbPolyline
 90
        2
 70
     0
 43
0.0
 10
185.7821830771675
 20
95.91370481214832
 10
185.7251667468865
 20
96.35312674129224
  0
LWPOLYLINE
  5
3D7
330
1F
100
AcDbEntity
  8
OBRYS
100
AcDbPolyline
 90
        2
 70
     0
 43
0.0
 10
185.9053452407654
 20
94.87328597560324
 10
185.8436780315793
 20
95.41726655272416
  0
LWPOLYLINE
  5
3D8
330
1F
100
AcDbEntity
  8
OBRYS
100
AcDbPolyline
 90
        2
 70
     0
 43
0.0
 10
186.0100761435168
 20
93.83148910086331
 10
185.9575384373667
 20
94.37633095185512
  0
LWPOLYLINE
  5
3D9
330
1F
100
AcDbEntity
  8
OBRYS
100
AcDbPolyline
 90
        2
 70
     0
 43
0.0
 10
186.0965480401966
 20
92.78814193315631
 10
186.0538288561795
 20
93.33350054847025
  0
LWPOLYLINE
  5
3DA
330
1F
100
AcDbEntity
  8
OBRYS
100
AcDbPolyline
 90
        2
 70
     0
 43
0.0
 10
186.1649331855788
 20
91.74307221770525
 10
186.1315157593719
 20
92.28894759734314
  0
LWPOLYLINE
  5
3DB
330
1F
100
AcDbEntity
  8
OBRYS
100
AcDbPolyline
 90
        2
 70
     0
 43
0.0
 10
186.2150593248891
 20
90.6967967188352
 10
186.1911159112666
 20
91.24353337234422
  0
LWPOLYLINE
  5
3DC
330
1F
100
AcDbEntity
  8
OBRYS
100
AcDbPolyline
 90
        2
 70
     0
 43
0.0
 10
186.2469264581277
 20
89.65000445564212
 10
186.2328015666382
 20
90.19725787347326
  0
LWPOLYLINE
  5
3DD
330
1F
100
AcDbEntity
  8
OBRYS
100
AcDbPolyline
 90
        2
 70
     0
 43
0.0
 10
186.2601900757458
 20
88.60303993767431
 10
186.2553669420666
 20
89.15012110073232
  0
LWPOLYLINE
  5
3DE
330
1F
100
AcDbEntity
  8
OBRYS
100
AcDbPolyline
 90
        2
 70
     0
 43
0.0
 10
185.7251667468865
 20
80.35306977914613
 10
185.7821830771675
 20
80.79283621783813
  0
LWPOLYLINE
  5
3DF
330
1F
100
AcDbEntity
  8
OBRYS
100
AcDbPolyline
 90
        2
 70
     0
 43
0.0
 10
185.8436780315793
 20
81.2892744772632
 10
185.9053452407654
 20
81.83256603528727
  0
LWPOLYLINE
  5
3E0
330
1F
100
AcDbEntity
  8
OBRYS
100
AcDbPolyline
 90
        2
 70
     0
 43
0.0
 10
185.9575384373667
 20
82.32986556858233
 10
186.0100761435168
 20
82.87470741957529
  0
LWPOLYLINE
  5
3E1
330
1F
100
AcDbEntity
  8
OBRYS
100
AcDbPolyline
 90
        2
 70
     0
 43
0.0
 10
186.0538288561795
 20
83.37269597196834
 10
186.0965480401966
 20
83.91857135160532
  0
LWPOLYLINE
  5
3E2
330
1F
100
AcDbEntity
  8
OBRYS
100
AcDbPolyline
 90
        2
 70
     0
 43
0.0
 10
186.1315157593719
 20
84.41724892309523
 10
186.1649331855788
 20
84.96346881228212
  0
LWPOLYLINE
  5
3E3
330
1F
100
AcDbEntity
  8
OBRYS
100
AcDbPolyline
 90
        2
 70
     0
 43
0.0
 10
186.1911159112666
 20
85.46266314809415
 10
186.2150593248891
 20
86.0093998016043
  0
LWPOLYLINE
  5
3E4
330
1F
100
AcDbEntity
  8
OBRYS
100
AcDbPolyline
 90
        2
 70
     0
 43
0.0
 10
186.2553669420666
 20
87.55607541970718
 10
186.2601900757458
 20
88.1031565827652
  0
LWPOLYLINE
  5
3E5
330
1F
100
AcDbEntity
  8
OBRYS
100
AcDbPolyline
 90
        2
 70
     0
 43
0.0
 10
186.2328015666382
 20
86.50893864696533
 10
186.2469264581277
 20
87.05619206479716
  0
LWPOLYLINE
  5
3E6
330
1F
100
AcDbEntity
  8
OBRYS
100
AcDbPolyline
 90
        2
 70
     0
 43
0.0
 10
186.001635659578
 20
88.50881657615216
 10
186.2601900757458
 20
88.60303993767431
  0
LWPOLYLINE
  5
3E7
330
1F
100
AcDbEntity
  8
OBRYS
100
AcDbPolyline
 90
        2
 70
     0
 43
0.0
 10
186.2601900757458
 20
88.1031565827652
 10
186.001635659578
 20
88.19737994428621
  0
LWPOLYLINE
  5
3E8
330
1F
100
AcDbEntity
  8
OBRYS
100
AcDbPolyline
 90
        2
 70
     0
 43
0.0
 10
177.1000256900152
 20
69.85293550442722
 10
176.2999022635658
 20
69.85293550442722
  0
LWPOLYLINE
  5
3E9
330
1F
100
AcDbEntity
  8
OBRYS
100
AcDbPolyline
 90
        2
 70
     0
 43
0.0
 10
171.50036748829
 20
69.85293550442722
 10
170.7002440618407
 20
69.85293550442722
  0
LWPOLYLINE
  5
3EA
330
1F
100
AcDbEntity
  8
OBRYS
100
AcDbPolyline
 90
        2
 70
     0
 43
0.0
 10
180.2248995499108
 20
68.35328543969828
 10
180.2248995499108
 20
68.65318100168926
  0
LWPOLYLINE
  5
3EB
330
1F
100
AcDbEntity
  8
OBRYS
100
AcDbPolyline
 90
        4
 70
     0
 43
0.0
 10
186.4250378947152
 20
72.85292465298332
 10
186.4250378947152
 20
71.35328543969851
 42
-0.4142135623730729
 10
183.4250378947152
 20
68.35328543969828
 10
180.2248995499108
 20
68.35328543969828
  0
LWPOLYLINE
  5
3EC
330
1F
100
AcDbEntity
  8
OBRYS
100
AcDbPolyline
 90
        2
 70
     0
 43
0.0
 10
186.4250378947152
 20
72.85292465298332
 10
186.2607068400687
 20
73.13731728529112
  0
LWPOLYLINE
  5
3ED
330
1F
100
AcDbEntity
  8
OBRYS
100
AcDbPolyline
 90
        2
 70
     0
 43
0.0
 10
185.7251667468865
 20
75.13753972402625
 10
185.7251667468865
 20
80.35306977914613
  0
LWPOLYLINE
  5
3EE
330
1F
100
AcDbEntity
  8
OBRYS
100
AcDbPolyline
 90
        2
 70
     0
 43
0.0
 10
185.7251667468865
 20
96.35312674129224
 10
185.7251667468865
 20
101.5690013059602
  0
LWPOLYLINE
  5
3EF
330
1F
100
AcDbEntity
  8
OBRYS
100
AcDbPolyline
 90
        5
 70
     0
 43
0.0
 10
180.2248995499108
 20
108.3532555902893
 10
183.4250378947152
 20
108.3532555902893
 42
-0.4142135623731394
 10
186.4250378947152
 20
105.3532555902893
 10
186.4250378947152
 20
103.8532718674553
 10
186.2607068400687
 20
103.5688792351482
  0
LWPOLYLINE
  5
3F0
330
1F
100
AcDbEntity
  8
OBRYS
100
AcDbPolyline
 90
        2
 70
     0
 43
0.0
 10
180.2248995499108
 20
108.0530155187493
 10
180.2248995499108
 20
108.3532555902893
  0
LWPOLYLINE
  5
3F1
330
1F
100
AcDbEntity
  8
OBRYS
100
AcDbPolyline
 90
        2
 70
     0
 43
0.0
 10
186.2553669420666
 20
89.15012110073232
 10
186.0019801691264
 20
89.23762652605726
  0
LWPOLYLINE
  5
3F2
330
1F
100
AcDbEntity
  8
OBRYS
100
AcDbPolyline
 90
        2
 70
     0
 43
0.0
 10
185.9992240927382
 20
89.55526432979715
 10
186.2469264581277
 20
89.65000445564212
  0
LWPOLYLINE
  5
3F3
330
1F
100
AcDbEntity
  8
OBRYS
100
AcDbPolyline
 90
        2
 70
     0
 43
0.0
 10
186.2328015666382
 20
90.19725787347326
 10
185.9844101821516
 20
90.27804536260211
  0
LWPOLYLINE
  5
3F4
330
1F
100
AcDbEntity
  8
OBRYS
100
AcDbPolyline
 90
        2
 70
     0
 43
0.0
 10
185.974074895696
 20
90.59981728092518
 10
186.2150593248891
 20
90.6967967188352
  0
LWPOLYLINE
  5
3F5
330
1F
100
AcDbEntity
  8
OBRYS
100
AcDbPolyline
 90
        2
 70
     0
 43
0.0
 10
186.1911159112666
 20
91.24353337234422
 10
185.9441025649741
 20
91.31915321824519
  0
LWPOLYLINE
  5
3F6
330
1F
100
AcDbEntity
  8
OBRYS
100
AcDbPolyline
 90
        2
 70
     0
 43
0.0
 10
185.9272215970968
 20
91.64230317476128
 10
186.1649331855788
 20
91.74307221770525
  0
LWPOLYLINE
  5
3F7
330
1F
100
AcDbEntity
  8
OBRYS
100
AcDbPolyline
 90
        2
 70
     0
 43
0.0
 10
186.1315157593719
 20
92.28894759734314
 10
185.8814018271425
 20
92.36077783821017
  0
LWPOLYLINE
  5
3F8
330
1F
100
AcDbEntity
  8
OBRYS
100
AcDbPolyline
 90
        2
 70
     0
 43
0.0
 10
185.8581474326174
 20
92.68186073743615
 10
186.0965480401966
 20
92.78814193315631
  0
LWPOLYLINE
  5
3F9
330
1F
100
AcDbEntity
  8
OBRYS
100
AcDbPolyline
 90
        2
 70
     0
 43
0.0
 10
186.0538288561795
 20
93.33350054847025
 10
185.796996987754
 20
93.40188569385325
  0
LWPOLYLINE
  5
3FA
330
1F
100
AcDbEntity
  8
OBRYS
100
AcDbPolyline
 90
        2
 70
     0
 43
0.0
 10
185.7666801474839
 20
93.71831771417325
 10
186.0100761435168
 20
93.83148910086331
  0
LWPOLYLINE
  5
3FB
330
1F
100
AcDbEntity
  8
OBRYS
100
AcDbPolyline
 90
        2
 70
     0
 43
0.0
 10
185.9575384373667
 20
94.37633095185512
 10
185.6898545181628
 20
94.44299354949518
  0
LWPOLYLINE
  5
3FC
330
1F
100
AcDbEntity
  8
OBRYS
100
AcDbPolyline
 90
        2
 70
     0
 43
0.0
 10
185.6538532703418
 20
94.75098508587732
 10
185.9053452407654
 20
94.87328597560324
  0
LWPOLYLINE
  5
3FD
330
1F
100
AcDbEntity
  8
OBRYS
100
AcDbPolyline
 90
        2
 70
     0
 43
0.0
 10
185.8436780315793
 20
95.41726655272416
 10
185.5606634374658
 20
95.48220660262129
  0
LWPOLYLINE
  5
3FE
330
1F
100
AcDbEntity
  8
OBRYS
100
AcDbPolyline
 90
        2
 70
     0
 43
0.0
 10
185.5194945464171
 20
95.77917383345013
 10
185.7821830771675
 20
95.91370481214832
  0
LWPOLYLINE
  5
3FF
330
1F
100
AcDbEntity
  8
OBRYS
100
AcDbPolyline
 90
        2
 70
     0
 43
0.0
 10
137.1691297039039
 20
103.8031457281452
 10
137.1691297039039
 20
103.8031457281452
  0
LWPOLYLINE
  5
400
330
1F
100
AcDbEntity
  8
OBRYS
100
AcDbPolyline
 90
        7
 70
     0
 43
0.0
 10
134.7871906854023
 20
100.7032488105171
 10
136.1711878229292
 20
100.7032488105171
 42
0.2775426205139775
 10
136.436186090325
 20
100.8626219344328
 10
136.7390095325707
 20
101.4332645438423
 10
137.2606694281949
 20
102.7959258983653
 42
0.525836126519149
 10
136.9804979562104
 20
103.2031823493882
 10
136.9634575034347
 20
103.2031823493882
  0
LWPOLYLINE
  5
401
330
1F
100
AcDbEntity
  8
OBRYS
100
AcDbPolyline
 90
        7
 70
     0
 43
0.0
 10
136.9489881023965
 20
103.8031457281452
 10
136.9803660695787
 20
103.8031457281452
 42
0.5258361265189359
 10
137.2605375415633
 20
104.2104021791679
 10
136.7390095325707
 20
105.5727190241432
 10
136.4359792575326
 20
106.1435689522557
 42
0.2775069920928057
 10
136.1709996005177
 20
106.3029070122422
 10
134.7871906854023
 20
106.3029070122422
  0
LWPOLYLINE
  5
402
330
1F
100
AcDbEntity
  8
OBRYS
100
AcDbPolyline
 90
        2
 70
     0
 43
0.0
 10
87.80521776963059
 20
72.90305079229412
 10
87.80521776963059
 20
72.90305079229412
  0
LWPOLYLINE
  5
403
330
1F
100
AcDbEntity
  8
OBRYS
100
AcDbPolyline
 90
        7
 70
     0
 43
0.0
 10
90.18767355245501
 20
70.40328950819614
 10
88.8036923825652
 20
70.40328950819614
 42
-0.2775069920930339
 10
88.53871272555028
 20
70.56262756818293
 10
88.23568245051246
 20
71.13347749629517
 10
87.71430127488935
 20
72.49582262185751
 42
-0.5258039149109391
 10
87.99448357173338
 20
72.90305079229412
 10
88.01829692539314
 20
72.90305079229412
  0
LWPOLYLINE
  5
404
330
1F
100
AcDbEntity
  8
OBRYS
100
AcDbPolyline
 90
        7
 70
     0
 43
0.0
 10
88.025359371138
 20
73.50318642582417
 10
87.99425997018903
 20
73.50318642582417
 42
-0.5258361265188805
 10
87.71408849820438
 20
73.91044287684687
 10
88.23568245051246
 20
75.27293197659716
 10
88.5386887139594
 20
75.84391909555481
 42
-0.2775426205139838
 10
88.80368698135504
 20
76.00329221947024
 10
90.18767355245501
 20
76.00329221947024
  0
LWPOLYLINE
  5
405
330
1F
100
AcDbEntity
  8
OBRYS
100
AcDbPolyline
 90
        2
 70
     0
 43
0.0
 10
137.1691297039039
 20
73.50318642582417
 10
137.1691297039039
 20
73.50318642582417
  0
LWPOLYLINE
  5
406
330
1F
100
AcDbEntity
  8
OBRYS
100
AcDbPolyline
 90
        2
 70
     0
 43
0.0
 10
137.1691297039039
 20
73.50318642582417
 10
137.1691297039039
 20
73.50318642582417
  0
LWPOLYLINE
  5
407
330
1F
100
AcDbEntity
  8
OBRYS
100
AcDbPolyline
 90
        7
 70
     0
 43
0.0
 10
136.9489881023965
 20
73.50318642582417
 10
136.9804320128945
 20
73.50318642582417
 42
0.5258361265189359
 10
137.260603484879
 20
73.91044287684687
 10
136.7390095325707
 20
75.27293197659716
 10
136.4360032691233
 20
75.84391909555504
 42
0.27754262051325
 10
136.1710050017275
 20
76.00329221947047
 10
134.7871906854023
 20
76.00329221947024
  0
LWPOLYLINE
  5
408
330
1F
100
AcDbEntity
  8
OBRYS
100
AcDbPolyline
 90
        7
 70
     0
 43
0.0
 10
134.7871906854023
 20
70.40328950819614
 10
136.1709996005179
 20
70.40328950819614
 42
0.2775069920934007
 10
136.4359792575327
 20
70.56262756818293
 10
136.7390095325707
 20
71.13347749629517
 10
137.2603907081942
 20
72.49582262185751
 42
0.5258039149109945
 10
136.9802084113501
 20
72.90305079229412
 10
136.9489881023965
 20
72.90305079229412
  0
LWPOLYLINE
  5
409
330
1F
100
AcDbEntity
  8
OBRYS
100
AcDbPolyline
 90
        2
 70
     0
 43
0.0
 10
87.80521776963059
 20
103.2031823493882
 10
87.80521776963059
 20
103.2031823493882
  0
LWPOLYLINE
  5
40A
330
1F
100
AcDbEntity
  8
OBRYS
100
AcDbPolyline
 90
        7
 70
     0
 43
0.0
 10
90.18767355245501
 20
100.7032488105171
 10
88.80350416015364
 20
100.7032488105171
 42
-0.2775426205145005
 10
88.53850589275788
 20
100.8626219344328
 10
88.23568245051246
 20
101.4332645438423
 10
87.71402255488846
 20
102.7959258983653
 42
-0.5258361265190935
 10
87.994194026873
 20
103.2031823493882
 10
88.025359371138
 20
103.2031823493882
  0
LWPOLYLINE
  5
40B
330
1F
100
AcDbEntity
  8
OBRYS
100
AcDbPolyline
 90
        7
 70
     0
 43
0.0
 10
88.025359371138
 20
103.8031457281452
 10
87.99432591350472
 20
103.8031457281452
 42
-0.5258361265188805
 10
87.71415444152018
 20
104.2104021791679
 10
88.23568245051246
 20
105.5727190241432
 10
88.53871272555028
 20
106.1435689522554
 42
-0.2775069920934006
 10
88.80369238256509
 20
106.3029070122422
 10
90.18767355245501
 20
106.3029070122422
  0
LWPOLYLINE
  5
40C
330
1F
100
AcDbEntity
  8
OBRYS
100
AcDbPolyline
 90
        2
 70
     0
 43
0.0
 10
88.86320659315078
 20
76.00329221947024
 10
88.86286208360201
 20
76.00363672901833
  0
LWPOLYLINE
  5
40D
330
1F
100
AcDbEntity
  8
OBRYS
100
AcDbPolyline
 90
        3
 70
     0
 43
0.0
 10
88.9806843491977
 20
94.7032705134063
 10
88.9806843491977
 20
88.35327051499323
 10
88.9806843491977
 20
82.0032705165813
  0
LWPOLYLINE
  5
40E
330
1F
100
AcDbEntity
  8
OBRYS
100
AcDbPolyline
 90
        3
 70
     0
 43
0.0
 10
78.61783712956623
 20
93.12817285754929
 10
78.61783712956623
 20
88.35327051499323
 10
78.61783712956623
 20
83.57767915334031
  0
LWPOLYLINE
  5
40F
330
1F
100
AcDbEntity
  8
OBRYS
100
AcDbPolyline
 90
        2
 70
     0
 43
0.0
 10
90.18767355245501
 20
94.7032705134063
 10
88.9806843491977
 20
94.7032705134063
  0
LWPOLYLINE
  5
410
330
1F
100
AcDbEntity
  8
OBRYS
100
AcDbPolyline
 90
        2
 70
     0
 43
0.0
 10
88.9806843491977
 20
93.12817285754929
 10
84.14204774016429
 20
93.12817285754929
  0
LWPOLYLINE
  5
411
330
1F
100
AcDbEntity
  8
OBRYS
100
AcDbPolyline
 90
        2
 70
     0
 43
0.0
 10
83.37999261882709
 20
93.0480743875182
 10
83.37999261882709
 20
93.87782563514017
  0
LWPOLYLINE
  5
412
330
1F
100
AcDbEntity
  8
OBRYS
100
AcDbPolyline
 90
        2
 70
     0
 43
0.0
 10
81.47502707025825
 20
93.87782563514017
 10
81.47502707025825
 20
93.0480743875182
  0
LWPOLYLINE
  5
413
330
1F
100
AcDbEntity
  8
OBRYS
100
AcDbPolyline
 90
        2
 70
     0
 43
0.0
 10
80.71297194892094
 20
93.12817285754929
 10
78.61783712956623
 20
93.12817285754929
  0
LWPOLYLINE
  5
414
330
1F
100
AcDbEntity
  8
OBRYS
100
AcDbPolyline
 90
        2
 70
     0
 43
0.0
 10
78.61783712956623
 20
83.57767915334031
 10
80.71297194892094
 20
83.57767915334031
  0
LWPOLYLINE
  5
415
330
1F
100
AcDbEntity
  8
OBRYS
100
AcDbPolyline
 90
        2
 70
     0
 43
0.0
 10
84.14204774016429
 20
83.57767915334031
 10
88.9806843491977
 20
83.57767915334031
  0
LWPOLYLINE
  5
416
330
1F
100
AcDbEntity
  8
OBRYS
100
AcDbPolyline
 90
        2
 70
     0
 43
0.0
 10
88.9806843491977
 20
82.0032705165813
 10
90.18767355245501
 20
82.0032705165813
  0
LWPOLYLINE
  5
417
330
1F
100
AcDbEntity
  8
OBRYS
100
AcDbPolyline
 90
        4
 70
     0
 43
0.0
 10
84.14204774016429
 20
83.57767915334031
 10
83.37999261882709
 20
83.65846664246916
 42
0.1412357050520152
 10
81.47502707025825
 20
83.65846664246916
 10
80.71297194892094
 20
83.57767915334031
  0
LWPOLYLINE
  5
418
330
1F
100
AcDbEntity
  8
OBRYS
100
AcDbPolyline
 90
        4
 70
     0
 43
0.0
 10
80.71297194892094
 20
93.12851736709828
 10
81.47502707025825
 20
93.0480743875182
 42
0.1410566252825532
 10
83.37999261882709
 20
93.0480743875182
 10
84.14204774016429
 20
93.12851736709828
  0
LWPOLYLINE
  5
419
330
1F
100
AcDbEntity
  8
OBRYS
100
AcDbPolyline
 90
        2
 70
     0
 43
0.0
 10
135.9940076338852
 20
94.7032705134063
 10
134.7871906854023
 20
94.7032705134063
  0
LWPOLYLINE
  5
41A
330
1F
100
AcDbEntity
  8
OBRYS
100
AcDbPolyline
 90
        2
 70
     0
 43
0.0
 10
140.8322997333702
 20
93.12817285754929
 10
135.9940076338852
 20
93.12817285754929
  0
LWPOLYLINE
  5
41B
330
1F
100
AcDbEntity
  8
OBRYS
100
AcDbPolyline
 90
        2
 70
     0
 43
0.0
 10
141.5946993642561
 20
82.8283708852982
 10
141.5946993642561
 20
83.65846664246916
  0
LWPOLYLINE
  5
41C
330
1F
100
AcDbEntity
  8
OBRYS
100
AcDbPolyline
 90
        2
 70
     0
 43
0.0
 10
143.4993204032764
 20
83.65846664246916
 10
143.4993204032764
 20
82.8283708852982
  0
LWPOLYLINE
  5
41D
330
1F
100
AcDbEntity
  8
OBRYS
100
AcDbPolyline
 90
        2
 70
     0
 43
0.0
 10
141.5946993642561
 20
93.0480743875182
 10
141.5946993642561
 20
93.87748112559231
  0
LWPOLYLINE
  5
41E
330
1F
100
AcDbEntity
  8
OBRYS
100
AcDbPolyline
 90
        2
 70
     0
 43
0.0
 10
143.4993204032764
 20
93.87748112559231
 10
143.4993204032764
 20
93.0480743875182
  0
LWPOLYLINE
  5
41F
330
1F
100
AcDbEntity
  8
OBRYS
100
AcDbPolyline
 90
        4
 70
     0
 43
0.0
 10
140.8326442429189
 20
93.12851736709828
 10
141.5946993642561
 20
93.0480743875182
 42
0.1410828224424981
 10
143.4993204032764
 20
93.0480743875182
 10
144.2617200341621
 20
93.12851736709828
  0
LWPOLYLINE
  5
420
330
1F
100
AcDbEntity
  8
OBRYS
100
AcDbPolyline
 90
        2
 70
     0
 43
0.0
 10
146.3568548535168
 20
93.12817285754929
 10
144.2617200341621
 20
93.12817285754929
  0
LWPOLYLINE
  5
421
330
1F
100
AcDbEntity
  8
OBRYS
100
AcDbPolyline
 90
        2
 70
     0
 43
0.0
 10
144.2617200341621
 20
83.57767915334031
 10
146.3568548535168
 20
83.57767915334031
  0
LWPOLYLINE
  5
422
330
1F
100
AcDbEntity
  8
OBRYS
100
AcDbPolyline
 90
        4
 70
     0
 43
0.0
 10
144.2617200341621
 20
83.57767915334031
 10
143.4993204032764
 20
83.65846664246916
 42
0.1409062132591426
 10
141.5946993642562
 20
83.65846664246916
 10
140.8326442429189
 20
83.57767915334031
  0
LWPOLYLINE
  5
423
330
1F
100
AcDbEntity
  8
OBRYS
100
AcDbPolyline
 90
        2
 70
     0
 43
0.0
 10
135.9940076338852
 20
83.57767915334031
 10
140.8322997333702
 20
83.57767915334031
  0
LWPOLYLINE
  5
424
330
1F
100
AcDbEntity
  8
OBRYS
100
AcDbPolyline
 90
        2
 70
     0
 43
0.0
 10
134.7871906854023
 20
82.0032705165813
 10
135.9940076338852
 20
82.0032705165813
  0
LWPOLYLINE
  5
425
330
1F
100
AcDbEntity
  8
OBRYS
100
AcDbPolyline
 90
        2
 70
     0
 43
0.0
 10
183.0249009055478
 20
74.69829004965729
 10
183.0249009055478
 20
74.69829004965729
  0
LWPOLYLINE
  5
426
330
1F
100
AcDbEntity
  8
OBRYS
100
AcDbPolyline
 90
        2
 70
     0
 43
0.0
 10
183.0249009055478
 20
104.9980770972042
 10
183.0249009055478
 20
104.9980770972042
  0
LWPOLYLINE
  5
427
330
1F
100
AcDbEntity
  8
OBRYS
100
AcDbPolyline
 90
        2
 70
     0
 43
0.0
 10
165.3751599702901
 20
104.9980770972042
 10
165.3751599702901
 20
104.9980770972042
  0
LWPOLYLINE
  5
428
330
1F
100
AcDbEntity
  8
OBRYS
100
AcDbPolyline
 90
        2
 70
     0
 43
0.0
 10
165.3751599702901
 20
74.69829004965729
 10
165.3751599702901
 20
74.69829004965729
  0
LWPOLYLINE
  5
429
330
1F
100
AcDbEntity
  8
OBRYS
100
AcDbPolyline
 90
        2
 70
     0
 43
0.0
 10
164.7753688463081
 20
74.69829004965729
 10
164.7746798272111
 20
74.69829004965729
  0
LWPOLYLINE
  5
42A
330
1F
100
AcDbEntity
  8
OBRYS
100
AcDbPolyline
 90
        3
 70
     0
 43
0.0
 10
168.1500121288846
 20
108.3532555902893
 10
169.5044514189105
 20
108.1801395421553
 10
170.8635415878417
 20
108.0530155187493
  0
LWPOLYLINE
  5
42B
330
1F
100
AcDbEntity
  8
OBRYS
100
AcDbPolyline
 90
        3
 70
     0
 43
0.0
 10
176.9367281640143
 20
108.0530155187493
 10
178.2959905877196
 20
108.1801395421553
 10
179.6502576229714
 20
108.3532555902893
  0
LWPOLYLINE
  5
42C
330
1F
100
AcDbEntity
  8
OBRYS
100
AcDbPolyline
 90
        2
 70
     0
 43
0.0
 10
167.6501287739747
 20
108.3532555902893
 10
168.1500121288846
 20
108.3532555902893
  0
LWPOLYLINE
  5
42D
330
1F
100
AcDbEntity
  8
OBRYS
100
AcDbPolyline
 90
        2
 70
     0
 43
0.0
 10
167.6501287739747
 20
108.0530155187493
 10
167.6501287739747
 20
108.3532555902893
  0
LWPOLYLINE
  5
42E
330
1F
100
AcDbEntity
  8
OBRYS
100
AcDbPolyline
 90
        2
 70
     0
 43
0.0
 10
180.1501409778811
 20
108.3532555902893
 10
180.1501409778811
 20
108.0530155187493
  0
LWPOLYLINE
  5
42F
330
1F
100
AcDbEntity
  8
OBRYS
100
AcDbPolyline
 90
        2
 70
     0
 43
0.0
 10
179.6499131134228
 20
108.3532555902893
 10
180.1501409778811
 20
108.3532555902893
  0
LWPOLYLINE
  5
430
330
1F
100
AcDbEntity
  8
OBRYS
100
AcDbPolyline
 90
        5
 70
     0
 43
0.0
 10
174.8527899049865
 20
82.8283708852982
 10
174.8493448095012
 20
82.8283708852982
 10
173.9003932580892
 20
82.8283708852982
 10
172.9517862162258
 20
82.8283708852982
 10
172.9474798468693
 20
82.8283708852982
  0
LWPOLYLINE
  5
431
330
1F
100
AcDbEntity
  8
OBRYS
100
AcDbPolyline
 90
        2
 70
     0
 43
0.0
 10
174.8527899049865
 20
82.8283708852982
 10
174.8527005548921
 20
83.6868153648795
  0
LWPOLYLINE
  5
432
330
1F
100
AcDbEntity
  8
OBRYS
100
AcDbPolyline
 90
        2
 70
     0
 43
0.0
 10
174.85293164569
 20
93.01967848647334
 10
174.8527899049865
 20
93.87782563514017
  0
LWPOLYLINE
  5
433
330
1F
100
AcDbEntity
  8
OBRYS
100
AcDbPolyline
 90
        2
 70
     0
 43
0.0
 10
172.9474798468693
 20
93.87782563514017
 10
172.9475420737281
 20
93.01972012834605
  0
LWPOLYLINE
  5
434
330
1F
100
AcDbEntity
  8
OBRYS
100
AcDbPolyline
 90
        2
 70
     0
 43
0.0
 10
172.9471331308736
 20
83.68690440047905
 10
172.9474798468693
 20
82.8283708852982
  0
LINE
  5
435
330
1F
100
AcDbEntity
  8
OBRYS
100
AcDbLine
 10
80.71297194892094
 20
93.12817285754929
 30
0.0
 11
80.71297194892094
 21
83.57767915334031
 31
0.0
  0
LINE
  5
436
330
1F
100
AcDbEntity
  8
OBRYS
100
AcDbLine
 10
84.14204774016429
 20
93.12817285754929
 30
0.0
 11
84.14204774016429
 21
83.57767915334031
 31
0.0
  0
LINE
  5
437
330
1F
100
AcDbEntity
  8
OBRYS
100
AcDbLine
 10
81.47502707025825
 20
93.87782563514017
 30
0.0
 11
83.37999261882709
 21
93.87782563514017
 31
0.0
  0
LINE
  5
438
330
1F
100
AcDbEntity
  8
OBRYS
100
AcDbLine
 10
81.47502707025825
 20
82.8283708852982
 30
0.0
 11
83.37999261882709
 21
82.8283708852982
 31
0.0
  0
LINE
  5
439
330
1F
100
AcDbEntity
  8
OBRYS
100
AcDbLine
 10
83.37999261882709
 20
82.8283708852982
 30
0.0
 11
83.37999261882709
 21
83.65846664246916
 31
0.0
  0
LINE
  5
43A
330
1F
100
AcDbEntity
  8
OBRYS
100
AcDbLine
 10
81.47502707025825
 20
83.65846664246916
 30
0.0
 11
81.47502707025825
 21
82.8283708852982
 31
0.0
  0
LINE
  5
43B
330
1F
100
AcDbEntity
  8
OBRYS
100
AcDbLine
 10
88.025359371138
 20
73.50318642582417
 30
0.0
 11
88.01829692539314
 21
72.90305079229412
 31
0.0
  0
LINE
  5
43C
330
1F
100
AcDbEntity
  8
OBRYS
100
AcDbLine
 10
83.18741178120166
 20
69.65329222105717
 30
0.0
 11
90.18767355245501
 21
69.65329222105717
 31
0.0
  0
LINE
  5
43D
330
1F
100
AcDbEntity
  8
OBRYS
100
AcDbLine
 10
90.18767355245501
 20
108.0530155187493
 30
0.0
 11
90.18767355245501
 21
68.65318100168926
 31
0.0
  0
LINE
  5
43E
330
1F
100
AcDbEntity
  8
OBRYS
100
AcDbLine
 10
90.98693570503309
 20
108.3532555902893
 30
0.0
 11
90.98693570503309
 21
68.35328543969828
 31
0.0
  0
LINE
  5
43F
330
1F
100
AcDbEntity
  8
OBRYS
100
AcDbLine
 10
88.025359371138
 20
103.8031457281452
 30
0.0
 11
88.025359371138
 21
103.2031823493882
 31
0.0
  0
LINE
  5
440
330
1F
100
AcDbEntity
  8
OBRYS
100
AcDbLine
 10
136.9489881023965
 20
103.8031457281452
 30
0.0
 11
136.9634575034347
 21
103.2031823493882
 31
0.0
  0
LINE
  5
441
330
1F
100
AcDbEntity
  8
OBRYS
100
AcDbLine
 10
136.9489881023965
 20
73.50318642582417
 30
0.0
 11
136.9489881023965
 21
72.90305079229412
 31
0.0
  0
LINE
  5
442
330
1F
100
AcDbEntity
  8
OBRYS
100
AcDbLine
 10
141.5946993642561
 20
93.87748112559231
 30
0.0
 11
143.4993204032764
 21
93.87748112559231
 31
0.0
  0
LINE
  5
443
330
1F
100
AcDbEntity
  8
OBRYS
100
AcDbLine
 10
141.5946993642561
 20
82.8283708852982
 30
0.0
 11
143.4993204032764
 21
82.8283708852982
 31
0.0
  0
LINE
  5
444
330
1F
100
AcDbEntity
  8
OBRYS
100
AcDbLine
 10
140.8326442429189
 20
83.57767915334031
 30
0.0
 11
140.8322997333702
 21
93.12817285754929
 31
0.0
  0
LINE
  5
445
330
1F
100
AcDbEntity
  8
OBRYS
100
AcDbLine
 10
144.2617200341621
 20
93.12851736709828
 30
0.0
 11
144.2617200341621
 21
83.57767915334031
 31
0.0
  0
LINE
  5
446
330
1F
100
AcDbEntity
  8
OBRYS
100
AcDbLine
 10
135.9940076338852
 20
94.7032705134063
 30
0.0
 11
135.9940076338852
 21
82.0032705165813
 31
0.0
  0
LINE
  5
447
330
1F
100
AcDbEntity
  8
OBRYS
100
AcDbLine
 10
146.3568548535168
 20
93.12817285754929
 30
0.0
 11
146.3568548535168
 21
83.57767915334031
 31
0.0
  0
LINE
  5
448
330
1F
100
AcDbEntity
  8
OBRYS
100
AcDbLine
 10
133.9870672589531
 20
108.3532555902893
 30
0.0
 11
133.9870672589531
 21
68.35328543969828
 31
0.0
  0
LINE
  5
449
330
1F
100
AcDbEntity
  8
OBRYS
100
AcDbLine
 10
134.7871906854023
 20
68.65318100168926
 30
0.0
 11
134.7871906854023
 21
108.0530155187493
 31
0.0
  0
LINE
  5
44A
330
1F
100
AcDbEntity
  8
OBRYS
100
AcDbLine
 10
97.98719747628621
 20
63.42283703598329
 30
0.0
 11
97.98719747628621
 21
60.45316472769829
 31
0.0
  0
LINE
  5
44B
330
1F
100
AcDbEntity
  8
OBRYS
100
AcDbLine
 10
99.98741991502249
 20
55.45400997206227
 30
0.0
 11
99.98741991502249
 21
59.95293143751721
 31
0.0
  0
ARC
  5
44C
330
1F
100
AcDbEntity
  8
OBRYS
100
AcDbCircle
 10
98.48741991502249
 20
59.95293143751721
 30
0.0
 40
1.5
100
AcDbArc
 50
0.0
 51
90.0
  0
ARC
  5
44D
330
1F
100
AcDbEntity
  8
OBRYS
100
AcDbCircle
 10
100.4874199150225
 20
55.45400997206227
 30
0.0
 40
0.5000000000000001
100
AcDbArc
 50
180.0
 51
271.8023865781595
  0
LINE
  5
44E
330
1F
100
AcDbEntity
  8
OBRYS
100
AcDbLine
 10
100.4873032699322
 20
56.45340886932215
 30
0.0
 11
100.4873032699322
 21
53.9533030756763
 31
0.0
  0
LINE
  5
44F
330
1F
100
AcDbEntity
  8
OBRYS
100
AcDbLine
 10
126.9876667615709
 20
61.45293143751721
 30
0.0
 11
126.4872720680606
 21
61.45293143751721
 31
0.0
  0
ARC
  5
450
330
1F
100
AcDbEntity
  8
OBRYS
100
AcDbCircle
 10
126.4872720680608
 20
59.95293143751698
 30
0.0
 40
1.500000000000171
100
AcDbArc
 50
90.0000000000087
 51
179.9999999999913
  0
LINE
  5
451
330
1F
100
AcDbEntity
  8
OBRYS
100
AcDbLine
 10
124.9872720680606
 20
59.95293143751721
 30
0.0
 11
124.9872720680606
 21
55.45386595937154
 31
0.0
  0
ARC
  5
452
330
1F
100
AcDbEntity
  8
OBRYS
100
AcDbCircle
 10
124.4872720680607
 20
55.45386595937154
 30
0.0
 40
0.4999999999999352
100
AcDbArc
 50
268.7875116351362
 51
0.0
  0
CIRCLE
  5
453
330
1F
100
AcDbEntity
  8
OBRYS
100
AcDbCircle
 10
106.9899209983412
 20
60.02545612320407
 30
0.0
 40
0.7434398119982599
  0
CIRCLE
  5
454
330
1F
100
AcDbEntity
  8
OBRYS
100
AcDbCircle
 10
117.9873548063558
 20
60.03561915488532
 30
0.0
 40
0.7498111747882492
  0
ARC
  5
455
330
1F
100
AcDbEntity
  8
OBRYS
100
AcDbCircle
 10
122.89411817861
 20
66.7618235802872
 30
0.0
 40
0.4072877444536063
100
AcDbArc
 50
2.326929277280111
 51
182.3269292772801
  0
LINE
  5
456
330
1F
100
AcDbEntity
  8
OBRYS
100
AcDbLine
 10
126.9876667615709
 20
63.42283703598329
 30
0.0
 11
126.9876667615709
 21
60.45316472769829
 31
0.0
  0
LINE
  5
457
330
1F
100
AcDbEntity
  8
OBRYS
100
AcDbLine
 10
129.9876559101265
 20
63.42283703598329
 30
0.0
 11
129.9876559101265
 21
60.45316472769829
 31
0.0
  0
ARC
  5
458
330
1F
100
AcDbEntity
  8
OBRYS
100
AcDbCircle
 10
129.6179445927443
 20
60.44018373857804
 30
0.0
 40
0.1019955429705244
100
AcDbArc
 50
285.4146671467063
 51
7.311873653068943
  0
ARC
  5
459
330
1F
100
AcDbEntity
  8
OBRYS
100
AcDbCircle
 10
137.7728608721977
 20
59.59804156267521
 30
0.0
 40
3.00485698297228
100
AcDbArc
 50
46.58917774716328
 51
159.3790324048416
  0
ARC
  5
45A
330
1F
100
AcDbEntity
  8
OBRYS
100
AcDbCircle
 10
133.8090705490735
 20
58.83858572625533
 30
0.0
 40
0.3999999999998091
100
AcDbArc
 50
252.9901823635822
 51
336.9615880843801
  0
LINE
  5
45B
330
1F
100
AcDbEntity
  8
OBRYS
100
AcDbLine
 10
133.692056323743
 20
58.4560838686518
 30
0.0
 11
131.6031086716823
 21
59.09513067692976
 31
0.0
  0
ARC
  5
45C
330
1F
100
AcDbEntity
  8
OBRYS
100
AcDbCircle
 10
131.7201228970133
 20
59.47763253453374
 30
0.0
 40
0.4000000000003625
100
AcDbArc
 50
162.996235513103
 51
252.9901823635383
  0
LINE
  5
45D
330
1F
100
AcDbEntity
  8
OBRYS
100
AcDbLine
 10
131.3376086792965
 20
59.59460634888885
 30
0.0
 11
131.7127609038062
 21
60.82138569667265
 31
0.0
  0
ARC
  5
45E
330
1F
100
AcDbEntity
  8
OBRYS
100
AcDbCircle
 10
130.7564753595155
 20
61.11382023256144
 30
0.0
 40
0.9999999999999563
100
AcDbArc
 50
342.9962355130257
 51
57.18787077567225
  0
LINE
  5
45F
330
1F
100
AcDbEntity
  8
OBRYS
100
AcDbLine
 10
131.2983615013218
 20
61.95427214035746
 30
0.0
 11
129.9876559101265
 21
62.79935701584961
 31
0.0
  0
ARC
  5
460
330
1F
100
AcDbEntity
  8
OBRYS
100
AcDbCircle
 10
139.5670552711829
 20
61.46838263751212
 30
0.0
 40
0.4135361309567686
100
AcDbArc
 50
310.7749773056198
 51
49.08924515019814
  0
LINE
  5
461
330
1F
100
AcDbEntity
  8
OBRYS
100
AcDbLine
 10
139.8371315583208
 20
61.15521985119719
 30
0.0
 11
139.4897596544633
 21
60.86354650230348
 31
0.0
  0
ARC
  5
462
330
1F
100
AcDbEntity
  8
OBRYS
100
AcDbCircle
 10
139.3997343079439
 20
60.97076327796887
 30
0.0
 40
0.1400000000000008
100
AcDbArc
 50
227.3036047382769
 51
310.0187445162695
  0
LINE
  5
463
330
1F
100
AcDbEntity
  8
OBRYS
100
AcDbLine
 10
129.6450553046248
 20
60.34185724119718
 30
0.0
 11
129.4332410502379
 21
60.28496440657588
 31
0.0
  0
ARC
  5
464
330
1F
100
AcDbEntity
  8
OBRYS
100
AcDbCircle
 10
129.5110620723801
 20
59.99523368933521
 30
0.0
 40
0.3000000000000548
100
AcDbArc
 50
105.0346653891862
 51
205.1225253538884
  0
LINE
  5
465
330
1F
100
AcDbEntity
  8
OBRYS
100
AcDbLine
 10
129.2394414848009
 20
59.86786706732161
 30
0.0
 11
130.2483845030203
 21
57.71620683554394
 31
0.0
  0
ARC
  5
466
330
1F
100
AcDbEntity
  8
OBRYS
100
AcDbCircle
 10
131.6064874409161
 20
58.35303994561238
 30
0.0
 40
1.500000000000199
100
AcDbArc
 50
205.1225253539039
 51
269.9999999999957
  0
LINE
  5
467
330
1F
100
AcDbEntity
  8
OBRYS
100
AcDbLine
 10
131.6064874409159
 20
56.85303994561215
 30
0.0
 11
133.8364248692652
 21
56.85303994561215
 31
0.0
  0
ARC
  5
468
330
1F
100
AcDbEntity
  8
OBRYS
100
AcDbCircle
 10
133.8364248692654
 20
58.65303994561165
 30
0.0
 40
1.799999999999518
100
AcDbArc
 50
269.9999999999928
 51
336.9767019711616
  0
ARC
  5
469
330
1F
100
AcDbEntity
  8
OBRYS
100
AcDbCircle
 10
137.9825412355132
 20
60.0656520401146
 30
0.0
 40
1.54658221644239
100
AcDbArc
 50
31.24530817843478
 51
158.8531003558779
  0
LINE
  5
46A
330
1F
100
AcDbEntity
  8
OBRYS
100
AcDbLine
 10
163.5797484581522
 20
103.8031457281452
 30
0.0
 11
163.5797484581522
 21
103.2031823493882
 31
0.0
  0
LINE
  5
46B
330
1F
100
AcDbEntity
  8
OBRYS
100
AcDbLine
 10
164.7746798272111
 20
102.0082509803303
 30
0.0
 11
165.3751599702901
 21
102.0082509803303
 31
0.0
  0
LINE
  5
46C
330
1F
100
AcDbEntity
  8
OBRYS
100
AcDbLine
 10
166.5702635941232
 20
103.8031457281452
 30
0.0
 11
166.5702635941232
 21
103.2031823493882
 31
0.0
  0
LINE
  5
46D
330
1F
100
AcDbEntity
  8
OBRYS
100
AcDbLine
 10
164.7746798272111
 20
104.9980770972042
 30
0.0
 11
165.3751599702901
 21
104.9980770972042
 31
0.0
  0
LINE
  5
46E
330
1F
100
AcDbEntity
  8
OBRYS
100
AcDbLine
 10
164.7746798272111
 20
104.9980770972042
 30
0.0
 11
164.7746798272111
 21
102.0082509803303
 31
0.0
  0
LINE
  5
46F
330
1F
100
AcDbEntity
  8
OBRYS
100
AcDbLine
 10
165.3751599702901
 20
104.9980770972042
 30
0.0
 11
165.3751599702901
 21
102.0082509803303
 31
0.0
  0
LINE
  5
470
330
1F
100
AcDbEntity
  8
OBRYS
100
AcDbLine
 10
163.5797484581522
 20
103.8031457281452
 30
0.0
 11
166.5702635941232
 21
103.8031457281452
 31
0.0
  0
LINE
  5
471
330
1F
100
AcDbEntity
  8
OBRYS
100
AcDbLine
 10
163.5797484581522
 20
103.2031823493882
 30
0.0
 11
166.5702635941232
 21
103.2031823493882
 31
0.0
  0
CIRCLE
  5
472
330
1F
100
AcDbEntity
  8
OBRYS
100
AcDbCircle
 10
165.0750060261377
 20
103.5031640387667
 30
0.0
 40
2.798053708795219
  0
LINE
  5
473
330
1F
100
AcDbEntity
  8
OBRYS
100
AcDbLine
 10
181.2300061577326
 20
103.8031457281452
 30
0.0
 11
181.2300061577326
 21
103.2031823493882
 31
0.0
  0
LINE
  5
474
330
1F
100
AcDbEntity
  8
OBRYS
100
AcDbLine
 10
182.4249375267918
 20
102.0082509803303
 30
0.0
 11
183.0249009055478
 21
102.0082509803303
 31
0.0
  0
LINE
  5
475
330
1F
100
AcDbEntity
  8
OBRYS
100
AcDbLine
 10
184.2201767841553
 20
103.8031457281452
 30
0.0
 11
184.2201767841553
 21
103.2031823493882
 31
0.0
  0
LINE
  5
476
330
1F
100
AcDbEntity
  8
OBRYS
100
AcDbLine
 10
182.4249375267918
 20
104.9980770972042
 30
0.0
 11
183.0249009055478
 21
104.9980770972042
 31
0.0
  0
LINE
  5
477
330
1F
100
AcDbEntity
  8
OBRYS
100
AcDbLine
 10
182.4249375267918
 20
104.9980770972042
 30
0.0
 11
182.4249375267918
 21
102.0082509803303
 31
0.0
  0
LINE
  5
478
330
1F
100
AcDbEntity
  8
OBRYS
100
AcDbLine
 10
183.0249009055478
 20
104.9980770972042
 30
0.0
 11
183.0249009055478
 21
102.0082509803303
 31
0.0
  0
LINE
  5
479
330
1F
100
AcDbEntity
  8
OBRYS
100
AcDbLine
 10
181.2300061577326
 20
103.8031457281452
 30
0.0
 11
184.2201767841553
 21
103.8031457281452
 31
0.0
  0
LINE
  5
47A
330
1F
100
AcDbEntity
  8
OBRYS
100
AcDbLine
 10
181.2300061577326
 20
103.2031823493882
 30
0.0
 11
184.2201767841553
 21
103.2031823493882
 31
0.0
  0
CIRCLE
  5
47B
330
1F
100
AcDbEntity
  8
OBRYS
100
AcDbCircle
 10
182.7250914709439
 20
103.5031640387667
 30
0.0
 40
2.799742974800282
  0
LINE
  5
47C
330
1F
100
AcDbEntity
  8
OBRYS
100
AcDbLine
 10
163.5797484581522
 20
73.50318642582417
 30
0.0
 11
163.5797484581522
 21
72.90305079229412
 31
0.0
  0
LINE
  5
47D
330
1F
100
AcDbEntity
  8
OBRYS
100
AcDbLine
 10
164.7746798272111
 20
74.69829004965729
 30
0.0
 11
165.3751599702901
 21
74.69829004965729
 31
0.0
  0
LINE
  5
47E
330
1F
100
AcDbEntity
  8
OBRYS
100
AcDbLine
 10
164.7746798272111
 20
71.70811942323527
 30
0.0
 11
165.3751599702901
 21
71.70811942323527
 31
0.0
  0
LINE
  5
47F
330
1F
100
AcDbEntity
  8
OBRYS
100
AcDbLine
 10
166.5702635941232
 20
73.50318642582417
 30
0.0
 11
166.5657489610577
 21
72.90274022735545
 31
0.0
  0
LINE
  5
480
330
1F
100
AcDbEntity
  8
OBRYS
100
AcDbLine
 10
164.7753688463081
 20
74.69829004965729
 30
0.0
 11
164.7753688463081
 21
71.70811942323527
 31
0.0
  0
LINE
  5
481
330
1F
100
AcDbEntity
  8
OBRYS
100
AcDbLine
 10
165.3751599702901
 20
74.69829004965729
 30
0.0
 11
165.3751599702901
 21
71.70811942323527
 31
0.0
  0
LINE
  5
482
330
1F
100
AcDbEntity
  8
OBRYS
100
AcDbLine
 10
163.5797484581522
 20
73.50318642582417
 30
0.0
 11
166.5702635941232
 21
73.50318642582417
 31
0.0
  0
LINE
  5
483
330
1F
100
AcDbEntity
  8
OBRYS
100
AcDbLine
 10
163.5797484581522
 20
72.90305079229412
 30
0.0
 11
166.5657489610577
 21
72.90274022735545
 31
0.0
  0
CIRCLE
  5
484
330
1F
100
AcDbEntity
  8
OBRYS
100
AcDbCircle
 10
165.0738773678714
 20
73.20304096782453
 30
0.0
 40
2.799638360234269
  0
LINE
  5
485
330
1F
100
AcDbEntity
  8
OBRYS
100
AcDbLine
 10
181.2300061577326
 20
73.50318642582417
 30
0.0
 11
181.2300061577326
 21
72.90305079229412
 31
0.0
  0
LINE
  5
486
330
1F
100
AcDbEntity
  8
OBRYS
100
AcDbLine
 10
182.4249375267918
 20
74.69829004965729
 30
0.0
 11
183.0249009055478
 21
74.69829004965729
 31
0.0
  0
LINE
  5
487
330
1F
100
AcDbEntity
  8
OBRYS
100
AcDbLine
 10
182.4249375267918
 20
71.70811942323527
 30
0.0
 11
183.0249009055478
 21
71.70811942323527
 31
0.0
  0
LINE
  5
488
330
1F
100
AcDbEntity
  8
OBRYS
100
AcDbLine
 10
184.2201767841553
 20
73.50318642582417
 30
0.0
 11
184.2201767841553
 21
72.90305079229412
 31
0.0
  0
LINE
  5
489
330
1F
100
AcDbEntity
  8
OBRYS
100
AcDbLine
 10
182.4249375267918
 20
74.69829004965729
 30
0.0
 11
182.4249375267918
 21
71.70811942323527
 31
0.0
  0
LINE
  5
48A
330
1F
100
AcDbEntity
  8
OBRYS
100
AcDbLine
 10
183.0249009055478
 20
74.69829004965729
 30
0.0
 11
183.0249009055478
 21
71.70811942323527
 31
0.0
  0
LINE
  5
48B
330
1F
100
AcDbEntity
  8
OBRYS
100
AcDbLine
 10
181.2300061577326
 20
73.50318642582417
 30
0.0
 11
184.2201767841553
 21
73.50318642582417
 31
0.0
  0
LINE
  5
48C
330
1F
100
AcDbEntity
  8
OBRYS
100
AcDbLine
 10
181.2300061577326
 20
72.90305079229412
 30
0.0
 11
184.2201767841553
 21
72.90305079229412
 31
0.0
  0
CIRCLE
  5
48D
330
1F
100
AcDbEntity
  8
OBRYS
100
AcDbCircle
 10
182.7250914709439
 20
73.20311860905915
 30
0.0
 40
2.795436604118777
  0
CIRCLE
  5
48E
330
1F
100
AcDbEntity
  8
OBRYS
100
AcDbCircle
 10
173.900134875928
 20
88.35327051499323
 30
0.0
 40
0.7360353987056399
  0
CIRCLE
  5
48F
330
1F
100
AcDbEntity
  8
OBRYS
100
AcDbCircle
 10
173.900134875928
 20
88.35327051499323
 30
0.0
 40
0.9523659527657764
  0
CIRCLE
  5
490
330
1F
100
AcDbEntity
  8
OBRYS
100
AcDbCircle
 10
173.900134875928
 20
88.35327051499323
 30
0.0
 40
0.9907233341706387
  0
CIRCLE
  5
491
330
1F
100
AcDbEntity
  8
OBRYS
100
AcDbCircle
 10
173.900134875928
 20
88.35327051499323
 30
0.0
 40
4.246855332054565
  0
CIRCLE
  5
492
330
1F
100
AcDbEntity
  8
OBRYS
100
AcDbCircle
 10
173.900134875928
 20
88.35327051499323
 30
0.0
 40
4.501275633640489
  0
CIRCLE
  5
493
330
1F
100
AcDbEntity
  8
OBRYS
100
AcDbCircle
 10
173.900134875928
 20
88.35327051499323
 30
0.0
 40
4.762686746025078
  0
LINE
  5
494
330
1F
100
AcDbEntity
  8
OBRYS
100
AcDbLine
 10
172.9474798468693
 20
93.87782563514017
 30
0.0
 11
174.8527899049865
 21
93.87782563514017
 31
0.0
  0
CIRCLE
  5
495
330
1F
100
AcDbEntity
  8
OBRYS
100
AcDbCircle
 10
173.900134875928
 20
88.35327051499323
 30
0.0
 40
6.356794416882396
  0
CIRCLE
  5
496
330
1F
100
AcDbEntity
  8
OBRYS
100
AcDbCircle
 10
173.9024603153803
 20
74.65315929880032
 30
0.0
 40
0.4974717880701292
  0
LINE
  5
497
330
1F
100
AcDbEntity
  8
OBRYS
100
AcDbLine
 10
164.8999090480997
 20
58.95317015342013
 30
0.0
 11
164.8998905170897
 21
53.95363682543436
 31
0.0
  0
LINE
  5
498
330
1F
100
AcDbEntity
  8
OBRYS
100
AcDbLine
 10
164.4000256931902
 20
56.85303994561215
 30
0.0
 11
164.4000256931902
 21
68.35328543969828
 31
0.0
  0
LINE
  5
499
330
1F
100
AcDbEntity
  8
OBRYS
100
AcDbLine
 10
183.4002440586657
 20
58.95317015342013
 30
0.0
 11
183.4002440586657
 21
68.35328543969828
 31
0.0
  0
LINE
  5
49A
330
1F
100
AcDbEntity
  8
OBRYS
100
AcDbLine
 10
176.2999022635658
 20
68.85316879460831
 30
0.0
 11
176.300591282663
 21
70.05326780689526
 31
0.0
  0
ARC
  5
49B
330
1F
100
AcDbEntity
  8
OBRYS
100
AcDbCircle
 10
171.1003057565316
 20
70.05309553319645
 30
0.0
 40
0.4000617317665459
100
AcDbArc
 50
0.0246725804349673
 51
180.0246671806961
  0
ARC
  5
49C
330
1F
100
AcDbEntity
  8
OBRYS
100
AcDbCircle
 10
176.7003084533993
 20
70.05326777342677
 30
0.0
 40
0.3997171707363819
100
AcDbArc
 50
0.0000047974009648
 51
179.9999952519106
  0
ARC
  5
49D
330
1F
100
AcDbEntity
  8
OBRYS
100
AcDbCircle
 10
183.4104196732091
 20
61.51338002259055
 30
0.0
 40
1.000034808755654
100
AcDbArc
 50
269.4169904654965
 51
349.9927463656725
  0
LINE
  5
49E
330
1F
100
AcDbEntity
  8
OBRYS
100
AcDbLine
 10
184.3952397136714
 20
61.33960112103247
 30
0.0
 11
184.7321179732632
 21
63.24885971397813
 31
0.0
  0
LINE
  5
49F
330
1F
100
AcDbEntity
  8
OBRYS
100
AcDbLine
 10
163.0679795238182
 20
63.24885971397813
 30
0.0
 11
163.4040120845985
 21
61.34080304893038
 31
0.0
  0
ARC
  5
4A0
330
1F
100
AcDbEntity
  8
OBRYS
100
AcDbCircle
 10
164.3892176921493
 20
61.51445411431607
 30
0.0
 40
1.000392313874535
100
AcDbArc
 50
189.9962060516684
 51
270.6190220409795
  0
LINE
  5
4A1
330
1F
100
AcDbEntity
  8
OBRYS
100
AcDbLine
 10
134.177167627007
 20
58.682046462118
 30
0.0
 11
134.9605229265866
 21
60.65630465274009
 31
0.0
  0
LINE
  5
4A2
330
1F
100
AcDbEntity
  8
OBRYS
100
AcDbLine
 10
135.4930474809982
 20
57.94905022814848
 30
0.0
 11
136.5423863380354
 21
60.62945202546982
 31
0.0
  0
DIMENSION
  5
4A3
330
1F
100
AcDbEntity
  8
KOTY
100
AcDbDimension
  2
*D1
 10
186.4250378947152
 20
121.10164392517
 30
0.0
 11
173.9074556683595
 21
124.14364392517
 31
0.0
 70
    32
  3
ISO-25
100
AcDbAlignedDimension
 13
161.3898734420038
 23
105.6527417893744
 33
0.0
 14
186.4250378947152
 24
105.3532555902895
 34
0.0
100
AcDbRotatedDimension
1001
ACAD
1000
DSTYLE
1002
{
1070
   287
1070
     5
1070
   271
1070
     0
1070
   278
1070
    44
1070
    41
1040
4.0
1070
   140
1040
4.0
1070
   147
1040
1.0
1070
   178
1070
   256
1070
   176
1070
   256
1070
   177
1070
   256
1070
   279
1070
     2
1002
}
  0
DIMENSION
  5
4A6
330
1F
100
AcDbEntity
  8
KOTY
100
AcDbDimension
  2
*D2
 10
134.7871906854023
 20
121.10164392517
 30
0.0
 11
112.4874321189287
 21
124.13564392517
 31
0.0
 70
    32
  3
ISO-25
100
AcDbAlignedDimension
 13
90.18767355245501
 23
108.0530155187493
 33
0.0
 14
134.7871906854023
 24
108.0530155187493
 34
0.0
100
AcDbRotatedDimension
1001
ACAD
1000
DSTYLE
1002
{
1070
   287
1070
     5
1070
   271
1070
     0
1070
   278
1070
    44
1070
    41
1040
4.0
1070
   140
1040
4.0
1070
   147
1040
1.0
1070
   178
1070
   256
1070
   176
1070
   256
1070
   177
1070
   256
1070
   279
1070
     2
1002
}
  0
DIMENSION
  5
4A9
330
1F
100
AcDbEntity
  8
KOTY
100
AcDbDimension
  2
*D3
 10
56.35108820817018
 20
53.9533030756763
 30
0.0
 11
53.31708820817017
 21
81.1532793329828
 31
0.0
 70
    32
  3
ISO-25
100
AcDbAlignedDimension
 13
90.98693570503309
 23
108.3532555902893
 33
0.0
 14
100.4873086956543
 24
53.9533030756763
 34
0.0
 50
90.0
100
AcDbRotatedDimension
1001
ACAD
1000
DSTYLE
1002
{
1070
   287
1070
     5
1070
   271
1070
     0
1070
   278
1070
    44
1070
    41
1040
4.0
1070
   140
1040
4.0
1070
   147
1040
1.0
1070
   178
1070
   256
1070
   176
1070
   256
1070
   177
1070
   256
1070
   279
1070
     2
1002
}
  0
DIMENSION
  5
4AC
330
1F
100
AcDbEntity
  8
KOTY
100
AcDbDimension
  2
*D4
 10
70.0483621511249
 20
61.45293143751721
 30
0.0
 11
67.0483621511249
 21
84.90309351390326
 31
0.0
 70
    32
  3
ISO-25
100
AcDbAlignedDimension
 13
90.98693570503309
 23
108.3532555902893
 33
0.0
 14
98.48741991502249
 24
61.45293143751721
 34
0.0
 50
90.0
100
AcDbRotatedDimension
1001
ACAD
1000
DSTYLE
1002
{
1070
   287
1070
     5
1070
   271
1070
     0
1070
   278
1070
    44
1070
    41
1040
4.0
1070
   140
1040
4.0
1070
   147
1040
1.0
1070
   178
1070
   256
1070
   176
1070
   256
1070
   177
1070
   256
1070
   279
1070
     2
1002
}
  0
VIEWPORT
  5
4DF
330
58
100
AcDbEntity
 67
     1
  8
0
100
AcDbViewport
 10
0.0
 20
0.0
 30
0.0
 40
8.976
 41
6.936000000000001
 68
     1
 69
     1
1001
ACAD
1000
MVIEW
1002
{
1070
    16
1010
0.0
1020
0.0
1030
0.0
1010
0.0
1020
0.0
1030
1.0
1040
0.0
1040
6.936000000000001
1040
5.25
1040
4.0
1040
50.0
1040
0.0
1040
0.0
1070
     0
1070
   100
1070
     0
1070
     3
1070
     0
1070
     0
1070
     0
1070
     0
1040
0.0
1040
0.0
1040
0.0
1040
0.5
1040
0.5
1040
0.0
1040
0.0
1070
     0
1002
{
1002
}
1002
}
  0
VIEWPORT
  5
4E0
330
58
100
AcDbEntity
 67
     1
  8
0
100
AcDbViewport
 10
5.25
 20
4.0
 30
0.0
 40
8.4
 41
6.4
 68
     2
 69
     2
1001
ACAD
1000
MVIEW
1002
{
1070
    16
1010
0.0
1020
0.0
1030
0.0
1010
0.0
1020
0.0
1030
1.0
1040
0.0
1040
105.0214923278293
1040
118.8560630514427
1040
90.073471645095
1040
50.0
1040
0.0
1040
0.0
1070
     0
1070
   100
1070
     0
1070
     3
1070
     0
1070
     0
1070
     0
1070
     0
1040
0.0
1040
0.0
1040
0.0
1040
0.5
1040
0.5
1040
0.0
1040
0.0
1070
     0
1002
{
1002
}
1002
}
  0
ENDSEC
  0
SECTION
  2
OBJECTS
  0
DICTIONARY
  5
C
330
0
100
AcDbDictionary
  3
ACAD_DETAILVIEWSTYLE
350
122
  3
ACAD_GROUP
350
D
  3
ACAD_IMAGE_VARS
350
DC
  3
ACAD_MLINESTYLE
350
17
  3
ACAD_SCALELIST
350
4E3
  3
ACAD_SECTIONVIEWSTYLE
350
123
  3
ACDBVARIABLEDICTIONARY
350
66
  3
APPDATA
350
E1
  3
DWGPROPS
350
529
  0
DICTIONARY
  5
122
102
{ACAD_REACTORS
330
C
102
}
330
C
100
AcDbDictionary
  0
DICTIONARY
  5
D
102
{ACAD_REACTORS
330
C
102
}
330
C
100
AcDbDictionary
  0
RASTERVARIABLES
  5
DC
102
{ACAD_REACTORS
330
C
102
}
330
C
100
AcDbRasterVariables
 90
        0
 70
     1
 71
     1
 72
     5
  0
DICTIONARY
  5
17
102
{ACAD_REACTORS
330
C
102
}
330
C
100
AcDbDictionary
  3
STANDARD
350
18
  0
DICTIONARY
  5
4E3
102
{ACAD_REACTORS
330
C
102
}
330
C
100
AcDbDictionary
  0
DICTIONARY
  5
123
102
{ACAD_REACTORS
330
C
102
}
330
C
100
AcDbDictionary
  0
DICTIONARY
  5
66
102
{ACAD_REACTORS
330
C
102
}
330
C
100
AcDbDictionary
  3
DIMASSOC
350
67
  3
HIDETEXT
350
6B
  0
DICTIONARY
  5
E1
102
{ACAD_REACTORS
330
C
102
}
330
C
100
AcDbDictionary
  0
XRECORD
  5
529
102
{ACAD_REACTORS
330
C
102
}
330
C
100
AcDbXrecord
  1
DWGPROPS COOKIE
  2

  3

  4

  6

  7

  8
jaromir.podrabsky
  9

300
=
301
=
302
=
303
=
304
=
305
=
306
=
307
=
308
=
309
=
 40
0.0
 41
2452643.063384259
 42
2456727.36599912
  1

 90
        0
  0
MLINESTYLE
  5
18
102
{ACAD_REACTORS
330
17
102
}
330
17
100
AcDbMlineStyle
  2
STANDARD
 70
     0
  3

 62
   256
 51
90.0
 52
90.0
 71
     2
 49
0.5
 62
   256
  6
BYLAYER
 49
-0.5
 62
   256
  6
BYLAYER
  0
DICTIONARYVAR
  5
67
102
{ACAD_REACTORS
330
66
102
}
330
66
100
DictionaryVariables
280
     0
  1
2
  0
DICTIONARYVAR
  5
6B
102
{ACAD_REACTORS
330
66
102
}
330
66
100
DictionaryVariables
280
     0
  1
1
  0
ENDSEC
  0
EOF
