  0
SECTION
  2
HEADER
  9
$ACADVER
  1
AC1014
  9
$ACADMAINTVER
 70
     9
  9
$DWGCODEPAGE
  3
ANSI_1252
  9
$INSBASE
 10
0.0
 20
0.0
 30
0.0
  9
$EXTMIN
 10
208.0575534439266
 20
79.61065885509554
 30
0.0
  9
$EXTMAX
 10
341.3156194656885
 20
213.3317434126923
 30
0.0
  9
$LIMMIN
 10
0.0
 20
0.0
  9
$LIMMAX
 10
12.0
 20
9.0
  9
$ORTHOMODE
 70
     0
  9
$REGENMODE
 70
     1
  9
$FILLMODE
 70
     1
  9
$QTEXTMODE
 70
     0
  9
$MIRRTEXT
 70
     0
  9
$DRAGMODE
 70
     2
  9
$LTSCALE
 40
1.0
  9
$OSMODE
 70
   511
  9
$ATTMODE
 70
     1
  9
$TEXTSIZE
 40
0.2
  9
$TRACEWID
 40
0.05
  9
$TEXTSTYLE
  7
STANDARD
  9
$CLAYER
  8
KOTY
  9
$CELTYPE
  6
BYLAYER
  9
$CECOLOR
 62
   256
  9
$CELTSCALE
 40
1.0
  9
$DELOBJ
 70
     1
  9
$DISPSILH
 70
     0
  9
$DIMSCALE
 40
1.0
  9
$DIMASZ
 40
0.18
  9
$DIMEXO
 40
0.0625
  9
$DIMDLI
 40
0.38
  9
$DIMRND
 40
0.0
  9
$DIMDLE
 40
0.0
  9
$DIMEXE
 40
0.18
  9
$DIMTP
 40
0.0
  9
$DIMTM
 40
0.0
  9
$DIMTXT
 40
0.18
  9
$DIMCEN
 40
0.09
  9
$DIMTSZ
 40
0.0
  9
$DIMTOL
 70
     0
  9
$DIMLIM
 70
     0
  9
$DIMTIH
 70
     1
  9
$DIMTOH
 70
     1
  9
$DIMSE1
 70
     0
  9
$DIMSE2
 70
     0
  9
$DIMTAD
 70
     0
  9
$DIMZIN
 70
     0
  9
$DIMBLK
  1

  9
$DIMASO
 70
     1
  9
$DIMSHO
 70
     1
  9
$DIMPOST
  1

  9
$DIMAPOST
  1

  9
$DIMALT
 70
     0
  9
$DIMALTD
 70
     2
  9
$DIMALTF
 40
25.4
  9
$DIMLFAC
 40
1.0
  9
$DIMTOFL
 70
     0
  9
$DIMTVP
 40
0.0
  9
$DIMTIX
 70
     0
  9
$DIMSOXD
 70
     0
  9
$DIMSAH
 70
     0
  9
$DIMBLK1
  1

  9
$DIMBLK2
  1

  9
$DIMSTYLE
  2
STANDARD
  9
$DIMCLRD
 70
     0
  9
$DIMCLRE
 70
     0
  9
$DIMCLRT
 70
     0
  9
$DIMTFAC
 40
1.0
  9
$DIMGAP
 40
0.09
  9
$DIMJUST
 70
     0
  9
$DIMSD1
 70
     0
  9
$DIMSD2
 70
     0
  9
$DIMTOLJ
 70
     1
  9
$DIMTZIN
 70
     0
  9
$DIMALTZ
 70
     0
  9
$DIMALTTZ
 70
     0
  9
$DIMFIT
 70
     5
  9
$DIMUPT
 70
     0
  9
$DIMUNIT
 70
     2
  9
$DIMDEC
 70
     4
  9
$DIMTDEC
 70
     4
  9
$DIMALTU
 70
     2
  9
$DIMALTTD
 70
     2
  9
$DIMTXSTY
  7
STANDARD
  9
$DIMAUNIT
 70
     0
  9
$LUNITS
 70
     2
  9
$LUPREC
 70
     4
  9
$SKETCHINC
 40
0.1
  9
$FILLETRAD
 40
0.0
  9
$AUNITS
 70
     0
  9
$AUPREC
 70
     0
  9
$MENU
  1
.
  9
$ELEVATION
 40
0.0
  9
$PELEVATION
 40
0.0
  9
$THICKNESS
 40
0.0
  9
$LIMCHECK
 70
     0
  9
$CHAMFERA
 40
0.0
  9
$CHAMFERB
 40
0.0
  9
$CHAMFERC
 40
0.0
  9
$CHAMFERD
 40
0.0
  9
$SKPOLY
 70
     0
  9
$TDCREATE
 40
2452643.146717593
  9
$TDUPDATE
 40
2457953.610182164
  9
$TDINDWG
 40
0.0131779282
  9
$TDUSRTIMER
 40
2457953.52547184
  9
$USRTIMER
 70
     1
  9
$ANGBASE
 50
0.0
  9
$ANGDIR
 70
     0
  9
$PDMODE
 70
     0
  9
$PDSIZE
 40
0.0
  9
$PLINEWID
 40
0.0
  9
$COORDS
 70
     1
  9
$SPLFRAME
 70
     0
  9
$SPLINETYPE
 70
     6
  9
$SPLINESEGS
 70
     8
  9
$ATTDIA
 70
     0
  9
$ATTREQ
 70
     1
  9
$HANDLING
 70
     1
  9
$HANDSEED
  5
585
  9
$SURFTAB1
 70
     6
  9
$SURFTAB2
 70
     6
  9
$SURFTYPE
 70
     6
  9
$SURFU
 70
     6
  9
$SURFV
 70
     6
  9
$UCSNAME
  2

  9
$UCSORG
 10
0.0
 20
0.0
 30
0.0
  9
$UCSXDIR
 10
1.0
 20
0.0
 30
0.0
  9
$UCSYDIR
 10
0.0
 20
1.0
 30
0.0
  9
$PUCSNAME
  2

  9
$PUCSORG
 10
0.0
 20
0.0
 30
0.0
  9
$PUCSXDIR
 10
1.0
 20
0.0
 30
0.0
  9
$PUCSYDIR
 10
0.0
 20
1.0
 30
0.0
  9
$USERI1
 70
     0
  9
$USERI2
 70
     0
  9
$USERI3
 70
     0
  9
$USERI4
 70
     0
  9
$USERI5
 70
     0
  9
$USERR1
 40
0.0
  9
$USERR2
 40
0.0
  9
$USERR3
 40
0.0
  9
$USERR4
 40
0.0
  9
$USERR5
 40
0.0
  9
$WORLDVIEW
 70
     1
  9
$SHADEDGE
 70
     3
  9
$SHADEDIF
 70
    70
  9
$TILEMODE
 70
     1
  9
$MAXACTVP
 70
    64
  9
$PINSBASE
 10
0.0
 20
0.0
 30
0.0
  9
$PLIMCHECK
 70
     0
  9
$PEXTMIN
 10
0.0
 20
0.0
 30
0.0
  9
$PEXTMAX
 10
0.0
 20
0.0
 30
0.0
  9
$PLIMMIN
 10
0.0
 20
0.0
  9
$PLIMMAX
 10
0.0
 20
0.0
  9
$UNITMODE
 70
     0
  9
$VISRETAIN
 70
     1
  9
$PLINEGEN
 70
     0
  9
$PSLTSCALE
 70
     1
  9
$TREEDEPTH
 70
  3020
  9
$PICKSTYLE
 70
     1
  9
$CMLSTYLE
  2
STANDARD
  9
$CMLJUST
 70
     0
  9
$CMLSCALE
 40
1.0
  9
$PROXYGRAPHICS
 70
     1
  9
$MEASUREMENT
 70
     0
  0
ENDSEC
  0
SECTION
  2
CLASSES
  0
CLASS
  1
ACDBDICTIONARYWDFLT
  2
AcDbDictionaryWithDefault
  3
ObjectDBX Classes
 90
        0
280
     0
281
     0
  0
CLASS
  1
ACDBPLACEHOLDER
  2
AcDbPlaceHolder
  3
ObjectDBX Classes
 90
        0
280
     0
281
     0
  0
CLASS
  1
LAYOUT
  2
AcDbLayout
  3
ObjectDBX Classes
 90
        0
280
     0
281
     0
  0
CLASS
  1
DICTIONARYVAR
  2
AcDbDictionaryVar
  3
ObjectDBX Classes
 90
        0
280
     0
281
     0
  0
CLASS
  1
TABLESTYLE
  2
AcDbTableStyle
  3
ObjectDBX Classes
 90
     4095
280
     0
281
     0
  0
CLASS
  1
MATERIAL
  2
AcDbMaterial
  3
ObjectDBX Classes
 90
     1153
280
     0
281
     0
  0
CLASS
  1
VISUALSTYLE
  2
AcDbVisualStyle
  3
ObjectDBX Classes
 90
     4095
280
     0
281
     0
  0
CLASS
  1
SCALE
  2
AcDbScale
  3
ObjectDBX Classes
 90
     1153
280
     0
281
     0
  0
CLASS
  1
CELLSTYLEMAP
  2
AcDbCellStyleMap
  3
ObjectDBX Classes
 90
     1152
280
     0
281
     0
  0
CLASS
  1
RASTERVARIABLES
  2
AcDbRasterVariables
  3
ISM
 90
        0
280
     0
281
     0
  0
CLASS
  1
XRECORD
  2
AcDbXrecord
  3
AutoCAD 2000
 90
        0
280
     0
281
     0
  0
CLASS
  1
LWPOLYLINE
  2
AcDbPolyline
  3
AutoCAD 2000
 90
        0
280
     0
281
     1
  0
CLASS
  1
HATCH
  2
AcDbHatch
  3
AutoCAD 2000
 90
        0
280
     0
281
     1
  0
CLASS
  1
DIMASSOC
  2
AcDbDimAssoc
  3
"AcDbDimAssoc|Product Desc:     AcDim ARX App For Dimension|Company:          Autodesk, Inc.|WEB Address:      www.autodesk.com"
 90
        0
280
     0
281
     0
  0
ENDSEC
  0
SECTION
  2
TABLES
  0
TABLE
  2
VPORT
  5
8
330
0
100
AcDbSymbolTable
 70
     1
  0
VPORT
  5
94
330
8
100
AcDbSymbolTableRecord
100
AcDbViewportTableRecord
  2
*ACTIVE
 70
     0
 10
0.0
 20
0.0
 11
1.0
 21
1.0
 12
308.6016838416853
 22
145.607260929711
 13
0.0
 23
0.0
 14
0.5
 24
0.5
 15
0.5
 25
0.5
 16
0.0
 26
0.0
 36
1.0
 17
-27.66959356597977
 27
-19.53870295786191
 37
0.0
 40
135.6985179777993
 41
2.040251572327044
 42
50.0
 43
0.0
 44
0.0
 50
0.0
 51
0.0
 71
    16
 72
  1000
 73
     1
 74
     3
 75
     0
 76
     0
 77
     0
 78
     0
  0
ENDTAB
  0
TABLE
  2
LTYPE
  5
5
330
0
100
AcDbSymbolTable
 70
     1
  0
LTYPE
  5
14
330
5
100
AcDbSymbolTableRecord
100
AcDbLinetypeTableRecord
  2
BYBLOCK
 70
     0
  3

 72
    65
 73
     0
 40
0.0
  0
LTYPE
  5
15
330
5
100
AcDbSymbolTableRecord
100
AcDbLinetypeTableRecord
  2
BYLAYER
 70
     0
  3
Solid line
 72
    65
 73
     0
 40
0.0
  0
LTYPE
  5
16
330
5
100
AcDbSymbolTableRecord
100
AcDbLinetypeTableRecord
  2
CONTINUOUS
 70
     0
  3
Solid line
 72
    65
 73
     0
 40
0.0
  0
ENDTAB
  0
TABLE
  2
LAYER
  5
2
102
{ACAD_XDICTIONARY
360
2DB
102
}
330
0
100
AcDbSymbolTable
 70
     6
  0
LAYER
  5
10
330
2
100
AcDbSymbolTableRecord
100
AcDbLayerTableRecord
  2
0
 70
     0
 62
     7
  6
CONTINUOUS
  0
LAYER
  5
E4
330
2
100
AcDbSymbolTableRecord
100
AcDbLayerTableRecord
  2
DEFPOINTS
 70
     0
 62
     7
  6
CONTINUOUS
  0
LAYER
  5
E5
330
2
100
AcDbSymbolTableRecord
100
AcDbLayerTableRecord
  2
KOTY
 70
     0
 62
     1
  6
CONTINUOUS
1001
ACAECLAYERSTANDARD
1000

1000

  0
LAYER
  5
E8
330
2
100
AcDbSymbolTableRecord
100
AcDbLayerTableRecord
  2
OBRYS
 70
     0
 62
     5
  6
CONTINUOUS
1001
ACAECLAYERSTANDARD
1000

1000

  0
LAYER
  5
406
330
2
100
AcDbSymbolTableRecord
100
AcDbLayerTableRecord
  2
POPIS_VODICU
 70
     0
 62
     3
  6
CONTINUOUS
  0
ENDTAB
  0
TABLE
  2
STYLE
  5
3
330
0
100
AcDbSymbolTable
 70
     1
  0
STYLE
  5
11
330
3
100
AcDbSymbolTableRecord
100
AcDbTextStyleTableRecord
  2
STANDARD
 70
     0
 40
0.0
 41
1.0
 50
0.0
 71
     0
 42
0.2
  3
arial.ttf
  4

1001
ACAD
1000
Arial
1071
        0
  0
ENDTAB
  0
TABLE
  2
VIEW
  5
6
330
0
100
AcDbSymbolTable
 70
     0
  0
ENDTAB
  0
TABLE
  2
UCS
  5
7
330
0
100
AcDbSymbolTable
 70
     0
  0
ENDTAB
  0
TABLE
  2
APPID
  5
9
330
0
100
AcDbSymbolTable
 70
     2
  0
APPID
  5
12
330
9
100
AcDbSymbolTableRecord
100
AcDbRegAppTableRecord
  2
ACAD
 70
     0
  0
APPID
  5
E7
330
9
100
AcDbSymbolTableRecord
100
AcDbRegAppTableRecord
  2
ACAECLAYERSTANDARD
 70
     0
  0
ENDTAB
  0
TABLE
  2
DIMSTYLE
  5
A
330
0
100
AcDbSymbolTable
 70
     1
  0
DIMSTYLE
105
27
102
{ACAD_REACTORS
330
2A8
330
2A9
330
2AA
330
4EC
102
}
330
A
100
AcDbSymbolTableRecord
100
AcDbDimStyleTableRecord
  2
STANDARD
 70
     0
  3

  4

  5

  6

  7

 40
1.0
 41
0.18
 42
0.0625
 43
0.38
 44
0.18
 45
0.0
 46
0.0
 47
0.0
 48
0.0
140
0.18
141
0.09
142
0.0
143
25.4
144
1.0
145
0.0
146
1.0
147
0.09
 71
     0
 72
     0
 73
     1
 74
     1
 75
     0
 76
     0
 77
     0
 78
     0
170
     0
171
     2
172
     0
173
     0
174
     0
175
     0
176
     0
177
     0
178
     0
270
     2
271
     4
272
     4
273
     2
274
     2
340
11
275
     0
280
     0
281
     0
282
     0
283
     1
284
     0
285
     0
286
     0
287
     3
288
     0
  0
ENDTAB
  0
TABLE
  2
BLOCK_RECORD
  5
1
330
0
100
AcDbSymbolTable
 70
    10
  0
BLOCK_RECORD
  5
1F
330
1
100
AcDbSymbolTableRecord
100
AcDbBlockTableRecord
  2
*MODEL_SPACE
  0
BLOCK_RECORD
  5
58
330
1
100
AcDbSymbolTableRecord
100
AcDbBlockTableRecord
  2
*PAPER_SPACE
  0
BLOCK_RECORD
  5
5D
330
1
100
AcDbSymbolTableRecord
100
AcDbBlockTableRecord
  2
*PAPER_SPACE0
  0
BLOCK_RECORD
  5
1BB
330
1
100
AcDbSymbolTableRecord
100
AcDbBlockTableRecord
  2
*D1
  0
BLOCK_RECORD
  5
1C8
330
1
100
AcDbSymbolTableRecord
100
AcDbBlockTableRecord
  2
*D2
  0
BLOCK_RECORD
  5
1D5
330
1
100
AcDbSymbolTableRecord
100
AcDbBlockTableRecord
  2
*D3
  0
BLOCK_RECORD
  5
2B5
330
1
100
AcDbSymbolTableRecord
100
AcDbBlockTableRecord
  2
*D4
  0
BLOCK_RECORD
  5
2BF
330
1
100
AcDbSymbolTableRecord
100
AcDbBlockTableRecord
  2
*D5
  0
BLOCK_RECORD
  5
2C9
330
1
100
AcDbSymbolTableRecord
100
AcDbBlockTableRecord
  2
*D6
  0
BLOCK_RECORD
  5
420
330
1
100
AcDbSymbolTableRecord
100
AcDbBlockTableRecord
  2
BLOCK_2
  0
BLOCK_RECORD
  5
463
330
1
100
AcDbSymbolTableRecord
100
AcDbBlockTableRecord
  2
*D8
  0
BLOCK_RECORD
  5
4EF
330
1
100
AcDbSymbolTableRecord
100
AcDbBlockTableRecord
  2
*D9
  0
ENDTAB
  0
ENDSEC
  0
SECTION
  2
BLOCKS
  0
BLOCK
  5
20
330
1F
100
AcDbEntity
  8
0
100
AcDbBlockBegin
  2
*MODEL_SPACE
 70
     0
 10
0.0
 20
0.0
 30
0.0
  3
*MODEL_SPACE
  1

  0
ENDBLK
  5
21
330
1F
100
AcDbEntity
  8
0
100
AcDbBlockEnd
  0
BLOCK
  5
5A
330
58
100
AcDbEntity
 67
     1
  8
0
100
AcDbBlockBegin
  2
*PAPER_SPACE
 70
     0
 10
0.0
 20
0.0
 30
0.0
  3
*PAPER_SPACE
  1

  0
ENDBLK
  5
5B
330
58
100
AcDbEntity
 67
     1
  8
0
100
AcDbBlockEnd
  0
BLOCK
  5
5F
330
5D
100
AcDbEntity
  8
0
100
AcDbBlockBegin
  2
*PAPER_SPACE0
 70
     0
 10
0.0
 20
0.0
 30
0.0
  3
*PAPER_SPACE0
  1

  0
ENDBLK
  5
60
330
5D
100
AcDbEntity
  8
0
100
AcDbBlockEnd
  0
BLOCK
  5
1BC
330
1BB
100
AcDbEntity
  8
0
100
AcDbBlockBegin
  2
*D1
 70
     1
 10
0.0
 20
0.0
 30
0.0
  3
*D1
  1

  0
LINE
  5
1BD
330
1BB
100
AcDbEntity
  8
KOTY
 62
     0
100
AcDbLine
 10
0.0
 20
88.91277696204719
 30
0.0
 11
0.0
 21
128.8090845575968
 31
0.0
  0
LINE
  5
1BE
330
1BB
100
AcDbEntity
  8
KOTY
 62
     0
100
AcDbLine
 10
21.30000590814984
 20
89.0319773444727
 30
0.0
 11
21.30000590814984
 21
128.8090845575968
 31
0.0
  0
LINE
  5
1BF
330
1BB
100
AcDbEntity
  8
KOTY
 62
     0
100
AcDbLine
 10
4.0
 20
128.6290845575968
 30
0.0
 11
17.30000590814984
 21
128.6290845575968
 31
0.0
  0
SOLID
  5
1C0
330
1BB
100
AcDbEntity
  8
KOTY
 62
     0
100
AcDbTrace
 10
4.0
 20
129.2957512242634
 30
0.0
 11
4.0
 21
127.9624178909301
 31
0.0
 12
0.0
 22
128.6290845575968
 32
0.0
 13
0.0
 23
128.6290845575968
 33
0.0
  0
SOLID
  5
1C1
330
1BB
100
AcDbEntity
  8
KOTY
 62
     0
100
AcDbTrace
 10
17.30000590814984
 20
127.9624178909301
 30
0.0
 11
17.30000590814984
 21
129.2957512242634
 31
0.0
 12
21.30000590814984
 22
128.6290845575968
 32
0.0
 13
21.30000590814984
 23
128.6290845575968
 33
0.0
  0
MTEXT
  5
1C2
330
1BB
100
AcDbEntity
  8
KOTY
 62
     0
100
AcDbMText
 10
10.65000295407492
 20
131.6370845575968
 30
0.0
 40
4.0
 41
0.0
 71
     5
 72
     1
  1
\A1;21
  0
POINT
  5
1C3
330
1BB
100
AcDbEntity
  8
DEFPOINTS
 62
     0
100
AcDbPoint
 10
0.0
 20
88.85027696204719
 30
0.0
  0
POINT
  5
1C4
330
1BB
100
AcDbEntity
  8
DEFPOINTS
 62
     0
100
AcDbPoint
 10
21.30000590814984
 20
88.9694773444727
 30
0.0
  0
POINT
  5
1C5
330
1BB
100
AcDbEntity
  8
DEFPOINTS
 62
     0
100
AcDbPoint
 10
21.30000590814984
 20
128.6290845575968
 30
0.0
  0
ENDBLK
  5
1C6
330
1BB
100
AcDbEntity
  8
0
100
AcDbBlockEnd
  0
BLOCK
  5
1C9
330
1C8
100
AcDbEntity
  8
0
100
AcDbBlockBegin
  2
*D2
 70
     1
 10
0.0
 20
0.0
 30
0.0
  3
*D2
  1

  0
LINE
  5
1CA
330
1C8
100
AcDbEntity
  8
KOTY
 62
     0
100
AcDbLine
 10
59.63705375874747
 20
87.13200593095681
 30
0.0
 11
59.63705375874747
 21
128.8090845575968
 31
0.0
  0
LINE
  5
1CB
330
1C8
100
AcDbEntity
  8
KOTY
 62
     0
100
AcDbLine
 10
112.1372430021014
 20
87.13200593095681
 30
0.0
 11
112.1372430021014
 21
128.8090845575968
 31
0.0
  0
LINE
  5
1CC
330
1C8
100
AcDbEntity
  8
KOTY
 62
     0
100
AcDbLine
 10
63.63705375874747
 20
128.6290845575968
 30
0.0
 11
108.1372430021014
 21
128.6290845575968
 31
0.0
  0
SOLID
  5
1CD
330
1C8
100
AcDbEntity
  8
KOTY
 62
     0
100
AcDbTrace
 10
63.63705375874747
 20
129.2957512242634
 30
0.0
 11
63.63705375874747
 21
127.9624178909301
 31
0.0
 12
59.63705375874747
 22
128.6290845575968
 32
0.0
 13
59.63705375874747
 23
128.6290845575968
 33
0.0
  0
SOLID
  5
1CE
330
1C8
100
AcDbEntity
  8
KOTY
 62
     0
100
AcDbTrace
 10
108.1372430021014
 20
127.9624178909301
 30
0.0
 11
108.1372430021014
 21
129.2957512242634
 31
0.0
 12
112.1372430021014
 22
128.6290845575968
 32
0.0
 13
112.1372430021014
 23
128.6290845575968
 33
0.0
  0
MTEXT
  5
1CF
330
1C8
100
AcDbEntity
  8
KOTY
 62
     0
100
AcDbMText
 10
85.88714838042443
 20
131.6710845575968
 30
0.0
 40
4.0
 41
0.0
 71
     5
 72
     1
  1
\A1;53
  0
POINT
  5
1D0
330
1C8
100
AcDbEntity
  8
DEFPOINTS
 62
     0
100
AcDbPoint
 10
59.63705375874747
 20
87.06950593095681
 30
0.0
  0
POINT
  5
1D1
330
1C8
100
AcDbEntity
  8
DEFPOINTS
 62
     0
100
AcDbPoint
 10
112.1372430021014
 20
87.06950593095681
 30
0.0
  0
POINT
  5
1D2
330
1C8
100
AcDbEntity
  8
DEFPOINTS
 62
     0
100
AcDbPoint
 10
112.1372430021014
 20
128.6290845575968
 30
0.0
  0
ENDBLK
  5
1D3
330
1C8
100
AcDbEntity
  8
0
100
AcDbBlockEnd
  0
BLOCK
  5
1D6
330
1D5
100
AcDbEntity
  8
0
100
AcDbBlockBegin
  2
*D3
 70
     1
 10
0.0
 20
0.0
 30
0.0
  3
*D3
  1

  0
LINE
  5
1D7
330
1D5
100
AcDbEntity
  8
KOTY
 62
     0
100
AcDbLine
 10
110.0997682043821
 20
89.16946527517581
 30
0.0
 11
132.7713993550952
 21
89.16946527517581
 31
0.0
  0
LINE
  5
1D8
330
1D5
100
AcDbEntity
  8
KOTY
 62
     0
100
AcDbLine
 10
97.96838867373754
 20
35.16962497192759
 30
0.0
 11
132.7713993550952
 21
35.16962497192759
 31
0.0
  0
LINE
  5
1D9
330
1D5
100
AcDbEntity
  8
KOTY
 62
     0
100
AcDbLine
 10
132.5913993550952
 20
85.16946527517581
 30
0.0
 11
132.5913993550952
 21
39.16962497192759
 31
0.0
  0
SOLID
  5
1DA
330
1D5
100
AcDbEntity
  8
KOTY
 62
     0
100
AcDbTrace
 10
133.2580660217619
 20
85.16946527517581
 30
0.0
 11
131.9247326884286
 21
85.16946527517581
 31
0.0
 12
132.5913993550952
 22
89.16946527517581
 32
0.0
 13
132.5913993550952
 23
89.16946527517581
 33
0.0
  0
SOLID
  5
1DB
330
1D5
100
AcDbEntity
  8
KOTY
 62
     0
100
AcDbTrace
 10
131.9247326884286
 20
39.16962497192759
 30
0.0
 11
133.2580660217619
 21
39.16962497192759
 31
0.0
 12
132.5913993550952
 22
35.16962497192759
 32
0.0
 13
132.5913993550952
 23
35.16962497192759
 33
0.0
  0
MTEXT
  5
1DC
330
1D5
100
AcDbEntity
  8
KOTY
 62
     0
100
AcDbMText
 10
129.5573993550952
 20
61.34567512756809
 30
0.0
 40
4.0
 41
0.0
 71
     5
 72
     1
  1
\A1;54
 11
0.0
 21
1.0
 31
0.0
  0
POINT
  5
1DD
330
1D5
100
AcDbEntity
  8
DEFPOINTS
 62
     0
100
AcDbPoint
 10
110.0372682043821
 20
89.16946527517581
 30
0.0
  0
POINT
  5
1DE
330
1D5
100
AcDbEntity
  8
DEFPOINTS
 62
     0
100
AcDbPoint
 10
97.90588867373754
 20
35.16962497192759
 30
0.0
  0
POINT
  5
1DF
330
1D5
100
AcDbEntity
  8
DEFPOINTS
 62
     0
100
AcDbPoint
 10
132.5913993550952
 20
35.16962497192759
 30
0.0
  0
ENDBLK
  5
1E0
330
1D5
100
AcDbEntity
  8
0
100
AcDbBlockEnd
  0
BLOCK
  5
2D3
330
2B5
100
AcDbEntity
  8
0
100
AcDbBlockBegin
  2
*D4
 70
     1
 10
0.0
 20
0.0
 30
0.0
  3
*D4
  1

  0
LINE
  5
2B6
330
2B5
100
AcDbEntity
  8
KOTY
 62
     0
100
AcDbLine
 10
208.0575534439266
 20
168.5234358171427
 30
0.0
 11
208.0575534439266
 21
178.8569130028492
 31
0.0
  0
LINE
  5
2B7
330
2B5
100
AcDbEntity
  8
KOTY
 62
     0
100
AcDbLine
 10
229.3575593520765
 20
168.6426361995682
 30
0.0
 11
229.3575593520765
 21
178.8569130028492
 31
0.0
  0
LINE
  5
2B8
330
2B5
100
AcDbEntity
  8
KOTY
 62
     0
100
AcDbLine
 10
212.0575534439266
 20
178.6769130028492
 30
0.0
 11
225.3575593520765
 21
178.6769130028492
 31
0.0
  0
SOLID
  5
2B9
330
2B5
100
AcDbEntity
  8
KOTY
 62
     0
100
AcDbTrace
 10
212.0575534439266
 20
179.3435796695158
 30
0.0
 11
212.0575534439266
 21
178.0102463361825
 31
0.0
 12
208.0575534439266
 22
178.6769130028492
 32
0.0
 13
208.0575534439266
 23
178.6769130028492
 33
0.0
  0
SOLID
  5
2BA
330
2B5
100
AcDbEntity
  8
KOTY
 62
     0
100
AcDbTrace
 10
225.3575593520765
 20
178.0102463361825
 30
0.0
 11
225.3575593520765
 21
179.3435796695158
 31
0.0
 12
229.3575593520765
 22
178.6769130028492
 32
0.0
 13
229.3575593520765
 23
178.6769130028492
 33
0.0
  0
MTEXT
  5
2BB
330
2B5
100
AcDbEntity
  8
KOTY
 62
     0
100
AcDbMText
 10
218.7075563980015
 20
181.6849130028492
 30
0.0
 40
4.0
 41
0.0
 71
     5
 72
     1
  1
\A1;21
  0
POINT
  5
2BC
330
2B5
100
AcDbEntity
  8
DEFPOINTS
 62
     0
100
AcDbPoint
 10
208.0575534439266
 20
168.4609358171427
 30
0.0
  0
POINT
  5
2BD
330
2B5
100
AcDbEntity
  8
DEFPOINTS
 62
     0
100
AcDbPoint
 10
229.3575593520765
 20
168.5801361995682
 30
0.0
  0
POINT
  5
2BE
330
2B5
100
AcDbEntity
  8
DEFPOINTS
 62
     0
100
AcDbPoint
 10
229.3575593520765
 20
178.6769130028492
 30
0.0
  0
ENDBLK
  5
2D4
330
2B5
100
AcDbEntity
  8
0
100
AcDbBlockEnd
  0
BLOCK
  5
2D5
330
2BF
100
AcDbEntity
  8
0
100
AcDbBlockBegin
  2
*D5
 70
     1
 10
0.0
 20
0.0
 30
0.0
  3
*D5
  1

  0
LINE
  5
2C0
330
2BF
100
AcDbEntity
  8
KOTY
 62
     0
100
AcDbLine
 10
267.6946072026741
 20
166.7426647860523
 30
0.0
 11
267.6946072026741
 21
178.8569130028492
 31
0.0
  0
LINE
  5
2C1
330
2BF
100
AcDbEntity
  8
KOTY
 62
     0
100
AcDbLine
 10
320.194796446028
 20
166.7426647860523
 30
0.0
 11
320.194796446028
 21
178.8569130028492
 31
0.0
  0
LINE
  5
2C2
330
2BF
100
AcDbEntity
  8
KOTY
 62
     0
100
AcDbLine
 10
271.6946072026741
 20
178.6769130028492
 30
0.0
 11
316.194796446028
 21
178.6769130028492
 31
0.0
  0
SOLID
  5
2C3
330
2BF
100
AcDbEntity
  8
KOTY
 62
     0
100
AcDbTrace
 10
271.6946072026741
 20
179.3435796695158
 30
0.0
 11
271.6946072026741
 21
178.0102463361825
 31
0.0
 12
267.6946072026741
 22
178.6769130028492
 32
0.0
 13
267.6946072026741
 23
178.6769130028492
 33
0.0
  0
SOLID
  5
2C4
330
2BF
100
AcDbEntity
  8
KOTY
 62
     0
100
AcDbTrace
 10
316.194796446028
 20
178.0102463361825
 30
0.0
 11
316.194796446028
 21
179.3435796695158
 31
0.0
 12
320.194796446028
 22
178.6769130028492
 32
0.0
 13
320.194796446028
 23
178.6769130028492
 33
0.0
  0
MTEXT
  5
2C5
330
2BF
100
AcDbEntity
  8
KOTY
 62
     0
100
AcDbMText
 10
293.9447018243511
 20
181.7189130028492
 30
0.0
 40
4.0
 41
0.0
 71
     5
 72
     1
  1
\A1;53
  0
POINT
  5
2C6
330
2BF
100
AcDbEntity
  8
DEFPOINTS
 62
     0
100
AcDbPoint
 10
267.6946072026741
 20
166.6801647860523
 30
0.0
  0
POINT
  5
2C7
330
2BF
100
AcDbEntity
  8
DEFPOINTS
 62
     0
100
AcDbPoint
 10
320.194796446028
 20
166.6801647860523
 30
0.0
  0
POINT
  5
2C8
330
2BF
100
AcDbEntity
  8
DEFPOINTS
 62
     0
100
AcDbPoint
 10
320.194796446028
 20
178.6769130028492
 30
0.0
  0
ENDBLK
  5
2D6
330
2BF
100
AcDbEntity
  8
0
100
AcDbBlockEnd
  0
BLOCK
  5
2D7
330
2C9
100
AcDbEntity
  8
0
100
AcDbBlockBegin
  2
*D6
 70
     1
 10
0.0
 20
0.0
 30
0.0
  3
*D6
  1

  0
LINE
  5
2CA
330
2C9
100
AcDbEntity
  8
KOTY
 62
     0
100
AcDbLine
 10
318.1573216483087
 20
168.7801241302714
 30
0.0
 11
340.8289527990219
 21
168.7801241302714
 31
0.0
  0
LINE
  5
2CB
330
2C9
100
AcDbEntity
  8
KOTY
 62
     0
100
AcDbLine
 10
306.0259421176642
 20
114.7802838270231
 30
0.0
 11
340.8289527990219
 21
114.7802838270231
 31
0.0
  0
LINE
  5
2CC
330
2C9
100
AcDbEntity
  8
KOTY
 62
     0
100
AcDbLine
 10
340.6489527990219
 20
164.7801241302714
 30
0.0
 11
340.6489527990219
 21
118.7802838270231
 31
0.0
  0
SOLID
  5
2CD
330
2C9
100
AcDbEntity
  8
KOTY
 62
     0
100
AcDbTrace
 10
341.3156194656885
 20
164.7801241302714
 30
0.0
 11
339.9822861323552
 21
164.7801241302714
 31
0.0
 12
340.6489527990219
 22
168.7801241302714
 32
0.0
 13
340.6489527990219
 23
168.7801241302714
 33
0.0
  0
SOLID
  5
2CE
330
2C9
100
AcDbEntity
  8
KOTY
 62
     0
100
AcDbTrace
 10
339.9822861323552
 20
118.7802838270231
 30
0.0
 11
341.3156194656885
 21
118.7802838270231
 31
0.0
 12
340.6489527990219
 22
114.7802838270231
 32
0.0
 13
340.6489527990219
 23
114.7802838270231
 33
0.0
  0
MTEXT
  5
2CF
330
2C9
100
AcDbEntity
  8
KOTY
 62
     0
100
AcDbMText
 10
337.6149527990219
 20
140.9563339826636
 30
0.0
 40
4.0
 41
0.0
 71
     5
 72
     1
  1
\A1;54
 11
0.0
 21
1.0
 31
0.0
  0
POINT
  5
2D0
330
2C9
100
AcDbEntity
  8
DEFPOINTS
 62
     0
100
AcDbPoint
 10
318.0948216483087
 20
168.7801241302714
 30
0.0
  0
POINT
  5
2D1
330
2C9
100
AcDbEntity
  8
DEFPOINTS
 62
     0
100
AcDbPoint
 10
305.9634421176642
 20
114.7802838270231
 30
0.0
  0
POINT
  5
2D2
330
2C9
100
AcDbEntity
  8
DEFPOINTS
 62
     0
100
AcDbPoint
 10
340.6489527990219
 20
114.7802838270231
 30
0.0
  0
ENDBLK
  5
2D8
330
2C9
100
AcDbEntity
  8
0
100
AcDbBlockEnd
  0
BLOCK
  5
421
330
420
100
AcDbEntity
  8
0
100
AcDbBlockBegin
  2
BLOCK_2
 70
     0
 10
0.0
 20
0.0
 30
0.0
  3
BLOCK_2
  1

  0
SPLINE
  5
422
330
420
100
AcDbEntity
  8
POPIS_VODICU
100
AcDbSpline
210
0.0
220
0.0
230
1.0
 70
    11
 71
     3
 72
    68
 73
    64
 74
     0
 42
0.0000000001
 43
0.0000000001
 40
0.0
 40
0.0
 40
0.0
 40
0.0
 40
1.0
 40
1.0
 40
1.0
 40
2.0
 40
2.0
 40
2.0
 40
3.0
 40
3.0
 40
3.0
 40
4.0
 40
4.0
 40
4.0
 40
5.0
 40
5.0
 40
5.0
 40
6.0
 40
6.0
 40
6.0
 40
7.0
 40
7.0
 40
7.0
 40
8.0
 40
8.0
 40
8.0
 40
9.0
 40
9.0
 40
9.0
 40
10.0
 40
10.0
 40
10.0
 40
11.0
 40
11.0
 40
11.0
 40
12.0
 40
12.0
 40
12.0
 40
13.0
 40
13.0
 40
13.0
 40
14.0
 40
14.0
 40
14.0
 40
15.0
 40
15.0
 40
15.0
 40
16.0
 40
16.0
 40
16.0
 40
17.0
 40
17.0
 40
17.0
 40
18.0
 40
18.0
 40
18.0
 40
19.0
 40
19.0
 40
19.0
 40
20.0
 40
20.0
 40
20.0
 40
21.0
 40
21.0
 40
21.0
 40
21.0
 10
181.1229140368536
 20
268.9491356903467
 30
0.0
 10
181.1229140368536
 20
268.9491356903467
 30
0.0
 10
181.1229140368536
 20
268.0499651755187
 30
0.0
 10
181.1229140368536
 20
268.0499651755187
 30
0.0
 10
181.1229140368536
 20
268.0499651755187
 30
0.0
 10
177.7294927452614
 20
268.0499651755187
 30
0.0
 10
177.7294927452614
 20
268.0499651755187
 30
0.0
 10
177.7661830363836
 20
268.3898240693417
 30
0.0
 10
177.8764261646384
 20
268.7119407097111
 30
0.0
 10
178.0602221300257
 20
269.016315096627
 30
0.0
 10
178.2440180954129
 20
269.3206894835429
 30
0.0
 10
178.6067868893263
 20
269.7242826858881
 30
0.0
 10
179.1488730215416
 20
270.2272669585505
 30
0.0
 10
179.5851946525874
 20
270.63378849399
 30
0.0
 10
179.852878748381
 20
270.9093963146269
 30
0.0
 10
179.9515807991466
 20
271.0540904204613
 30
0.0
 10
180.0847338274918
 20
271.2539060904231
 30
0.0
 10
180.1513964691084
 20
271.4514824468422
 30
0.0
 10
180.1513964691084
 20
271.6466472348307
 30
0.0
 10
180.1513964691084
 20
271.862482609367
 30
0.0
 10
180.0933465718867
 20
272.0285363213008
 30
0.0
 10
179.9774190323313
 20
272.1444638608562
 30
0.0
 10
179.8614914927759
 20
272.2603914004116
 30
0.0
 10
179.7012944470307
 20
272.3184412976333
 30
0.0
 10
179.4968278950957
 20
272.3184412976333
 30
0.0
 10
179.2947729115912
 20
272.3184412976333
 30
0.0
 10
179.1338868462944
 20
272.2576353222053
 30
0.0
 10
179.014514208981
 20
272.1358511164613
 30
0.0
 10
178.8951415716677
 20
272.0140669107174
 30
0.0
 10
178.8262396165084
 20
271.8120119272129
 30
0.0
 10
178.8078083435034
 20
271.52951391106
 30
0.0
 10
178.8078083435034
 20
271.52951391106
 30
0.0
 10
177.8431809712741
 20
271.625976648283
 30
0.0
 10
177.8431809712741
 20
271.625976648283
 30
0.0
 10
177.9005418489441
 20
272.1587610165518
 30
0.0
 10
178.0808927165734
 20
272.5411668676855
 30
0.0
 10
178.3840613192741
 20
272.7731942016842
 30
0.0
 10
178.6872299219747
 20
273.0052215356829
 30
0.0
 10
179.0661906753505
 20
273.1211490752383
 30
0.0
 10
179.5209435794014
 20
273.1211490752383
 30
0.0
 10
180.0192769700906
 20
273.1211490752383
 30
0.0
 10
180.4109845851708
 20
272.9867902626778
 30
0.0
 10
180.6957219148664
 20
272.7180726375568
 30
0.0
 10
180.9804592445619
 20
272.4493550124358
 30
0.0
 10
181.1229140368536
 20
272.1151805299135
 30
0.0
 10
181.1229140368536
 20
271.71554918999
 30
0.0
 10
181.1229140368536
 20
271.4881727379645
 30
0.0
 10
181.0820896284218
 20
271.2716483438766
 30
0.0
 10
181.000613066446
 20
271.0661482626142
 30
0.0
 10
180.9191365044702
 20
270.8606481813518
 30
0.0
 10
180.7899453385466
 20
270.6453295714792
 30
0.0
 10
180.6130395686753
 20
270.4201924329964
 30
0.0
 10
180.4959062449046
 20
270.2708474451887
 30
0.0
 10
180.2845494974536
 20
270.0562178548677
 30
0.0
 10
179.9791415812103
 20
269.7759591522575
 30
0.0
 10
179.673733664967
 20
269.4957004496474
 30
0.0
 10
179.4801191709696
 20
269.3096651707174
 30
0.0
 10
179.3986426089938
 20
269.2178533154677
 30
0.0
 10
179.317166047018
 20
269.1260414602181
 30
0.0
 10
179.2510201700651
 20
269.036468918511
 30
0.0
 10
179.200549487911
 20
268.9491356903467
 30
0.0
 10
179.200549487911
 20
268.9491356903467
 30
0.0
 10
181.1229140368536
 20
268.9491356903467
 30
0.0
 10
181.1229140368536
 20
268.9491356903467
 30
0.0
  0
HATCH
  5
423
330
420
100
AcDbEntity
  8
POPIS_VODICU
 62
    98
100
AcDbHatch
 10
0.0
 20
0.0
 30
0.0
210
0.0
220
0.0
230
1.0
  2
SOLID
 70
     1
 71
     0
 91
        1
 92
        1
 93
        1
 72
     4
 94
        3
 73
     0
 74
     1
 95
       68
 96
       64
 40
0.0
 40
0.0
 40
0.0
 40
0.0
 40
1.0
 40
1.0
 40
1.0
 40
2.0
 40
2.0
 40
2.0
 40
3.0
 40
3.0
 40
3.0
 40
4.0
 40
4.0
 40
4.0
 40
5.0
 40
5.0
 40
5.0
 40
6.0
 40
6.0
 40
6.0
 40
7.0
 40
7.0
 40
7.0
 40
8.0
 40
8.0
 40
8.0
 40
9.0
 40
9.0
 40
9.0
 40
10.0
 40
10.0
 40
10.0
 40
11.0
 40
11.0
 40
11.0
 40
12.0
 40
12.0
 40
12.0
 40
13.0
 40
13.0
 40
13.0
 40
14.0
 40
14.0
 40
14.0
 40
15.0
 40
15.0
 40
15.0
 40
16.0
 40
16.0
 40
16.0
 40
17.0
 40
17.0
 40
17.0
 40
18.0
 40
18.0
 40
18.0
 40
19.0
 40
19.0
 40
19.0
 40
20.0
 40
20.0
 40
20.0
 40
21.0
 40
21.0
 40
21.0
 40
21.0
 10
181.1229140368536
 20
268.9491356903467
 10
181.1229140368536
 20
268.9491356903467
 10
181.1229140368536
 20
268.0499651755187
 10
181.1229140368536
 20
268.0499651755187
 10
181.1229140368536
 20
268.0499651755187
 10
177.7294927452614
 20
268.0499651755187
 10
177.7294927452614
 20
268.0499651755187
 10
177.7661830363836
 20
268.3898240693417
 10
177.8764261646384
 20
268.7119407097111
 10
178.0602221300257
 20
269.016315096627
 10
178.2440180954129
 20
269.3206894835429
 10
178.6067868893263
 20
269.7242826858881
 10
179.1488730215416
 20
270.2272669585505
 10
179.5851946525874
 20
270.63378849399
 10
179.852878748381
 20
270.9093963146269
 10
179.9515807991466
 20
271.0540904204613
 10
180.0847338274918
 20
271.2539060904231
 10
180.1513964691084
 20
271.4514824468422
 10
180.1513964691084
 20
271.6466472348307
 10
180.1513964691084
 20
271.862482609367
 10
180.0933465718867
 20
272.0285363213008
 10
179.9774190323313
 20
272.1444638608562
 10
179.8614914927759
 20
272.2603914004116
 10
179.7012944470307
 20
272.3184412976333
 10
179.4968278950957
 20
272.3184412976333
 10
179.2947729115912
 20
272.3184412976333
 10
179.1338868462944
 20
272.2576353222053
 10
179.014514208981
 20
272.1358511164613
 10
178.8951415716677
 20
272.0140669107174
 10
178.8262396165084
 20
271.8120119272129
 10
178.8078083435034
 20
271.52951391106
 10
178.8078083435034
 20
271.52951391106
 10
177.8431809712741
 20
271.625976648283
 10
177.8431809712741
 20
271.625976648283
 10
177.9005418489441
 20
272.1587610165518
 10
178.0808927165734
 20
272.5411668676855
 10
178.3840613192741
 20
272.7731942016842
 10
178.6872299219747
 20
273.0052215356829
 10
179.0661906753505
 20
273.1211490752383
 10
179.5209435794014
 20
273.1211490752383
 10
180.0192769700906
 20
273.1211490752383
 10
180.4109845851708
 20
272.9867902626778
 10
180.6957219148664
 20
272.7180726375568
 10
180.9804592445619
 20
272.4493550124358
 10
181.1229140368536
 20
272.1151805299135
 10
181.1229140368536
 20
271.71554918999
 10
181.1229140368536
 20
271.4881727379645
 10
181.0820896284218
 20
271.2716483438766
 10
181.000613066446
 20
271.0661482626142
 10
180.9191365044702
 20
270.8606481813518
 10
180.7899453385466
 20
270.6453295714792
 10
180.6130395686753
 20
270.4201924329964
 10
180.4959062449046
 20
270.2708474451887
 10
180.2845494974536
 20
270.0562178548677
 10
179.9791415812103
 20
269.7759591522575
 10
179.673733664967
 20
269.4957004496474
 10
179.4801191709696
 20
269.3096651707174
 10
179.3986426089938
 20
269.2178533154677
 10
179.317166047018
 20
269.1260414602181
 10
179.2510201700651
 20
269.036468918511
 10
179.200549487911
 20
268.9491356903467
 10
179.200549487911
 20
268.9491356903467
 10
181.1229140368536
 20
268.9491356903467
 10
181.1229140368536
 20
268.9491356903467
 97
        0
 75
     2
 76
     1
 98
        0
  0
SPLINE
  5
424
330
420
100
AcDbEntity
  8
POPIS_VODICU
100
AcDbSpline
210
0.0
220
0.0
230
1.0
 70
    11
 71
     3
 72
    35
 73
    31
 74
     0
 42
0.0000000001
 43
0.0000000001
 40
0.0
 40
0.0
 40
0.0
 40
0.0
 40
1.0
 40
1.0
 40
1.0
 40
2.0
 40
2.0
 40
2.0
 40
3.0
 40
3.0
 40
3.0
 40
4.0
 40
4.0
 40
4.0
 40
5.0
 40
5.0
 40
5.0
 40
6.0
 40
6.0
 40
6.0
 40
7.0
 40
7.0
 40
7.0
 40
8.0
 40
8.0
 40
8.0
 40
9.0
 40
9.0
 40
9.0
 40
10.0
 40
10.0
 40
10.0
 40
10.0
 10
181.9600727920383
 20
269.018037645506
 30
0.0
 10
181.9600727920383
 20
269.018037645506
 30
0.0
 10
182.9281452620255
 20
269.018037645506
 30
0.0
 10
182.9281452620255
 20
269.018037645506
 30
0.0
 10
182.9281452620255
 20
269.018037645506
 30
0.0
 10
182.9281452620255
 20
268.3255729961556
 30
0.0
 10
182.9281452620255
 20
268.3255729961556
 30
0.0
 10
182.9281452620255
 20
268.0453142935455
 30
0.0
 10
182.9040295777198
 20
267.8243112723723
 30
0.0
 10
182.8557982091083
 20
267.662391677748
 30
0.0
 10
182.8075668404969
 20
267.5004720831238
 30
0.0
 10
182.7162717499109
 20
267.3552612126257
 30
0.0
 10
182.5819129373504
 20
267.2265868113659
 30
0.0
 10
182.4475541247899
 20
267.097912410106
 30
0.0
 10
182.2770217857708
 20
266.9969710457977
 30
0.0
 10
182.0703159202931
 20
266.9234182086652
 30
0.0
 10
182.0703159202931
 20
266.9234182086652
 30
0.0
 10
181.8808355436052
 20
267.3230495485888
 30
0.0
 10
181.8808355436052
 20
267.3230495485888
 30
0.0
 10
182.0760003315937
 20
267.3873006217748
 30
0.0
 10
182.2150100261275
 20
267.4758396341544
 30
0.0
 10
182.2976923723186
 20
267.5883220759519
 30
0.0
 10
182.3803747185096
 20
267.7008045177493
 30
0.0
 10
182.4239552051478
 20
267.8548003875302
 30
0.0
 10
182.4286060871211
 20
268.0499651755187
 30
0.0
 10
182.4286060871211
 20
268.0499651755187
 30
0.0
 10
181.9600727920383
 20
268.0499651755187
 30
0.0
 10
181.9600727920383
 20
268.0499651755187
 30
0.0
 10
181.9600727920383
 20
268.0499651755187
 30
0.0
 10
181.9600727920383
 20
269.018037645506
 30
0.0
 10
181.9600727920383
 20
269.018037645506
 30
0.0
  0
HATCH
  5
425
330
420
100
AcDbEntity
  8
POPIS_VODICU
 62
    98
100
AcDbHatch
 10
0.0
 20
0.0
 30
0.0
210
0.0
220
0.0
230
1.0
  2
SOLID
 70
     1
 71
     0
 91
        1
 92
        1
 93
        1
 72
     4
 94
        3
 73
     0
 74
     1
 95
       35
 96
       31
 40
0.0
 40
0.0
 40
0.0
 40
0.0
 40
1.0
 40
1.0
 40
1.0
 40
2.0
 40
2.0
 40
2.0
 40
3.0
 40
3.0
 40
3.0
 40
4.0
 40
4.0
 40
4.0
 40
5.0
 40
5.0
 40
5.0
 40
6.0
 40
6.0
 40
6.0
 40
7.0
 40
7.0
 40
7.0
 40
8.0
 40
8.0
 40
8.0
 40
9.0
 40
9.0
 40
9.0
 40
10.0
 40
10.0
 40
10.0
 40
10.0
 10
181.9600727920383
 20
269.018037645506
 10
181.9600727920383
 20
269.018037645506
 10
182.9281452620255
 20
269.018037645506
 10
182.9281452620255
 20
269.018037645506
 10
182.9281452620255
 20
269.018037645506
 10
182.9281452620255
 20
268.3255729961556
 10
182.9281452620255
 20
268.3255729961556
 10
182.9281452620255
 20
268.0453142935455
 10
182.9040295777198
 20
267.8243112723723
 10
182.8557982091083
 20
267.662391677748
 10
182.8075668404969
 20
267.5004720831238
 10
182.7162717499109
 20
267.3552612126257
 10
182.5819129373504
 20
267.2265868113659
 10
182.4475541247899
 20
267.097912410106
 10
182.2770217857708
 20
266.9969710457977
 10
182.0703159202931
 20
266.9234182086652
 10
182.0703159202931
 20
266.9234182086652
 10
181.8808355436052
 20
267.3230495485888
 10
181.8808355436052
 20
267.3230495485888
 10
182.0760003315937
 20
267.3873006217748
 10
182.2150100261275
 20
267.4758396341544
 10
182.2976923723186
 20
267.5883220759519
 10
182.3803747185096
 20
267.7008045177493
 10
182.4239552051478
 20
267.8548003875302
 10
182.4286060871211
 20
268.0499651755187
 10
182.4286060871211
 20
268.0499651755187
 10
181.9600727920383
 20
268.0499651755187
 10
181.9600727920383
 20
268.0499651755187
 10
181.9600727920383
 20
268.0499651755187
 10
181.9600727920383
 20
269.018037645506
 10
181.9600727920383
 20
269.018037645506
 97
        0
 75
     2
 76
     1
 98
        0
  0
SPLINE
  5
426
330
420
100
AcDbEntity
  8
POPIS_VODICU
100
AcDbSpline
210
0.0
220
0.0
230
1.0
 70
    11
 71
     3
 72
    68
 73
    64
 74
     0
 42
0.0000000001
 43
0.0000000001
 40
0.0
 40
0.0
 40
0.0
 40
0.0
 40
1.0
 40
1.0
 40
1.0
 40
2.0
 40
2.0
 40
2.0
 40
3.0
 40
3.0
 40
3.0
 40
4.0
 40
4.0
 40
4.0
 40
5.0
 40
5.0
 40
5.0
 40
6.0
 40
6.0
 40
6.0
 40
7.0
 40
7.0
 40
7.0
 40
8.0
 40
8.0
 40
8.0
 40
9.0
 40
9.0
 40
9.0
 40
10.0
 40
10.0
 40
10.0
 40
11.0
 40
11.0
 40
11.0
 40
12.0
 40
12.0
 40
12.0
 40
13.0
 40
13.0
 40
13.0
 40
14.0
 40
14.0
 40
14.0
 40
15.0
 40
15.0
 40
15.0
 40
16.0
 40
16.0
 40
16.0
 40
17.0
 40
17.0
 40
17.0
 40
18.0
 40
18.0
 40
18.0
 40
19.0
 40
19.0
 40
19.0
 40
20.0
 40
20.0
 40
20.0
 40
21.0
 40
21.0
 40
21.0
 40
21.0
 10
183.7515236261784
 20
269.3487670302703
 30
0.0
 10
183.7515236261784
 20
269.3487670302703
 30
0.0
 10
184.7161509984076
 20
269.4486748652512
 30
0.0
 10
184.7161509984076
 20
269.4486748652512
 30
0.0
 10
184.7437117804713
 20
269.2304279222843
 30
0.0
 10
184.8251883424471
 20
269.0576562697225
 30
0.0
 10
184.9607529392229
 20
268.9301876526779
 30
0.0
 10
185.0963175359987
 20
268.8027190356333
 30
0.0
 10
185.2523804644344
 20
268.7389847271111
 30
0.0
 10
185.4292862343057
 20
268.7389847271111
 30
0.0
 10
185.6313412178102
 20
268.7389847271111
 30
0.0
 10
185.8025625763809
 20
268.8211503086384
 30
0.0
 10
185.942605800242
 20
268.9853092168053
 30
0.0
 10
186.0826490241031
 20
269.1494681249722
 30
0.0
 10
186.1527567634777
 20
269.3969983988817
 30
0.0
 10
186.1527567634777
 20
269.7277277836461
 30
0.0
 10
186.1527567634777
 20
270.0377865818626
 30
0.0
 10
186.0833380436547
 20
270.270330680525
 30
0.0
 10
185.944328349121
 20
270.4253600796333
 30
0.0
 10
185.8053186545872
 20
270.5803894787416
 30
0.0
 10
185.6244510222942
 20
270.6579041782957
 30
0.0
 10
185.401725452242
 20
270.6579041782957
 30
0.0
 10
185.1238783180624
 20
270.6579041782957
 30
0.0
 10
184.8746254952739
 20
270.5350864432244
 30
0.0
 10
184.6541392387643
 20
270.2892787181938
 30
0.0
 10
184.6541392387643
 20
270.2892787181938
 30
0.0
 10
183.8686569499491
 20
270.4029669442066
 30
0.0
 10
183.8686569499491
 20
270.4029669442066
 30
0.0
 10
183.8686569499491
 20
270.4029669442066
 30
0.0
 10
184.3647510270956
 20
273.0315765335313
 30
0.0
 10
184.3647510270956
 20
273.0315765335313
 30
0.0
 10
184.3647510270956
 20
273.0315765335313
 30
0.0
 10
186.9244586612611
 20
273.0315765335313
 30
0.0
 10
186.9244586612611
 20
273.0315765335313
 30
0.0
 10
186.9244586612611
 20
273.0315765335313
 30
0.0
 10
186.9244586612611
 20
272.1255158231874
 30
0.0
 10
186.9244586612611
 20
272.1255158231874
 30
0.0
 10
186.9244586612611
 20
272.1255158231874
 30
0.0
 10
185.0985568495414
 20
272.1255158231874
 30
0.0
 10
185.0985568495414
 20
272.1255158231874
 30
0.0
 10
185.0985568495414
 20
272.1255158231874
 30
0.0
 10
184.9469725481911
 20
271.2676864814549
 30
0.0
 10
184.9469725481911
 20
271.2676864814549
 30
0.0
 10
185.1628079227274
 20
271.375690296167
 30
0.0
 10
185.3832941792369
 20
271.4296060760792
 30
0.0
 10
185.6084313177197
 20
271.4296060760792
 30
0.0
 10
186.0378627532496
 20
271.4296060760792
 30
0.0
 10
186.4020095862662
 20
271.2733708927556
 30
0.0
 10
186.7005273069936
 20
270.9610727809963
 30
0.0
 10
186.999045027721
 20
270.6487746692371
 30
0.0
 10
187.1483900155286
 20
270.243286663125
 30
0.0
 10
187.1483900155286
 20
269.7449532724359
 30
0.0
 10
187.1483900155286
 20
269.3293022279378
 30
0.0
 10
187.0278115939999
 20
268.9582651994053
 30
0.0
 10
186.7866547509426
 20
268.6321866966143
 30
0.0
 10
186.458164679721
 20
268.1865633016219
 30
0.0
 10
186.0023782463426
 20
267.9638377315697
 30
0.0
 10
185.4189509410318
 20
267.9638377315697
 30
0.0
 10
184.9526569594917
 20
267.9638377315697
 30
0.0
 10
184.5726626767886
 20
268.0890670350716
 30
0.0
 10
184.2786235831465
 20
268.3393533871875
 30
0.0
 10
183.9845844895045
 20
268.5896397393034
 30
0.0
 10
183.8088845038484
 20
268.9262257902563
 30
0.0
 10
183.7515236261784
 20
269.3487670302703
 30
0.0
  0
HATCH
  5
427
330
420
100
AcDbEntity
  8
POPIS_VODICU
 62
    98
100
AcDbHatch
 10
0.0
 20
0.0
 30
0.0
210
0.0
220
0.0
230
1.0
  2
SOLID
 70
     1
 71
     0
 91
        1
 92
        1
 93
        1
 72
     4
 94
        3
 73
     0
 74
     1
 95
       68
 96
       64
 40
0.0
 40
0.0
 40
0.0
 40
0.0
 40
1.0
 40
1.0
 40
1.0
 40
2.0
 40
2.0
 40
2.0
 40
3.0
 40
3.0
 40
3.0
 40
4.0
 40
4.0
 40
4.0
 40
5.0
 40
5.0
 40
5.0
 40
6.0
 40
6.0
 40
6.0
 40
7.0
 40
7.0
 40
7.0
 40
8.0
 40
8.0
 40
8.0
 40
9.0
 40
9.0
 40
9.0
 40
10.0
 40
10.0
 40
10.0
 40
11.0
 40
11.0
 40
11.0
 40
12.0
 40
12.0
 40
12.0
 40
13.0
 40
13.0
 40
13.0
 40
14.0
 40
14.0
 40
14.0
 40
15.0
 40
15.0
 40
15.0
 40
16.0
 40
16.0
 40
16.0
 40
17.0
 40
17.0
 40
17.0
 40
18.0
 40
18.0
 40
18.0
 40
19.0
 40
19.0
 40
19.0
 40
20.0
 40
20.0
 40
20.0
 40
21.0
 40
21.0
 40
21.0
 40
21.0
 10
183.7515236261784
 20
269.3487670302703
 10
183.7515236261784
 20
269.3487670302703
 10
184.7161509984076
 20
269.4486748652512
 10
184.7161509984076
 20
269.4486748652512
 10
184.7437117804713
 20
269.2304279222843
 10
184.8251883424471
 20
269.0576562697225
 10
184.9607529392229
 20
268.9301876526779
 10
185.0963175359987
 20
268.8027190356333
 10
185.2523804644344
 20
268.7389847271111
 10
185.4292862343057
 20
268.7389847271111
 10
185.6313412178102
 20
268.7389847271111
 10
185.8025625763809
 20
268.8211503086384
 10
185.942605800242
 20
268.9853092168053
 10
186.0826490241031
 20
269.1494681249722
 10
186.1527567634777
 20
269.3969983988817
 10
186.1527567634777
 20
269.7277277836461
 10
186.1527567634777
 20
270.0377865818626
 10
186.0833380436547
 20
270.270330680525
 10
185.944328349121
 20
270.4253600796333
 10
185.8053186545872
 20
270.5803894787416
 10
185.6244510222942
 20
270.6579041782957
 10
185.401725452242
 20
270.6579041782957
 10
185.1238783180624
 20
270.6579041782957
 10
184.8746254952739
 20
270.5350864432244
 10
184.6541392387643
 20
270.2892787181938
 10
184.6541392387643
 20
270.2892787181938
 10
183.8686569499491
 20
270.4029669442066
 10
183.8686569499491
 20
270.4029669442066
 10
183.8686569499491
 20
270.4029669442066
 10
184.3647510270956
 20
273.0315765335313
 10
184.3647510270956
 20
273.0315765335313
 10
184.3647510270956
 20
273.0315765335313
 10
186.9244586612611
 20
273.0315765335313
 10
186.9244586612611
 20
273.0315765335313
 10
186.9244586612611
 20
273.0315765335313
 10
186.9244586612611
 20
272.1255158231874
 10
186.9244586612611
 20
272.1255158231874
 10
186.9244586612611
 20
272.1255158231874
 10
185.0985568495414
 20
272.1255158231874
 10
185.0985568495414
 20
272.1255158231874
 10
185.0985568495414
 20
272.1255158231874
 10
184.9469725481911
 20
271.2676864814549
 10
184.9469725481911
 20
271.2676864814549
 10
185.1628079227274
 20
271.375690296167
 10
185.3832941792369
 20
271.4296060760792
 10
185.6084313177197
 20
271.4296060760792
 10
186.0378627532496
 20
271.4296060760792
 10
186.4020095862662
 20
271.2733708927556
 10
186.7005273069936
 20
270.9610727809963
 10
186.999045027721
 20
270.6487746692371
 10
187.1483900155286
 20
270.243286663125
 10
187.1483900155286
 20
269.7449532724359
 10
187.1483900155286
 20
269.3293022279378
 10
187.0278115939999
 20
268.9582651994053
 10
186.7866547509426
 20
268.6321866966143
 10
186.458164679721
 20
268.1865633016219
 10
186.0023782463426
 20
267.9638377315697
 10
185.4189509410318
 20
267.9638377315697
 10
184.9526569594917
 20
267.9638377315697
 10
184.5726626767886
 20
268.0890670350716
 10
184.2786235831465
 20
268.3393533871875
 10
183.9845844895045
 20
268.5896397393034
 10
183.8088845038484
 20
268.9262257902563
 10
183.7515236261784
 20
269.3487670302703
 97
        0
 75
     2
 76
     1
 98
        0
  0
SPLINE
  5
428
330
420
100
AcDbEntity
  8
POPIS_VODICU
100
AcDbSpline
210
0.0
220
0.0
230
1.0
 70
    11
 71
     3
 72
    95
 73
    91
 74
     0
 42
0.0000000001
 43
0.0000000001
 40
0.0
 40
0.0
 40
0.0
 40
0.0
 40
1.0
 40
1.0
 40
1.0
 40
2.0
 40
2.0
 40
2.0
 40
3.0
 40
3.0
 40
3.0
 40
4.0
 40
4.0
 40
4.0
 40
5.0
 40
5.0
 40
5.0
 40
6.0
 40
6.0
 40
6.0
 40
7.0
 40
7.0
 40
7.0
 40
8.0
 40
8.0
 40
8.0
 40
9.0
 40
9.0
 40
9.0
 40
10.0
 40
10.0
 40
10.0
 40
11.0
 40
11.0
 40
11.0
 40
12.0
 40
12.0
 40
12.0
 40
13.0
 40
13.0
 40
13.0
 40
14.0
 40
14.0
 40
14.0
 40
15.0
 40
15.0
 40
15.0
 40
16.0
 40
16.0
 40
16.0
 40
17.0
 40
17.0
 40
17.0
 40
18.0
 40
18.0
 40
18.0
 40
19.0
 40
19.0
 40
19.0
 40
20.0
 40
20.0
 40
20.0
 40
21.0
 40
21.0
 40
21.0
 40
22.0
 40
22.0
 40
22.0
 40
23.0
 40
23.0
 40
23.0
 40
24.0
 40
24.0
 40
24.0
 40
25.0
 40
25.0
 40
25.0
 40
26.0
 40
26.0
 40
26.0
 40
27.0
 40
27.0
 40
27.0
 40
28.0
 40
28.0
 40
28.0
 40
29.0
 40
29.0
 40
29.0
 40
30.0
 40
30.0
 40
30.0
 40
30.0
 10
189.7563290183056
 20
271.708658994474
 30
0.0
 10
189.7563290183056
 20
271.708658994474
 30
0.0
 10
190.6486093376177
 20
271.708658994474
 30
0.0
 10
190.6486093376177
 20
271.708658994474
 30
0.0
 10
190.6486093376177
 20
271.708658994474
 30
0.0
 10
190.6486093376177
 20
271.2091198195696
 30
0.0
 10
190.6486093376177
 20
271.2091198195696
 30
0.0
 10
190.9677976448928
 20
271.597210082004
 30
0.0
 10
191.3479641824839
 20
271.7913413406651
 30
0.0
 10
191.788936695503
 20
271.7913413406651
 30
0.0
 10
192.0232033430444
 20
271.7913413406651
 30
0.0
 10
192.2264641107641
 20
271.7431099720537
 30
0.0
 10
192.3987189986622
 20
271.6466472348307
 30
0.0
 10
192.5709738865603
 20
271.5501844976078
 30
0.0
 10
192.7122228946367
 20
271.4042846075581
 30
0.0
 10
192.8224660228915
 20
271.2091198195696
 30
0.0
 10
192.9831798333004
 20
271.4042846075581
 30
0.0
 10
193.1566405054138
 20
271.5501844976078
 30
0.0
 10
193.3426757843437
 20
271.6466472348307
 30
0.0
 10
193.5287110632736
 20
271.7431099720537
 30
0.0
 10
193.7273209490201
 20
271.7913413406651
 30
0.0
 10
193.9386776964711
 20
271.7913413406651
 30
0.0
 10
194.2073953215921
 20
271.7913413406651
 30
0.0
 10
194.4347717736176
 20
271.7367365412014
 30
0.0
 10
194.6208070525475
 20
271.6276991971619
 30
0.0
 10
194.8068423314774
 20
271.5186618531225
 30
0.0
 10
194.9458520260112
 20
271.3584648073772
 30
0.0
 10
195.0376638812609
 20
271.1471080599263
 30
0.0
 10
195.1043265228774
 20
270.9908728766027
 30
0.0
 10
195.1375717162418
 20
270.7383472109441
 30
0.0
 10
195.1375717162418
 20
270.3891865531747
 30
0.0
 10
195.1375717162418
 20
270.3891865531747
 30
0.0
 10
195.1375717162418
 20
268.0499651755187
 30
0.0
 10
195.1375717162418
 20
268.0499651755187
 30
0.0
 10
195.1375717162418
 20
268.0499651755187
 30
0.0
 10
194.1694992462545
 20
268.0499651755187
 30
0.0
 10
194.1694992462545
 20
268.0499651755187
 30
0.0
 10
194.1694992462545
 20
268.0499651755187
 30
0.0
 10
194.1694992462545
 20
270.1411395146015
 30
0.0
 10
194.1694992462545
 20
270.1411395146015
 30
0.0
 10
194.1694992462545
 20
270.5040805634027
 30
0.0
 10
194.1362540528902
 20
270.7383472109441
 30
0.0
 10
194.0695914112736
 20
270.8439394572256
 30
0.0
 10
193.9800188695666
 20
270.9817433675441
 30
0.0
 10
193.8422149592482
 20
271.0506453227034
 30
0.0
 10
193.6561796803182
 20
271.0506453227034
 30
0.0
 10
193.5206150835424
 20
271.0506453227034
 30
0.0
 10
193.3931464664979
 20
271.0093041496078
 30
0.0
 10
193.2737738291845
 20
270.9266218034167
 30
0.0
 10
193.1544011918711
 20
270.8439394572256
 30
0.0
 10
193.0682737479221
 20
270.7228442710333
 30
0.0
 10
193.0153914973374
 20
270.5631639899518
 30
0.0
 10
192.9625092467526
 20
270.4034837088702
 30
0.0
 10
192.9361542489042
 20
270.1514748078753
 30
0.0
 10
192.9361542489042
 20
269.8069650320792
 30
0.0
 10
192.9361542489042
 20
269.8069650320792
 30
0.0
 10
192.9361542489042
 20
268.0499651755187
 30
0.0
 10
192.9361542489042
 20
268.0499651755187
 30
0.0
 10
192.9361542489042
 20
268.0499651755187
 30
0.0
 10
191.968081778917
 20
268.0499651755187
 30
0.0
 10
191.968081778917
 20
268.0499651755187
 30
0.0
 10
191.968081778917
 20
268.0499651755187
 30
0.0
 10
191.968081778917
 20
270.0550120706524
 30
0.0
 10
191.968081778917
 20
270.0550120706524
 30
0.0
 10
191.968081778917
 20
270.4110629239378
 30
0.0
 10
191.9508562901272
 20
270.6406786895059
 30
0.0
 10
191.9164053125476
 20
270.7440316222448
 30
0.0
 10
191.881954334968
 20
270.8473845549836
 30
0.0
 10
191.8285553197196
 20
270.9243824898741
 30
0.0
 10
191.7562082668024
 20
270.9748531720282
 30
0.0
 10
191.6838612138852
 20
271.0253238541823
 30
0.0
 10
191.5856759277833
 20
271.0506453227034
 30
0.0
 10
191.4616524084966
 20
271.0506453227034
 30
0.0
 10
191.312307420689
 20
271.0506453227034
 30
0.0
 10
191.1779486081285
 20
271.0105099338231
 30
0.0
 10
191.0585759708151
 20
270.9300669011747
 30
0.0
 10
190.9392033335018
 20
270.8496238685263
 30
0.0
 10
190.8535926542164
 20
270.7336963289709
 30
0.0
 10
190.801916187847
 20
270.5821120276206
 30
0.0
 10
190.7502397214776
 20
270.4305277262703
 30
0.0
 10
190.7244014882928
 20
270.1790355899391
 30
0.0
 10
190.7244014882928
 20
269.827635618627
 30
0.0
 10
190.7244014882928
 20
269.827635618627
 30
0.0
 10
190.7244014882928
 20
268.0499651755187
 30
0.0
 10
190.7244014882928
 20
268.0499651755187
 30
0.0
 10
190.7244014882928
 20
268.0499651755187
 30
0.0
 10
189.7563290183056
 20
268.0499651755187
 30
0.0
 10
189.7563290183056
 20
268.0499651755187
 30
0.0
 10
189.7563290183056
 20
268.0499651755187
 30
0.0
 10
189.7563290183056
 20
271.708658994474
 30
0.0
 10
189.7563290183056
 20
271.708658994474
 30
0.0
  0
HATCH
  5
429
330
420
100
AcDbEntity
  8
POPIS_VODICU
 62
    98
100
AcDbHatch
 10
0.0
 20
0.0
 30
0.0
210
0.0
220
0.0
230
1.0
  2
SOLID
 70
     1
 71
     0
 91
        1
 92
        1
 93
        1
 72
     4
 94
        3
 73
     0
 74
     1
 95
       95
 96
       91
 40
0.0
 40
0.0
 40
0.0
 40
0.0
 40
1.0
 40
1.0
 40
1.0
 40
2.0
 40
2.0
 40
2.0
 40
3.0
 40
3.0
 40
3.0
 40
4.0
 40
4.0
 40
4.0
 40
5.0
 40
5.0
 40
5.0
 40
6.0
 40
6.0
 40
6.0
 40
7.0
 40
7.0
 40
7.0
 40
8.0
 40
8.0
 40
8.0
 40
9.0
 40
9.0
 40
9.0
 40
10.0
 40
10.0
 40
10.0
 40
11.0
 40
11.0
 40
11.0
 40
12.0
 40
12.0
 40
12.0
 40
13.0
 40
13.0
 40
13.0
 40
14.0
 40
14.0
 40
14.0
 40
15.0
 40
15.0
 40
15.0
 40
16.0
 40
16.0
 40
16.0
 40
17.0
 40
17.0
 40
17.0
 40
18.0
 40
18.0
 40
18.0
 40
19.0
 40
19.0
 40
19.0
 40
20.0
 40
20.0
 40
20.0
 40
21.0
 40
21.0
 40
21.0
 40
22.0
 40
22.0
 40
22.0
 40
23.0
 40
23.0
 40
23.0
 40
24.0
 40
24.0
 40
24.0
 40
25.0
 40
25.0
 40
25.0
 40
26.0
 40
26.0
 40
26.0
 40
27.0
 40
27.0
 40
27.0
 40
28.0
 40
28.0
 40
28.0
 40
29.0
 40
29.0
 40
29.0
 40
30.0
 40
30.0
 40
30.0
 40
30.0
 10
189.7563290183056
 20
271.708658994474
 10
189.7563290183056
 20
271.708658994474
 10
190.6486093376177
 20
271.708658994474
 10
190.6486093376177
 20
271.708658994474
 10
190.6486093376177
 20
271.708658994474
 10
190.6486093376177
 20
271.2091198195696
 10
190.6486093376177
 20
271.2091198195696
 10
190.9677976448928
 20
271.597210082004
 10
191.3479641824839
 20
271.7913413406651
 10
191.788936695503
 20
271.7913413406651
 10
192.0232033430444
 20
271.7913413406651
 10
192.2264641107641
 20
271.7431099720537
 10
192.3987189986622
 20
271.6466472348307
 10
192.5709738865603
 20
271.5501844976078
 10
192.7122228946367
 20
271.4042846075581
 10
192.8224660228915
 20
271.2091198195696
 10
192.9831798333004
 20
271.4042846075581
 10
193.1566405054138
 20
271.5501844976078
 10
193.3426757843437
 20
271.6466472348307
 10
193.5287110632736
 20
271.7431099720537
 10
193.7273209490201
 20
271.7913413406651
 10
193.9386776964711
 20
271.7913413406651
 10
194.2073953215921
 20
271.7913413406651
 10
194.4347717736176
 20
271.7367365412014
 10
194.6208070525475
 20
271.6276991971619
 10
194.8068423314774
 20
271.5186618531225
 10
194.9458520260112
 20
271.3584648073772
 10
195.0376638812609
 20
271.1471080599263
 10
195.1043265228774
 20
270.9908728766027
 10
195.1375717162418
 20
270.7383472109441
 10
195.1375717162418
 20
270.3891865531747
 10
195.1375717162418
 20
270.3891865531747
 10
195.1375717162418
 20
268.0499651755187
 10
195.1375717162418
 20
268.0499651755187
 10
195.1375717162418
 20
268.0499651755187
 10
194.1694992462545
 20
268.0499651755187
 10
194.1694992462545
 20
268.0499651755187
 10
194.1694992462545
 20
268.0499651755187
 10
194.1694992462545
 20
270.1411395146015
 10
194.1694992462545
 20
270.1411395146015
 10
194.1694992462545
 20
270.5040805634027
 10
194.1362540528902
 20
270.7383472109441
 10
194.0695914112736
 20
270.8439394572256
 10
193.9800188695666
 20
270.9817433675441
 10
193.8422149592482
 20
271.0506453227034
 10
193.6561796803182
 20
271.0506453227034
 10
193.5206150835424
 20
271.0506453227034
 10
193.3931464664979
 20
271.0093041496078
 10
193.2737738291845
 20
270.9266218034167
 10
193.1544011918711
 20
270.8439394572256
 10
193.0682737479221
 20
270.7228442710333
 10
193.0153914973374
 20
270.5631639899518
 10
192.9625092467526
 20
270.4034837088702
 10
192.9361542489042
 20
270.1514748078753
 10
192.9361542489042
 20
269.8069650320792
 10
192.9361542489042
 20
269.8069650320792
 10
192.9361542489042
 20
268.0499651755187
 10
192.9361542489042
 20
268.0499651755187
 10
192.9361542489042
 20
268.0499651755187
 10
191.968081778917
 20
268.0499651755187
 10
191.968081778917
 20
268.0499651755187
 10
191.968081778917
 20
268.0499651755187
 10
191.968081778917
 20
270.0550120706524
 10
191.968081778917
 20
270.0550120706524
 10
191.968081778917
 20
270.4110629239378
 10
191.9508562901272
 20
270.6406786895059
 10
191.9164053125476
 20
270.7440316222448
 10
191.881954334968
 20
270.8473845549836
 10
191.8285553197196
 20
270.9243824898741
 10
191.7562082668024
 20
270.9748531720282
 10
191.6838612138852
 20
271.0253238541823
 10
191.5856759277833
 20
271.0506453227034
 10
191.4616524084966
 20
271.0506453227034
 10
191.312307420689
 20
271.0506453227034
 10
191.1779486081285
 20
271.0105099338231
 10
191.0585759708151
 20
270.9300669011747
 10
190.9392033335018
 20
270.8496238685263
 10
190.8535926542164
 20
270.7336963289709
 10
190.801916187847
 20
270.5821120276206
 10
190.7502397214776
 20
270.4305277262703
 10
190.7244014882928
 20
270.1790355899391
 10
190.7244014882928
 20
269.827635618627
 10
190.7244014882928
 20
269.827635618627
 10
190.7244014882928
 20
268.0499651755187
 10
190.7244014882928
 20
268.0499651755187
 10
190.7244014882928
 20
268.0499651755187
 10
189.7563290183056
 20
268.0499651755187
 10
189.7563290183056
 20
268.0499651755187
 10
189.7563290183056
 20
268.0499651755187
 10
189.7563290183056
 20
271.708658994474
 10
189.7563290183056
 20
271.708658994474
 97
        0
 75
     2
 76
     1
 98
        0
  0
SPLINE
  5
42A
330
420
100
AcDbEntity
  8
POPIS_VODICU
100
AcDbSpline
210
0.0
220
0.0
230
1.0
 70
    11
 71
     3
 72
    95
 73
    91
 74
     0
 42
0.0000000001
 43
0.0000000001
 40
0.0
 40
0.0
 40
0.0
 40
0.0
 40
1.0
 40
1.0
 40
1.0
 40
2.0
 40
2.0
 40
2.0
 40
3.0
 40
3.0
 40
3.0
 40
4.0
 40
4.0
 40
4.0
 40
5.0
 40
5.0
 40
5.0
 40
6.0
 40
6.0
 40
6.0
 40
7.0
 40
7.0
 40
7.0
 40
8.0
 40
8.0
 40
8.0
 40
9.0
 40
9.0
 40
9.0
 40
10.0
 40
10.0
 40
10.0
 40
11.0
 40
11.0
 40
11.0
 40
12.0
 40
12.0
 40
12.0
 40
13.0
 40
13.0
 40
13.0
 40
14.0
 40
14.0
 40
14.0
 40
15.0
 40
15.0
 40
15.0
 40
16.0
 40
16.0
 40
16.0
 40
17.0
 40
17.0
 40
17.0
 40
18.0
 40
18.0
 40
18.0
 40
19.0
 40
19.0
 40
19.0
 40
20.0
 40
20.0
 40
20.0
 40
21.0
 40
21.0
 40
21.0
 40
22.0
 40
22.0
 40
22.0
 40
23.0
 40
23.0
 40
23.0
 40
24.0
 40
24.0
 40
24.0
 40
25.0
 40
25.0
 40
25.0
 40
26.0
 40
26.0
 40
26.0
 40
27.0
 40
27.0
 40
27.0
 40
28.0
 40
28.0
 40
28.0
 40
29.0
 40
29.0
 40
29.0
 40
30.0
 40
30.0
 40
30.0
 40
30.0
 10
196.0298520355538
 20
271.708658994474
 30
0.0
 10
196.0298520355538
 20
271.708658994474
 30
0.0
 10
196.9221323548659
 20
271.708658994474
 30
0.0
 10
196.9221323548659
 20
271.708658994474
 30
0.0
 10
196.9221323548659
 20
271.708658994474
 30
0.0
 10
196.9221323548659
 20
271.2091198195696
 30
0.0
 10
196.9221323548659
 20
271.2091198195696
 30
0.0
 10
197.241320662141
 20
271.597210082004
 30
0.0
 10
197.6214871997321
 20
271.7913413406651
 30
0.0
 10
198.0624597127512
 20
271.7913413406651
 30
0.0
 10
198.2967263602926
 20
271.7913413406651
 30
0.0
 10
198.4999871280124
 20
271.7431099720537
 30
0.0
 10
198.6722420159105
 20
271.6466472348307
 30
0.0
 10
198.8444969038085
 20
271.5501844976078
 30
0.0
 10
198.9857459118849
 20
271.4042846075581
 30
0.0
 10
199.0959890401397
 20
271.2091198195696
 30
0.0
 10
199.2567028505486
 20
271.4042846075581
 30
0.0
 10
199.430163522662
 20
271.5501844976078
 30
0.0
 10
199.616198801592
 20
271.6466472348307
 30
0.0
 10
199.8022340805219
 20
271.7431099720537
 30
0.0
 10
200.0008439662684
 20
271.7913413406651
 30
0.0
 10
200.2122007137193
 20
271.7913413406651
 30
0.0
 10
200.4809183388403
 20
271.7913413406651
 30
0.0
 10
200.7082947908658
 20
271.7367365412014
 30
0.0
 10
200.8943300697957
 20
271.6276991971619
 30
0.0
 10
201.0803653487257
 20
271.5186618531225
 30
0.0
 10
201.2193750432594
 20
271.3584648073772
 30
0.0
 10
201.3111868985091
 20
271.1471080599263
 30
0.0
 10
201.3778495401257
 20
270.9908728766027
 30
0.0
 10
201.41109473349
 20
270.7383472109441
 30
0.0
 10
201.41109473349
 20
270.3891865531747
 30
0.0
 10
201.41109473349
 20
270.3891865531747
 30
0.0
 10
201.41109473349
 20
268.0499651755187
 30
0.0
 10
201.41109473349
 20
268.0499651755187
 30
0.0
 10
201.41109473349
 20
268.0499651755187
 30
0.0
 10
200.4430222635027
 20
268.0499651755187
 30
0.0
 10
200.4430222635027
 20
268.0499651755187
 30
0.0
 10
200.4430222635027
 20
268.0499651755187
 30
0.0
 10
200.4430222635027
 20
270.1411395146015
 30
0.0
 10
200.4430222635027
 20
270.1411395146015
 30
0.0
 10
200.4430222635027
 20
270.5040805634027
 30
0.0
 10
200.4097770701384
 20
270.7383472109441
 30
0.0
 10
200.3431144285219
 20
270.8439394572256
 30
0.0
 10
200.2535418868149
 20
270.9817433675441
 30
0.0
 10
200.1157379764964
 20
271.0506453227034
 30
0.0
 10
199.9297026975665
 20
271.0506453227034
 30
0.0
 10
199.7941381007907
 20
271.0506453227034
 30
0.0
 10
199.6666694837461
 20
271.0093041496078
 30
0.0
 10
199.5472968464327
 20
270.9266218034167
 30
0.0
 10
199.4279242091193
 20
270.8439394572256
 30
0.0
 10
199.3417967651703
 20
270.7228442710333
 30
0.0
 10
199.2889145145856
 20
270.5631639899518
 30
0.0
 10
199.2360322640009
 20
270.4034837088702
 30
0.0
 10
199.2096772661525
 20
270.1514748078753
 30
0.0
 10
199.2096772661525
 20
269.8069650320792
 30
0.0
 10
199.2096772661525
 20
269.8069650320792
 30
0.0
 10
199.2096772661525
 20
268.0499651755187
 30
0.0
 10
199.2096772661525
 20
268.0499651755187
 30
0.0
 10
199.2096772661525
 20
268.0499651755187
 30
0.0
 10
198.2416047961652
 20
268.0499651755187
 30
0.0
 10
198.2416047961652
 20
268.0499651755187
 30
0.0
 10
198.2416047961652
 20
268.0499651755187
 30
0.0
 10
198.2416047961652
 20
270.0550120706524
 30
0.0
 10
198.2416047961652
 20
270.0550120706524
 30
0.0
 10
198.2416047961652
 20
270.4110629239378
 30
0.0
 10
198.2243793073754
 20
270.6406786895059
 30
0.0
 10
198.1899283297958
 20
270.7440316222448
 30
0.0
 10
198.1554773522162
 20
270.8473845549836
 30
0.0
 10
198.1020783369678
 20
270.9243824898741
 30
0.0
 10
198.0297312840506
 20
270.9748531720282
 30
0.0
 10
197.9573842311334
 20
271.0253238541823
 30
0.0
 10
197.8591989450315
 20
271.0506453227034
 30
0.0
 10
197.7351754257449
 20
271.0506453227034
 30
0.0
 10
197.5858304379372
 20
271.0506453227034
 30
0.0
 10
197.4514716253767
 20
271.0105099338231
 30
0.0
 10
197.3320989880633
 20
270.9300669011747
 30
0.0
 10
197.21272635075
 20
270.8496238685263
 30
0.0
 10
197.1271156714646
 20
270.7336963289709
 30
0.0
 10
197.0754392050952
 20
270.5821120276206
 30
0.0
 10
197.0237627387258
 20
270.4305277262703
 30
0.0
 10
196.9979245055411
 20
270.1790355899391
 30
0.0
 10
196.9979245055411
 20
269.827635618627
 30
0.0
 10
196.9979245055411
 20
269.827635618627
 30
0.0
 10
196.9979245055411
 20
268.0499651755187
 30
0.0
 10
196.9979245055411
 20
268.0499651755187
 30
0.0
 10
196.9979245055411
 20
268.0499651755187
 30
0.0
 10
196.0298520355538
 20
268.0499651755187
 30
0.0
 10
196.0298520355538
 20
268.0499651755187
 30
0.0
 10
196.0298520355538
 20
268.0499651755187
 30
0.0
 10
196.0298520355538
 20
271.708658994474
 30
0.0
 10
196.0298520355538
 20
271.708658994474
 30
0.0
  0
HATCH
  5
42B
330
420
100
AcDbEntity
  8
POPIS_VODICU
 62
    98
100
AcDbHatch
 10
0.0
 20
0.0
 30
0.0
210
0.0
220
0.0
230
1.0
  2
SOLID
 70
     1
 71
     0
 91
        1
 92
        1
 93
        1
 72
     4
 94
        3
 73
     0
 74
     1
 95
       95
 96
       91
 40
0.0
 40
0.0
 40
0.0
 40
0.0
 40
1.0
 40
1.0
 40
1.0
 40
2.0
 40
2.0
 40
2.0
 40
3.0
 40
3.0
 40
3.0
 40
4.0
 40
4.0
 40
4.0
 40
5.0
 40
5.0
 40
5.0
 40
6.0
 40
6.0
 40
6.0
 40
7.0
 40
7.0
 40
7.0
 40
8.0
 40
8.0
 40
8.0
 40
9.0
 40
9.0
 40
9.0
 40
10.0
 40
10.0
 40
10.0
 40
11.0
 40
11.0
 40
11.0
 40
12.0
 40
12.0
 40
12.0
 40
13.0
 40
13.0
 40
13.0
 40
14.0
 40
14.0
 40
14.0
 40
15.0
 40
15.0
 40
15.0
 40
16.0
 40
16.0
 40
16.0
 40
17.0
 40
17.0
 40
17.0
 40
18.0
 40
18.0
 40
18.0
 40
19.0
 40
19.0
 40
19.0
 40
20.0
 40
20.0
 40
20.0
 40
21.0
 40
21.0
 40
21.0
 40
22.0
 40
22.0
 40
22.0
 40
23.0
 40
23.0
 40
23.0
 40
24.0
 40
24.0
 40
24.0
 40
25.0
 40
25.0
 40
25.0
 40
26.0
 40
26.0
 40
26.0
 40
27.0
 40
27.0
 40
27.0
 40
28.0
 40
28.0
 40
28.0
 40
29.0
 40
29.0
 40
29.0
 40
30.0
 40
30.0
 40
30.0
 40
30.0
 10
196.0298520355538
 20
271.708658994474
 10
196.0298520355538
 20
271.708658994474
 10
196.9221323548659
 20
271.708658994474
 10
196.9221323548659
 20
271.708658994474
 10
196.9221323548659
 20
271.708658994474
 10
196.9221323548659
 20
271.2091198195696
 10
196.9221323548659
 20
271.2091198195696
 10
197.241320662141
 20
271.597210082004
 10
197.6214871997321
 20
271.7913413406651
 10
198.0624597127512
 20
271.7913413406651
 10
198.2967263602926
 20
271.7913413406651
 10
198.4999871280124
 20
271.7431099720537
 10
198.6722420159105
 20
271.6466472348307
 10
198.8444969038085
 20
271.5501844976078
 10
198.9857459118849
 20
271.4042846075581
 10
199.0959890401397
 20
271.2091198195696
 10
199.2567028505486
 20
271.4042846075581
 10
199.430163522662
 20
271.5501844976078
 10
199.616198801592
 20
271.6466472348307
 10
199.8022340805219
 20
271.7431099720537
 10
200.0008439662684
 20
271.7913413406651
 10
200.2122007137193
 20
271.7913413406651
 10
200.4809183388403
 20
271.7913413406651
 10
200.7082947908658
 20
271.7367365412014
 10
200.8943300697957
 20
271.6276991971619
 10
201.0803653487257
 20
271.5186618531225
 10
201.2193750432594
 20
271.3584648073772
 10
201.3111868985091
 20
271.1471080599263
 10
201.3778495401257
 20
270.9908728766027
 10
201.41109473349
 20
270.7383472109441
 10
201.41109473349
 20
270.3891865531747
 10
201.41109473349
 20
270.3891865531747
 10
201.41109473349
 20
268.0499651755187
 10
201.41109473349
 20
268.0499651755187
 10
201.41109473349
 20
268.0499651755187
 10
200.4430222635027
 20
268.0499651755187
 10
200.4430222635027
 20
268.0499651755187
 10
200.4430222635027
 20
268.0499651755187
 10
200.4430222635027
 20
270.1411395146015
 10
200.4430222635027
 20
270.1411395146015
 10
200.4430222635027
 20
270.5040805634027
 10
200.4097770701384
 20
270.7383472109441
 10
200.3431144285219
 20
270.8439394572256
 10
200.2535418868149
 20
270.9817433675441
 10
200.1157379764964
 20
271.0506453227034
 10
199.9297026975665
 20
271.0506453227034
 10
199.7941381007907
 20
271.0506453227034
 10
199.6666694837461
 20
271.0093041496078
 10
199.5472968464327
 20
270.9266218034167
 10
199.4279242091193
 20
270.8439394572256
 10
199.3417967651703
 20
270.7228442710333
 10
199.2889145145856
 20
270.5631639899518
 10
199.2360322640009
 20
270.4034837088702
 10
199.2096772661525
 20
270.1514748078753
 10
199.2096772661525
 20
269.8069650320792
 10
199.2096772661525
 20
269.8069650320792
 10
199.2096772661525
 20
268.0499651755187
 10
199.2096772661525
 20
268.0499651755187
 10
199.2096772661525
 20
268.0499651755187
 10
198.2416047961652
 20
268.0499651755187
 10
198.2416047961652
 20
268.0499651755187
 10
198.2416047961652
 20
268.0499651755187
 10
198.2416047961652
 20
270.0550120706524
 10
198.2416047961652
 20
270.0550120706524
 10
198.2416047961652
 20
270.4110629239378
 10
198.2243793073754
 20
270.6406786895059
 10
198.1899283297958
 20
270.7440316222448
 10
198.1554773522162
 20
270.8473845549836
 10
198.1020783369678
 20
270.9243824898741
 10
198.0297312840506
 20
270.9748531720282
 10
197.9573842311334
 20
271.0253238541823
 10
197.8591989450315
 20
271.0506453227034
 10
197.7351754257449
 20
271.0506453227034
 10
197.5858304379372
 20
271.0506453227034
 10
197.4514716253767
 20
271.0105099338231
 10
197.3320989880633
 20
270.9300669011747
 10
197.21272635075
 20
270.8496238685263
 10
197.1271156714646
 20
270.7336963289709
 10
197.0754392050952
 20
270.5821120276206
 10
197.0237627387258
 20
270.4305277262703
 10
196.9979245055411
 20
270.1790355899391
 10
196.9979245055411
 20
269.827635618627
 10
196.9979245055411
 20
269.827635618627
 10
196.9979245055411
 20
268.0499651755187
 10
196.9979245055411
 20
268.0499651755187
 10
196.9979245055411
 20
268.0499651755187
 10
196.0298520355538
 20
268.0499651755187
 10
196.0298520355538
 20
268.0499651755187
 10
196.0298520355538
 20
268.0499651755187
 10
196.0298520355538
 20
271.708658994474
 10
196.0298520355538
 20
271.708658994474
 97
        0
 75
     2
 76
     1
 98
        0
  0
SPLINE
  5
42C
330
420
100
AcDbEntity
  8
POPIS_VODICU
100
AcDbSpline
210
0.0
220
0.0
230
1.0
 70
    11
 71
     3
 72
    68
 73
    64
 74
     0
 42
0.0000000001
 43
0.0000000001
 40
0.0
 40
0.0
 40
0.0
 40
0.0
 40
1.0
 40
1.0
 40
1.0
 40
2.0
 40
2.0
 40
2.0
 40
3.0
 40
3.0
 40
3.0
 40
4.0
 40
4.0
 40
4.0
 40
5.0
 40
5.0
 40
5.0
 40
6.0
 40
6.0
 40
6.0
 40
7.0
 40
7.0
 40
7.0
 40
8.0
 40
8.0
 40
8.0
 40
9.0
 40
9.0
 40
9.0
 40
10.0
 40
10.0
 40
10.0
 40
11.0
 40
11.0
 40
11.0
 40
12.0
 40
12.0
 40
12.0
 40
13.0
 40
13.0
 40
13.0
 40
14.0
 40
14.0
 40
14.0
 40
15.0
 40
15.0
 40
15.0
 40
16.0
 40
16.0
 40
16.0
 40
17.0
 40
17.0
 40
17.0
 40
18.0
 40
18.0
 40
18.0
 40
19.0
 40
19.0
 40
19.0
 40
20.0
 40
20.0
 40
20.0
 40
21.0
 40
21.0
 40
21.0
 40
21.0
 10
204.3676776293727
 20
271.1488306088053
 30
0.0
 10
204.3676776293727
 20
271.1488306088053
 30
0.0
 10
204.3676776293727
 20
270.5194112484257
 30
0.0
 10
204.3676776293727
 20
270.5194112484257
 30
0.0
 10
204.3676776293727
 20
270.5194112484257
 30
0.0
 10
201.9922827252581
 20
270.5194112484257
 30
0.0
 10
201.9922827252581
 20
270.5194112484257
 30
0.0
 10
202.0179487035549
 20
270.7572952486129
 30
0.0
 10
202.0951188933333
 20
270.9827768968715
 30
0.0
 10
202.2237932945932
 20
271.1958561932015
 30
0.0
 10
202.352467695853
 20
271.4089354895314
 30
0.0
 10
202.6063714006148
 20
271.6914335056842
 30
0.0
 10
202.9858489186543
 20
272.0435224965479
 30
0.0
 10
203.2912568348976
 20
272.3280875713555
 30
0.0
 10
203.4786701529307
 20
272.5210130458014
 30
0.0
 10
203.5477443629778
 20
272.6222989198855
 30
0.0
 10
203.6409342573307
 20
272.7621698888588
 30
0.0
 10
203.6876153319511
 20
272.9004905638409
 30
0.0
 10
203.6876153319511
 20
273.0370886899441
 30
0.0
 10
203.6876153319511
 20
273.1881562266307
 30
0.0
 10
203.6469631784071
 20
273.3044282759619
 30
0.0
 10
203.5658311262071
 20
273.3855603281619
 30
0.0
 10
203.4846990740071
 20
273.4666923803619
 30
0.0
 10
203.3725611419855
 20
273.5073445339058
 30
0.0
 10
203.2294173301422
 20
273.5073445339058
 30
0.0
 10
203.0879960671778
 20
273.5073445339058
 30
0.0
 10
202.9753413704925
 20
273.464797576595
 30
0.0
 10
202.8917977498619
 20
273.3795314070854
 30
0.0
 10
202.8082541292314
 20
273.2942652375759
 30
0.0
 10
202.7600227606199
 20
273.1528439746116
 30
0.0
 10
202.7471036440275
 20
272.9550953633046
 30
0.0
 10
202.7471036440275
 20
272.9550953633046
 30
0.0
 10
202.071864483467
 20
273.0226192793606
 30
0.0
 10
202.071864483467
 20
273.0226192793606
 30
0.0
 10
202.1119998723473
 20
273.39555111166
 30
0.0
 10
202.2382627051766
 20
273.6632352074536
 30
0.0
 10
202.450480727067
 20
273.8256715667415
 30
0.0
 10
202.6626987489575
 20
273.9881079260294
 30
0.0
 10
202.9279712763205
 20
274.0692399782294
 30
0.0
 10
203.2462983091562
 20
274.0692399782294
 30
0.0
 10
203.5951144571498
 20
274.0692399782294
 30
0.0
 10
203.8693442386835
 20
273.975188809437
 30
0.0
 10
204.0686431439816
 20
273.7870864718523
 30
0.0
 10
204.2679420492797
 20
273.5989841342676
 30
0.0
 10
204.3676776293727
 20
273.365061996502
 30
0.0
 10
204.3676776293727
 20
273.0853200585555
 30
0.0
 10
204.3676776293727
 20
272.9261565421377
 30
0.0
 10
204.3390833179816
 20
272.7745722407874
 30
0.0
 10
204.2820669500874
 20
272.6307394093925
 30
0.0
 10
204.2250505821931
 20
272.4869065779976
 30
0.0
 10
204.1346167660466
 20
272.3361835510868
 30
0.0
 10
204.0107655016479
 20
272.17857032866
 30
0.0
 10
203.9287721750084
 20
272.0740116117059
 30
0.0
 10
203.7808052263039
 20
271.9238053494587
 30
0.0
 10
203.5670369104224
 20
271.7276070321428
 30
0.0
 10
203.3532685945409
 20
271.5314087148269
 30
0.0
 10
203.2177039977651
 20
271.401184019576
 30
0.0
 10
203.1606876298708
 20
271.33693294639
 30
0.0
 10
203.1036712619766
 20
271.272681873204
 30
0.0
 10
203.057334697132
 20
271.2099810940091
 30
0.0
 10
203.0220224451129
 20
271.1488306088053
 30
0.0
 10
203.0220224451129
 20
271.1488306088053
 30
0.0
 10
204.3676776293727
 20
271.1488306088053
 30
0.0
 10
204.3676776293727
 20
271.1488306088053
 30
0.0
  0
HATCH
  5
42D
330
420
100
AcDbEntity
  8
POPIS_VODICU
 62
    98
100
AcDbHatch
 10
0.0
 20
0.0
 30
0.0
210
0.0
220
0.0
230
1.0
  2
SOLID
 70
     1
 71
     0
 91
        1
 92
        1
 93
        1
 72
     4
 94
        3
 73
     0
 74
     1
 95
       68
 96
       64
 40
0.0
 40
0.0
 40
0.0
 40
0.0
 40
1.0
 40
1.0
 40
1.0
 40
2.0
 40
2.0
 40
2.0
 40
3.0
 40
3.0
 40
3.0
 40
4.0
 40
4.0
 40
4.0
 40
5.0
 40
5.0
 40
5.0
 40
6.0
 40
6.0
 40
6.0
 40
7.0
 40
7.0
 40
7.0
 40
8.0
 40
8.0
 40
8.0
 40
9.0
 40
9.0
 40
9.0
 40
10.0
 40
10.0
 40
10.0
 40
11.0
 40
11.0
 40
11.0
 40
12.0
 40
12.0
 40
12.0
 40
13.0
 40
13.0
 40
13.0
 40
14.0
 40
14.0
 40
14.0
 40
15.0
 40
15.0
 40
15.0
 40
16.0
 40
16.0
 40
16.0
 40
17.0
 40
17.0
 40
17.0
 40
18.0
 40
18.0
 40
18.0
 40
19.0
 40
19.0
 40
19.0
 40
20.0
 40
20.0
 40
20.0
 40
21.0
 40
21.0
 40
21.0
 40
21.0
 10
204.3676776293727
 20
271.1488306088053
 10
204.3676776293727
 20
271.1488306088053
 10
204.3676776293727
 20
270.5194112484257
 10
204.3676776293727
 20
270.5194112484257
 10
204.3676776293727
 20
270.5194112484257
 10
201.9922827252581
 20
270.5194112484257
 10
201.9922827252581
 20
270.5194112484257
 10
202.0179487035549
 20
270.7572952486129
 10
202.0951188933333
 20
270.9827768968715
 10
202.2237932945932
 20
271.1958561932015
 10
202.352467695853
 20
271.4089354895314
 10
202.6063714006148
 20
271.6914335056842
 10
202.9858489186543
 20
272.0435224965479
 10
203.2912568348976
 20
272.3280875713555
 10
203.4786701529307
 20
272.5210130458014
 10
203.5477443629778
 20
272.6222989198855
 10
203.6409342573307
 20
272.7621698888588
 10
203.6876153319511
 20
272.9004905638409
 10
203.6876153319511
 20
273.0370886899441
 10
203.6876153319511
 20
273.1881562266307
 10
203.6469631784071
 20
273.3044282759619
 10
203.5658311262071
 20
273.3855603281619
 10
203.4846990740071
 20
273.4666923803619
 10
203.3725611419855
 20
273.5073445339058
 10
203.2294173301422
 20
273.5073445339058
 10
203.0879960671778
 20
273.5073445339058
 10
202.9753413704925
 20
273.464797576595
 10
202.8917977498619
 20
273.3795314070854
 10
202.8082541292314
 20
273.2942652375759
 10
202.7600227606199
 20
273.1528439746116
 10
202.7471036440275
 20
272.9550953633046
 10
202.7471036440275
 20
272.9550953633046
 10
202.071864483467
 20
273.0226192793606
 10
202.071864483467
 20
273.0226192793606
 10
202.1119998723473
 20
273.39555111166
 10
202.2382627051766
 20
273.6632352074536
 10
202.450480727067
 20
273.8256715667415
 10
202.6626987489575
 20
273.9881079260294
 10
202.9279712763205
 20
274.0692399782294
 10
203.2462983091562
 20
274.0692399782294
 10
203.5951144571498
 20
274.0692399782294
 10
203.8693442386835
 20
273.975188809437
 10
204.0686431439816
 20
273.7870864718523
 10
204.2679420492797
 20
273.5989841342676
 10
204.3676776293727
 20
273.365061996502
 10
204.3676776293727
 20
273.0853200585555
 10
204.3676776293727
 20
272.9261565421377
 10
204.3390833179816
 20
272.7745722407874
 10
204.2820669500874
 20
272.6307394093925
 10
204.2250505821931
 20
272.4869065779976
 10
204.1346167660466
 20
272.3361835510868
 10
204.0107655016479
 20
272.17857032866
 10
203.9287721750084
 20
272.0740116117059
 10
203.7808052263039
 20
271.9238053494587
 10
203.5670369104224
 20
271.7276070321428
 10
203.3532685945409
 20
271.5314087148269
 10
203.2177039977651
 20
271.401184019576
 10
203.1606876298708
 20
271.33693294639
 10
203.1036712619766
 20
271.272681873204
 10
203.057334697132
 20
271.2099810940091
 10
203.0220224451129
 20
271.1488306088053
 10
203.0220224451129
 20
271.1488306088053
 10
204.3676776293727
 20
271.1488306088053
 10
204.3676776293727
 20
271.1488306088053
 97
        0
 75
     2
 76
     1
 98
        0
  0
ENDBLK
  5
42E
330
420
100
AcDbEntity
  8
0
100
AcDbBlockEnd
  0
BLOCK
  5
46E
330
463
100
AcDbEntity
  8
0
100
AcDbBlockBegin
  2
*D8
 70
     1
 10
0.0
 20
0.0
 30
0.0
  3
*D8
  1

  0
LINE
  5
464
330
463
100
AcDbEntity
  8
KOTY
 62
     0
100
AcDbLine
 10
318.1573216483087
 20
168.7801241302714
 30
0.0
 11
340.8289527990219
 21
168.7801241302714
 31
0.0
  0
LINE
  5
465
330
463
100
AcDbEntity
  8
KOTY
 62
     0
100
AcDbLine
 10
303.5571850643088
 20
202.1856867893813
 30
0.0
 11
340.8289527990219
 21
202.1856867893813
 31
0.0
  0
LINE
  5
466
330
463
100
AcDbEntity
  8
KOTY
 62
     0
100
AcDbLine
 10
340.6489527990219
 20
172.7801241302714
 30
0.0
 11
340.6489527990219
 21
198.1856867893813
 31
0.0
  0
SOLID
  5
467
330
463
100
AcDbEntity
  8
KOTY
 62
     0
100
AcDbTrace
 10
339.9822861323552
 20
172.7801241302714
 30
0.0
 11
341.3156194656886
 21
172.7801241302714
 31
0.0
 12
340.6489527990219
 22
168.7801241302714
 32
0.0
 13
340.6489527990219
 23
168.7801241302714
 33
0.0
  0
SOLID
  5
468
330
463
100
AcDbEntity
  8
KOTY
 62
     0
100
AcDbTrace
 10
341.3156194656886
 20
198.1856867893813
 30
0.0
 11
339.9822861323552
 21
198.1856867893813
 31
0.0
 12
340.6489527990219
 22
202.1856867893813
 32
0.0
 13
340.6489527990219
 23
202.1856867893813
 33
0.0
  0
MTEXT
  5
469
330
463
100
AcDbEntity
  8
KOTY
 62
     0
100
AcDbMText
 10
337.6069527990219
 20
185.4829054598264
 30
0.0
 40
4.0
 41
0.0
 71
     5
 72
     1
  1
\A1;150
 11
0.0
 21
1.0
 31
0.0
  0
POINT
  5
46A
330
463
100
AcDbEntity
  8
DEFPOINTS
 62
     0
100
AcDbPoint
 10
318.0948216483087
 20
168.7801241302714
 30
0.0
  0
POINT
  5
46B
330
463
100
AcDbEntity
  8
DEFPOINTS
 62
     0
100
AcDbPoint
 10
303.4946850643088
 20
202.1856867893813
 30
0.0
  0
POINT
  5
46C
330
463
100
AcDbEntity
  8
DEFPOINTS
 62
     0
100
AcDbPoint
 10
340.6489527990219
 20
202.1856867893813
 30
0.0
  0
ENDBLK
  5
46F
330
463
100
AcDbEntity
  8
0
100
AcDbBlockEnd
  0
BLOCK
  5
4FA
330
4EF
100
AcDbEntity
  8
0
100
AcDbBlockBegin
  2
*D9
 70
     1
 10
0.0
 20
0.0
 30
0.0
  3
*D9
  1

  0
LINE
  5
4F0
330
4EF
100
AcDbEntity
  8
KOTY
 62
     0
100
AcDbLine
 10
299.8071961547674
 20
79.61065885509554
 30
0.0
 11
340.8289527990219
 21
79.61065885509554
 31
0.0
  0
LINE
  5
4F1
330
4EF
100
AcDbEntity
  8
KOTY
 62
     0
100
AcDbLine
 10
306.0259421176642
 20
114.7802838270231
 30
0.0
 11
340.8289527990219
 21
114.7802838270231
 31
0.0
  0
LINE
  5
4F2
330
4EF
100
AcDbEntity
  8
KOTY
 62
     0
100
AcDbLine
 10
340.6489527990219
 20
83.61065885509554
 30
0.0
 11
340.6489527990219
 21
110.7802838270231
 31
0.0
  0
SOLID
  5
4F3
330
4EF
100
AcDbEntity
  8
KOTY
 62
     0
100
AcDbTrace
 10
339.9822861323552
 20
83.61065885509554
 30
0.0
 11
341.3156194656886
 21
83.61065885509554
 31
0.0
 12
340.6489527990219
 22
79.61065885509554
 32
0.0
 13
340.6489527990219
 23
79.61065885509554
 33
0.0
  0
SOLID
  5
4F4
330
4EF
100
AcDbEntity
  8
KOTY
 62
     0
100
AcDbTrace
 10
341.3156194656886
 20
110.7802838270231
 30
0.0
 11
339.9822861323552
 21
110.7802838270231
 31
0.0
 12
340.6489527990219
 22
114.7802838270231
 32
0.0
 13
340.6489527990219
 23
114.7802838270231
 33
0.0
  0
MTEXT
  5
4F5
330
4EF
100
AcDbEntity
  8
KOTY
 62
     0
100
AcDbMText
 10
337.6069527990219
 20
97.19547134105932
 30
0.0
 40
4.0
 41
0.0
 71
     5
 72
     1
  1
\A1;150
 11
0.0
 21
1.0
 31
0.0
  0
POINT
  5
4F6
330
4EF
100
AcDbEntity
  8
DEFPOINTS
 62
     0
100
AcDbPoint
 10
299.7446961547674
 20
79.61065885509554
 30
0.0
  0
POINT
  5
4F7
330
4EF
100
AcDbEntity
  8
DEFPOINTS
 62
     0
100
AcDbPoint
 10
305.9634421176642
 20
114.7802838270231
 30
0.0
  0
POINT
  5
4F8
330
4EF
100
AcDbEntity
  8
DEFPOINTS
 62
     0
100
AcDbPoint
 10
340.6489527990219
 20
114.7802838270231
 30
0.0
  0
ENDBLK
  5
4FB
330
4EF
100
AcDbEntity
  8
0
100
AcDbBlockEnd
  0
ENDSEC
  0
SECTION
  2
ENTITIES
  0
LINE
  5
1EE
330
1F
100
AcDbEntity
  8
OBRYS
100
AcDbLine
 10
217.3575948415443
 20
90.83547637008623
 30
0.0
 11
217.9126000903518
 21
93.26185872101861
 31
0.0
  0
LINE
  5
1EF
330
1F
100
AcDbEntity
  8
OBRYS
100
AcDbLine
 10
218.7434200366345
 20
93.26185872101861
 30
0.0
 11
220.0717804882041
 21
88.40909401915381
 31
0.0
  0
ARC
  5
1F0
330
1F
100
AcDbEntity
  8
OBRYS
100
AcDbCircle
 10
218.3280100634933
 20
93.09332487954534
 30
0.0
 40
0.4482957745808294
100
AcDbArc
 50
22.08263323988151
 51
157.9173667601216
  0
LINE
  5
1F1
330
1F
100
AcDbEntity
  8
OBRYS
100
AcDbLine
 10
221.4576056832944
 20
90.83547637008623
 30
0.0
 11
220.9026004344868
 21
88.40909401915381
 31
0.0
  0
ARC
  5
1F2
330
1F
100
AcDbEntity
  8
OBRYS
100
AcDbCircle
 10
220.4871904613454
 20
88.57762786062712
 30
0.0
 40
0.4482957745808294
100
AcDbArc
 50
202.0826332398785
 51
337.9173667601185
  0
LINE
  5
1F3
330
1F
100
AcDbEntity
  8
OBRYS
100
AcDbLine
 10
217.3575948415443
 20
96.83580313512813
 30
0.0
 11
217.9126000903518
 21
99.26218548606052
 31
0.0
  0
LINE
  5
1F4
330
1F
100
AcDbEntity
  8
OBRYS
100
AcDbLine
 10
218.7434200366345
 20
99.26218548606052
 30
0.0
 11
220.0717804882041
 21
94.40942078419572
 31
0.0
  0
ARC
  5
1F5
330
1F
100
AcDbEntity
  8
OBRYS
100
AcDbCircle
 10
218.3280100634933
 20
99.09365164458721
 30
0.0
 40
0.4482957745808294
100
AcDbArc
 50
22.08263323988151
 51
157.9173667601216
  0
LINE
  5
1F6
330
1F
100
AcDbEntity
  8
OBRYS
100
AcDbLine
 10
221.4576056832944
 20
96.83580313512813
 30
0.0
 11
220.9026004344868
 21
94.40942078419572
 31
0.0
  0
ARC
  5
1F7
330
1F
100
AcDbEntity
  8
OBRYS
100
AcDbCircle
 10
220.4871904613454
 20
94.57795462566902
 30
0.0
 40
0.4482957745808294
100
AcDbArc
 50
202.0826332398785
 51
337.9173667601185
  0
LINE
  5
202
330
1F
100
AcDbEntity
  8
OBRYS
100
AcDbLine
 10
217.3575948415443
 20
90.83547637008623
 30
0.0
 11
217.3575948415443
 21
79.61065885509554
 31
0.0
  0
LINE
  5
205
330
1F
100
AcDbEntity
  8
OBRYS
100
AcDbLine
 10
223.741705496823
 20
138.2634481843932
 30
0.0
 11
226.7075901566524
 21
138.3151246507626
 31
0.0
  0
LINE
  5
206
330
1F
100
AcDbEntity
  8
OBRYS
100
AcDbLine
 10
223.741705496823
 20
134.8965541455372
 30
0.0
 11
226.7075901566524
 21
134.8448776791678
 31
0.0
  0
LINE
  5
207
330
1F
100
AcDbEntity
  8
OBRYS
100
AcDbLine
 10
223.741705496823
 20
138.2634481843932
 30
0.0
 11
223.741705496823
 21
134.8965541455372
 31
0.0
  0
LINE
  5
208
330
1F
100
AcDbEntity
  8
OBRYS
100
AcDbLine
 10
223.741705496823
 20
160.41353196432
 30
0.0
 11
226.7075901566524
 21
160.4583182351735
 31
0.0
  0
LINE
  5
209
330
1F
100
AcDbEntity
  8
OBRYS
100
AcDbLine
 10
223.741705496823
 20
157.0468101803519
 30
0.0
 11
226.7075901566524
 21
156.9947892042067
 31
0.0
  0
LINE
  5
20A
330
1F
100
AcDbEntity
  8
OBRYS
100
AcDbLine
 10
223.741705496823
 20
157.0468101803519
 30
0.0
 11
223.741705496823
 21
160.41353196432
 31
0.0
  0
LINE
  5
20B
330
1F
100
AcDbEntity
  8
OBRYS
100
AcDbLine
 10
226.7075901566524
 20
156.9947892042067
 30
0.0
 11
226.7075901566524
 21
160.4653806855773
 31
0.0
  0
LINE
  5
20C
330
1F
100
AcDbEntity
  8
OBRYS
100
AcDbLine
 10
226.3038246994191
 20
157.0020239094984
 30
0.0
 11
226.3038246994191
 21
160.4583182351735
 31
0.0
  0
LINE
  5
20D
330
1F
100
AcDbEntity
  8
OBRYS
100
AcDbLine
 10
226.3038246994191
 20
138.3082344552467
 30
0.0
 11
226.3038246994191
 21
134.8521123844595
 31
0.0
  0
LINE
  5
20E
330
1F
100
AcDbEntity
  8
OBRYS
100
AcDbLine
 10
226.7075901566524
 20
138.3151246507626
 30
0.0
 11
226.7075901566524
 21
134.8448776791678
 31
0.0
  0
LINE
  5
20F
330
1F
100
AcDbEntity
  8
OBRYS
100
AcDbLine
 10
208.3576214586451
 20
115.0941322327735
 30
0.0
 11
208.3576214586451
 21
115.1781926180677
 31
0.0
  0
LINE
  5
210
330
1F
100
AcDbEntity
  8
OBRYS
100
AcDbLine
 10
209.3577333377814
 20
114.880191662004
 30
0.0
 11
208.5539920308489
 21
114.8943165628117
 31
0.0
  0
LINE
  5
211
330
1F
100
AcDbEntity
  8
OBRYS
100
AcDbLine
 10
229.1577436821146
 20
114.7799393172474
 30
0.0
 11
209.3577333377814
 21
114.7802838270231
 31
0.0
  0
LINE
  5
212
330
1F
100
AcDbEntity
  8
OBRYS
100
AcDbLine
 10
209.3577333377814
 20
126.6300420753082
 30
0.0
 11
208.2542685259064
 21
126.6493346227528
 31
0.0
  0
LINE
  5
213
330
1F
100
AcDbEntity
  8
OBRYS
100
AcDbLine
 10
208.2542685259064
 20
168.6609237419925
 30
0.0
 11
208.3131796975674
 21
168.6619572713197
 31
0.0
  0
LINE
  5
214
330
1F
100
AcDbEntity
  8
OBRYS
100
AcDbLine
 10
208.3131796975674
 20
168.6619572713197
 30
0.0
 11
208.3720908692286
 21
168.6629908006472
 31
0.0
  0
LINE
  5
215
330
1F
100
AcDbEntity
  8
OBRYS
100
AcDbLine
 10
208.3720908692286
 20
168.6629908006472
 30
0.0
 11
209.3577333377814
 21
168.6802162894369
 31
0.0
  0
LINE
  5
216
330
1F
100
AcDbEntity
  8
OBRYS
100
AcDbLine
 10
227.3576801035796
 20
126.5301342403273
 30
0.0
 11
209.3577333377814
 21
126.5301342403273
 31
0.0
  0
LINE
  5
217
330
1F
100
AcDbEntity
  8
OBRYS
100
AcDbLine
 10
209.3577333377814
 20
168.7801241244179
 30
0.0
 11
229.1577436821146
 21
168.7801241244179
 31
0.0
  0
LINE
  5
218
330
1F
100
AcDbEntity
  8
OBRYS
100
AcDbLine
 10
227.3576801035796
 20
114.7802838270231
 30
0.0
 11
227.3576801035796
 21
114.9329016577008
 31
0.0
  0
LINE
  5
219
330
1F
100
AcDbEntity
  8
OBRYS
100
AcDbLine
 10
227.3576801035796
 20
114.9329016577008
 30
0.0
 11
227.3576801035796
 21
115.3693955436346
 31
0.0
  0
LINE
  5
21A
330
1F
100
AcDbEntity
  8
OBRYS
100
AcDbLine
 10
227.3576801035796
 20
115.3693955436346
 30
0.0
 11
227.3576801035796
 21
116.0260311763021
 31
0.0
  0
LINE
  5
21B
330
1F
100
AcDbEntity
  8
OBRYS
100
AcDbLine
 10
227.3576801035796
 20
116.0260311763021
 30
0.0
 11
227.3576801035796
 21
116.8066903282562
 31
0.0
  0
LINE
  5
21C
330
1F
100
AcDbEntity
  8
OBRYS
100
AcDbLine
 10
227.3576801035796
 20
116.8066903282562
 30
0.0
 11
227.3576801035796
 21
121.559891704916
 31
0.0
  0
LINE
  5
21D
330
1F
100
AcDbEntity
  8
OBRYS
100
AcDbLine
 10
227.3576801035796
 20
121.559891704916
 30
0.0
 11
227.3576801035796
 21
122.6757588687197
 31
0.0
  0
LINE
  5
21E
330
1F
100
AcDbEntity
  8
OBRYS
100
AcDbLine
 10
227.3576801035796
 20
122.6757588687197
 30
0.0
 11
227.3576801035796
 21
123.7296142728802
 31
0.0
  0
LINE
  5
21F
330
1F
100
AcDbEntity
  8
OBRYS
100
AcDbLine
 10
227.3576801035796
 20
123.7296142728802
 30
0.0
 11
227.3576801035796
 21
124.6708149803554
 31
0.0
  0
LINE
  5
220
330
1F
100
AcDbEntity
  8
OBRYS
100
AcDbLine
 10
227.3576801035796
 20
124.6708149803554
 30
0.0
 11
227.3576801035796
 21
125.4542302105158
 31
0.0
  0
LINE
  5
221
330
1F
100
AcDbEntity
  8
OBRYS
100
AcDbLine
 10
227.3576801035796
 20
125.4542302105158
 30
0.0
 11
227.3576801035796
 21
126.0419638880241
 31
0.0
  0
LINE
  5
222
330
1F
100
AcDbEntity
  8
OBRYS
100
AcDbLine
 10
227.3576801035796
 20
126.0419638880241
 30
0.0
 11
227.3576801035796
 21
126.4064552308165
 31
0.0
  0
LINE
  5
223
330
1F
100
AcDbEntity
  8
OBRYS
100
AcDbLine
 10
227.3576801035796
 20
126.4064552308165
 30
0.0
 11
227.3576801035796
 21
126.5301342403273
 31
0.0
  0
LINE
  5
224
330
1F
100
AcDbEntity
  8
OBRYS
100
AcDbLine
 10
223.689340010902
 20
156.7619005957685
 30
0.0
 11
226.8760554370166
 21
156.7619005957685
 31
0.0
  0
LINE
  5
225
330
1F
100
AcDbEntity
  8
OBRYS
100
AcDbLine
 10
223.689340010902
 20
134.6116445609538
 30
0.0
 11
226.8760554370166
 21
134.6116445609538
 31
0.0
  0
LINE
  5
226
330
1F
100
AcDbEntity
  8
OBRYS
100
AcDbLine
 10
226.8760554370166
 20
156.7619005957685
 30
0.0
 11
226.8760554370166
 21
160.6984415489034
 31
0.0
  0
LINE
  5
227
330
1F
100
AcDbEntity
  8
OBRYS
100
AcDbLine
 10
226.8760554370166
 20
160.6984415489034
 30
0.0
 11
223.689340010902
 21
160.6984415489034
 31
0.0
  0
LINE
  5
228
330
1F
100
AcDbEntity
  8
OBRYS
100
AcDbLine
 10
226.8760554370166
 20
134.6116445609538
 30
0.0
 11
226.8760554370166
 21
138.5483577689766
 31
0.0
  0
LINE
  5
229
330
1F
100
AcDbEntity
  8
OBRYS
100
AcDbLine
 10
227.3576801035796
 20
126.5301342403273
 30
0.0
 11
227.3576801035796
 21
126.6327981535145
 31
0.0
  0
LINE
  5
22A
330
1F
100
AcDbEntity
  8
OBRYS
100
AcDbLine
 10
227.3576801035796
 20
126.6327981535145
 30
0.0
 11
227.3576801035796
 21
126.931143619354
 31
0.0
  0
LINE
  5
22B
330
1F
100
AcDbEntity
  8
OBRYS
100
AcDbLine
 10
227.3576801035796
 20
126.931143619354
 30
0.0
 11
227.3576801035796
 21
127.3958873069031
 31
0.0
  0
LINE
  5
22C
330
1F
100
AcDbEntity
  8
OBRYS
100
AcDbLine
 10
227.3576801035796
 20
127.3958873069031
 30
0.0
 11
227.3576801035796
 21
127.9812094159807
 31
0.0
  0
LINE
  5
22D
330
1F
100
AcDbEntity
  8
OBRYS
100
AcDbLine
 10
227.3576801035796
 20
127.9812094159807
 30
0.0
 11
227.3576801035796
 21
128.6302658335807
 31
0.0
  0
LINE
  5
22E
330
1F
100
AcDbEntity
  8
OBRYS
100
AcDbLine
 10
226.8760554370166
 20
138.5483577689766
 30
0.0
 11
223.689340010902
 21
138.5483577689766
 31
0.0
  0
LINE
  5
22F
330
1F
100
AcDbEntity
  8
OBRYS
100
AcDbLine
 10
223.689340010902
 20
138.5483577689766
 30
0.0
 11
223.689340010902
 21
134.6116445609538
 31
0.0
  0
LINE
  5
230
330
1F
100
AcDbEntity
  8
OBRYS
100
AcDbLine
 10
227.3576801035796
 20
128.6302658335807
 30
0.0
 11
227.3576801035796
 21
130.7579582088979
 31
0.0
  0
LINE
  5
231
330
1F
100
AcDbEntity
  8
OBRYS
100
AcDbLine
 10
223.689340010902
 20
160.6984415489034
 30
0.0
 11
223.689340010902
 21
156.7619005957685
 31
0.0
  0
LINE
  5
232
330
1F
100
AcDbEntity
  8
OBRYS
100
AcDbLine
 10
221.4576056832944
 20
96.83580313512813
 30
0.0
 11
221.4576056832944
 21
114.7785612781442
 31
0.0
  0
LINE
  5
233
330
1F
100
AcDbEntity
  8
OBRYS
100
AcDbLine
 10
217.3575948415443
 20
114.7785612781442
 30
0.0
 11
217.3575948415443
 21
96.83580313512813
 31
0.0
  0
LINE
  5
236
330
1F
100
AcDbEntity
  8
OBRYS
100
AcDbLine
 10
221.4576056832944
 20
79.61065885509554
 30
0.0
 11
221.4576056832944
 21
90.83547637008623
 31
0.0
  0
LINE
  5
23B
330
1F
100
AcDbEntity
  8
OBRYS
100
AcDbLine
 10
279.8272079768877
 20
116.8066903282562
 30
0.0
 11
279.661154264954
 21
121.559891704916
 31
0.0
  0
LINE
  5
23C
330
1F
100
AcDbEntity
  8
OBRYS
100
AcDbLine
 10
305.9634421176642
 20
114.7802838270231
 30
0.0
 11
281.925961531038
 21
114.7802838270231
 31
0.0
  0
LINE
  5
23D
330
1F
100
AcDbEntity
  8
OBRYS
100
AcDbLine
 10
308.2282493837481
 20
121.559891704916
 30
0.0
 11
308.0621956718143
 21
116.8066903282562
 31
0.0
  0
LINE
  5
23E
330
1F
100
AcDbEntity
  8
OBRYS
100
AcDbLine
 10
318.0946648527747
 20
126.5301342403273
 30
0.0
 11
313.3752254341428
 21
126.5301342403273
 31
0.0
  0
LINE
  5
23F
330
1F
100
AcDbEntity
  8
OBRYS
100
AcDbLine
 10
320.194796446028
 20
166.6801647860523
 30
0.0
 11
320.194796446028
 21
128.6302658335807
 31
0.0
  0
LINE
  5
240
330
1F
100
AcDbEntity
  8
OBRYS
100
AcDbLine
 10
269.7947387959275
 20
168.7801241244179
 30
0.0
 11
318.0946648527747
 21
168.7801241244179
 31
0.0
  0
LINE
  5
241
330
1F
100
AcDbEntity
  8
OBRYS
100
AcDbLine
 10
267.694607202674
 20
128.6302658335807
 30
0.0
 11
267.694607202674
 21
166.6801647860523
 31
0.0
  0
LINE
  5
242
330
1F
100
AcDbEntity
  8
OBRYS
100
AcDbLine
 10
274.5145227243351
 20
126.5301342403273
 30
0.0
 11
269.7947387959275
 21
126.5301342403273
 31
0.0
  0
LINE
  5
243
330
1F
100
AcDbEntity
  8
OBRYS
100
AcDbLine
 10
306.9449504689073
 20
140.9802522763218
 30
0.0
 11
306.9449504689073
 21
142.5801556751192
 31
0.0
  0
LINE
  5
244
330
1F
100
AcDbEntity
  8
OBRYS
100
AcDbLine
 10
306.6448824541889
 20
142.8802236898377
 30
0.0
 11
303.2449154768565
 21
142.8802236898377
 31
0.0
  0
LINE
  5
245
330
1F
100
AcDbEntity
  8
OBRYS
100
AcDbLine
 10
284.9449006963399
 20
140.9802522763218
 30
0.0
 11
284.9449006963399
 21
142.5801556751192
 31
0.0
  0
LINE
  5
246
330
1F
100
AcDbEntity
  8
OBRYS
100
AcDbLine
 10
303.2449154768565
 20
140.6801842616033
 30
0.0
 11
306.6448824541889
 21
140.6801842616033
 31
0.0
  0
LINE
  5
247
330
1F
100
AcDbEntity
  8
OBRYS
100
AcDbLine
 10
281.2448657042891
 20
140.6801842616033
 30
0.0
 11
284.6448326816213
 21
140.6801842616033
 31
0.0
  0
LINE
  5
248
330
1F
100
AcDbEntity
  8
OBRYS
100
AcDbLine
 10
284.6448326816213
 20
142.8802236898377
 30
0.0
 11
281.2448657042891
 21
142.8802236898377
 31
0.0
  0
LINE
  5
249
330
1F
100
AcDbEntity
  8
OBRYS
100
AcDbLine
 10
302.9448474621381
 20
142.5801556751192
 30
0.0
 11
302.9448474621381
 21
140.9802522763218
 31
0.0
  0
LINE
  5
24A
330
1F
100
AcDbEntity
  8
OBRYS
100
AcDbLine
 10
280.9447976895705
 20
142.5801556751192
 30
0.0
 11
280.9447976895705
 21
140.9802522763218
 31
0.0
  0
LINE
  5
24D
330
1F
100
AcDbEntity
  8
OBRYS
100
AcDbLine
 10
292.2447183356848
 20
99.21210137282493
 30
0.0
 11
292.2447183356848
 21
114.7785612781442
 31
0.0
  0
LINE
  5
24E
330
1F
100
AcDbEntity
  8
OBRYS
100
AcDbLine
 10
288.1447074939346
 20
114.7785612781442
 30
0.0
 11
288.1447074939346
 21
96.83580313512813
 31
0.0
  0
LINE
  5
24F
330
1F
100
AcDbEntity
  8
OBRYS
100
AcDbLine
 10
299.7446961547674
 20
96.83580313512813
 30
0.0
 11
299.7446961547674
 21
114.7785612781442
 31
0.0
  0
LINE
  5
250
330
1F
100
AcDbEntity
  8
OBRYS
100
AcDbLine
 10
295.6446853130172
 20
114.7785612781442
 30
0.0
 11
295.6446853130172
 21
94.45961200453921
 31
0.0
  0
LINE
  5
251
330
1F
100
AcDbEntity
  8
OBRYS
100
AcDbLine
 10
274.1948176523962
 20
114.885359308641
 30
0.0
 11
281.2689813885947
 21
114.885359308641
 31
0.0
  0
LINE
  5
252
330
1F
100
AcDbEntity
  8
OBRYS
100
AcDbLine
 10
306.6204222601074
 20
114.885359308641
 30
0.0
 11
313.6949305060817
 21
114.885359308641
 31
0.0
  0
LINE
  5
253
330
1F
100
AcDbEntity
  8
OBRYS
100
AcDbLine
 10
267.8000271940678
 20
127.9732856911374
 30
0.0
 11
267.8000271940678
 21
121.2801497669695
 31
0.0
  0
LINE
  5
254
330
1F
100
AcDbEntity
  8
OBRYS
100
AcDbLine
 10
320.0893764546344
 20
121.2801497669695
 30
0.0
 11
320.0893764546344
 21
127.9732856911374
 31
0.0
  0
LINE
  5
257
330
1F
100
AcDbEntity
  8
OBRYS
100
AcDbLine
 10
292.2447183356848
 20
79.61065885509554
 30
0.0
 11
292.2447183356848
 21
93.21177460778291
 31
0.0
  0
LINE
  5
258
330
1F
100
AcDbEntity
  8
OBRYS
100
AcDbLine
 10
288.1447074939346
 20
90.83547637008623
 30
0.0
 11
288.1447074939346
 21
79.61065885509554
 31
0.0
  0
LINE
  5
259
330
1F
100
AcDbEntity
  8
OBRYS
100
AcDbLine
 10
299.7446961547674
 20
79.61065885509554
 30
0.0
 11
299.7446961547674
 21
90.83547637008623
 31
0.0
  0
LINE
  5
25A
330
1F
100
AcDbEntity
  8
OBRYS
100
AcDbLine
 10
295.6446853130172
 20
88.45928523949733
 30
0.0
 11
295.6446853130172
 21
79.61065885509554
 31
0.0
  0
LINE
  5
25B
330
1F
100
AcDbEntity
  8
OBRYS
100
AcDbLine
 10
278.4446902466177
 20
154.7299819381227
 30
0.0
 11
309.4447134020844
 21
154.7299819381227
 31
0.0
  0
LINE
  5
25C
330
1F
100
AcDbEntity
  8
OBRYS
100
AcDbLine
 10
275.244883449023
 20
132.0302328109131
 30
0.0
 11
275.244883449023
 21
151.5301751405279
 31
0.0
  0
LINE
  5
25D
330
1F
100
AcDbEntity
  8
OBRYS
100
AcDbLine
 10
312.644864709455
 20
151.5301751405279
 30
0.0
 11
312.644864709455
 21
132.0302328109131
 31
0.0
  0
LINE
  5
25E
330
1F
100
AcDbEntity
  8
OBRYS
100
AcDbLine
 10
309.4447134020844
 20
128.8300815035425
 30
0.0
 11
278.4446902466177
 21
128.8300815035425
 31
0.0
  0
LINE
  5
25F
330
1F
100
AcDbEntity
  8
OBRYS
100
AcDbLine
 10
314.1534730176664
 20
146.1017346033076
 30
0.0
 11
314.1534730176664
 21
126.5301342403273
 31
0.0
  0
LINE
  5
260
330
1F
100
AcDbEntity
  8
OBRYS
100
AcDbLine
 10
316.5505720376561
 20
149.3029194400056
 30
0.0
 11
314.7219141477301
 21
147.4746060598554
 31
0.0
  0
LINE
  5
261
330
1F
100
AcDbEntity
  8
OBRYS
100
AcDbLine
 10
317.1534641452994
 20
168.7801241244179
 30
0.0
 11
317.1534641452994
 21
150.7584732427444
 31
0.0
  0
LINE
  5
262
330
1F
100
AcDbEntity
  8
OBRYS
100
AcDbLine
 10
221.4576056832944
 20
79.61065885509554
 30
0.0
 11
217.3575948415443
 21
79.61065885509554
 31
0.0
  0
LINE
  5
263
330
1F
100
AcDbEntity
  8
OBRYS
100
AcDbLine
 10
229.3575593520765
 20
168.5801361995682
 30
0.0
 11
229.3575593520765
 21
114.9800994969849
 31
0.0
  0
ARC
  5
264
330
1F
100
AcDbEntity
  8
OBRYS
100
AcDbCircle
 10
229.1575265220803
 20
114.9799720699541
 30
0.0
 40
0.2000328705835669
100
AcDbArc
 50
270.0622015564374
 51
0.0364991590306318
  0
LINE
  5
265
330
1F
100
AcDbEntity
  8
OBRYS
100
AcDbLine
 10
229.3575593520765
 20
130.7579582088979
 30
0.0
 11
227.3576801035796
 21
130.7579582088979
 31
0.0
  0
ARC
  5
266
330
1F
100
AcDbEntity
  8
OBRYS
100
AcDbCircle
 10
229.1575633661114
 20
168.5801282195799
 30
0.0
 40
0.1999959861242201
100
AcDbArc
 50
0.0022861441523145
 51
89.948342226437
  0
LINE
  5
267
330
1F
100
AcDbEntity
  8
OBRYS
100
AcDbLine
 10
229.1577436821146
 20
114.7799393172474
 30
0.0
 11
229.1577436821146
 21
168.7801241244179
 31
0.0
  0
ARC
  5
268
330
1F
100
AcDbEntity
  8
OBRYS
100
AcDbCircle
 10
208.5572433305352
 20
115.0939120769292
 30
0.0
 40
0.1996219932910792
100
AcDbArc
 50
179.9368105534846
 51
269.0667662212799
  0
LINE
  5
269
330
1F
100
AcDbEntity
  8
OBRYS
100
AcDbLine
 10
208.5539920308489
 20
126.6441669761158
 30
0.0
 11
208.5539920308489
 21
114.8943165628117
 31
0.0
  0
LINE
  5
26A
330
1F
100
AcDbEntity
  8
OBRYS
100
AcDbLine
 10
208.3576214586451
 20
126.6476120738738
 30
0.0
 11
208.3576214586451
 21
115.1781926180677
 31
0.0
  0
LINE
  5
26B
330
1F
100
AcDbEntity
  8
OBRYS
100
AcDbLine
 10
209.3577333377814
 20
168.7801241244179
 30
0.0
 11
209.3577333377814
 21
114.7802838270231
 31
0.0
  0
ARC
  5
26C
330
1F
100
AcDbEntity
  8
OBRYS
100
AcDbCircle
 10
208.2602334498785
 20
126.8519416102003
 30
0.0
 40
0.2026947746750418
100
AcDbArc
 50
180.6916565080084
 51
268.3136500812351
  0
LINE
  5
26D
330
1F
100
AcDbEntity
  8
OBRYS
100
AcDbLine
 10
208.2542685259064
 20
168.6609237419925
 30
0.0
 11
208.2542685259064
 21
126.6493346227528
 31
0.0
  0
LINE
  5
26E
330
1F
100
AcDbEntity
  8
OBRYS
100
AcDbLine
 10
208.0575534439266
 20
168.4609358171427
 30
0.0
 11
208.0575534439266
 21
126.8494948024903
 31
0.0
  0
ARC
  5
26F
330
1F
100
AcDbEntity
  8
OBRYS
100
AcDbCircle
 10
208.2603415375761
 20
168.4582082540402
 30
0.0
 40
0.2028064361070356
100
AcDbArc
 50
91.71597098846512
 51
179.2294003646005
  0
CIRCLE
  5
273
330
1F
100
AcDbEntity
  8
OBRYS
100
AcDbCircle
 10
274.1948176523962
 20
121.2801497669695
 30
0.0
 40
2.15
  0
CIRCLE
  5
274
330
1F
100
AcDbEntity
  8
OBRYS
100
AcDbCircle
 10
290.1948851696977
 20
120.729967655023
 30
0.0
 40
2.15
  0
CIRCLE
  5
275
330
1F
100
AcDbEntity
  8
OBRYS
100
AcDbCircle
 10
297.6948629887802
 20
120.729967655023
 30
0.0
 40
2.15
  0
CIRCLE
  5
276
330
1F
100
AcDbEntity
  8
OBRYS
100
AcDbCircle
 10
313.6947582511938
 20
121.2801497669695
 30
0.0
 40
2.15
  0
ARC
  5
277
330
1F
100
AcDbEntity
  8
OBRYS
100
AcDbCircle
 10
274.1946013200611
 20
121.2799334346343
 30
0.0
 40
6.394574129652628
100
AcDbArc
 50
179.9980616489025
 51
270.0019383510972
  0
ARC
  5
278
330
1F
100
AcDbEntity
  8
OBRYS
100
AcDbCircle
 10
281.9261833930862
 20
116.8802015998281
 30
0.0
 40
2.100262294299001
100
AcDbArc
 50
182.0058190203942
 51
269.9939475373812
  0
ARC
  5
279
330
1F
100
AcDbEntity
  8
OBRYS
100
AcDbCircle
 10
274.5143089636582
 20
121.3801514169686
 30
0.0
 40
5.149982827794959
100
AcDbArc
 50
2.000094392602862
 51
89.99762182030013
  0
ARC
  5
27A
330
1F
100
AcDbEntity
  8
OBRYS
100
AcDbCircle
 10
269.7948392918032
 20
128.6303663294565
 30
0.0
 40
2.100232091533566
100
AcDbArc
 50
180.0027415967826
 51
269.9972584032205
  0
ARC
  5
27B
330
1F
100
AcDbEntity
  8
OBRYS
100
AcDbCircle
 10
269.7948025381076
 20
166.6799287766908
 30
0.0
 40
2.100195348694325
100
AcDbArc
 50
90.00173896104423
 51
179.9935613892407
  0
ARC
  5
27C
330
1F
100
AcDbEntity
  8
OBRYS
100
AcDbCircle
 10
315.094149737103
 20
150.7588074940747
 30
0.0
 40
2.059314435322977
100
AcDbArc
 50
315.0105105791239
 51
359.9907002105761
  0
ARC
  5
27D
330
1F
100
AcDbEntity
  8
OBRYS
100
AcDbCircle
 10
316.2741804532293
 20
146.0277679887017
 30
0.0
 40
2.121996957426671
100
AcDbArc
 50
137.0133032175913
 51
178.0024318613283
  0
ARC
  5
27E
330
1F
100
AcDbEntity
  8
OBRYS
100
AcDbCircle
 10
318.0948216483087
 20
166.6801493324953
 30
0.0
 40
2.099974797776166
100
AcDbArc
 50
0.0004216353450741
 51
90.00427801436743
  0
ARC
  5
27F
330
1F
100
AcDbEntity
  8
OBRYS
100
AcDbCircle
 10
318.0947848927398
 20
128.6301457936155
 30
0.0
 40
2.100011556719063
100
AcDbArc
 50
269.9967248830804
 51
0.0032751169211514
  0
ARC
  5
280
330
1F
100
AcDbEntity
  8
OBRYS
100
AcDbCircle
 10
313.3751687191212
 20
121.3800747474864
 30
0.0
 40
5.150059493153169
100
AcDbArc
 50
89.99936903032375
 51
177.9990819049851
  0
ARC
  5
281
330
1F
100
AcDbEntity
  8
OBRYS
100
AcDbCircle
 10
305.9634424187624
 20
116.8799715440932
 30
0.0
 40
2.100032226845847
100
AcDbArc
 50
269.9999917850526
 51
358.0002416571731
  0
ARC
  5
282
330
1F
100
AcDbEntity
  8
OBRYS
100
AcDbCircle
 10
313.6948758469785
 20
121.2798599226322
 30
0.0
 40
6.394500614224847
100
AcDbArc
 50
270.0004897545739
 51
0.0025970530379673
  0
CIRCLE
  5
283
330
1F
100
AcDbEntity
  8
OBRYS
100
AcDbCircle
 10
286.4447240052684
 20
162.8300957866422
 30
0.0
 40
2.15
  0
CIRCLE
  5
284
330
1F
100
AcDbEntity
  8
OBRYS
100
AcDbCircle
 10
293.9447018243511
 20
162.8300957866422
 30
0.0
 40
2.15
  0
CIRCLE
  5
285
330
1F
100
AcDbEntity
  8
OBRYS
100
AcDbCircle
 10
301.4448518983215
 20
162.8300957866422
 30
0.0
 40
2.15
  0
LINE
  5
286
330
1F
100
AcDbEntity
  8
OBRYS
100
AcDbLine
 10
292.2447183356848
 20
79.61065885509554
 30
0.0
 11
288.1447074939346
 21
79.61065885509554
 31
0.0
  0
LINE
  5
287
330
1F
100
AcDbEntity
  8
OBRYS
100
AcDbLine
 10
299.7446961547674
 20
79.61065885509554
 30
0.0
 11
295.6446853130172
 21
79.61065885509554
 31
0.0
  0
ARC
  5
288
330
1F
100
AcDbEntity
  8
OBRYS
100
AcDbCircle
 10
278.4445229780555
 20
151.5303424090901
 30
0.0
 40
3.199639533404799
100
AcDbArc
 50
89.99700473051368
 51
180.0029952694863
  0
ARC
  5
289
330
1F
100
AcDbEntity
  8
OBRYS
100
AcDbCircle
 10
309.4433684480898
 20
151.5262751570809
 30
0.0
 40
3.203707063355558
100
AcDbArc
 50
357.8713163121053
 51
89.975946555578
  0
ARC
  5
28A
330
1F
100
AcDbEntity
  8
OBRYS
100
AcDbCircle
 10
309.4446370738058
 20
132.0303091391917
 30
0.0
 40
3.200227636559462
100
AcDbArc
 50
270.0013665553568
 51
359.9986334446422
  0
ARC
  5
28B
330
1F
100
AcDbEntity
  8
OBRYS
100
AcDbCircle
 10
278.4448170289161
 20
132.0300150883311
 30
0.0
 40
3.199933587300143
100
AcDbArc
 50
179.9961016112604
 51
269.9977299245686
  0
ARC
  5
28C
330
1F
100
AcDbEntity
  8
OBRYS
100
AcDbCircle
 10
281.2448833565354
 20
142.5801380228728
 30
0.0
 40
0.3000856674840494
100
AcDbArc
 50
90.00337036828252
 51
179.9966296317067
  0
ARC
  5
28D
330
1F
100
AcDbEntity
  8
OBRYS
100
AcDbCircle
 10
281.2448833565354
 20
140.9802699285681
 30
0.0
 40
0.3000856674840209
100
AcDbArc
 50
180.0033703682825
 51
269.9966296317284
  0
ARC
  5
28E
330
1F
100
AcDbEntity
  8
OBRYS
100
AcDbCircle
 10
284.6448150293749
 20
140.9802699285682
 30
0.0
 40
0.3000856674840778
100
AcDbArc
 50
270.0033703682824
 51
359.9966296317176
  0
ARC
  5
28F
330
1F
100
AcDbEntity
  8
OBRYS
100
AcDbCircle
 10
284.6448150293749
 20
142.5801380228728
 30
0.0
 40
0.3000856674840778
100
AcDbArc
 50
0.0033703682933436
 51
89.99662963171751
  0
ARC
  5
290
330
1F
100
AcDbEntity
  8
OBRYS
100
AcDbCircle
 10
303.2449331291028
 20
140.9802699285681
 30
0.0
 40
0.3000856674840209
100
AcDbArc
 50
180.0033703682825
 51
269.9966296317174
  0
ARC
  5
291
330
1F
100
AcDbEntity
  8
OBRYS
100
AcDbCircle
 10
303.2449331291028
 20
142.5801380228728
 30
0.0
 40
0.3000856674840494
100
AcDbArc
 50
90.00337036828252
 51
179.9966296317067
  0
ARC
  5
292
330
1F
100
AcDbEntity
  8
OBRYS
100
AcDbCircle
 10
306.6448648019424
 20
142.5801380228728
 30
0.0
 40
0.3000856674840778
100
AcDbArc
 50
0.0033703682933436
 51
89.99662963170665
  0
ARC
  5
293
330
1F
100
AcDbEntity
  8
OBRYS
100
AcDbCircle
 10
306.6448648019424
 20
140.9802699285682
 30
0.0
 40
0.3000856674840778
100
AcDbArc
 50
270.0033703682933
 51
359.9966296317176
  0
LINE
  5
29E
330
1F
100
AcDbEntity
  8
OBRYS
100
AcDbLine
 10
288.1447074939346
 20
96.83580313512813
 30
0.0
 11
289.3369881651809
 21
98.83580313512813
 31
0.0
  0
LINE
  5
29F
330
1F
100
AcDbEntity
  8
OBRYS
100
AcDbLine
 10
292.4786580242956
 20
98.83580313512813
 30
0.0
 11
295.4108329871135
 21
94.83580313512813
 31
0.0
  0
LINE
  5
2A0
330
1F
100
AcDbEntity
  8
OBRYS
100
AcDbLine
 10
298.5527132653805
 20
94.83580313512813
 30
0.0
 11
299.7446961547674
 21
96.83580313512813
 31
0.0
  0
ARC
  5
2A1
330
1F
100
AcDbEntity
  8
OBRYS
100
AcDbCircle
 10
290.9078230947381
 20
98.12010336165243
 30
0.0
 40
1.726194815677096
100
AcDbArc
 50
24.49483681963444
 51
155.5051631803656
  0
ARC
  5
2A2
330
1F
100
AcDbEntity
  8
OBRYS
100
AcDbCircle
 10
296.981773126247
 20
95.55156872598151
 30
0.0
 40
1.726317844949382
100
AcDbArc
 50
204.4953769022343
 51
335.5046230977657
  0
LINE
  5
2A3
330
1F
100
AcDbEntity
  8
OBRYS
100
AcDbLine
 10
288.1447074939346
 20
90.83547637008623
 30
0.0
 11
289.3369881651809
 21
92.83547637008623
 31
0.0
  0
ARC
  5
2A4
330
1F
100
AcDbEntity
  8
OBRYS
100
AcDbCircle
 10
290.9078230947381
 20
92.11977659661052
 30
0.0
 40
1.726194815677096
100
AcDbArc
 50
24.49483681963444
 51
155.5051631803656
  0
LINE
  5
2A5
330
1F
100
AcDbEntity
  8
OBRYS
100
AcDbLine
 10
292.4786580242956
 20
92.83547637008623
 30
0.0
 11
295.4108329871135
 21
88.83547637008623
 31
0.0
  0
ARC
  5
2A6
330
1F
100
AcDbEntity
  8
OBRYS
100
AcDbCircle
 10
296.981773126247
 20
89.55124196093963
 30
0.0
 40
1.726317844949382
100
AcDbArc
 50
204.4953769022343
 51
335.5046230977657
  0
LINE
  5
2A7
330
1F
100
AcDbEntity
  8
OBRYS
100
AcDbLine
 10
298.5527132653805
 20
88.83547637008623
 30
0.0
 11
299.7446961547674
 21
90.83547637008623
 31
0.0
  0
DIMENSION
  5
2A8
330
1F
100
AcDbEntity
  8
KOTY
100
AcDbDimension
  2
*D4
 10
229.3575593520765
 20
178.6769130028492
 30
0.0
 11
218.7075563980015
 21
181.6849130028492
 31
0.0
 70
    32
  3
STANDARD
100
AcDbAlignedDimension
 13
208.0575534439266
 23
168.4609358171427
 33
0.0
 14
229.3575593520765
 24
168.5801361995682
 34
0.0
100
AcDbRotatedDimension
1001
ACAD
1000
DSTYLE
1002
{
1070
   271
1070
     0
1070
   278
1070
    44
1070
    73
1070
     0
1070
    77
1070
     1
1070
   140
1040
4.0
1070
   147
1040
1.0
1070
    41
1040
4.0
1002
}
  0
DIMENSION
  5
2A9
330
1F
100
AcDbEntity
  8
KOTY
100
AcDbDimension
  2
*D5
 10
320.194796446028
 20
178.6769130028492
 30
0.0
 11
293.9447018243511
 21
181.7189130028492
 31
0.0
 70
    32
  3
STANDARD
100
AcDbAlignedDimension
 13
267.6946072026741
 23
166.6801647860523
 33
0.0
 14
320.194796446028
 24
166.6801647860523
 34
0.0
100
AcDbRotatedDimension
1001
ACAD
1000
DSTYLE
1002
{
1070
   271
1070
     0
1070
   278
1070
    44
1070
    73
1070
     0
1070
    77
1070
     1
1070
   140
1040
4.0
1070
   147
1040
1.0
1070
    41
1040
4.0
1002
}
  0
DIMENSION
  5
2AA
330
1F
100
AcDbEntity
  8
KOTY
100
AcDbDimension
  2
*D6
 10
340.6489527990219
 20
114.7802838270231
 30
0.0
 11
340.6489527990219
 21
140.9563339826636
 31
0.0
 70
   160
  3
STANDARD
100
AcDbAlignedDimension
 13
318.0948216483087
 23
168.7801241302714
 33
0.0
 14
305.9634421176642
 24
114.7802838270231
 34
0.0
 50
90.0
100
AcDbRotatedDimension
1001
ACAD
1000
DSTYLE
1002
{
1070
   271
1070
     0
1070
   278
1070
    44
1070
    73
1070
     0
1070
    77
1070
     1
1070
   140
1040
4.0
1070
   147
1040
1.0
1070
    41
1040
4.0
1002
}
  0
LINE
  5
455
330
1F
100
AcDbEntity
  8
POPIS_VODICU
100
AcDbLine
 10
320.1303731179543
 20
65.59910619987295
 30
0.0
 11
297.6948629887804
 21
81.11065885509554
 31
0.0
  0
LINE
  5
456
330
1F
100
AcDbEntity
  8
POPIS_VODICU
100
AcDbLine
 10
320.1303731179543
 20
65.59910619987295
 30
0.0
 11
290.1947129148097
 21
81.11065885509554
 31
0.0
  0
INSERT
  5
457
330
1F
100
AcDbEntity
  8
POPIS_VODICU
100
AcDbBlockReference
  2
BLOCK_2
 10
142.5765803583489
 20
-199.9233630055173
 30
0.0
  0
LINE
  5
458
330
1F
100
AcDbEntity
  8
POPIS_VODICU
100
AcDbLine
 10
320.1303731179543
 20
65.59910619987295
 30
0.0
 11
344.0524429296887
 21
65.59910619987295
 31
0.0
  0
HATCH
  5
459
330
1F
100
AcDbEntity
  8
POPIS_VODICU
100
AcDbHatch
 10
0.0
 20
0.0
 30
0.0
210
0.0
220
0.0
230
1.0
  2
SOLID
 70
     1
 71
     0
 91
        1
 92
        1
 93
        1
 72
     4
 94
        3
 73
     0
 74
     1
 95
       17
 96
       13
 40
0.0
 40
0.0
 40
0.0
 40
0.0
 40
1.0
 40
1.0
 40
1.0
 40
2.0
 40
2.0
 40
2.0
 40
3.0
 40
3.0
 40
3.0
 40
4.0
 40
4.0
 40
4.0
 40
4.0
 10
290.4946086746403
 20
81.11048660020764
 10
290.4946086746403
 20
80.94512190782545
 10
290.3602498620799
 20
80.81076309526496
 10
290.1948851696978
 20
80.81076309526496
 10
290.0291759675399
 20
80.81076309526496
 10
289.8948171549793
 20
80.94512190782545
 10
289.8948171549793
 20
81.11048660020764
 10
289.8948171549793
 20
81.27654031214136
 10
290.0291759675399
 20
81.41055461492606
 10
290.1948851696978
 20
81.41055461492606
 10
290.3602498620799
 20
81.41055461492606
 10
290.4946086746403
 20
81.27654031214136
 10
290.4946086746403
 20
81.11048660020764
 97
        0
 75
     0
 76
     1
 98
        0
  0
HATCH
  5
45A
330
1F
100
AcDbEntity
  8
POPIS_VODICU
100
AcDbHatch
 10
0.0
 20
0.0
 30
0.0
210
0.0
220
0.0
230
1.0
  2
SOLID
 70
     1
 71
     0
 91
        1
 92
        1
 93
        1
 72
     4
 94
        3
 73
     0
 74
     1
 95
       17
 96
       13
 40
0.0
 40
0.0
 40
0.0
 40
0.0
 40
1.0
 40
1.0
 40
1.0
 40
2.0
 40
2.0
 40
2.0
 40
3.0
 40
3.0
 40
3.0
 40
4.0
 40
4.0
 40
4.0
 40
4.0
 10
297.994758748611
 20
81.11100336487134
 10
297.994758748611
 20
80.94494965293755
 10
297.8603999360504
 20
80.81059084037706
 10
297.6950352436683
 20
80.81059084037706
 10
297.5293260415103
 20
80.81059084037706
 10
297.3949672289497
 20
80.94494965293755
 10
297.3949672289497
 20
81.11100336487134
 10
297.3949672289497
 20
81.27636805725346
 10
297.5293260415103
 20
81.41072686981396
 10
297.6950352436683
 20
81.41072686981396
 10
297.8603999360504
 20
81.41072686981396
 10
297.994758748611
 20
81.27636805725346
 10
297.994758748611
 20
81.11100336487134
 97
        0
 75
     0
 76
     1
 98
        0
  0
ARC
  5
4DA
330
1F
100
AcDbEntity
  8
OBRYS
100
AcDbCircle
 10
286.4447240052684
 20
162.8300957866423
 30
0.0
 40
1.808944027644164
100
AcDbArc
 50
326.9596440713279
 51
123.0333709507134
  0
LINE
  5
4DB
330
1F
100
AcDbEntity
  8
OBRYS
100
AcDbLine
 10
288.0393286168372
 20
161.7656055953874
 30
0.0
 11
285.3827742954305
 21
164.4224837993682
 31
0.0
  0
LINE
  5
4DC
330
1F
100
AcDbEntity
  8
OBRYS
100
AcDbLine
 10
288.0393286168372
 20
161.7656055953874
 30
0.0
 11
287.5091452460427
 21
161.2353878773936
 31
0.0
  0
LINE
  5
4DD
330
1F
100
AcDbEntity
  8
OBRYS
100
AcDbLine
 10
287.5091280718868
 20
161.2354050504371
 30
0.0
 11
284.8500293674041
 21
163.8943315000319
 31
0.0
  0
ARC
  5
4DE
330
1F
100
AcDbEntity
  8
OBRYS
100
AcDbCircle
 10
286.4447240052684
 20
162.8300957866422
 30
0.0
 40
1.80894402764416
100
AcDbArc
 50
146.9671969593139
 51
303.0365147486169
  0
LINE
  5
4DF
330
1F
100
AcDbEntity
  8
OBRYS
100
AcDbLine
 10
284.8500293674041
 20
163.8943315000319
 30
0.0
 11
285.3827742954305
 21
164.4224837993682
 31
0.0
  0
ARC
  5
4E0
330
1F
100
AcDbEntity
  8
OBRYS
100
AcDbCircle
 10
293.9447018243511
 20
162.8300957866423
 30
0.0
 40
1.808944027644164
100
AcDbArc
 50
326.9596440713279
 51
123.0333709507134
  0
LINE
  5
4E1
330
1F
100
AcDbEntity
  8
OBRYS
100
AcDbLine
 10
295.5393064359199
 20
161.7656055953874
 30
0.0
 11
292.8827521145132
 21
164.4224837993682
 31
0.0
  0
LINE
  5
4E2
330
1F
100
AcDbEntity
  8
OBRYS
100
AcDbLine
 10
295.5393064359199
 20
161.7656055953874
 30
0.0
 11
295.0091230651254
 21
161.2353878773936
 31
0.0
  0
LINE
  5
4E3
330
1F
100
AcDbEntity
  8
OBRYS
100
AcDbLine
 10
295.0091058909695
 20
161.2354050504371
 30
0.0
 11
292.3500071864868
 21
163.8943315000319
 31
0.0
  0
ARC
  5
4E4
330
1F
100
AcDbEntity
  8
OBRYS
100
AcDbCircle
 10
293.9447018243511
 20
162.8300957866422
 30
0.0
 40
1.80894402764416
100
AcDbArc
 50
146.9671969593139
 51
303.0365147486169
  0
LINE
  5
4E5
330
1F
100
AcDbEntity
  8
OBRYS
100
AcDbLine
 10
292.3500071864868
 20
163.8943315000319
 30
0.0
 11
292.8827521145132
 21
164.4224837993682
 31
0.0
  0
ARC
  5
4E6
330
1F
100
AcDbEntity
  8
OBRYS
100
AcDbCircle
 10
301.4448518983215
 20
162.8300957866423
 30
0.0
 40
1.808944027644164
100
AcDbArc
 50
326.9596440713279
 51
123.0333709507134
  0
LINE
  5
4E7
330
1F
100
AcDbEntity
  8
OBRYS
100
AcDbLine
 10
303.0394565098903
 20
161.7656055953874
 30
0.0
 11
300.3829021884836
 21
164.4224837993682
 31
0.0
  0
LINE
  5
4E8
330
1F
100
AcDbEntity
  8
OBRYS
100
AcDbLine
 10
303.0394565098903
 20
161.7656055953874
 30
0.0
 11
302.5092731390957
 21
161.2353878773936
 31
0.0
  0
LINE
  5
4E9
330
1F
100
AcDbEntity
  8
OBRYS
100
AcDbLine
 10
302.5092559649398
 20
161.2354050504371
 30
0.0
 11
299.8501572604571
 21
163.8943315000319
 31
0.0
  0
ARC
  5
4EA
330
1F
100
AcDbEntity
  8
OBRYS
100
AcDbCircle
 10
301.4448518983215
 20
162.8300957866422
 30
0.0
 40
1.80894402764416
100
AcDbArc
 50
146.9671969593139
 51
303.0365147486169
  0
LINE
  5
4EB
330
1F
100
AcDbEntity
  8
OBRYS
100
AcDbLine
 10
299.8501572604571
 20
163.8943315000319
 30
0.0
 11
300.3829021884836
 21
164.4224837993682
 31
0.0
  0
DIMENSION
  5
4EC
330
1F
100
AcDbEntity
  8
KOTY
100
AcDbDimension
  2
*D9
 10
340.6489527990219
 20
114.7802838270231
 30
0.0
 11
337.6069527990219
 21
97.19547134105932
 31
0.0
 70
    32
  1
150
  3
STANDARD
100
AcDbAlignedDimension
 13
299.7446961547674
 23
79.61065885509554
 33
0.0
 14
305.9634421176642
 24
114.7802838270231
 34
0.0
 50
90.0
100
AcDbRotatedDimension
1001
ACAD
1000
DSTYLE
1002
{
1070
   287
1070
     5
1070
   140
1040
4.0
1070
    73
1070
     0
1070
    77
1070
     1
1070
   147
1040
1.0
1070
    41
1040
4.0
1070
   279
1070
     2
1002
}
  0
VIEWPORT
  5
31C
330
58
100
AcDbEntity
 67
     1
  8
0
100
AcDbViewport
 10
5.25
 20
3.5
 30
0.0
 40
12.6
 41
8.4
 68
     1
 69
     1
1001
ACAD
1000
MVIEW
1002
{
1070
    16
1010
0.0
1020
0.0
1030
0.0
1010
0.0
1020
0.0
1030
1.0
1040
0.0
1040
8.4
1040
5.25
1040
3.5
1040
50.0
1040
0.0
1040
0.0
1070
     0
1070
   100
1070
     0
1070
     3
1070
     0
1070
     0
1070
     0
1070
     0
1040
0.0
1040
0.0
1040
0.0
1040
0.5
1040
0.5
1040
0.0
1040
0.0
1070
     0
1002
{
1002
}
1002
}
  0
VIEWPORT
  5
31D
330
58
100
AcDbEntity
 67
     1
  8
0
100
AcDbViewport
 10
5.25
 20
3.5
 30
0.0
 40
8.4
 41
5.600000000000001
 68
     2
 69
     2
1001
ACAD
1000
MVIEW
1002
{
1070
    16
1010
0.0
1020
0.0
1030
0.0
1010
0.0
1020
0.0
1030
1.0
1040
0.0
1040
136.3955062487487
1040
274.6865864548075
1040
146.4712011338939
1040
50.0
1040
0.0
1040
0.0
1070
     0
1070
   100
1070
     0
1070
     3
1070
     0
1070
     0
1070
     0
1070
     0
1040
0.0
1040
0.0
1040
0.0
1040
0.5
1040
0.5
1040
0.0
1040
0.0
1070
     0
1002
{
1002
}
1002
}
  0
ENDSEC
  0
SECTION
  2
OBJECTS
  0
DICTIONARY
  5
C
330
0
100
AcDbDictionary
  3
ACAD_GROUP
350
D
  3
ACAD_IMAGE_VARS
350
DC
  3
ACAD_MLINESTYLE
350
17
  3
ACAD_SCALELIST
350
53E
  3
ACDBVARIABLEDICTIONARY
350
66
  3
APPDATA
350
E1
  3
DWGPROPS
350
583
  0
DICTIONARY
  5
2DB
330
2
100
AcDbDictionary
280
     1
  3
ACAD_LAYERSTATES
360
2DC
  3
ACLYDICTIONARY
360
57E
  0
DICTIONARY
  5
D
102
{ACAD_REACTORS
330
C
102
}
330
C
100
AcDbDictionary
  0
RASTERVARIABLES
  5
DC
102
{ACAD_REACTORS
330
C
102
}
330
C
100
AcDbRasterVariables
 90
        0
 70
     1
 71
     1
 72
     5
  0
DICTIONARY
  5
17
102
{ACAD_REACTORS
330
C
102
}
330
C
100
AcDbDictionary
  3
STANDARD
350
18
  0
DICTIONARY
  5
53E
102
{ACAD_REACTORS
330
C
102
}
330
C
100
AcDbDictionary
  0
DICTIONARY
  5
66
102
{ACAD_REACTORS
330
C
102
}
330
C
100
AcDbDictionary
  3
CANNOSCALE
350
584
  3
DIMASSOC
350
67
  3
HIDETEXT
350
6B
  0
DICTIONARY
  5
E1
102
{ACAD_REACTORS
330
C
102
}
330
C
100
AcDbDictionary
  0
XRECORD
  5
583
102
{ACAD_REACTORS
330
C
102
}
330
C
100
AcDbXrecord
  1
DWGPROPS COOKIE
  2

  3

  4

  6

  7

  8
jaromir.podrabsky
  9

300
=
301
=
302
=
303
=
304
=
305
=
306
=
307
=
308
=
309
=
 40
0.0
 41
2452643.063384259
 42
2457953.526848831
  1

 90
        0
  0
DICTIONARY
  5
2DC
102
{ACAD_REACTORS
330
2DB
102
}
330
2DB
100
AcDbDictionary
  0
DICTIONARY
  5
57E
102
{ACAD_REACTORS
330
2DB
102
}
330
2DB
100
AcDbDictionary
1001
ACAD
1000
<All
  0
MLINESTYLE
  5
18
102
{ACAD_REACTORS
330
17
102
}
330
17
100
AcDbMlineStyle
  2
STANDARD
 70
     0
  3

 62
   256
 51
90.0
 52
90.0
 71
     2
 49
0.5
 62
   256
  6
BYLAYER
 49
-0.5
 62
   256
  6
BYLAYER
  0
DICTIONARYVAR
  5
584
102
{ACAD_REACTORS
330
66
102
}
330
66
100
DictionaryVariables
280
     0
  1
1:1
  0
DICTIONARYVAR
  5
67
102
{ACAD_REACTORS
330
66
102
}
330
66
100
DictionaryVariables
280
     0
  1
2
  0
DICTIONARYVAR
  5
6B
102
{ACAD_REACTORS
330
66
102
}
330
66
100
DictionaryVariables
280
     0
  1
1
  0
ENDSEC
  0
EOF
