  0
SECTION
  2
HEADER
  9
$ACADVER
  1
AC1014
  9
$ACADMAINTVER
 70
     9
  9
$DWGCODEPAGE
  3
ANSI_1250
  9
$INSBASE
 10
0.0
 20
0.0
 30
0.0
  9
$EXTMIN
 10
97.36489218144774
 20
96.94437880439327
 30
0.0
  9
$EXTMAX
 10
357.3460448412767
 20
202.9390819929314
 30
0.0
  9
$LIMMIN
 10
0.0
 20
0.0
  9
$LIMMAX
 10
12.0
 20
9.0
  9
$ORTHOMODE
 70
     0
  9
$REGENMODE
 70
     1
  9
$FILLMODE
 70
     1
  9
$QTEXTMODE
 70
     0
  9
$MIRRTEXT
 70
     0
  9
$DRAGMODE
 70
     2
  9
$LTSCALE
 40
1.0
  9
$OSMODE
 70
 15359
  9
$ATTMODE
 70
     1
  9
$TEXTSIZE
 40
0.2
  9
$TRACEWID
 40
0.05
  9
$TEXTSTYLE
  7
STANDARD
  9
$CLAYER
  8
KOTY
  9
$CELTYPE
  6
BYLAYER
  9
$CECOLOR
 62
   256
  9
$CELTSCALE
 40
1.0
  9
$DELOBJ
 70
     1
  9
$DISPSILH
 70
     0
  9
$DIMSCALE
 40
1.0
  9
$DIMASZ
 40
0.18
  9
$DIMEXO
 40
0.0625
  9
$DIMDLI
 40
0.38
  9
$DIMRND
 40
0.0
  9
$DIMDLE
 40
0.0
  9
$DIMEXE
 40
0.18
  9
$DIMTP
 40
0.0
  9
$DIMTM
 40
0.0
  9
$DIMTXT
 40
0.18
  9
$DIMCEN
 40
0.09
  9
$DIMTSZ
 40
0.0
  9
$DIMTOL
 70
     0
  9
$DIMLIM
 70
     0
  9
$DIMTIH
 70
     1
  9
$DIMTOH
 70
     1
  9
$DIMSE1
 70
     0
  9
$DIMSE2
 70
     0
  9
$DIMTAD
 70
     0
  9
$DIMZIN
 70
     0
  9
$DIMBLK
  1

  9
$DIMASO
 70
     1
  9
$DIMSHO
 70
     1
  9
$DIMPOST
  1

  9
$DIMAPOST
  1

  9
$DIMALT
 70
     0
  9
$DIMALTD
 70
     2
  9
$DIMALTF
 40
25.4
  9
$DIMLFAC
 40
1.0
  9
$DIMTOFL
 70
     0
  9
$DIMTVP
 40
0.0
  9
$DIMTIX
 70
     0
  9
$DIMSOXD
 70
     0
  9
$DIMSAH
 70
     0
  9
$DIMBLK1
  1

  9
$DIMBLK2
  1

  9
$DIMSTYLE
  2
STANDARD
  9
$DIMCLRD
 70
     0
  9
$DIMCLRE
 70
     0
  9
$DIMCLRT
 70
     0
  9
$DIMTFAC
 40
1.0
  9
$DIMGAP
 40
0.09
  9
$DIMJUST
 70
     0
  9
$DIMSD1
 70
     0
  9
$DIMSD2
 70
     0
  9
$DIMTOLJ
 70
     1
  9
$DIMTZIN
 70
     0
  9
$DIMALTZ
 70
     0
  9
$DIMALTTZ
 70
     0
  9
$DIMFIT
 70
     5
  9
$DIMUPT
 70
     0
  9
$DIMUNIT
 70
     2
  9
$DIMDEC
 70
     4
  9
$DIMTDEC
 70
     4
  9
$DIMALTU
 70
     2
  9
$DIMALTTD
 70
     2
  9
$DIMTXSTY
  7
STANDARD
  9
$DIMAUNIT
 70
     0
  9
$LUNITS
 70
     2
  9
$LUPREC
 70
     4
  9
$SKETCHINC
 40
0.1
  9
$FILLETRAD
 40
0.0
  9
$AUNITS
 70
     0
  9
$AUPREC
 70
     0
  9
$MENU
  1
.
  9
$ELEVATION
 40
0.0
  9
$PELEVATION
 40
0.0
  9
$THICKNESS
 40
0.0
  9
$LIMCHECK
 70
     0
  9
$CHAMFERA
 40
0.0
  9
$CHAMFERB
 40
0.0
  9
$CHAMFERC
 40
0.0
  9
$CHAMFERD
 40
0.0
  9
$SKPOLY
 70
     0
  9
$TDCREATE
 40
2452643.105050926
  9
$TDUPDATE
 40
2456765.528792778
  9
$TDINDWG
 40
0.0472927083
  9
$TDUSRTIMER
 40
2456765.430252882
  9
$USRTIMER
 70
     1
  9
$ANGBASE
 50
0.0
  9
$ANGDIR
 70
     0
  9
$PDMODE
 70
     0
  9
$PDSIZE
 40
0.0
  9
$PLINEWID
 40
0.0
  9
$COORDS
 70
     2
  9
$SPLFRAME
 70
     0
  9
$SPLINETYPE
 70
     6
  9
$SPLINESEGS
 70
     8
  9
$ATTDIA
 70
     0
  9
$ATTREQ
 70
     1
  9
$HANDLING
 70
     1
  9
$HANDSEED
  5
61C
  9
$SURFTAB1
 70
     6
  9
$SURFTAB2
 70
     6
  9
$SURFTYPE
 70
     6
  9
$SURFU
 70
     6
  9
$SURFV
 70
     6
  9
$UCSNAME
  2

  9
$UCSORG
 10
0.0
 20
0.0
 30
0.0
  9
$UCSXDIR
 10
1.0
 20
0.0
 30
0.0
  9
$UCSYDIR
 10
0.0
 20
1.0
 30
0.0
  9
$PUCSNAME
  2

  9
$PUCSORG
 10
0.0
 20
0.0
 30
0.0
  9
$PUCSXDIR
 10
1.0
 20
0.0
 30
0.0
  9
$PUCSYDIR
 10
0.0
 20
1.0
 30
0.0
  9
$USERI1
 70
     0
  9
$USERI2
 70
     0
  9
$USERI3
 70
     0
  9
$USERI4
 70
     0
  9
$USERI5
 70
     0
  9
$USERR1
 40
0.0
  9
$USERR2
 40
0.0
  9
$USERR3
 40
0.0
  9
$USERR4
 40
0.0
  9
$USERR5
 40
0.0
  9
$WORLDVIEW
 70
     1
  9
$SHADEDGE
 70
     3
  9
$SHADEDIF
 70
    70
  9
$TILEMODE
 70
     0
  9
$MAXACTVP
 70
    64
  9
$PINSBASE
 10
0.0
 20
0.0
 30
0.0
  9
$PLIMCHECK
 70
     0
  9
$PEXTMIN
 10
1.05
 20
0.7999999999999998
 30
0.0
  9
$PEXTMAX
 10
9.45
 20
7.2
 30
0.0
  9
$PLIMMIN
 10
0.8500000000000006
 20
0.5999999999999998
  9
$PLIMMAX
 10
9.650000000000002
 20
7.4
  9
$UNITMODE
 70
     0
  9
$VISRETAIN
 70
     1
  9
$PLINEGEN
 70
     0
  9
$PSLTSCALE
 70
     1
  9
$TREEDEPTH
 70
  3020
  9
$PICKSTYLE
 70
     0
  9
$CMLSTYLE
  2
STANDARD
  9
$CMLJUST
 70
     0
  9
$CMLSCALE
 40
1.0
  9
$PROXYGRAPHICS
 70
     1
  9
$MEASUREMENT
 70
     0
  0
ENDSEC
  0
SECTION
  2
CLASSES
  0
CLASS
  1
ACDBDICTIONARYWDFLT
  2
AcDbDictionaryWithDefault
  3
ObjectDBX Classes
 90
        0
280
     0
281
     0
  0
CLASS
  1
ACDBPLACEHOLDER
  2
AcDbPlaceHolder
  3
ObjectDBX Classes
 90
        0
280
     0
281
     0
  0
CLASS
  1
LAYOUT
  2
AcDbLayout
  3
ObjectDBX Classes
 90
        0
280
     0
281
     0
  0
CLASS
  1
DICTIONARYVAR
  2
AcDbDictionaryVar
  3
ObjectDBX Classes
 90
        0
280
     0
281
     0
  0
CLASS
  1
TABLESTYLE
  2
AcDbTableStyle
  3
ObjectDBX Classes
 90
     4095
280
     0
281
     0
  0
CLASS
  1
MATERIAL
  2
AcDbMaterial
  3
ObjectDBX Classes
 90
     1153
280
     0
281
     0
  0
CLASS
  1
VISUALSTYLE
  2
AcDbVisualStyle
  3
ObjectDBX Classes
 90
     4095
280
     0
281
     0
  0
CLASS
  1
SCALE
  2
AcDbScale
  3
ObjectDBX Classes
 90
     1153
280
     0
281
     0
  0
CLASS
  1
CELLSTYLEMAP
  2
AcDbCellStyleMap
  3
ObjectDBX Classes
 90
     1152
280
     0
281
     0
  0
CLASS
  1
RASTERVARIABLES
  2
AcDbRasterVariables
  3
ISM
 90
        0
280
     0
281
     0
  0
CLASS
  1
SUN
  2
AcDbSun
  3
SCENEOE
 90
     1153
280
     0
281
     0
  0
CLASS
  1
DIMASSOC
  2
AcDbDimAssoc
  3
"AcDbDimAssoc|Product Desc:     AcDim ARX App For Dimension|Company:          Autodesk, Inc.|WEB Address:      www.autodesk.com"
 90
        0
280
     0
281
     0
  0
CLASS
  1
XRECORD
  2
AcDbXrecord
  3
ObjectDBX Classes
 90
        0
280
     0
281
     0
  0
CLASS
  1
LWPOLYLINE
  2
AcDbPolyline
  3
ObjectDBX Classes
 90
        0
280
     0
281
     1
  0
CLASS
  1
HATCH
  2
AcDbHatch
  3
ObjectDBX Classes
 90
        0
280
     0
281
     1
  0
ENDSEC
  0
SECTION
  2
TABLES
  0
TABLE
  2
VPORT
  5
8
330
0
100
AcDbSymbolTable
 70
     1
  0
VPORT
  5
94
330
8
100
AcDbSymbolTableRecord
100
AcDbViewportTableRecord
  2
*ACTIVE
 70
     0
 10
0.0
 20
0.0
 11
1.0
 21
1.0
 12
271.9006252398165
 22
172.3050237878242
 13
0.0
 23
0.0
 14
0.5
 24
0.5
 15
0.5
 25
0.5
 16
0.0
 26
0.0
 36
1.0
 17
-27.66959356598028
 27
-19.53870295786203
 37
0.0
 40
279.518920112223
 41
1.260923845193508
 42
50.0
 43
0.0
 44
0.0
 50
0.0
 51
0.0
 71
    16
 72
  1000
 73
     1
 74
     3
 75
     0
 76
     0
 77
     0
 78
     0
  0
ENDTAB
  0
TABLE
  2
LTYPE
  5
5
330
0
100
AcDbSymbolTable
 70
     1
  0
LTYPE
  5
14
330
5
100
AcDbSymbolTableRecord
100
AcDbLinetypeTableRecord
  2
BYBLOCK
 70
     0
  3

 72
    65
 73
     0
 40
0.0
  0
LTYPE
  5
15
330
5
100
AcDbSymbolTableRecord
100
AcDbLinetypeTableRecord
  2
BYLAYER
 70
     0
  3
Solid line
 72
    65
 73
     0
 40
0.0
  0
LTYPE
  5
16
330
5
100
AcDbSymbolTableRecord
100
AcDbLinetypeTableRecord
  2
CONTINUOUS
 70
     0
  3
Solid line
 72
    65
 73
     0
 40
0.0
  0
ENDTAB
  0
TABLE
  2
LAYER
  5
2
102
{ACAD_XDICTIONARY
360
49C
102
}
330
0
100
AcDbSymbolTable
 70
     6
  0
LAYER
  5
10
330
2
100
AcDbSymbolTableRecord
100
AcDbLayerTableRecord
  2
0
 70
     0
 62
     7
  6
CONTINUOUS
  0
LAYER
  5
125
330
2
100
AcDbSymbolTableRecord
100
AcDbLayerTableRecord
  2
DEFPOINTS
 70
     0
 62
     7
  6
CONTINUOUS
  0
LAYER
  5
126
330
2
100
AcDbSymbolTableRecord
100
AcDbLayerTableRecord
  2
KOTY
 70
     0
 62
     1
  6
CONTINUOUS
  0
LAYER
  5
129
330
2
100
AcDbSymbolTableRecord
100
AcDbLayerTableRecord
  2
HLAVNÍ_OBRYSY
 70
     0
 62
     5
  6
CONTINUOUS
  0
LAYER
  5
12A
330
2
100
AcDbSymbolTableRecord
100
AcDbLayerTableRecord
  2
OSTATNÍ_OBRYSY
 70
     0
 62
     5
  6
CONTINUOUS
  0
LAYER
  5
537
330
2
100
AcDbSymbolTableRecord
100
AcDbLayerTableRecord
  2
POZNAMKY
 70
     0
 62
   250
  6
CONTINUOUS
1001
ACAECLAYERSTANDARD
1000

1000

  0
ENDTAB
  0
TABLE
  2
STYLE
  5
3
330
0
100
AcDbSymbolTable
 70
     1
  0
STYLE
  5
11
330
3
100
AcDbSymbolTableRecord
100
AcDbTextStyleTableRecord
  2
STANDARD
 70
     0
 40
0.0
 41
1.0
 50
0.0
 71
     0
 42
0.2
  3
arial.ttf
  4

1001
ACAD
1000
Arial
1071
        0
  0
ENDTAB
  0
TABLE
  2
VIEW
  5
6
330
0
100
AcDbSymbolTable
 70
     0
  0
ENDTAB
  0
TABLE
  2
UCS
  5
7
330
0
100
AcDbSymbolTable
 70
     0
  0
ENDTAB
  0
TABLE
  2
APPID
  5
9
330
0
100
AcDbSymbolTable
 70
     2
  0
APPID
  5
12
330
9
100
AcDbSymbolTableRecord
100
AcDbRegAppTableRecord
  2
ACAD
 70
     0
  0
APPID
  5
538
330
9
100
AcDbSymbolTableRecord
100
AcDbRegAppTableRecord
  2
ACAECLAYERSTANDARD
 70
     0
  0
ENDTAB
  0
TABLE
  2
DIMSTYLE
  5
A
330
0
100
AcDbSymbolTable
 70
     2
  0
DIMSTYLE
105
27
102
{ACAD_REACTORS
330
333
330
33F
330
340
330
404
330
405
330
440
102
}
330
A
100
AcDbSymbolTableRecord
100
AcDbDimStyleTableRecord
  2
STANDARD
 70
     0
  3

  4

  5

  6

  7

 40
1.0
 41
0.18
 42
0.0625
 43
0.38
 44
0.18
 45
0.0
 46
0.0
 47
0.0
 48
0.0
140
0.18
141
0.09
142
0.0
143
25.4
144
1.0
145
0.0
146
1.0
147
0.09
 71
     0
 72
     0
 73
     1
 74
     1
 75
     0
 76
     0
 77
     0
 78
     0
170
     0
171
     2
172
     0
173
     0
174
     0
175
     0
176
     0
177
     0
178
     0
270
     2
271
     4
272
     4
273
     2
274
     2
340
11
275
     0
280
     0
281
     0
282
     0
283
     1
284
     0
285
     0
286
     0
287
     3
288
     0
  0
DIMSTYLE
105
12D
330
A
100
AcDbSymbolTableRecord
100
AcDbDimStyleTableRecord
  2
ISO-25
 70
     0
  3

  4

  5

  6

  7

 40
1.0
 41
6.0
 42
0.0
 43
3.75
 44
1.25
 45
0.0
 46
0.0
 47
0.0
 48
0.0
140
3.0
141
2.5
142
0.0
143
0.03937007874016
144
1.0
145
0.0
146
1.0
147
0.625
 71
     0
 72
     0
 73
     0
 74
     1
 75
     0
 76
     0
 77
     1
 78
     8
170
     0
171
     3
172
     1
173
     0
174
     0
175
     0
176
     5
177
     5
178
     5
270
     2
271
     4
272
     4
273
     2
274
     2
340
11
275
     0
280
     0
281
     0
282
     0
283
     1
284
     0
285
     0
286
     0
287
     3
288
     0
  0
ENDTAB
  0
TABLE
  2
BLOCK_RECORD
  5
1
330
0
100
AcDbSymbolTable
 70
    20
  0
BLOCK_RECORD
  5
1F
330
1
100
AcDbSymbolTableRecord
100
AcDbBlockTableRecord
  2
*MODEL_SPACE
  0
BLOCK_RECORD
  5
58
330
1
100
AcDbSymbolTableRecord
100
AcDbBlockTableRecord
  2
*PAPER_SPACE
  0
BLOCK_RECORD
  5
5D
330
1
100
AcDbSymbolTableRecord
100
AcDbBlockTableRecord
  2
*PAPER_SPACE0
  0
BLOCK_RECORD
  5
17E
330
1
100
AcDbSymbolTableRecord
100
AcDbBlockTableRecord
  2
*D1
  0
BLOCK_RECORD
  5
197
330
1
100
AcDbSymbolTableRecord
100
AcDbBlockTableRecord
  2
*D2
  0
BLOCK_RECORD
  5
1A5
330
1
100
AcDbSymbolTableRecord
100
AcDbBlockTableRecord
  2
*D3
  0
BLOCK_RECORD
  5
276
330
1
100
AcDbSymbolTableRecord
100
AcDbBlockTableRecord
  2
*D4
  0
BLOCK_RECORD
  5
27E
330
1
100
AcDbSymbolTableRecord
100
AcDbBlockTableRecord
  2
*U5
  0
BLOCK_RECORD
  5
287
330
1
100
AcDbSymbolTableRecord
100
AcDbBlockTableRecord
  2
*D6
  0
BLOCK_RECORD
  5
28F
330
1
100
AcDbSymbolTableRecord
100
AcDbBlockTableRecord
  2
*U7
  0
BLOCK_RECORD
  5
2D2
330
1
100
AcDbSymbolTableRecord
100
AcDbBlockTableRecord
  2
*D8
  0
BLOCK_RECORD
  5
2DA
330
1
100
AcDbSymbolTableRecord
100
AcDbBlockTableRecord
  2
*U9
  0
BLOCK_RECORD
  5
2E3
330
1
100
AcDbSymbolTableRecord
100
AcDbBlockTableRecord
  2
*U10
  0
BLOCK_RECORD
  5
2E8
330
1
100
AcDbSymbolTableRecord
100
AcDbBlockTableRecord
  2
*U11
  0
BLOCK_RECORD
  5
2ED
330
1
100
AcDbSymbolTableRecord
100
AcDbBlockTableRecord
  2
*U12
  0
BLOCK_RECORD
  5
44E
330
1
100
AcDbSymbolTableRecord
100
AcDbBlockTableRecord
  2
*D13
  0
BLOCK_RECORD
  5
45B
330
1
100
AcDbSymbolTableRecord
100
AcDbBlockTableRecord
  2
*D14
  0
BLOCK_RECORD
  5
468
330
1
100
AcDbSymbolTableRecord
100
AcDbBlockTableRecord
  2
*D15
  0
BLOCK_RECORD
  5
475
330
1
100
AcDbSymbolTableRecord
100
AcDbBlockTableRecord
  2
*D16
  0
BLOCK_RECORD
  5
482
330
1
100
AcDbSymbolTableRecord
100
AcDbBlockTableRecord
  2
*D17
  0
BLOCK_RECORD
  5
48F
330
1
100
AcDbSymbolTableRecord
100
AcDbBlockTableRecord
  2
*D18
  0
BLOCK_RECORD
  5
4AF
330
1
100
AcDbSymbolTableRecord
100
AcDbBlockTableRecord
  2
*D19
  0
ENDTAB
  0
ENDSEC
  0
SECTION
  2
BLOCKS
  0
BLOCK
  5
20
330
1F
100
AcDbEntity
  8
0
100
AcDbBlockBegin
  2
*MODEL_SPACE
 70
     0
 10
0.0
 20
0.0
 30
0.0
  3
*MODEL_SPACE
  1

  0
ENDBLK
  5
21
330
1F
100
AcDbEntity
  8
0
100
AcDbBlockEnd
  0
BLOCK
  5
5A
330
58
100
AcDbEntity
 67
     1
  8
0
100
AcDbBlockBegin
  2
*PAPER_SPACE
 70
     0
 10
0.0
 20
0.0
 30
0.0
  3
*PAPER_SPACE
  1

  0
ENDBLK
  5
5B
330
58
100
AcDbEntity
 67
     1
  8
0
100
AcDbBlockEnd
  0
BLOCK
  5
5F
330
5D
100
AcDbEntity
  8
0
100
AcDbBlockBegin
  2
*PAPER_SPACE0
 70
     0
 10
0.0
 20
0.0
 30
0.0
  3
*PAPER_SPACE0
  1
*PAPER_SPACE0
  0
ENDBLK
  5
60
330
5D
100
AcDbEntity
  8
0
100
AcDbBlockEnd
  0
BLOCK
  5
17F
330
17E
100
AcDbEntity
  8
0
100
AcDbBlockBegin
  2
*D1
 70
     1
 10
0.0
 20
0.0
 30
0.0
  3
*D1
  1
*D2
  0
LINE
  5
180
330
17E
100
AcDbEntity
  8
OSTATNÍ_OBRYSY
 62
     0
100
AcDbLine
 10
35.66243438523895
 20
101.6257186085159
 30
0.0
 11
0.2850000000000174
 21
101.6257186085158
 31
0.0
  0
LINE
  5
181
330
17E
100
AcDbEntity
  8
OSTATNÍ_OBRYSY
 62
     0
100
AcDbLine
 10
35.66243438523895
 20
11.62571860851585
 30
0.0
 11
0.2850000000000318
 21
11.62571860851584
 31
0.0
  0
LINE
  5
182
330
17E
100
AcDbEntity
  8
OSTATNÍ_OBRYSY
 62
     0
100
AcDbLine
 10
0.4650000000000174
 20
101.4457186085158
 30
0.0
 11
0.4650000000000246
 21
56.80760860851584
 31
0.0
  0
LINE
  5
183
330
17E
100
AcDbEntity
  8
OSTATNÍ_OBRYSY
 62
     0
100
AcDbLine
 10
0.4650000000000318
 20
11.80571860851584
 30
0.0
 11
0.4650000000000246
 21
56.44382860851584
 31
0.0
  0
SOLID
  5
184
330
17E
100
AcDbEntity
  8
OSTATNÍ_OBRYSY
 62
     0
100
AcDbTrace
 10
0.4950000000000174
 20
101.4457186085158
 30
0.0
 11
0.4350000000000174
 21
101.4457186085158
 31
0.0
 12
0.4650000000000173
 22
101.6257186085158
 32
0.0
 13
0.4650000000000173
 23
101.6257186085158
 33
0.0
  0
SOLID
  5
185
330
17E
100
AcDbEntity
  8
OSTATNÍ_OBRYSY
 62
     0
100
AcDbTrace
 10
0.4350000000000318
 20
11.80571860851584
 30
0.0
 11
0.4950000000000317
 21
11.80571860851584
 31
0.0
 12
0.4650000000000318
 22
11.62571860851584
 32
0.0
 13
0.4650000000000318
 23
11.62571860851584
 33
0.0
  0
MTEXT
  5
186
330
17E
100
AcDbEntity
  8
OSTATNÍ_OBRYSY
 62
     0
100
AcDbMText
 10
0.4650000000000246
 20
56.62571860851584
 30
0.0
 40
0.18
 41
0.0
 71
     5
 72
     1
  1
\A1;90.0000
  0
POINT
  5
187
330
17E
100
AcDbEntity
  8
DEFPOINTS
 62
     0
100
AcDbPoint
 10
35.72493438523895
 20
101.6257186085159
 30
0.0
  0
POINT
  5
188
330
17E
100
AcDbEntity
  8
DEFPOINTS
 62
     0
100
AcDbPoint
 10
35.72493438523895
 20
11.62571860851585
 30
0.0
  0
POINT
  5
189
330
17E
100
AcDbEntity
  8
DEFPOINTS
 62
     0
100
AcDbPoint
 10
0.4650000000000318
 20
11.62571860851584
 30
0.0
  0
ENDBLK
  5
18A
330
17E
100
AcDbEntity
  8
0
100
AcDbBlockEnd
  0
BLOCK
  5
198
330
197
100
AcDbEntity
  8
0
100
AcDbBlockBegin
  2
*D2
 70
     1
 10
0.0
 20
0.0
 30
0.0
  3
*D2
  1
*D3
  0
LINE
  5
199
330
197
100
AcDbEntity
  8
KOTY
 62
     0
100
AcDbLine
 10
80.22493438523895
 20
37.96321860851594
 30
0.0
 11
80.22493438523895
 21
1.498912573920791
 31
0.0
  0
LINE
  5
19A
330
197
100
AcDbEntity
  8
KOTY
 62
     0
100
AcDbLine
 10
23.22493438523895
 20
34.06321860851585
 30
0.0
 11
23.22493438523895
 21
1.498912573920798
 31
0.0
  0
LINE
  5
19B
330
197
100
AcDbEntity
  8
KOTY
 62
     0
100
AcDbLine
 10
80.04493438523895
 20
1.678912573920791
 30
0.0
 11
52.25764438523895
 21
1.678912573920794
 31
0.0
  0
LINE
  5
19C
330
197
100
AcDbEntity
  8
KOTY
 62
     0
100
AcDbLine
 10
23.40493438523895
 20
1.678912573920798
 30
0.0
 11
51.19222438523895
 21
1.678912573920794
 31
0.0
  0
SOLID
  5
19D
330
197
100
AcDbEntity
  8
KOTY
 62
     0
100
AcDbTrace
 10
80.04493438523895
 20
1.648912573920791
 30
0.0
 11
80.04493438523895
 21
1.708912573920791
 31
0.0
 12
80.22493438523895
 22
1.678912573920791
 32
0.0
 13
80.22493438523895
 23
1.678912573920791
 33
0.0
  0
SOLID
  5
19E
330
197
100
AcDbEntity
  8
KOTY
 62
     0
100
AcDbTrace
 10
23.40493438523895
 20
1.708912573920798
 30
0.0
 11
23.40493438523895
 21
1.648912573920797
 31
0.0
 12
23.22493438523895
 22
1.678912573920798
 32
0.0
 13
23.22493438523895
 23
1.678912573920798
 33
0.0
  0
MTEXT
  5
19F
330
197
100
AcDbEntity
  8
KOTY
 62
     0
100
AcDbMText
 10
51.72493438523895
 20
1.678912573920794
 30
0.0
 40
0.18
 41
0.0
 71
     5
 72
     1
  1
\A1;57.0000
  0
POINT
  5
1A0
330
197
100
AcDbEntity
  8
DEFPOINTS
 62
     0
100
AcDbPoint
 10
80.22493438523895
 20
38.02571860851594
 30
0.0
  0
POINT
  5
1A1
330
197
100
AcDbEntity
  8
DEFPOINTS
 62
     0
100
AcDbPoint
 10
23.22493438523895
 20
34.12571860851585
 30
0.0
  0
POINT
  5
1A2
330
197
100
AcDbEntity
  8
DEFPOINTS
 62
     0
100
AcDbPoint
 10
23.22493438523895
 20
1.678912573920798
 30
0.0
  0
ENDBLK
  5
1A3
330
197
100
AcDbEntity
  8
0
100
AcDbBlockEnd
  0
BLOCK
  5
1A6
330
1A5
100
AcDbEntity
  8
0
100
AcDbBlockBegin
  2
*D3
 70
     1
 10
0.0
 20
0.0
 30
0.0
  3
*D3
  1
*D4
  0
LINE
  5
1A7
330
1A5
100
AcDbEntity
  8
KOTY
 62
     0
100
AcDbLine
 10
23.16243438523895
 20
79.12571860851585
 30
0.0
 11
13.08675379278355
 21
79.12571860851585
 31
0.0
  0
LINE
  5
1A8
330
1A5
100
AcDbEntity
  8
KOTY
 62
     0
100
AcDbLine
 10
23.16243438523895
 20
34.12571860851585
 30
0.0
 11
13.08675379278356
 21
34.12571860851585
 31
0.0
  0
LINE
  5
1A9
330
1A5
100
AcDbEntity
  8
KOTY
 62
     0
100
AcDbLine
 10
13.26675379278355
 20
78.94571860851585
 30
0.0
 11
13.26675379278356
 21
56.80760860851586
 31
0.0
  0
LINE
  5
1AA
330
1A5
100
AcDbEntity
  8
KOTY
 62
     0
100
AcDbLine
 10
13.26675379278356
 20
34.30571860851585
 30
0.0
 11
13.26675379278356
 21
56.44382860851585
 31
0.0
  0
SOLID
  5
1AB
330
1A5
100
AcDbEntity
  8
KOTY
 62
     0
100
AcDbTrace
 10
13.29675379278355
 20
78.94571860851585
 30
0.0
 11
13.23675379278355
 21
78.94571860851585
 31
0.0
 12
13.26675379278355
 22
79.12571860851585
 32
0.0
 13
13.26675379278355
 23
79.12571860851585
 33
0.0
  0
SOLID
  5
1AC
330
1A5
100
AcDbEntity
  8
KOTY
 62
     0
100
AcDbTrace
 10
13.23675379278356
 20
34.30571860851585
 30
0.0
 11
13.29675379278356
 21
34.30571860851585
 31
0.0
 12
13.26675379278356
 22
34.12571860851585
 32
0.0
 13
13.26675379278356
 23
34.12571860851585
 33
0.0
  0
MTEXT
  5
1AD
330
1A5
100
AcDbEntity
  8
KOTY
 62
     0
100
AcDbMText
 10
13.26675379278356
 20
56.62571860851585
 30
0.0
 40
0.18
 41
0.0
 71
     5
 72
     1
  1
\A1;45.0000
  0
POINT
  5
1AE
330
1A5
100
AcDbEntity
  8
DEFPOINTS
 62
     0
100
AcDbPoint
 10
23.22493438523895
 20
79.12571860851585
 30
0.0
  0
POINT
  5
1AF
330
1A5
100
AcDbEntity
  8
DEFPOINTS
 62
     0
100
AcDbPoint
 10
23.22493438523895
 20
34.12571860851585
 30
0.0
  0
POINT
  5
1B0
330
1A5
100
AcDbEntity
  8
DEFPOINTS
 62
     0
100
AcDbPoint
 10
13.26675379278356
 20
34.12571860851585
 30
0.0
  0
ENDBLK
  5
1B1
330
1A5
100
AcDbEntity
  8
0
100
AcDbBlockEnd
  0
BLOCK
  5
277
330
276
100
AcDbEntity
  8
0
100
AcDbBlockBegin
  2
*D4
 70
     1
 10
0.0
 20
0.0
 30
0.0
  3
*D4
  1
*D5
  0
LINE
  5
278
330
276
100
AcDbEntity
  8
KOTY
 62
     0
100
AcDbLine
 10
110.0271592676055
 20
11.56321860851585
 30
0.0
 11
110.0271592676055
 21
1.445718608515854
 31
0.0
  0
LINE
  5
279
330
276
100
AcDbEntity
  8
KOTY
 62
     0
100
AcDbLine
 10
128.0271592676054
 20
11.56321860851585
 30
0.0
 11
128.0271592676054
 21
1.445718608515854
 31
0.0
  0
LINE
  5
27A
330
276
100
AcDbEntity
  8
KOTY
 62
     0
100
AcDbLine
 10
110.2071592676055
 20
1.625718608515854
 30
0.0
 11
118.5029092676054
 21
1.625718608515854
 31
0.0
  0
LINE
  5
27B
330
276
100
AcDbEntity
  8
KOTY
 62
     0
100
AcDbLine
 10
127.8471592676054
 20
1.625718608515854
 30
0.0
 11
119.5514092676055
 21
1.625718608515854
 31
0.0
  0
SOLID
  5
27C
330
276
100
AcDbEntity
  8
KOTY
 62
     0
100
AcDbTrace
 10
110.2071592676055
 20
1.655718608515854
 30
0.0
 11
110.2071592676055
 21
1.595718608515854
 31
0.0
 12
110.0271592676055
 22
1.625718608515854
 32
0.0
 13
110.0271592676055
 23
1.625718608515854
 33
0.0
  0
SOLID
  5
27D
330
276
100
AcDbEntity
  8
KOTY
 62
     0
100
AcDbTrace
 10
127.8471592676054
 20
1.595718608515854
 30
0.0
 11
127.8471592676054
 21
1.655718608515854
 31
0.0
 12
128.0271592676054
 22
1.625718608515854
 32
0.0
 13
128.0271592676054
 23
1.625718608515854
 33
0.0
  0
MTEXT
  5
282
330
276
100
AcDbEntity
  8
KOTY
 62
     0
100
AcDbMText
 10
119.0271592676054
 20
1.625718608515854
 30
0.0
 40
0.18
 41
0.0
 71
     5
 72
     1
  1
\A1;18.0000
  0
POINT
  5
283
330
276
100
AcDbEntity
  8
DEFPOINTS
 62
     0
100
AcDbPoint
 10
110.0271592676055
 20
11.62571860851585
 30
0.0
  0
POINT
  5
284
330
276
100
AcDbEntity
  8
DEFPOINTS
 62
     0
100
AcDbPoint
 10
128.0271592676054
 20
11.62571860851585
 30
0.0
  0
POINT
  5
2FD
330
276
100
AcDbEntity
  8
DEFPOINTS
 62
     0
100
AcDbPoint
 10
128.0271592676054
 20
1.625718608515854
 30
0.0
  0
ENDBLK
  5
285
330
276
100
AcDbEntity
  8
0
100
AcDbBlockEnd
  0
BLOCK
  5
27F
330
27E
100
AcDbEntity
  8
0
100
AcDbBlockBegin
  2
*U5
 70
     1
 10
0.0
 20
0.0
 30
0.0
  3
*U5
  1
*U6
  0
TEXT
  5
280
330
27E
100
AcDbEntity
  8
KOTY
 62
     5
100
AcDbText
 10
716.3343118276302
 20
1742.43491562297
 30
0.0
 40
3.0
  1
18
100
AcDbText
  0
ENDBLK
  5
281
330
27E
100
AcDbEntity
  8
0
100
AcDbBlockEnd
  0
BLOCK
  5
288
330
287
100
AcDbEntity
  8
0
100
AcDbBlockBegin
  2
*D6
 70
     1
 10
0.0
 20
0.0
 30
0.0
  3
*D6
  1
*D7
  0
LINE
  5
289
330
287
100
AcDbEntity
  8
KOTY
 62
     0
100
AcDbLine
 10
141.7383952589648
 20
11.13494117637788
 30
0.0
 11
141.7383952589648
 21
1.07000000000091
 31
0.0
  0
LINE
  5
28A
330
287
100
AcDbEntity
  8
KOTY
 62
     0
100
AcDbLine
 10
177.7383952589648
 20
11.13494117637788
 30
0.0
 11
177.7383952589648
 21
1.07000000000091
 31
0.0
  0
LINE
  5
28B
330
287
100
AcDbEntity
  8
KOTY
 62
     0
100
AcDbLine
 10
141.9183952589648
 20
1.250000000000909
 30
0.0
 11
159.2057752589648
 21
1.250000000000909
 31
0.0
  0
LINE
  5
28C
330
287
100
AcDbEntity
  8
KOTY
 62
     0
100
AcDbLine
 10
177.5583952589648
 20
1.250000000000909
 30
0.0
 11
160.2710152589648
 21
1.250000000000909
 31
0.0
  0
SOLID
  5
28D
330
287
100
AcDbEntity
  8
KOTY
 62
     0
100
AcDbTrace
 10
141.9183952589648
 20
1.28000000000091
 30
0.0
 11
141.9183952589648
 21
1.220000000000909
 31
0.0
 12
141.7383952589648
 22
1.250000000000909
 32
0.0
 13
141.7383952589648
 23
1.250000000000909
 33
0.0
  0
SOLID
  5
28E
330
287
100
AcDbEntity
  8
KOTY
 62
     0
100
AcDbTrace
 10
177.5583952589648
 20
1.220000000000909
 30
0.0
 11
177.5583952589648
 21
1.28000000000091
 31
0.0
 12
177.7383952589648
 22
1.250000000000909
 32
0.0
 13
177.7383952589648
 23
1.250000000000909
 33
0.0
  0
MTEXT
  5
293
330
287
100
AcDbEntity
  8
KOTY
 62
     0
100
AcDbMText
 10
159.7383952589648
 20
1.250000000000909
 30
0.0
 40
0.18
 41
0.0
 71
     5
 72
     1
  1
\A1;36.0000
  0
POINT
  5
294
330
287
100
AcDbEntity
  8
DEFPOINTS
 62
     0
100
AcDbPoint
 10
141.7383952589648
 20
11.19744117637788
 30
0.0
  0
POINT
  5
295
330
287
100
AcDbEntity
  8
DEFPOINTS
 62
     0
100
AcDbPoint
 10
177.7383952589648
 20
11.19744117637788
 30
0.0
  0
POINT
  5
2FE
330
287
100
AcDbEntity
  8
DEFPOINTS
 62
     0
100
AcDbPoint
 10
177.7383952589648
 20
1.250000000000909
 30
0.0
  0
ENDBLK
  5
296
330
287
100
AcDbEntity
  8
0
100
AcDbBlockEnd
  0
BLOCK
  5
290
330
28F
100
AcDbEntity
  8
0
100
AcDbBlockBegin
  2
*U7
 70
     1
 10
0.0
 20
0.0
 30
0.0
  3
*U7
  1
*U8
  0
TEXT
  5
291
330
28F
100
AcDbEntity
  8
KOTY
 62
     5
100
AcDbText
 10
757.1898179417728
 20
1742.061243399175
 30
0.0
 40
3.0
  1
36
100
AcDbText
  0
ENDBLK
  5
292
330
28F
100
AcDbEntity
  8
0
100
AcDbBlockEnd
  0
BLOCK
  5
2D3
330
2D2
100
AcDbEntity
  8
0
100
AcDbBlockBegin
  2
*D8
 70
     1
 10
0.0
 20
0.0
 30
0.0
  3
*D8
  1
*D9
  0
LINE
  5
2D4
330
2D2
100
AcDbEntity
  8
KOTY
 62
     0
100
AcDbLine
 10
184.3771526598291
 20
11.34907989244698
 30
0.0
 11
184.3771526598291
 21
1.23157989244698
 31
0.0
  0
LINE
  5
2D5
330
2D2
100
AcDbEntity
  8
KOTY
 62
     0
100
AcDbLine
 10
256.377152659829
 20
11.34907989244698
 30
0.0
 11
256.377152659829
 21
1.23157989244698
 31
0.0
  0
LINE
  5
2D6
330
2D2
100
AcDbEntity
  8
KOTY
 62
     0
100
AcDbLine
 10
184.5571526598291
 20
1.41157989244698
 30
0.0
 11
219.845162659829
 21
1.41157989244698
 31
0.0
  0
LINE
  5
2D7
330
2D2
100
AcDbEntity
  8
KOTY
 62
     0
100
AcDbLine
 10
256.197152659829
 20
1.41157989244698
 30
0.0
 11
220.9091426598291
 21
1.41157989244698
 31
0.0
  0
SOLID
  5
2D8
330
2D2
100
AcDbEntity
  8
KOTY
 62
     0
100
AcDbTrace
 10
184.5571526598291
 20
1.44157989244698
 30
0.0
 11
184.5571526598291
 21
1.38157989244698
 31
0.0
 12
184.3771526598291
 22
1.41157989244698
 32
0.0
 13
184.3771526598291
 23
1.41157989244698
 33
0.0
  0
SOLID
  5
2D9
330
2D2
100
AcDbEntity
  8
KOTY
 62
     0
100
AcDbTrace
 10
256.197152659829
 20
1.38157989244698
 30
0.0
 11
256.197152659829
 21
1.44157989244698
 31
0.0
 12
256.377152659829
 22
1.41157989244698
 32
0.0
 13
256.377152659829
 23
1.41157989244698
 33
0.0
  0
MTEXT
  5
2DE
330
2D2
100
AcDbEntity
  8
KOTY
 62
     0
100
AcDbMText
 10
220.3771526598291
 20
1.41157989244698
 30
0.0
 40
0.18
 41
0.0
 71
     5
 72
     1
  1
\A1;72.0000
  0
POINT
  5
2DF
330
2D2
100
AcDbEntity
  8
DEFPOINTS
 62
     0
100
AcDbPoint
 10
184.3771526598291
 20
11.41157989244698
 30
0.0
  0
POINT
  5
2E0
330
2D2
100
AcDbEntity
  8
DEFPOINTS
 62
     0
100
AcDbPoint
 10
256.377152659829
 20
11.41157989244698
 30
0.0
  0
POINT
  5
2FF
330
2D2
100
AcDbEntity
  8
DEFPOINTS
 62
     0
100
AcDbPoint
 10
256.377152659829
 20
1.41157989244698
 30
0.0
  0
ENDBLK
  5
2E1
330
2D2
100
AcDbEntity
  8
0
100
AcDbBlockEnd
  0
BLOCK
  5
2DB
330
2DA
100
AcDbEntity
  8
0
100
AcDbBlockBegin
  2
*U9
 70
     1
 10
0.0
 20
0.0
 30
0.0
  3
*U9
  1
*U10
  0
TEXT
  5
2DC
330
2DA
100
AcDbEntity
  8
KOTY
 62
     5
100
AcDbText
 10
817.8316449197176
 20
1742.169617288893
 30
0.0
 40
3.0
  1
72
100
AcDbText
  0
ENDBLK
  5
2DD
330
2DA
100
AcDbEntity
  8
0
100
AcDbBlockEnd
  0
BLOCK
  5
2E4
330
2E3
100
AcDbEntity
  8
0
100
AcDbBlockBegin
  2
*U10
 70
     1
 10
0.0
 20
0.0
 30
0.0
  3
*U10
  1
*U11
  0
TEXT
  5
2E5
330
2E3
100
AcDbEntity
  8
KOTY
100
AcDbText
 10
712.5599272838115
 20
1844.363018938138
 30
0.0
 40
2.5
  1
RTO-16
100
AcDbText
  0
ENDBLK
  5
2E6
330
2E3
100
AcDbEntity
  8
0
100
AcDbBlockEnd
  0
BLOCK
  5
2E9
330
2E8
100
AcDbEntity
  8
0
100
AcDbBlockBegin
  2
*U11
 70
     1
 10
0.0
 20
0.0
 30
0.0
  3
*U11
  1
*U12
  0
TEXT
  5
2EA
330
2E8
100
AcDbEntity
  8
KOTY
100
AcDbText
 10
751.2574692031087
 20
1844.363019434062
 30
0.0
 40
2.5
  1
RTO-35
100
AcDbText
  0
ENDBLK
  5
2EB
330
2E8
100
AcDbEntity
  8
0
100
AcDbBlockEnd
  0
BLOCK
  5
2EE
330
2ED
100
AcDbEntity
  8
0
100
AcDbBlockBegin
  2
*U12
 70
     1
 10
0.0
 20
0.0
 30
0.0
  3
*U12
  1
*U13
  0
TEXT
  5
2EF
330
2ED
100
AcDbEntity
  8
KOTY
100
AcDbText
 10
812.4173774192984
 20
1844.363019434062
 30
0.0
 40
2.5
  1
RTO-63
100
AcDbText
  0
ENDBLK
  5
2F0
330
2ED
100
AcDbEntity
  8
0
100
AcDbBlockEnd
  0
BLOCK
  5
44F
330
44E
100
AcDbEntity
  8
0
100
AcDbBlockBegin
  2
*D13
 70
     1
 10
0.0
 20
0.0
 30
0.0
  3
*D13
  1
*D14
  0
LINE
  5
451
330
44E
100
AcDbEntity
  8
KOTY
 62
     0
100
AcDbLine
 10
136.6313265666867
 20
197.8200974129082
 30
0.0
 11
101.2538921814477
 21
197.8200974129082
 31
0.0
  0
LINE
  5
452
330
44E
100
AcDbEntity
  8
KOTY
 62
     0
100
AcDbLine
 10
136.6313265666867
 20
107.8200974129082
 30
0.0
 11
101.2538921814477
 21
107.8200974129082
 31
0.0
  0
LINE
  5
453
330
44E
100
AcDbEntity
  8
KOTY
 62
     0
100
AcDbLine
 10
101.4338921814477
 20
193.8200974129082
 30
0.0
 11
101.4338921814477
 21
111.8200974129082
 31
0.0
  0
SOLID
  5
454
330
44E
100
AcDbEntity
  8
KOTY
 62
     0
100
AcDbTrace
 10
102.1005588481143
 20
193.8200974129082
 30
0.0
 11
100.767225514781
 21
193.8200974129082
 31
0.0
 12
101.4338921814477
 22
197.8200974129082
 32
0.0
 13
101.4338921814477
 23
197.8200974129082
 33
0.0
  0
SOLID
  5
455
330
44E
100
AcDbEntity
  8
KOTY
 62
     0
100
AcDbTrace
 10
100.767225514781
 20
111.8200974129082
 30
0.0
 11
102.1005588481144
 21
111.8200974129082
 31
0.0
 12
101.4338921814477
 22
107.8200974129082
 32
0.0
 13
101.4338921814477
 23
107.8200974129082
 33
0.0
  0
MTEXT
  5
456
330
44E
100
AcDbEntity
  8
KOTY
 62
     0
100
AcDbMText
 10
98.39189218144769
 20
152.8200974129082
 30
0.0
 40
4.0
 41
0.0
 71
     5
 72
     1
  1
\A1;90
 11
-3.157967714489334E-16
 21
1.0
 31
0.0
  0
POINT
  5
457
330
44E
100
AcDbEntity
  8
DEFPOINTS
 62
     0
100
AcDbPoint
 10
136.6938265666867
 20
197.8200974129082
 30
0.0
  0
POINT
  5
458
330
44E
100
AcDbEntity
  8
DEFPOINTS
 62
     0
100
AcDbPoint
 10
136.6938265666867
 20
107.8200974129082
 30
0.0
  0
POINT
  5
459
330
44E
100
AcDbEntity
  8
DEFPOINTS
 62
     0
100
AcDbPoint
 10
101.4338921814477
 20
107.8200974129082
 30
0.0
  0
ENDBLK
  5
450
330
44E
100
AcDbEntity
  8
0
100
AcDbBlockEnd
  0
BLOCK
  5
45C
330
45B
100
AcDbEntity
  8
0
100
AcDbBlockBegin
  2
*D14
 70
     1
 10
0.0
 20
0.0
 30
0.0
  3
*D14
  1
*D15
  0
LINE
  5
45E
330
45B
100
AcDbEntity
  8
KOTY
 62
     0
100
AcDbLine
 10
181.1938265666867
 20
134.1575974129083
 30
0.0
 11
181.1938265666867
 21
97.69329137831315
 31
0.0
  0
LINE
  5
45F
330
45B
100
AcDbEntity
  8
KOTY
 62
     0
100
AcDbLine
 10
124.1938265666867
 20
130.2575974129082
 30
0.0
 11
124.1938265666867
 21
97.69329137831315
 31
0.0
  0
LINE
  5
460
330
45B
100
AcDbEntity
  8
KOTY
 62
     0
100
AcDbLine
 10
177.1938265666867
 20
97.87329137831316
 30
0.0
 11
128.1938265666867
 21
97.87329137831316
 31
0.0
  0
SOLID
  5
461
330
45B
100
AcDbEntity
  8
KOTY
 62
     0
100
AcDbTrace
 10
177.1938265666867
 20
97.20662471164648
 30
0.0
 11
177.1938265666867
 21
98.53995804497983
 31
0.0
 12
181.1938265666867
 22
97.87329137831316
 32
0.0
 13
181.1938265666867
 23
97.87329137831316
 33
0.0
  0
SOLID
  5
462
330
45B
100
AcDbEntity
  8
KOTY
 62
     0
100
AcDbTrace
 10
128.1938265666867
 20
98.53995804497983
 30
0.0
 11
128.1938265666867
 21
97.20662471164648
 31
0.0
 12
124.1938265666867
 22
97.87329137831316
 32
0.0
 13
124.1938265666867
 23
97.87329137831316
 33
0.0
  0
MTEXT
  5
463
330
45B
100
AcDbEntity
  8
KOTY
 62
     0
100
AcDbMText
 10
152.6938265666867
 20
100.9072913783132
 30
0.0
 40
4.0
 41
0.0
 71
     5
 72
     1
  1
\A1;57
  0
POINT
  5
464
330
45B
100
AcDbEntity
  8
DEFPOINTS
 62
     0
100
AcDbPoint
 10
181.1938265666867
 20
134.2200974129083
 30
0.0
  0
POINT
  5
465
330
45B
100
AcDbEntity
  8
DEFPOINTS
 62
     0
100
AcDbPoint
 10
124.1938265666867
 20
130.3200974129082
 30
0.0
  0
POINT
  5
466
330
45B
100
AcDbEntity
  8
DEFPOINTS
 62
     0
100
AcDbPoint
 10
124.1938265666867
 20
97.87329137831316
 30
0.0
  0
ENDBLK
  5
45D
330
45B
100
AcDbEntity
  8
0
100
AcDbBlockEnd
  0
BLOCK
  5
469
330
468
100
AcDbEntity
  8
0
100
AcDbBlockBegin
  2
*D15
 70
     1
 10
0.0
 20
0.0
 30
0.0
  3
*D15
  1
*D16
  0
LINE
  5
46B
330
468
100
AcDbEntity
  8
KOTY
 62
     0
100
AcDbLine
 10
124.1313265666867
 20
175.3200974129082
 30
0.0
 11
114.0556459742313
 21
175.3200974129082
 31
0.0
  0
LINE
  5
46C
330
468
100
AcDbEntity
  8
KOTY
 62
     0
100
AcDbLine
 10
124.1313265666867
 20
130.3200974129082
 30
0.0
 11
114.0556459742313
 21
130.3200974129082
 31
0.0
  0
LINE
  5
46D
330
468
100
AcDbEntity
  8
KOTY
 62
     0
100
AcDbLine
 10
114.2356459742313
 20
171.3200974129082
 30
0.0
 11
114.2356459742313
 21
134.3200974129082
 31
0.0
  0
SOLID
  5
46E
330
468
100
AcDbEntity
  8
KOTY
 62
     0
100
AcDbTrace
 10
114.902312640898
 20
171.3200974129082
 30
0.0
 11
113.5689793075646
 21
171.3200974129082
 31
0.0
 12
114.2356459742313
 22
175.3200974129082
 32
0.0
 13
114.2356459742313
 23
175.3200974129082
 33
0.0
  0
SOLID
  5
46F
330
468
100
AcDbEntity
  8
KOTY
 62
     0
100
AcDbTrace
 10
113.5689793075646
 20
134.3200974129082
 30
0.0
 11
114.902312640898
 21
134.3200974129082
 31
0.0
 12
114.2356459742313
 22
130.3200974129082
 32
0.0
 13
114.2356459742313
 23
130.3200974129082
 33
0.0
  0
MTEXT
  5
470
330
468
100
AcDbEntity
  8
KOTY
 62
     0
100
AcDbMText
 10
111.2016459742313
 20
152.8200974129082
 30
0.0
 40
4.0
 41
0.0
 71
     5
 72
     1
  1
\A1;45
 11
-3.157967714489334E-16
 21
1.0
 31
0.0
  0
POINT
  5
471
330
468
100
AcDbEntity
  8
DEFPOINTS
 62
     0
100
AcDbPoint
 10
124.1938265666867
 20
175.3200974129082
 30
0.0
  0
POINT
  5
472
330
468
100
AcDbEntity
  8
DEFPOINTS
 62
     0
100
AcDbPoint
 10
124.1938265666867
 20
130.3200974129082
 30
0.0
  0
POINT
  5
473
330
468
100
AcDbEntity
  8
DEFPOINTS
 62
     0
100
AcDbPoint
 10
114.2356459742313
 20
130.3200974129082
 30
0.0
  0
ENDBLK
  5
46A
330
468
100
AcDbEntity
  8
0
100
AcDbBlockEnd
  0
BLOCK
  5
476
330
475
100
AcDbEntity
  8
0
100
AcDbBlockBegin
  2
*D16
 70
     1
 10
0.0
 20
0.0
 30
0.0
  3
*D16
  1
*D17
  0
LINE
  5
478
330
475
100
AcDbEntity
  8
KOTY
 62
     0
100
AcDbLine
 10
210.9960514490532
 20
107.7575974129082
 30
0.0
 11
210.9960514490532
 21
97.6400974129082
 31
0.0
  0
LINE
  5
479
330
475
100
AcDbEntity
  8
KOTY
 62
     0
100
AcDbLine
 10
228.9960514490531
 20
107.7575974129082
 30
0.0
 11
228.9960514490531
 21
97.6400974129082
 31
0.0
  0
LINE
  5
47A
330
475
100
AcDbEntity
  8
KOTY
 62
     0
100
AcDbLine
 10
214.9960514490532
 20
97.82009741290821
 30
0.0
 11
224.9960514490531
 21
97.82009741290821
 31
0.0
  0
SOLID
  5
47B
330
475
100
AcDbEntity
  8
KOTY
 62
     0
100
AcDbTrace
 10
214.9960514490532
 20
98.48676407957488
 30
0.0
 11
214.9960514490532
 21
97.15343074624154
 31
0.0
 12
210.9960514490532
 22
97.82009741290821
 32
0.0
 13
210.9960514490532
 23
97.82009741290821
 33
0.0
  0
SOLID
  5
47C
330
475
100
AcDbEntity
  8
KOTY
 62
     0
100
AcDbTrace
 10
224.9960514490531
 20
97.15343074624154
 30
0.0
 11
224.9960514490531
 21
98.48676407957488
 31
0.0
 12
228.9960514490531
 22
97.82009741290821
 32
0.0
 13
228.9960514490531
 23
97.82009741290821
 33
0.0
  0
MTEXT
  5
47D
330
475
100
AcDbEntity
  8
KOTY
 62
     0
100
AcDbMText
 10
219.9960514490531
 20
100.8620974129082
 30
0.0
 40
4.0
 41
0.0
 71
     5
 72
     1
  1
\A1;18
  0
POINT
  5
47E
330
475
100
AcDbEntity
  8
DEFPOINTS
 62
     0
100
AcDbPoint
 10
210.9960514490532
 20
107.8200974129082
 30
0.0
  0
POINT
  5
47F
330
475
100
AcDbEntity
  8
DEFPOINTS
 62
     0
100
AcDbPoint
 10
228.9960514490531
 20
107.8200974129082
 30
0.0
  0
POINT
  5
480
330
475
100
AcDbEntity
  8
DEFPOINTS
 62
     0
100
AcDbPoint
 10
228.9960514490531
 20
97.82009741290821
 30
0.0
  0
ENDBLK
  5
477
330
475
100
AcDbEntity
  8
0
100
AcDbBlockEnd
  0
BLOCK
  5
483
330
482
100
AcDbEntity
  8
0
100
AcDbBlockBegin
  2
*D17
 70
     1
 10
0.0
 20
0.0
 30
0.0
  3
*D17
  1
*D18
  0
LINE
  5
485
330
482
100
AcDbEntity
  8
KOTY
 62
     0
100
AcDbLine
 10
242.7072874404125
 20
107.3293199807702
 30
0.0
 11
242.7072874404125
 21
97.26437880439326
 31
0.0
  0
LINE
  5
486
330
482
100
AcDbEntity
  8
KOTY
 62
     0
100
AcDbLine
 10
278.7072874404125
 20
107.3293199807702
 30
0.0
 11
278.7072874404125
 21
97.26437880439326
 31
0.0
  0
LINE
  5
487
330
482
100
AcDbEntity
  8
KOTY
 62
     0
100
AcDbLine
 10
246.7072874404125
 20
97.44437880439327
 30
0.0
 11
274.7072874404125
 21
97.44437880439327
 31
0.0
  0
SOLID
  5
488
330
482
100
AcDbEntity
  8
KOTY
 62
     0
100
AcDbTrace
 10
246.7072874404125
 20
98.11104547105994
 30
0.0
 11
246.7072874404125
 21
96.7777121377266
 31
0.0
 12
242.7072874404125
 22
97.44437880439327
 32
0.0
 13
242.7072874404125
 23
97.44437880439327
 33
0.0
  0
SOLID
  5
489
330
482
100
AcDbEntity
  8
KOTY
 62
     0
100
AcDbTrace
 10
274.7072874404125
 20
96.7777121377266
 30
0.0
 11
274.7072874404125
 21
98.11104547105994
 31
0.0
 12
278.7072874404125
 22
97.44437880439327
 32
0.0
 13
278.7072874404125
 23
97.44437880439327
 33
0.0
  0
MTEXT
  5
48A
330
482
100
AcDbEntity
  8
KOTY
 62
     0
100
AcDbMText
 10
260.7072874404125
 20
100.4863788043933
 30
0.0
 40
4.0
 41
0.0
 71
     5
 72
     1
  1
\A1;36
  0
POINT
  5
48B
330
482
100
AcDbEntity
  8
DEFPOINTS
 62
     0
100
AcDbPoint
 10
242.7072874404125
 20
107.3918199807702
 30
0.0
  0
POINT
  5
48C
330
482
100
AcDbEntity
  8
DEFPOINTS
 62
     0
100
AcDbPoint
 10
278.7072874404125
 20
107.3918199807702
 30
0.0
  0
POINT
  5
48D
330
482
100
AcDbEntity
  8
DEFPOINTS
 62
     0
100
AcDbPoint
 10
278.7072874404125
 20
97.44437880439327
 30
0.0
  0
ENDBLK
  5
484
330
482
100
AcDbEntity
  8
0
100
AcDbBlockEnd
  0
BLOCK
  5
490
330
48F
100
AcDbEntity
  8
0
100
AcDbBlockBegin
  2
*D18
 70
     1
 10
0.0
 20
0.0
 30
0.0
  3
*D18
  1
*D19
  0
LINE
  5
492
330
48F
100
AcDbEntity
  8
KOTY
 62
     0
100
AcDbLine
 10
285.3460448412768
 20
107.5434586968393
 30
0.0
 11
285.3460448412768
 21
97.42595869683933
 31
0.0
  0
LINE
  5
493
330
48F
100
AcDbEntity
  8
KOTY
 62
     0
100
AcDbLine
 10
357.3460448412767
 20
107.5434586968393
 30
0.0
 11
357.3460448412767
 21
97.42595869683933
 31
0.0
  0
LINE
  5
494
330
48F
100
AcDbEntity
  8
KOTY
 62
     0
100
AcDbLine
 10
289.3460448412768
 20
97.60595869683934
 30
0.0
 11
353.3460448412767
 21
97.60595869683934
 31
0.0
  0
SOLID
  5
495
330
48F
100
AcDbEntity
  8
KOTY
 62
     0
100
AcDbTrace
 10
289.3460448412768
 20
98.27262536350601
 30
0.0
 11
289.3460448412768
 21
96.93929203017267
 31
0.0
 12
285.3460448412768
 22
97.60595869683934
 32
0.0
 13
285.3460448412768
 23
97.60595869683934
 33
0.0
  0
SOLID
  5
496
330
48F
100
AcDbEntity
  8
KOTY
 62
     0
100
AcDbTrace
 10
353.3460448412767
 20
96.93929203017267
 30
0.0
 11
353.3460448412767
 21
98.27262536350601
 31
0.0
 12
357.3460448412767
 22
97.60595869683934
 32
0.0
 13
357.3460448412767
 23
97.60595869683934
 33
0.0
  0
MTEXT
  5
497
330
48F
100
AcDbEntity
  8
KOTY
 62
     0
100
AcDbMText
 10
321.3460448412768
 20
100.6139586968393
 30
0.0
 40
4.0
 41
0.0
 71
     5
 72
     1
  1
\A1;72
  0
POINT
  5
498
330
48F
100
AcDbEntity
  8
DEFPOINTS
 62
     0
100
AcDbPoint
 10
285.3460448412768
 20
107.6059586968393
 30
0.0
  0
POINT
  5
499
330
48F
100
AcDbEntity
  8
DEFPOINTS
 62
     0
100
AcDbPoint
 10
357.3460448412767
 20
107.6059586968393
 30
0.0
  0
POINT
  5
49A
330
48F
100
AcDbEntity
  8
DEFPOINTS
 62
     0
100
AcDbPoint
 10
357.3460448412767
 20
97.60595869683934
 30
0.0
  0
ENDBLK
  5
491
330
48F
100
AcDbEntity
  8
0
100
AcDbBlockEnd
  0
BLOCK
  5
4B0
330
4AF
100
AcDbEntity
  8
0
100
AcDbBlockBegin
  2
*D19
 70
     1
 10
0.0
 20
0.0
 30
0.0
  3
*D19
  1
*D20
  0
LINE
  5
4B2
330
4AF
100
AcDbEntity
  8
HLAVNÍ_OBRYSY
 62
     0
100
AcDbLine
 10
251.7072874404124
 20
187.7043199807702
 30
0.0
 11
251.7072874404124
 21
201.2390138111387
 31
0.0
  0
LINE
  5
4B3
330
4AF
100
AcDbEntity
  8
HLAVNÍ_OBRYSY
 62
     0
100
AcDbLine
 10
242.7072874404125
 20
197.4543199807702
 30
0.0
 11
242.7072874404125
 21
201.2390138111387
 31
0.0
  0
LINE
  5
4B4
330
4AF
100
AcDbEntity
  8
HLAVNÍ_OBRYSY
 62
     0
100
AcDbLine
 10
251.5272874404124
 20
201.0590138111387
 30
0.0
 11
247.6701574404125
 21
201.0590138111387
 31
0.0
  0
LINE
  5
4B5
330
4AF
100
AcDbEntity
  8
HLAVNÍ_OBRYSY
 62
     0
100
AcDbLine
 10
242.8872874404125
 20
201.0590138111387
 30
0.0
 11
246.7444174404125
 21
201.0590138111387
 31
0.0
  0
SOLID
  5
4B6
330
4AF
100
AcDbEntity
  8
HLAVNÍ_OBRYSY
 62
     0
100
AcDbTrace
 10
251.5272874404124
 20
201.0290138111387
 30
0.0
 11
251.5272874404124
 21
201.0890138111387
 31
0.0
 12
251.7072874404124
 22
201.0590138111387
 32
0.0
 13
251.7072874404124
 23
201.0590138111387
 33
0.0
  0
SOLID
  5
4B7
330
4AF
100
AcDbEntity
  8
HLAVNÍ_OBRYSY
 62
     0
100
AcDbTrace
 10
242.8872874404125
 20
201.0890138111387
 30
0.0
 11
242.8872874404125
 21
201.0290138111387
 31
0.0
 12
242.7072874404125
 22
201.0590138111387
 32
0.0
 13
242.7072874404125
 23
201.0590138111387
 33
0.0
  0
MTEXT
  5
4B8
330
4AF
100
AcDbEntity
  8
HLAVNÍ_OBRYSY
 62
     0
100
AcDbMText
 10
247.2072874404125
 20
201.0590138111387
 30
0.0
 40
0.18
 41
0.0
 71
     5
 72
     1
  1
\A1;9.0000
  0
POINT
  5
4B9
330
4AF
100
AcDbEntity
  8
DEFPOINTS
 62
     0
100
AcDbPoint
 10
251.7072874404124
 20
187.6418199807702
 30
0.0
  0
POINT
  5
4BA
330
4AF
100
AcDbEntity
  8
DEFPOINTS
 62
     0
100
AcDbPoint
 10
242.7072874404125
 20
197.3918199807702
 30
0.0
  0
POINT
  5
4BB
330
4AF
100
AcDbEntity
  8
DEFPOINTS
 62
     0
100
AcDbPoint
 10
242.7072874404125
 20
201.0590138111387
 30
0.0
  0
ENDBLK
  5
4B1
330
4AF
100
AcDbEntity
  8
0
100
AcDbBlockEnd
  0
ENDSEC
  0
SECTION
  2
ENTITIES
  0
LINE
  5
301
330
1F
100
AcDbEntity
  8
HLAVNÍ_OBRYSY
100
AcDbLine
 10
136.6938265666867
 20
175.3200974129082
 30
0.0
 11
136.6938265666867
 21
197.8200974129082
 31
0.0
  0
LINE
  5
302
330
1F
100
AcDbEntity
  8
HLAVNÍ_OBRYSY
100
AcDbLine
 10
174.6938265666868
 20
197.8200974129082
 30
0.0
 11
174.6938265666868
 21
197.3200974129082
 31
0.0
  0
LINE
  5
303
330
1F
100
AcDbEntity
  8
HLAVNÍ_OBRYSY
100
AcDbLine
 10
181.1938265666867
 20
197.3200974129082
 30
0.0
 11
174.6938265666868
 21
197.3200974129082
 31
0.0
  0
LINE
  5
304
330
1F
100
AcDbEntity
  8
HLAVNÍ_OBRYSY
100
AcDbLine
 10
181.1938265666867
 20
107.8200974129082
 30
0.0
 11
136.6938265666867
 21
107.8200974129082
 31
0.0
  0
LINE
  5
305
330
1F
100
AcDbEntity
  8
HLAVNÍ_OBRYSY
100
AcDbLine
 10
144.6938265666867
 20
197.8200974129082
 30
0.0
 11
148.4938265666867
 21
197.8200974129082
 31
0.0
  0
LINE
  5
306
330
1F
100
AcDbEntity
  8
HLAVNÍ_OBRYSY
100
AcDbLine
 10
186.1938265666867
 20
107.8200974129082
 30
0.0
 11
136.6938265666867
 21
107.8200974129082
 31
0.0
  0
LINE
  5
307
330
1F
100
AcDbEntity
  8
HLAVNÍ_OBRYSY
100
AcDbLine
 10
181.1938265666867
 20
197.3200974129082
 30
0.0
 11
174.6938265666868
 21
197.3200974129082
 31
0.0
  0
LINE
  5
308
330
1F
100
AcDbEntity
  8
HLAVNÍ_OBRYSY
100
AcDbLine
 10
174.6938265666868
 20
197.3200974129082
 30
0.0
 11
174.6938265666868
 21
197.8200974129082
 31
0.0
  0
LINE
  5
309
330
1F
100
AcDbEntity
  8
HLAVNÍ_OBRYSY
100
AcDbLine
 10
186.1938265666867
 20
134.2200974129083
 30
0.0
 11
186.1938265666867
 21
107.8200974129082
 31
0.0
  0
LINE
  5
30A
330
1F
100
AcDbEntity
  8
HLAVNÍ_OBRYSY
100
AcDbLine
 10
174.6938265666868
 20
197.3200974129082
 30
0.0
 11
186.1938265666867
 21
197.3200974129082
 31
0.0
  0
LINE
  5
30B
330
1F
100
AcDbEntity
  8
HLAVNÍ_OBRYSY
100
AcDbLine
 10
186.1938265666867
 20
197.3200974129082
 30
0.0
 11
186.1938265666867
 21
168.6200974129082
 31
0.0
  0
LINE
  5
30C
330
1F
100
AcDbEntity
  8
HLAVNÍ_OBRYSY
100
AcDbLine
 10
186.1938265666867
 20
134.2200974129083
 30
0.0
 11
181.1938265666867
 21
134.2200974129083
 31
0.0
  0
LINE
  5
30D
330
1F
100
AcDbEntity
  8
HLAVNÍ_OBRYSY
100
AcDbLine
 10
186.1938265666867
 20
168.6200974129082
 30
0.0
 11
183.1938265666867
 21
168.6200974129082
 31
0.0
  0
LINE
  5
30E
330
1F
100
AcDbEntity
  8
HLAVNÍ_OBRYSY
100
AcDbLine
 10
183.1938265666867
 20
168.6200974129082
 30
0.0
 11
181.6803319592779
 21
171.2103356400501
 31
0.0
  0
LINE
  5
30F
330
1F
100
AcDbEntity
  8
HLAVNÍ_OBRYSY
100
AcDbLine
 10
181.6803319592779
 20
171.2103356400501
 30
0.0
 11
181.1938265666867
 21
171.2103356400501
 31
0.0
  0
LINE
  5
310
330
1F
100
AcDbEntity
  8
HLAVNÍ_OBRYSY
100
AcDbLine
 10
181.1938265666867
 20
134.2200974129083
 30
0.0
 11
181.1938265666867
 21
171.2103356400501
 31
0.0
  0
CIRCLE
  5
311
330
1F
100
AcDbEntity
  8
HLAVNÍ_OBRYSY
100
AcDbCircle
 10
177.2938265666867
 20
177.5700974129082
 30
0.0
 40
2.25
  0
CIRCLE
  5
312
330
1F
100
AcDbEntity
  8
HLAVNÍ_OBRYSY
100
AcDbCircle
 10
141.2178610409933
 20
124.5329019666682
 30
0.0
 40
2.25
  0
CIRCLE
  5
313
330
1F
100
AcDbEntity
  8
HLAVNÍ_OBRYSY
100
AcDbCircle
 10
141.2178610409933
 20
179.8355283562013
 30
0.0
 40
2.25
  0
CIRCLE
  5
314
330
1F
100
AcDbEntity
  8
HLAVNÍ_OBRYSY
100
AcDbCircle
 10
177.2938265666867
 20
128.0700974129082
 30
0.0
 40
2.25
  0
LINE
  5
315
330
1F
100
AcDbEntity
  8
HLAVNÍ_OBRYSY
100
AcDbLine
 10
186.1938265666867
 20
130.3200974129082
 30
0.0
 11
186.1938265666867
 21
128.0700974129082
 31
0.0
  0
CIRCLE
  5
316
330
1F
100
AcDbEntity
  8
OSTATNÍ_OBRYSY
100
AcDbCircle
 10
177.2938265666867
 20
177.5700974129082
 30
0.0
 40
1.5
  0
CIRCLE
  5
317
330
1F
100
AcDbEntity
  8
OSTATNÍ_OBRYSY
100
AcDbCircle
 10
141.2178610409933
 20
179.8355283562013
 30
0.0
 40
1.5
  0
CIRCLE
  5
318
330
1F
100
AcDbEntity
  8
OSTATNÍ_OBRYSY
100
AcDbCircle
 10
177.2938265666867
 20
128.0700974129082
 30
0.0
 40
1.5
  0
CIRCLE
  5
319
330
1F
100
AcDbEntity
  8
OSTATNÍ_OBRYSY
100
AcDbCircle
 10
141.2178610409933
 20
124.5329019666682
 30
0.0
 40
1.5
  0
LINE
  5
31A
330
1F
100
AcDbEntity
  8
HLAVNÍ_OBRYSY
100
AcDbLine
 10
136.6938265666867
 20
128.5961772112981
 30
0.0
 11
137.1938265666868
 21
128.5961772112981
 31
0.0
  0
LINE
  5
31B
330
1F
100
AcDbEntity
  8
HLAVNÍ_OBRYSY
100
AcDbLine
 10
137.1938265666868
 20
128.5961772112981
 30
0.0
 11
137.1938265666868
 21
129.4961772112982
 31
0.0
  0
LINE
  5
31C
330
1F
100
AcDbEntity
  8
HLAVNÍ_OBRYSY
100
AcDbLine
 10
137.1938265666868
 20
129.4961772112982
 30
0.0
 11
138.1938265666867
 21
129.4961772112982
 31
0.0
  0
LINE
  5
31D
330
1F
100
AcDbEntity
  8
HLAVNÍ_OBRYSY
100
AcDbLine
 10
138.1938265666867
 20
124.1961772112982
 30
0.0
 11
137.1938265666868
 21
124.1961772112982
 31
0.0
  0
LINE
  5
31E
330
1F
100
AcDbEntity
  8
HLAVNÍ_OBRYSY
100
AcDbLine
 10
137.1938265666868
 20
124.1961772112982
 30
0.0
 11
137.1938265666868
 21
125.0961772112981
 31
0.0
  0
LINE
  5
31F
330
1F
100
AcDbEntity
  8
HLAVNÍ_OBRYSY
100
AcDbLine
 10
137.1938265666868
 20
125.0961772112981
 30
0.0
 11
136.6938265666867
 21
125.0961772112981
 31
0.0
  0
LINE
  5
320
330
1F
100
AcDbEntity
  8
HLAVNÍ_OBRYSY
100
AcDbLine
 10
136.6938265666867
 20
125.0961772112981
 30
0.0
 11
136.6938265666867
 21
107.8200974129082
 31
0.0
  0
LINE
  5
321
330
1F
100
AcDbEntity
  8
HLAVNÍ_OBRYSY
100
AcDbLine
 10
136.6938265666867
 20
128.5961772112981
 30
0.0
 11
136.6938265666867
 21
130.3200974129082
 31
0.0
  0
POINT
  5
322
330
1F
100
AcDbEntity
  8
HLAVNÍ_OBRYSY
100
AcDbPoint
 10
138.1938265666867
 20
129.4961772112982
 30
0.0
 50
180.0
  0
POINT
  5
323
330
1F
100
AcDbEntity
  8
HLAVNÍ_OBRYSY
100
AcDbPoint
 10
138.1938265666867
 20
124.1961772112982
 30
0.0
 50
180.0
  0
ARC
  5
324
330
1F
100
AcDbEntity
  8
HLAVNÍ_OBRYSY
100
AcDbCircle
 10
139.3161225953282
 20
126.7510762297082
 30
0.0
 40
2.244042321095791
100
AcDbArc
 50
120.0081040670198
 51
239.9918959330037
  0
LINE
  5
325
330
1F
100
AcDbEntity
  8
HLAVNÍ_OBRYSY
100
AcDbLine
 10
138.1938265666867
 20
124.1961772112982
 30
0.0
 11
138.1938265666865
 21
124.8078372935603
 31
0.0
  0
LINE
  5
326
330
1F
100
AcDbEntity
  8
HLAVNÍ_OBRYSY
100
AcDbLine
 10
138.1938265666867
 20
129.4961772112982
 30
0.0
 11
138.1938265666867
 21
128.6943151658571
 31
0.0
  0
LINE
  5
327
330
1F
100
AcDbEntity
  8
HLAVNÍ_OBRYSY
100
AcDbLine
 10
186.1938265666867
 20
134.2200974129083
 30
0.0
 11
183.5690878917891
 21
136.5773495323782
 31
0.0
  0
LINE
  5
328
330
1F
100
AcDbEntity
  8
HLAVNÍ_OBRYSY
100
AcDbLine
 10
183.5690878917891
 20
136.5773495323782
 30
0.0
 11
181.1938265666867
 21
134.2200974129083
 31
0.0
  0
LINE
  5
329
330
1F
100
AcDbEntity
  8
OSTATNÍ_OBRYSY
100
AcDbLine
 10
181.7551804676667
 20
117.6735233151042
 30
0.0
 11
185.7551804676667
 21
117.6735233151042
 31
0.0
  0
LINE
  5
32A
330
1F
100
AcDbEntity
  8
OSTATNÍ_OBRYSY
100
AcDbLine
 10
185.7551804676667
 20
107.1735233151042
 30
0.0
 11
181.7551804676667
 21
107.1735233151042
 31
0.0
  0
LINE
  5
32B
330
1F
100
AcDbEntity
  8
OSTATNÍ_OBRYSY
100
AcDbLine
 10
185.7551804676667
 20
107.1735233151042
 30
0.0
 11
185.7551804676667
 21
107.8200974129082
 31
0.0
  0
LINE
  5
32C
330
1F
100
AcDbEntity
  8
OSTATNÍ_OBRYSY
100
AcDbLine
 10
181.7551804676667
 20
107.1735233151042
 30
0.0
 11
181.7551804676667
 21
107.8200974129082
 31
0.0
  0
LINE
  5
32D
330
1F
100
AcDbEntity
  8
OSTATNÍ_OBRYSY
100
AcDbLine
 10
181.7551804676667
 20
108.6735233151042
 30
0.0
 11
185.7551804676667
 21
108.6735233151042
 31
0.0
  0
LINE
  5
32E
330
1F
100
AcDbEntity
  8
HLAVNÍ_OBRYSY
100
AcDbLine
 10
186.1938265666867
 20
134.2200974129083
 30
0.0
 11
183.5690878917891
 21
136.5773495323782
 31
0.0
  0
LINE
  5
32F
330
1F
100
AcDbEntity
  8
HLAVNÍ_OBRYSY
100
AcDbLine
 10
183.5690878917891
 20
136.5773495323782
 30
0.0
 11
181.1938265666867
 21
134.2200974129083
 31
0.0
  0
LINE
  5
330
330
1F
100
AcDbEntity
  8
HLAVNÍ_OBRYSY
100
AcDbLine
 10
174.6938265666868
 20
197.8200974129082
 30
0.0
 11
136.6938265666867
 21
197.8200974129082
 31
0.0
  0
LINE
  5
331
330
1F
100
AcDbEntity
  8
OSTATNÍ_OBRYSY
100
AcDbLine
 10
148.4938265666867
 20
182.8200974129082
 30
0.0
 11
148.4938265666867
 21
197.8200974129082
 31
0.0
  0
LINE
  5
332
330
1F
100
AcDbEntity
  8
OSTATNÍ_OBRYSY
100
AcDbLine
 10
148.4938265666867
 20
122.8200974129082
 30
0.0
 11
148.4938265666867
 21
107.8200974129082
 31
0.0
  0
DIMENSION
  5
333
330
1F
100
AcDbEntity
  8
KOTY
100
AcDbDimension
  2
*D13
 10
101.4338921814477
 20
107.8200974129082
 30
0.0
 11
98.39189218144769
 21
152.8200974129082
 31
0.0
 70
    32
 52
-90.0
  3
STANDARD
100
AcDbAlignedDimension
 13
136.6938265666867
 23
197.8200974129082
 33
0.0
 14
136.6938265666867
 24
107.8200974129082
 34
0.0
 50
90.00000000000001
100
AcDbRotatedDimension
1001
ACAD
1000
DSTYLE
1002
{
1070
   271
1070
     0
1070
   278
1070
    44
1070
   140
1040
4.0
1070
    73
1070
     0
1070
    77
1070
     1
1070
   147
1040
1.0
1070
    41
1040
4.0
1002
}
  0
LINE
  5
334
330
1F
100
AcDbEntity
  8
OSTATNÍ_OBRYSY
100
AcDbLine
 10
185.7551804676667
 20
133.6735233151042
 30
0.0
 11
181.7551804676667
 21
133.6735233151042
 31
0.0
  0
LINE
  5
335
330
1F
100
AcDbEntity
  8
OSTATNÍ_OBRYSY
100
AcDbLine
 10
185.7551804676667
 20
115.6735233151042
 30
0.0
 11
181.7551804676667
 21
115.6735233151042
 31
0.0
  0
LINE
  5
336
330
1F
100
AcDbEntity
  8
OSTATNÍ_OBRYSY
100
AcDbLine
 10
185.7551804676667
 20
133.6735233151042
 30
0.0
 11
185.7551804676667
 21
108.6735233151042
 31
0.0
  0
LINE
  5
337
330
1F
100
AcDbEntity
  8
OSTATNÍ_OBRYSY
100
AcDbLine
 10
181.7551804676667
 20
133.6735233151042
 30
0.0
 11
181.7551804676667
 21
108.6735233151042
 31
0.0
  0
LINE
  5
338
330
1F
100
AcDbEntity
  8
OSTATNÍ_OBRYSY
100
AcDbLine
 10
148.4938265666867
 20
182.8200974129082
 30
0.0
 11
144.4938265666867
 21
182.8200974129082
 31
0.0
  0
LINE
  5
339
330
1F
100
AcDbEntity
  8
OSTATNÍ_OBRYSY
100
AcDbLine
 10
144.4938265666867
 20
182.8200974129082
 30
0.0
 11
144.4938265666867
 21
197.8200974129082
 31
0.0
  0
LINE
  5
33A
330
1F
100
AcDbEntity
  8
OSTATNÍ_OBRYSY
100
AcDbLine
 10
148.4938265666867
 20
122.8200974129082
 30
0.0
 11
144.4938265666867
 21
122.8200974129082
 31
0.0
  0
LINE
  5
33B
330
1F
100
AcDbEntity
  8
OSTATNÍ_OBRYSY
100
AcDbLine
 10
144.4938265666867
 20
122.8200974129082
 30
0.0
 11
144.4938265666867
 21
107.8200974129082
 31
0.0
  0
LINE
  5
33C
330
1F
100
AcDbEntity
  8
HLAVNÍ_OBRYSY
100
AcDbLine
 10
136.6938265666867
 20
175.3200974129082
 30
0.0
 11
124.1938265666867
 21
175.3200974129082
 31
0.0
  0
LINE
  5
33D
330
1F
100
AcDbEntity
  8
HLAVNÍ_OBRYSY
100
AcDbLine
 10
136.6938265666867
 20
130.3200974129082
 30
0.0
 11
124.1938265666867
 21
130.3200974129082
 31
0.0
  0
LINE
  5
33E
330
1F
100
AcDbEntity
  8
HLAVNÍ_OBRYSY
100
AcDbLine
 10
124.1938265666867
 20
175.3200974129082
 30
0.0
 11
124.1938265666867
 21
130.3200974129082
 31
0.0
  0
DIMENSION
  5
33F
330
1F
100
AcDbEntity
  8
KOTY
100
AcDbDimension
  2
*D14
 10
124.1938265666867
 20
97.87329137831316
 30
0.0
 11
152.6938265666867
 21
100.9072913783132
 31
0.0
 70
    32
 52
-89.99999999999999
  3
STANDARD
100
AcDbAlignedDimension
 13
181.1938265666867
 23
134.2200974129083
 33
0.0
 14
124.1938265666867
 24
130.3200974129082
 34
0.0
 50
180.0
100
AcDbRotatedDimension
1001
ACAD
1000
DSTYLE
1002
{
1070
   271
1070
     0
1070
   278
1070
    44
1070
   140
1040
4.0
1070
    73
1070
     0
1070
    77
1070
     1
1070
   147
1040
1.0
1070
    41
1040
4.0
1002
}
  0
DIMENSION
  5
340
330
1F
100
AcDbEntity
  8
KOTY
100
AcDbDimension
  2
*D15
 10
114.2356459742313
 20
130.3200974129082
 30
0.0
 11
111.2016459742313
 21
152.8200974129082
 31
0.0
 70
    32
 52
-90.0
  3
STANDARD
100
AcDbAlignedDimension
 13
124.1938265666867
 23
175.3200974129082
 33
0.0
 14
124.1938265666867
 24
130.3200974129082
 34
0.0
 50
90.00000000000001
100
AcDbRotatedDimension
1001
ACAD
1000
DSTYLE
1002
{
1070
   271
1070
     0
1070
   278
1070
    44
1070
   140
1040
4.0
1070
    73
1070
     0
1070
    77
1070
     1
1070
   147
1040
1.0
1070
    41
1040
4.0
1002
}
  0
CIRCLE
  5
352
330
1F
100
AcDbEntity
  8
HLAVNÍ_OBRYSY
100
AcDbCircle
 10
294.3460448412768
 20
187.8559586968393
 30
0.0
 40
3.75
  0
CIRCLE
  5
353
330
1F
100
AcDbEntity
  8
HLAVNÍ_OBRYSY
100
AcDbCircle
 10
294.3460448412768
 20
117.3559586968393
 30
0.0
 40
3.75
  0
LINE
  5
36B
330
1F
100
AcDbEntity
  8
HLAVNÍ_OBRYSY
100
AcDbLine
 10
285.3460448412768
 20
107.6059586968393
 30
0.0
 11
285.3460448412768
 21
197.6059586968382
 31
0.0
  0
CIRCLE
  5
373
330
1F
100
AcDbEntity
  8
HLAVNÍ_OBRYSY
100
AcDbCircle
 10
312.3460448412768
 20
187.8559586968393
 30
0.0
 40
3.75
  0
CIRCLE
  5
374
330
1F
100
AcDbEntity
  8
HLAVNÍ_OBRYSY
100
AcDbCircle
 10
312.3460448412768
 20
117.3559586968393
 30
0.0
 40
3.75
  0
LINE
  5
380
330
1F
100
AcDbEntity
  8
HLAVNÍ_OBRYSY
100
AcDbLine
 10
321.3460448412767
 20
107.6059586968393
 30
0.0
 11
321.3460448412768
 21
197.6059586968382
 31
0.0
  0
LINE
  5
38E
330
1F
100
AcDbEntity
  8
HLAVNÍ_OBRYSY
100
AcDbLine
 10
357.3460448412767
 20
197.6059586968382
 30
0.0
 11
285.3460448412768
 21
197.6059586968382
 31
0.0
  0
LINE
  5
391
330
1F
100
AcDbEntity
  8
HLAVNÍ_OBRYSY
100
AcDbLine
 10
357.3460448412767
 20
175.1059586968393
 30
0.0
 11
285.3460448412768
 21
175.1059586968393
 31
0.0
  0
LINE
  5
392
330
1F
100
AcDbEntity
  8
HLAVNÍ_OBRYSY
100
AcDbLine
 10
285.3460448412768
 20
130.1059586968393
 30
0.0
 11
357.3460448412767
 21
130.1059586968393
 31
0.0
  0
CIRCLE
  5
393
330
1F
100
AcDbEntity
  8
HLAVNÍ_OBRYSY
100
AcDbCircle
 10
348.3460448412767
 20
117.3559586968393
 30
0.0
 40
3.75
  0
LINE
  5
396
330
1F
100
AcDbEntity
  8
OSTATNÍ_OBRYSY
100
AcDbLine
 10
357.3460448412767
 20
123.8059586968394
 30
0.0
 11
285.3460448412768
 21
123.8059586968394
 31
0.0
  0
LINE
  5
398
330
1F
100
AcDbEntity
  8
OSTATNÍ_OBRYSY
100
AcDbLine
 10
357.3460448412767
 20
128.2059586968392
 30
0.0
 11
285.3460448412768
 21
128.2059586968392
 31
0.0
  0
LINE
  5
39A
330
1F
100
AcDbEntity
  8
OSTATNÍ_OBRYSY
100
AcDbLine
 10
357.3460448412767
 20
124.7059586968392
 30
0.0
 11
285.3460448412768
 21
124.7059586968392
 31
0.0
  0
LINE
  5
39B
330
1F
100
AcDbEntity
  8
HLAVNÍ_OBRYSY
100
AcDbLine
 10
357.3460448412767
 20
107.6059586968393
 30
0.0
 11
285.3460448412768
 21
107.5434586968393
 31
0.0
  0
LINE
  5
39D
330
1F
100
AcDbEntity
  8
HLAVNÍ_OBRYSY
100
AcDbLine
 10
353.3460448412768
 20
107.6059586968393
 30
0.0
 11
353.3460448412768
 21
107.1059586968393
 31
0.0
  0
LINE
  5
39E
330
1F
100
AcDbEntity
  8
HLAVNÍ_OBRYSY
100
AcDbLine
 10
353.3460448412768
 20
107.1059586968393
 30
0.0
 11
343.3460448412768
 21
107.1059586968393
 31
0.0
  0
LINE
  5
39F
330
1F
100
AcDbEntity
  8
HLAVNÍ_OBRYSY
100
AcDbLine
 10
343.3460448412768
 20
107.1059586968393
 30
0.0
 11
343.3460448412768
 21
107.6059586968393
 31
0.0
  0
LINE
  5
3A2
330
1F
100
AcDbEntity
  8
HLAVNÍ_OBRYSY
100
AcDbLine
 10
357.3460448412767
 20
107.6059586968393
 30
0.0
 11
357.3460448412767
 21
197.6059586968382
 31
0.0
  0
CIRCLE
  5
3A9
330
1F
100
AcDbEntity
  8
HLAVNÍ_OBRYSY
100
AcDbCircle
 10
330.3460448412767
 20
117.3559586968393
 30
0.0
 40
3.75
  0
LINE
  5
3B7
330
1F
100
AcDbEntity
  8
OSTATNÍ_OBRYSY
100
AcDbLine
 10
357.3460448412767
 20
129.1059586968393
 30
0.0
 11
285.3460448412768
 21
129.1059586968393
 31
0.0
  0
CIRCLE
  5
3B8
330
1F
100
AcDbEntity
  8
HLAVNÍ_OBRYSY
100
AcDbCircle
 10
330.2820239887657
 20
187.8670678044212
 30
0.0
 40
3.75
  0
CIRCLE
  5
3B9
330
1F
100
AcDbEntity
  8
HLAVNÍ_OBRYSY
100
AcDbCircle
 10
330.3460448412767
 20
117.3559586968393
 30
0.0
 40
3.75
  0
LINE
  5
3BA
330
1F
100
AcDbEntity
  8
HLAVNÍ_OBRYSY
100
AcDbLine
 10
242.7072874404125
 20
107.3918199807702
 30
0.0
 11
242.7072874404125
 21
197.3918199807702
 31
0.0
  0
LINE
  5
3BF
330
1F
100
AcDbEntity
  8
HLAVNÍ_OBRYSY
100
AcDbLine
 10
278.7072874404125
 20
197.3918199807702
 30
0.0
 11
242.7072874404125
 21
197.3918199807702
 31
0.0
  0
LINE
  5
3C0
330
1F
100
AcDbEntity
  8
HLAVNÍ_OBRYSY
100
AcDbLine
 10
260.7072874404124
 20
107.3918199807702
 30
0.0
 11
278.7072874404125
 21
107.3918199807702
 31
0.0
  0
LINE
  5
3C1
330
1F
100
AcDbEntity
  8
HLAVNÍ_OBRYSY
100
AcDbLine
 10
278.7072874404125
 20
174.8918199807702
 30
0.0
 11
242.7072874404125
 21
174.8918199807702
 31
0.0
  0
LINE
  5
3C2
330
1F
100
AcDbEntity
  8
HLAVNÍ_OBRYSY
100
AcDbLine
 10
242.7072874404125
 20
129.8918199807702
 30
0.0
 11
278.7072874404125
 21
129.8918199807702
 31
0.0
  0
CIRCLE
  5
3C3
330
1F
100
AcDbEntity
  8
HLAVNÍ_OBRYSY
100
AcDbCircle
 10
269.7072874404125
 20
187.6418199807702
 30
0.0
 40
3.75
  0
LINE
  5
3C4
330
1F
100
AcDbEntity
  8
OSTATNÍ_OBRYSY
100
AcDbLine
 10
278.7072874404125
 20
123.5918199807703
 30
0.0
 11
242.7072874404125
 21
123.5918199807703
 31
0.0
  0
LINE
  5
3C5
330
1F
100
AcDbEntity
  8
OSTATNÍ_OBRYSY
100
AcDbLine
 10
278.7072874404125
 20
124.4918199807704
 30
0.0
 11
242.7072874404125
 21
124.4918199807704
 31
0.0
  0
LINE
  5
3C6
330
1F
100
AcDbEntity
  8
HLAVNÍ_OBRYSY
100
AcDbLine
 10
278.7072874404125
 20
107.3918199807702
 30
0.0
 11
273.7072874404125
 21
107.3918199807702
 31
0.0
  0
LINE
  5
3C7
330
1F
100
AcDbEntity
  8
HLAVNÍ_OBRYSY
100
AcDbLine
 10
278.7072874404125
 20
107.3918199807702
 30
0.0
 11
274.7072874404125
 21
107.3918199807702
 31
0.0
  0
LINE
  5
3C9
330
1F
100
AcDbEntity
  8
HLAVNÍ_OBRYSY
100
AcDbLine
 10
242.7072874404125
 20
107.3918199807702
 30
0.0
 11
278.7072874404125
 21
107.3918199807702
 31
0.0
  0
CIRCLE
  5
3CD
330
1F
100
AcDbEntity
  8
HLAVNÍ_OBRYSY
100
AcDbCircle
 10
251.7072874404124
 20
187.6418199807702
 30
0.0
 40
3.75
  0
CIRCLE
  5
3CE
330
1F
100
AcDbEntity
  8
HLAVNÍ_OBRYSY
100
AcDbCircle
 10
251.7072874404124
 20
117.1418199807702
 30
0.0
 40
3.75
  0
LINE
  5
3D2
330
1F
100
AcDbEntity
  8
OSTATNÍ_OBRYSY
100
AcDbLine
 10
242.7072874404125
 20
127.9918199807704
 30
0.0
 11
278.7072874404125
 21
127.9918199807704
 31
0.0
  0
LINE
  5
3D6
330
1F
100
AcDbEntity
  8
OSTATNÍ_OBRYSY
100
AcDbLine
 10
278.7072874404125
 20
128.8918199807702
 30
0.0
 11
242.7072874404125
 21
128.8918199807702
 31
0.0
  0
LINE
  5
3D7
330
1F
100
AcDbEntity
  8
HLAVNÍ_OBRYSY
100
AcDbLine
 10
264.7072874404124
 20
162.9398293816633
 30
0.0
 11
264.7072874404124
 21
162.9398293816633
 31
0.0
  0
LINE
  5
3E3
330
1F
100
AcDbEntity
  8
HLAVNÍ_OBRYSY
100
AcDbLine
 10
246.7072874404125
 20
107.3918199807702
 30
0.0
 11
246.7072874404125
 21
106.8918199807702
 31
0.0
  0
LINE
  5
3E4
330
1F
100
AcDbEntity
  8
HLAVNÍ_OBRYSY
100
AcDbLine
 10
246.7072874404125
 20
106.8918199807702
 30
0.0
 11
256.7072874404125
 21
106.8918199807702
 31
0.0
  0
LINE
  5
3E5
330
1F
100
AcDbEntity
  8
HLAVNÍ_OBRYSY
100
AcDbLine
 10
256.7072874404125
 20
106.8918199807702
 30
0.0
 11
256.7072874404125
 21
107.3918199807702
 31
0.0
  0
LINE
  5
3E6
330
1F
100
AcDbEntity
  8
HLAVNÍ_OBRYSY
100
AcDbLine
 10
278.7072874404125
 20
197.3918199807702
 30
0.0
 11
278.7072874404125
 21
107.3918199807702
 31
0.0
  0
LINE
  5
3E7
330
1F
100
AcDbEntity
  8
HLAVNÍ_OBRYSY
100
AcDbLine
 10
210.9960514490532
 20
197.8200974129082
 30
0.0
 11
228.9960514490531
 21
197.8200974129082
 31
0.0
  0
LINE
  5
3E8
330
1F
100
AcDbEntity
  8
HLAVNÍ_OBRYSY
100
AcDbLine
 10
210.9960514490532
 20
107.8200974129082
 30
0.0
 11
210.9960514490532
 21
197.8200974129082
 31
0.0
  0
LINE
  5
3E9
330
1F
100
AcDbEntity
  8
HLAVNÍ_OBRYSY
100
AcDbLine
 10
210.9960514490532
 20
175.3200974129082
 30
0.0
 11
228.9960514490531
 21
175.3200974129082
 31
0.0
  0
CIRCLE
  5
3EB
330
1F
100
AcDbEntity
  8
HLAVNÍ_OBRYSY
100
AcDbCircle
 10
219.9960514490531
 20
188.0700974129082
 30
0.0
 40
3.75
  0
CIRCLE
  5
3EC
330
1F
100
AcDbEntity
  8
HLAVNÍ_OBRYSY
100
AcDbCircle
 10
219.9960514490531
 20
117.5700974129082
 30
0.0
 40
3.75
  0
LINE
  5
3F4
330
1F
100
AcDbEntity
  8
OSTATNÍ_OBRYSY
100
AcDbLine
 10
218.1960514490531
 20
188.5700974129082
 30
0.0
 11
218.1960514490531
 21
187.5700974129082
 31
0.0
  0
LINE
  5
3F5
330
1F
100
AcDbEntity
  8
OSTATNÍ_OBRYSY
100
AcDbLine
 10
218.1960514490531
 20
187.5700974129082
 30
0.0
 11
219.3715516492132
 21
187.5700974129082
 31
0.0
  0
LINE
  5
3F6
330
1F
100
AcDbEntity
  8
OSTATNÍ_OBRYSY
100
AcDbLine
 10
218.1960514490531
 20
188.5700974129082
 30
0.0
 11
219.3715516492132
 21
188.5700974129082
 31
0.0
  0
LINE
  5
3F7
330
1F
100
AcDbEntity
  8
OSTATNÍ_OBRYSY
100
AcDbLine
 10
219.3715516492132
 20
188.5700974129082
 30
0.0
 11
219.3715516492132
 21
191.7677317918052
 31
0.0
  0
LINE
  5
3F8
330
1F
100
AcDbEntity
  8
OSTATNÍ_OBRYSY
100
AcDbLine
 10
219.3715516492132
 20
187.5700974129082
 30
0.0
 11
219.3715516492132
 21
184.3724630340112
 31
0.0
  0
LINE
  5
3F9
330
1F
100
AcDbEntity
  8
OSTATNÍ_OBRYSY
100
AcDbLine
 10
221.7960514490532
 20
188.5700974129082
 30
0.0
 11
221.7960514490532
 21
187.5700974129082
 31
0.0
  0
LINE
  5
3FA
330
1F
100
AcDbEntity
  8
OSTATNÍ_OBRYSY
100
AcDbLine
 10
221.7960514490532
 20
187.5700974129082
 30
0.0
 11
220.6205512488929
 21
187.5700974129082
 31
0.0
  0
LINE
  5
3FB
330
1F
100
AcDbEntity
  8
OSTATNÍ_OBRYSY
100
AcDbLine
 10
220.6205512488929
 20
187.5700974129082
 30
0.0
 11
220.6205512488929
 21
184.3724630340112
 31
0.0
  0
LINE
  5
3FC
330
1F
100
AcDbEntity
  8
OSTATNÍ_OBRYSY
100
AcDbLine
 10
221.7960514490532
 20
188.5700974129082
 30
0.0
 11
220.6205512488929
 21
188.5700974129082
 31
0.0
  0
LINE
  5
3FD
330
1F
100
AcDbEntity
  8
OSTATNÍ_OBRYSY
100
AcDbLine
 10
220.6205512488929
 20
188.5700974129082
 30
0.0
 11
220.6205512488929
 21
191.7677317918052
 31
0.0
  0
LINE
  5
3FF
330
1F
100
AcDbEntity
  8
HLAVNÍ_OBRYSY
100
AcDbLine
 10
228.9960514490531
 20
107.8200974129082
 30
0.0
 11
210.9960514490532
 21
107.8200974129082
 31
0.0
  0
LINE
  5
400
330
1F
100
AcDbEntity
  8
HLAVNÍ_OBRYSY
100
AcDbLine
 10
228.9960514490531
 20
197.8200974129082
 30
0.0
 11
228.9960514490531
 21
107.8200974129082
 31
0.0
  0
LINE
  5
401
330
1F
100
AcDbEntity
  8
OSTATNÍ_OBRYSY
100
AcDbLine
 10
214.9960514490532
 20
107.8200974129082
 30
0.0
 11
214.9960514490532
 21
107.3200974129082
 31
0.0
  0
LINE
  5
402
330
1F
100
AcDbEntity
  8
OSTATNÍ_OBRYSY
100
AcDbLine
 10
214.9960514490532
 20
107.3200974129082
 30
0.0
 11
224.9960514490531
 21
107.3200974129082
 31
0.0
  0
LINE
  5
403
330
1F
100
AcDbEntity
  8
OSTATNÍ_OBRYSY
100
AcDbLine
 10
224.9960514490531
 20
107.3200974129082
 30
0.0
 11
224.9960514490531
 21
107.8200974129082
 31
0.0
  0
DIMENSION
  5
404
330
1F
100
AcDbEntity
  8
KOTY
100
AcDbDimension
  2
*D16
 10
228.9960514490531
 20
97.82009741290821
 30
0.0
 11
219.9960514490531
 21
100.8620974129082
 31
0.0
 70
    32
  3
STANDARD
100
AcDbAlignedDimension
 13
210.9960514490532
 23
107.8200974129082
 33
0.0
 14
228.9960514490531
 24
107.8200974129082
 34
0.0
100
AcDbRotatedDimension
1001
ACAD
1000
DSTYLE
1002
{
1070
   271
1070
     0
1070
   278
1070
    44
1070
   140
1040
4.0
1070
    73
1070
     0
1070
    77
1070
     1
1070
   147
1040
1.0
1070
    41
1040
4.0
1002
}
  0
DIMENSION
  5
405
330
1F
100
AcDbEntity
  8
KOTY
100
AcDbDimension
  2
*D17
 10
278.7072874404125
 20
97.44437880439327
 30
0.0
 11
260.7072874404125
 21
100.4863788043933
 31
0.0
 70
    32
  3
STANDARD
100
AcDbAlignedDimension
 13
242.7072874404125
 23
107.3918199807702
 33
0.0
 14
278.7072874404125
 24
107.3918199807702
 34
0.0
100
AcDbRotatedDimension
1001
ACAD
1000
DSTYLE
1002
{
1070
   271
1070
     0
1070
   278
1070
    44
1070
   140
1040
4.0
1070
    73
1070
     0
1070
    77
1070
     1
1070
   147
1040
1.0
1070
    41
1040
4.0
1002
}
  0
CIRCLE
  5
406
330
1F
100
AcDbEntity
  8
HLAVNÍ_OBRYSY
100
AcDbCircle
 10
348.7984795681374
 20
187.3530343292103
 30
0.0
 40
3.75
  0
CIRCLE
  5
422
330
1F
100
AcDbEntity
  8
HLAVNÍ_OBRYSY
100
AcDbCircle
 10
269.3460448412768
 20
117.3559586968393
 30
0.0
 40
3.75
  0
LINE
  5
425
330
1F
100
AcDbEntity
  8
OSTATNÍ_OBRYSY
100
AcDbLine
 10
271.5072874404126
 20
187.1418199807702
 30
0.0
 11
271.5072874404126
 21
188.1418199807702
 31
0.0
  0
LINE
  5
429
330
1F
100
AcDbEntity
  8
OSTATNÍ_OBRYSY
100
AcDbLine
 10
267.9072874404126
 20
187.1418199807702
 30
0.0
 11
269.0827876405727
 21
187.1418199807702
 31
0.0
  0
LINE
  5
42C
330
1F
100
AcDbEntity
  8
OSTATNÍ_OBRYSY
100
AcDbLine
 10
271.5072874404126
 20
188.1418199807702
 30
0.0
 11
270.3317872402523
 21
188.1418199807702
 31
0.0
  0
LINE
  5
42E
330
1F
100
AcDbEntity
  8
OSTATNÍ_OBRYSY
100
AcDbLine
 10
271.5072874404126
 20
187.1418199807702
 30
0.0
 11
270.3317872402523
 21
187.1418199807702
 31
0.0
  0
LINE
  5
42F
330
1F
100
AcDbEntity
  8
OSTATNÍ_OBRYSY
100
AcDbLine
 10
270.3317872402523
 20
187.1418199807702
 30
0.0
 11
270.3317872402523
 21
183.9441856018721
 31
0.0
  0
LINE
  5
430
330
1F
100
AcDbEntity
  8
OSTATNÍ_OBRYSY
100
AcDbLine
 10
267.9072874404126
 20
188.1418199807702
 30
0.0
 11
267.9072874404126
 21
187.1418199807702
 31
0.0
  0
LINE
  5
435
330
1F
100
AcDbEntity
  8
OSTATNÍ_OBRYSY
100
AcDbLine
 10
269.0827876405727
 20
187.1418199807702
 30
0.0
 11
269.0827876405727
 21
183.9441856018721
 31
0.0
  0
LINE
  5
436
330
1F
100
AcDbEntity
  8
OSTATNÍ_OBRYSY
100
AcDbLine
 10
267.9072874404126
 20
188.1418199807702
 30
0.0
 11
269.0827876405727
 21
188.1418199807702
 31
0.0
  0
LINE
  5
437
330
1F
100
AcDbEntity
  8
OSTATNÍ_OBRYSY
100
AcDbLine
 10
269.0827876405727
 20
188.1418199807702
 30
0.0
 11
269.0827876405727
 21
191.3394543596672
 31
0.0
  0
LINE
  5
43C
330
1F
100
AcDbEntity
  8
OSTATNÍ_OBRYSY
100
AcDbLine
 10
270.3317872402523
 20
188.1418199807702
 30
0.0
 11
270.3317872402523
 21
191.3394543596672
 31
0.0
  0
LINE
  5
43D
330
1F
100
AcDbEntity
  8
HLAVNÍ_OBRYSY
100
AcDbLine
 10
289.3460448412768
 20
107.6059586968393
 30
0.0
 11
289.3460448412768
 21
107.1059586968393
 31
0.0
  0
LINE
  5
43E
330
1F
100
AcDbEntity
  8
HLAVNÍ_OBRYSY
100
AcDbLine
 10
289.3460448412768
 20
107.1059586968393
 30
0.0
 11
299.3460448412768
 21
107.1059586968393
 31
0.0
  0
LINE
  5
43F
330
1F
100
AcDbEntity
  8
HLAVNÍ_OBRYSY
100
AcDbLine
 10
299.3460448412768
 20
107.1059586968393
 30
0.0
 11
299.3460448412768
 21
107.6059586968393
 31
0.0
  0
DIMENSION
  5
440
330
1F
100
AcDbEntity
  8
KOTY
100
AcDbDimension
  2
*D18
 10
357.3460448412767
 20
97.60595869683934
 30
0.0
 11
321.3460448412768
 21
100.6139586968393
 31
0.0
 70
    32
  3
STANDARD
100
AcDbAlignedDimension
 13
285.3460448412768
 23
107.6059586968393
 33
0.0
 14
357.3460448412767
 24
107.6059586968393
 34
0.0
100
AcDbRotatedDimension
1001
ACAD
1000
DSTYLE
1002
{
1070
   271
1070
     0
1070
   278
1070
    44
1070
   140
1040
4.0
1070
    73
1070
     0
1070
    77
1070
     1
1070
   147
1040
1.0
1070
    41
1040
4.0
1002
}
  0
LINE
  5
444
330
1F
100
AcDbEntity
  8
OSTATNÍ_OBRYSY
100
AcDbLine
 10
218.1960514490531
 20
118.0700974129082
 30
0.0
 11
218.1960514490531
 21
117.0700974129082
 31
0.0
  0
LINE
  5
445
330
1F
100
AcDbEntity
  8
OSTATNÍ_OBRYSY
100
AcDbLine
 10
218.1960514490531
 20
117.0700974129082
 30
0.0
 11
219.3715516492132
 21
117.0700974129082
 31
0.0
  0
LINE
  5
446
330
1F
100
AcDbEntity
  8
OSTATNÍ_OBRYSY
100
AcDbLine
 10
218.1960514490531
 20
118.0700974129082
 30
0.0
 11
219.3715516492132
 21
118.0700974129082
 31
0.0
  0
LINE
  5
447
330
1F
100
AcDbEntity
  8
OSTATNÍ_OBRYSY
100
AcDbLine
 10
219.3715516492132
 20
118.0700974129082
 30
0.0
 11
219.3715516492132
 21
121.2677317918052
 31
0.0
  0
LINE
  5
448
330
1F
100
AcDbEntity
  8
OSTATNÍ_OBRYSY
100
AcDbLine
 10
219.3715516492132
 20
117.0700974129082
 30
0.0
 11
219.3715516492132
 21
113.8724630340112
 31
0.0
  0
LINE
  5
449
330
1F
100
AcDbEntity
  8
OSTATNÍ_OBRYSY
100
AcDbLine
 10
221.7960514490532
 20
118.0700974129082
 30
0.0
 11
221.7960514490532
 21
117.0700974129082
 31
0.0
  0
LINE
  5
44A
330
1F
100
AcDbEntity
  8
OSTATNÍ_OBRYSY
100
AcDbLine
 10
221.7960514490532
 20
117.0700974129082
 30
0.0
 11
220.6205512488929
 21
117.0700974129082
 31
0.0
  0
LINE
  5
44B
330
1F
100
AcDbEntity
  8
OSTATNÍ_OBRYSY
100
AcDbLine
 10
220.6205512488929
 20
117.0700974129082
 30
0.0
 11
220.6205512488929
 21
113.8724630340112
 31
0.0
  0
LINE
  5
44C
330
1F
100
AcDbEntity
  8
OSTATNÍ_OBRYSY
100
AcDbLine
 10
221.7960514490532
 20
118.0700974129082
 30
0.0
 11
220.6205512488929
 21
118.0700974129082
 31
0.0
  0
LINE
  5
44D
330
1F
100
AcDbEntity
  8
OSTATNÍ_OBRYSY
100
AcDbLine
 10
220.6205512488929
 20
118.0700974129082
 30
0.0
 11
220.6205512488929
 21
121.2677317918052
 31
0.0
  0
LINE
  5
4A7
330
1F
100
AcDbEntity
  8
HLAVNÍ_OBRYSY
100
AcDbLine
 10
210.9960514490532
 20
129.8918199807702
 30
0.0
 11
228.9960514490532
 21
129.8918199807702
 31
0.0
  0
LINE
  5
4A8
330
1F
100
AcDbEntity
  8
OSTATNÍ_OBRYSY
100
AcDbLine
 10
228.9960514490532
 20
123.5918199807703
 30
0.0
 11
210.9960514490532
 21
123.5918199807703
 31
0.0
  0
LINE
  5
4A9
330
1F
100
AcDbEntity
  8
OSTATNÍ_OBRYSY
100
AcDbLine
 10
228.9960514490532
 20
124.4918199807704
 30
0.0
 11
210.9960514490532
 21
124.4918199807704
 31
0.0
  0
LINE
  5
4AA
330
1F
100
AcDbEntity
  8
OSTATNÍ_OBRYSY
100
AcDbLine
 10
210.9960514490532
 20
127.9918199807704
 30
0.0
 11
228.9960514490531
 21
127.9918199807704
 31
0.0
  0
LINE
  5
4AB
330
1F
100
AcDbEntity
  8
OSTATNÍ_OBRYSY
100
AcDbLine
 10
228.9960514490532
 20
128.8918199807702
 30
0.0
 11
210.9960514490532
 21
128.8918199807702
 31
0.0
  0
LINE
  5
4BE
330
1F
100
AcDbEntity
  8
OSTATNÍ_OBRYSY
100
AcDbLine
 10
253.5072874404125
 20
187.1418199807702
 30
0.0
 11
253.5072874404125
 21
188.1418199807702
 31
0.0
  0
LINE
  5
4BF
330
1F
100
AcDbEntity
  8
OSTATNÍ_OBRYSY
100
AcDbLine
 10
249.9072874404125
 20
187.1418199807702
 30
0.0
 11
251.0827876405726
 21
187.1418199807702
 31
0.0
  0
LINE
  5
4C0
330
1F
100
AcDbEntity
  8
OSTATNÍ_OBRYSY
100
AcDbLine
 10
253.5072874404125
 20
188.1418199807702
 30
0.0
 11
252.3317872402522
 21
188.1418199807702
 31
0.0
  0
LINE
  5
4C1
330
1F
100
AcDbEntity
  8
OSTATNÍ_OBRYSY
100
AcDbLine
 10
253.5072874404125
 20
187.1418199807702
 30
0.0
 11
252.3317872402522
 21
187.1418199807702
 31
0.0
  0
LINE
  5
4C2
330
1F
100
AcDbEntity
  8
OSTATNÍ_OBRYSY
100
AcDbLine
 10
252.3317872402522
 20
187.1418199807702
 30
0.0
 11
252.3317872402522
 21
183.9441856018721
 31
0.0
  0
LINE
  5
4C3
330
1F
100
AcDbEntity
  8
OSTATNÍ_OBRYSY
100
AcDbLine
 10
249.9072874404125
 20
188.1418199807702
 30
0.0
 11
249.9072874404125
 21
187.1418199807702
 31
0.0
  0
LINE
  5
4C4
330
1F
100
AcDbEntity
  8
OSTATNÍ_OBRYSY
100
AcDbLine
 10
251.0827876405726
 20
187.1418199807702
 30
0.0
 11
251.0827876405726
 21
183.9441856018721
 31
0.0
  0
LINE
  5
4C5
330
1F
100
AcDbEntity
  8
OSTATNÍ_OBRYSY
100
AcDbLine
 10
249.9072874404125
 20
188.1418199807702
 30
0.0
 11
251.0827876405726
 21
188.1418199807702
 31
0.0
  0
LINE
  5
4C6
330
1F
100
AcDbEntity
  8
OSTATNÍ_OBRYSY
100
AcDbLine
 10
251.0827876405726
 20
188.1418199807702
 30
0.0
 11
251.0827876405726
 21
191.3394543596672
 31
0.0
  0
LINE
  5
4C7
330
1F
100
AcDbEntity
  8
OSTATNÍ_OBRYSY
100
AcDbLine
 10
252.3317872402522
 20
188.1418199807702
 30
0.0
 11
252.3317872402522
 21
191.3394543596672
 31
0.0
  0
LINE
  5
4CC
330
1F
100
AcDbEntity
  8
OSTATNÍ_OBRYSY
100
AcDbLine
 10
296.1460448412769
 20
187.3559586968393
 30
0.0
 11
296.1460448412769
 21
188.3559586968393
 31
0.0
  0
LINE
  5
4CD
330
1F
100
AcDbEntity
  8
OSTATNÍ_OBRYSY
100
AcDbLine
 10
292.5460448412769
 20
187.3559586968393
 30
0.0
 11
293.721545041437
 21
187.3559586968393
 31
0.0
  0
LINE
  5
4CE
330
1F
100
AcDbEntity
  8
OSTATNÍ_OBRYSY
100
AcDbLine
 10
296.1460448412769
 20
188.3559586968393
 30
0.0
 11
294.9705446411166
 21
188.3559586968393
 31
0.0
  0
LINE
  5
4CF
330
1F
100
AcDbEntity
  8
OSTATNÍ_OBRYSY
100
AcDbLine
 10
296.1460448412769
 20
187.3559586968393
 30
0.0
 11
294.9705446411166
 21
187.3559586968393
 31
0.0
  0
LINE
  5
4D0
330
1F
100
AcDbEntity
  8
OSTATNÍ_OBRYSY
100
AcDbLine
 10
294.9705446411166
 20
187.3559586968393
 30
0.0
 11
294.9705446411166
 21
184.1583243179412
 31
0.0
  0
LINE
  5
4D1
330
1F
100
AcDbEntity
  8
OSTATNÍ_OBRYSY
100
AcDbLine
 10
292.5460448412769
 20
188.3559586968393
 30
0.0
 11
292.5460448412769
 21
187.3559586968393
 31
0.0
  0
LINE
  5
4D2
330
1F
100
AcDbEntity
  8
OSTATNÍ_OBRYSY
100
AcDbLine
 10
293.721545041437
 20
187.3559586968393
 30
0.0
 11
293.721545041437
 21
184.1583243179412
 31
0.0
  0
LINE
  5
4D3
330
1F
100
AcDbEntity
  8
OSTATNÍ_OBRYSY
100
AcDbLine
 10
292.5460448412769
 20
188.3559586968393
 30
0.0
 11
293.721545041437
 21
188.3559586968393
 31
0.0
  0
LINE
  5
4D4
330
1F
100
AcDbEntity
  8
OSTATNÍ_OBRYSY
100
AcDbLine
 10
293.721545041437
 20
188.3559586968393
 30
0.0
 11
293.721545041437
 21
191.5535930757363
 31
0.0
  0
LINE
  5
4D5
330
1F
100
AcDbEntity
  8
OSTATNÍ_OBRYSY
100
AcDbLine
 10
294.9705446411166
 20
188.3559586968393
 30
0.0
 11
294.9705446411166
 21
191.5535930757363
 31
0.0
  0
LINE
  5
4D8
330
1F
100
AcDbEntity
  8
OSTATNÍ_OBRYSY
100
AcDbLine
 10
350.5984795681375
 20
186.8530343292103
 30
0.0
 11
350.5984795681375
 21
187.8530343292103
 31
0.0
  0
LINE
  5
4D9
330
1F
100
AcDbEntity
  8
OSTATNÍ_OBRYSY
100
AcDbLine
 10
346.9984795681374
 20
186.8530343292103
 30
0.0
 11
348.1739797682976
 21
186.8530343292103
 31
0.0
  0
LINE
  5
4DA
330
1F
100
AcDbEntity
  8
OSTATNÍ_OBRYSY
100
AcDbLine
 10
350.5984795681375
 20
187.8530343292103
 30
0.0
 11
349.4229793679772
 21
187.8530343292103
 31
0.0
  0
LINE
  5
4DB
330
1F
100
AcDbEntity
  8
OSTATNÍ_OBRYSY
100
AcDbLine
 10
350.5984795681375
 20
186.8530343292103
 30
0.0
 11
349.4229793679772
 21
186.8530343292103
 31
0.0
  0
LINE
  5
4DC
330
1F
100
AcDbEntity
  8
OSTATNÍ_OBRYSY
100
AcDbLine
 10
349.4229793679772
 20
186.8530343292103
 30
0.0
 11
349.4229793679772
 21
183.6553999503122
 31
0.0
  0
LINE
  5
4DD
330
1F
100
AcDbEntity
  8
OSTATNÍ_OBRYSY
100
AcDbLine
 10
346.9984795681374
 20
187.8530343292103
 30
0.0
 11
346.9984795681374
 21
186.8530343292103
 31
0.0
  0
LINE
  5
4DE
330
1F
100
AcDbEntity
  8
OSTATNÍ_OBRYSY
100
AcDbLine
 10
348.1739797682976
 20
186.8530343292103
 30
0.0
 11
348.1739797682976
 21
183.6553999503122
 31
0.0
  0
LINE
  5
4DF
330
1F
100
AcDbEntity
  8
OSTATNÍ_OBRYSY
100
AcDbLine
 10
346.9984795681374
 20
187.8530343292103
 30
0.0
 11
348.1739797682976
 21
187.8530343292103
 31
0.0
  0
LINE
  5
4E0
330
1F
100
AcDbEntity
  8
OSTATNÍ_OBRYSY
100
AcDbLine
 10
348.1739797682976
 20
187.8530343292103
 30
0.0
 11
348.1739797682976
 21
191.0506687081073
 31
0.0
  0
LINE
  5
4E1
330
1F
100
AcDbEntity
  8
OSTATNÍ_OBRYSY
100
AcDbLine
 10
349.4229793679772
 20
187.8530343292103
 30
0.0
 11
349.4229793679772
 21
191.0506687081073
 31
0.0
  0
MTEXT
  5
4E5
330
1F
100
AcDbEntity
  8
POZNAMKY
100
AcDbMText
 10
212.9776555757227
 20
203.022836922569
 30
0.0
 40
3.0
 41
13.85217917969507
 71
     1
 72
     1
  1
{RTO-16}
1001
ACAD
1000
ACAD_MTEXT_DEFINED_HEIGHT_BEGIN
1070
    46
1040
3.0
1000
ACAD_MTEXT_DEFINED_HEIGHT_END
  0
MTEXT
  5
50C
330
1F
100
AcDbEntity
  8
POZNAMKY
100
AcDbMText
 10
253.1909025733712
 20
202.9343521441054
 30
0.0
 40
2.5
 41
14.36869439176289
 71
     1
 72
     1
  1
{\H1.2x;RTO-35}
1001
ACAD
1000
ACAD_MTEXT_DEFINED_HEIGHT_BEGIN
1070
    46
1040
3.0
1000
ACAD_MTEXT_DEFINED_HEIGHT_END
  0
MTEXT
  5
533
330
1F
100
AcDbEntity
  8
POZNAMKY
100
AcDbMText
 10
314.7105691430627
 20
203.022836922569
 30
0.0
 40
3.0
 41
14.18840409204194
 71
     1
 72
     1
  1
{RTO-63}
1001
ACAD
1000
ACAD_MTEXT_DEFINED_HEIGHT_BEGIN
1070
    46
1040
3.0
1000
ACAD_MTEXT_DEFINED_HEIGHT_END
  0
VIEWPORT
  5
53F
330
58
100
AcDbEntity
 67
     1
  8
0
100
AcDbViewport
 10
0.0
 20
0.0
 30
0.0
 40
8.976
 41
6.936000000000001
 68
     1
 69
     1
1001
ACAD
1000
MVIEW
1002
{
1070
    16
1010
0.0
1020
0.0
1030
0.0
1010
0.0
1020
0.0
1030
1.0
1040
0.0
1040
6.936000000000001
1040
5.25
1040
4.0
1040
50.0
1040
0.0
1040
0.0
1070
     0
1070
   100
1070
     0
1070
     3
1070
     0
1070
     0
1070
     0
1070
     0
1040
0.0
1040
0.0
1040
0.0
1040
0.5
1040
0.5
1040
0.0
1040
0.0
1070
     0
1002
{
1002
}
1002
}
  0
VIEWPORT
  5
540
330
58
100
AcDbEntity
 67
     1
  8
0
100
AcDbViewport
 10
5.25
 20
4.0
 30
0.0
 40
8.4
 41
6.4
 68
     2
 69
     2
1001
ACAD
1000
MVIEW
1002
{
1070
    16
1010
0.0
1020
0.0
1030
0.0
1010
0.0
1020
0.0
1030
1.0
1040
0.0
1040
202.0424957813528
1040
227.3554685113622
1040
149.9417303986623
1040
50.0
1040
0.0
1040
0.0
1070
     0
1070
   100
1070
     0
1070
     3
1070
     0
1070
     0
1070
     0
1070
     0
1040
0.0
1040
0.0
1040
0.0
1040
0.5
1040
0.5
1040
0.0
1040
0.0
1070
     0
1002
{
1002
}
1002
}
  0
ENDSEC
  0
SECTION
  2
OBJECTS
  0
DICTIONARY
  5
C
330
0
100
AcDbDictionary
  3
ACAD_DETAILVIEWSTYLE
350
122
  3
ACAD_GROUP
350
D
  3
ACAD_IMAGE_VARS
350
DC
  3
ACAD_MLINESTYLE
350
17
  3
ACAD_SCALELIST
350
5D5
  3
ACAD_SECTIONVIEWSTYLE
350
123
  3
ACDBVARIABLEDICTIONARY
350
66
  3
APPDATA
350
E1
  3
DWGPROPS
350
61B
  0
DICTIONARY
  5
49C
330
2
100
AcDbDictionary
280
     1
  3
ACAD_LAYERSTATES
360
4A1
  3
ACLYDICTIONARY
360
58C
  0
DICTIONARY
  5
122
102
{ACAD_REACTORS
330
C
102
}
330
C
100
AcDbDictionary
  0
DICTIONARY
  5
D
102
{ACAD_REACTORS
330
C
102
}
330
C
100
AcDbDictionary
  0
RASTERVARIABLES
  5
DC
102
{ACAD_REACTORS
330
C
102
}
330
C
100
AcDbRasterVariables
 90
        0
 70
     1
 71
     1
 72
     5
  0
DICTIONARY
  5
17
102
{ACAD_REACTORS
330
C
102
}
330
C
100
AcDbDictionary
  3
STANDARD
350
18
  0
DICTIONARY
  5
5D5
102
{ACAD_REACTORS
330
C
102
}
330
C
100
AcDbDictionary
  0
DICTIONARY
  5
123
102
{ACAD_REACTORS
330
C
102
}
330
C
100
AcDbDictionary
  0
DICTIONARY
  5
66
102
{ACAD_REACTORS
330
C
102
}
330
C
100
AcDbDictionary
  3
DIMASSOC
350
67
  3
HIDETEXT
350
6B
  0
DICTIONARY
  5
E1
102
{ACAD_REACTORS
330
C
102
}
330
C
100
AcDbDictionary
  0
XRECORD
  5
61B
102
{ACAD_REACTORS
330
C
102
}
330
C
100
AcDbXrecord
  1
DWGPROPS COOKIE
  2

  3

  4

  6

  7

  8
jaromir.podrabsky
  9

300
=
301
=
302
=
303
=
304
=
305
=
306
=
307
=
308
=
309
=
 40
0.0
 41
2452643.021717593
 42
2456765.445459445
  1

 90
        0
  0
DICTIONARY
  5
4A1
102
{ACAD_REACTORS
330
49C
102
}
330
49C
100
AcDbDictionary
  0
DICTIONARY
  5
58C
102
{ACAD_REACTORS
330
49C
102
}
330
49C
100
AcDbDictionary
1001
ACAD
1000
<All
  0
MLINESTYLE
  5
18
102
{ACAD_REACTORS
330
17
102
}
330
17
100
AcDbMlineStyle
  2
STANDARD
 70
     0
  3

 62
   256
 51
90.0
 52
90.0
 71
     2
 49
0.5
 62
   256
  6
BYLAYER
 49
-0.5
 62
   256
  6
BYLAYER
  0
DICTIONARYVAR
  5
67
102
{ACAD_REACTORS
330
66
102
}
330
66
100
DictionaryVariables
280
     0
  1
2
  0
DICTIONARYVAR
  5
6B
102
{ACAD_REACTORS
330
66
102
}
330
66
100
DictionaryVariables
280
     0
  1
1
  0
ENDSEC
  0
EOF
