  0
SECTION
  2
HEADER
  9
$ACADVER
  1
AC1027
  9
$ACADMAINTVER
 70
     8
  9
$DWGCODEPAGE
  3
ANSI_1250
  9
$REQUIREDVERSIONS
160
                 0
  9
$LASTSAVEDBY
  1
jaromir.podrabsky
  9
$INSBASE
 10
0.0
 20
0.0
 30
0.0
  9
$EXTMIN
 10
789.190737881592
 20
407.4469517885948
 30
0.0
  9
$EXTMAX
 10
1359.491855947523
 20
556.3919387885918
 30
0.0000000000003327
  9
$LIMMIN
 10
0.0
 20
0.0
  9
$LIMMAX
 10
12.0
 20
9.0
  9
$ORTHOMODE
 70
     0
  9
$REGENMODE
 70
     1
  9
$FILLMODE
 70
     1
  9
$QTEXTMODE
 70
     0
  9
$MIRRTEXT
 70
     0
  9
$LTSCALE
 40
1.0
  9
$ATTMODE
 70
     1
  9
$TEXTSIZE
 40
0.2
  9
$TRACEWID
 40
0.05
  9
$TEXTSTYLE
  7
Standard
  9
$CLAYER
  8
Koty
  9
$CELTYPE
  6
ByLayer
  9
$CECOLOR
 62
   256
  9
$CELTSCALE
 40
1.0
  9
$DISPSILH
 70
     0
  9
$DIMSCALE
 40
1.0
  9
$DIMASZ
 40
0.18
  9
$DIMEXO
 40
0.0625
  9
$DIMDLI
 40
0.38
  9
$DIMRND
 40
0.0
  9
$DIMDLE
 40
0.0
  9
$DIMEXE
 40
0.18
  9
$DIMTP
 40
0.0
  9
$DIMTM
 40
0.0
  9
$DIMTXT
 40
0.18
  9
$DIMCEN
 40
0.09
  9
$DIMTSZ
 40
0.0
  9
$DIMTOL
 70
     0
  9
$DIMLIM
 70
     0
  9
$DIMTIH
 70
     1
  9
$DIMTOH
 70
     1
  9
$DIMSE1
 70
     0
  9
$DIMSE2
 70
     0
  9
$DIMTAD
 70
     0
  9
$DIMZIN
 70
     0
  9
$DIMBLK
  1

  9
$DIMASO
 70
     1
  9
$DIMSHO
 70
     1
  9
$DIMPOST
  1

  9
$DIMAPOST
  1

  9
$DIMALT
 70
     0
  9
$DIMALTD
 70
     2
  9
$DIMALTF
 40
25.4
  9
$DIMLFAC
 40
1.0
  9
$DIMTOFL
 70
     0
  9
$DIMTVP
 40
0.0
  9
$DIMTIX
 70
     0
  9
$DIMSOXD
 70
     0
  9
$DIMSAH
 70
     0
  9
$DIMBLK1
  1

  9
$DIMBLK2
  1

  9
$DIMSTYLE
  2
Standard
  9
$DIMCLRD
 70
     0
  9
$DIMCLRE
 70
     0
  9
$DIMCLRT
 70
     0
  9
$DIMTFAC
 40
1.0
  9
$DIMGAP
 40
0.09
  9
$DIMJUST
 70
     0
  9
$DIMSD1
 70
     0
  9
$DIMSD2
 70
     0
  9
$DIMTOLJ
 70
     1
  9
$DIMTZIN
 70
     0
  9
$DIMALTZ
 70
     0
  9
$DIMALTTZ
 70
     0
  9
$DIMUPT
 70
     0
  9
$DIMDEC
 70
     4
  9
$DIMTDEC
 70
     4
  9
$DIMALTU
 70
     2
  9
$DIMALTTD
 70
     2
  9
$DIMTXSTY
  7
Standard
  9
$DIMAUNIT
 70
     0
  9
$DIMADEC
 70
     0
  9
$DIMALTRND
 40
0.0
  9
$DIMAZIN
 70
     0
  9
$DIMDSEP
 70
    46
  9
$DIMATFIT
 70
     3
  9
$DIMFRAC
 70
     0
  9
$DIMLDRBLK
  1

  9
$DIMLUNIT
 70
     2
  9
$DIMLWD
 70
    -2
  9
$DIMLWE
 70
    -2
  9
$DIMTMOVE
 70
     0
  9
$DIMFXL
 40
1.0
  9
$DIMFXLON
 70
     0
  9
$DIMJOGANG
 40
0.7853981633974483
  9
$DIMTFILL
 70
     0
  9
$DIMTFILLCLR
 70
     0
  9
$DIMARCSYM
 70
     0
  9
$DIMLTYPE
  6

  9
$DIMLTEX1
  6

  9
$DIMLTEX2
  6

  9
$DIMTXTDIRECTION
 70
     0
  9
$LUNITS
 70
     2
  9
$LUPREC
 70
     4
  9
$SKETCHINC
 40
0.1
  9
$FILLETRAD
 40
0.0
  9
$AUNITS
 70
     0
  9
$AUPREC
 70
     0
  9
$MENU
  1
.
  9
$ELEVATION
 40
0.0
  9
$PELEVATION
 40
0.0
  9
$THICKNESS
 40
0.0
  9
$LIMCHECK
 70
     0
  9
$CHAMFERA
 40
0.0
  9
$CHAMFERB
 40
0.0
  9
$CHAMFERC
 40
0.0
  9
$CHAMFERD
 40
0.0
  9
$SKPOLY
 70
     0
  9
$TDCREATE
 40
2452643.105050937
  9
$TDUCREATE
 40
2452643.063384271
  9
$TDUPDATE
 40
2457420.432465428
  9
$TDUUPDATE
 40
2457420.390798762
  9
$TDINDWG
 40
0.0088573611
  9
$TDUSRTIMER
 40
2457420.390330555
  9
$USRTIMER
 70
     1
  9
$ANGBASE
 50
0.0
  9
$ANGDIR
 70
     0
  9
$PDMODE
 70
     0
  9
$PDSIZE
 40
0.0
  9
$PLINEWID
 40
0.0
  9
$SPLFRAME
 70
     0
  9
$SPLINETYPE
 70
     6
  9
$SPLINESEGS
 70
     8
  9
$HANDSEED
  5
564
  9
$SURFTAB1
 70
     6
  9
$SURFTAB2
 70
     6
  9
$SURFTYPE
 70
     6
  9
$SURFU
 70
     6
  9
$SURFV
 70
     6
  9
$UCSBASE
  2

  9
$UCSNAME
  2

  9
$UCSORG
 10
0.0
 20
0.0
 30
0.0
  9
$UCSXDIR
 10
1.0
 20
0.0
 30
0.0
  9
$UCSYDIR
 10
0.0
 20
1.0
 30
0.0
  9
$UCSORTHOREF
  2

  9
$UCSORTHOVIEW
 70
     0
  9
$UCSORGTOP
 10
0.0
 20
0.0
 30
0.0
  9
$UCSORGBOTTOM
 10
0.0
 20
0.0
 30
0.0
  9
$UCSORGLEFT
 10
0.0
 20
0.0
 30
0.0
  9
$UCSORGRIGHT
 10
0.0
 20
0.0
 30
0.0
  9
$UCSORGFRONT
 10
0.0
 20
0.0
 30
0.0
  9
$UCSORGBACK
 10
0.0
 20
0.0
 30
0.0
  9
$PUCSBASE
  2

  9
$PUCSNAME
  2

  9
$PUCSORG
 10
0.0
 20
0.0
 30
0.0
  9
$PUCSXDIR
 10
1.0
 20
0.0
 30
0.0
  9
$PUCSYDIR
 10
0.0
 20
1.0
 30
0.0
  9
$PUCSORTHOREF
  2

  9
$PUCSORTHOVIEW
 70
     0
  9
$PUCSORGTOP
 10
0.0
 20
0.0
 30
0.0
  9
$PUCSORGBOTTOM
 10
0.0
 20
0.0
 30
0.0
  9
$PUCSORGLEFT
 10
0.0
 20
0.0
 30
0.0
  9
$PUCSORGRIGHT
 10
0.0
 20
0.0
 30
0.0
  9
$PUCSORGFRONT
 10
0.0
 20
0.0
 30
0.0
  9
$PUCSORGBACK
 10
0.0
 20
0.0
 30
0.0
  9
$USERI1
 70
     0
  9
$USERI2
 70
     0
  9
$USERI3
 70
     0
  9
$USERI4
 70
     0
  9
$USERI5
 70
     0
  9
$USERR1
 40
0.0
  9
$USERR2
 40
0.0
  9
$USERR3
 40
0.0
  9
$USERR4
 40
0.0
  9
$USERR5
 40
0.0
  9
$WORLDVIEW
 70
     1
  9
$SHADEDGE
 70
     3
  9
$SHADEDIF
 70
    70
  9
$TILEMODE
 70
     0
  9
$MAXACTVP
 70
    64
  9
$PINSBASE
 10
0.0
 20
0.0
 30
0.0
  9
$PLIMCHECK
 70
     0
  9
$PEXTMIN
 10
1.05
 20
0.6999999999999997
 30
0.0
  9
$PEXTMAX
 10
9.45
 20
6.300000000000001
 30
0.0
  9
$PLIMMIN
 10
-0.25
 20
-0.7499999999999999
  9
$PLIMMAX
 10
10.75
 20
7.75
  9
$UNITMODE
 70
     0
  9
$VISRETAIN
 70
     1
  9
$PLINEGEN
 70
     0
  9
$PSLTSCALE
 70
     1
  9
$TREEDEPTH
 70
  3020
  9
$CMLSTYLE
  2
Standard
  9
$CMLJUST
 70
     0
  9
$CMLSCALE
 40
1.0
  9
$PROXYGRAPHICS
 70
     1
  9
$MEASUREMENT
 70
     0
  9
$CELWEIGHT
370
    -1
  9
$ENDCAPS
280
     0
  9
$JOINSTYLE
280
     0
  9
$LWDISPLAY
290
     0
  9
$INSUNITS
 70
     1
  9
$HYPERLINKBASE
  1

  9
$STYLESHEET
  1

  9
$XEDIT
290
     1
  9
$CEPSNTYPE
380
     0
  9
$PSTYLEMODE
290
     1
  9
$FINGERPRINTGUID
  2
{FDEAD576-A652-11D2-9A35-0060089B3A3F}
  9
$VERSIONGUID
  2
{FBC2AE19-5C5C-49EC-81BC-71B1A3362A02}
  9
$EXTNAMES
290
     1
  9
$PSVPSCALE
 40
0.0
  9
$OLESTARTUP
290
     0
  9
$SORTENTS
280
   127
  9
$INDEXCTL
280
     0
  9
$HIDETEXT
280
     1
  9
$XCLIPFRAME
280
     0
  9
$HALOGAP
280
     0
  9
$OBSCOLOR
 70
   257
  9
$OBSLTYPE
280
     0
  9
$INTERSECTIONDISPLAY
280
     0
  9
$INTERSECTIONCOLOR
 70
   257
  9
$DIMASSOC
280
     2
  9
$PROJECTNAME
  1

  9
$CAMERADISPLAY
290
     0
  9
$LENSLENGTH
 40
50.0
  9
$CAMERAHEIGHT
 40
0.0
  9
$STEPSPERSEC
 40
2.0
  9
$STEPSIZE
 40
6.0
  9
$3DDWFPREC
 40
2.0
  9
$PSOLWIDTH
 40
0.25
  9
$PSOLHEIGHT
 40
4.0
  9
$LOFTANG1
 40
1.570796326794897
  9
$LOFTANG2
 40
1.570796326794897
  9
$LOFTMAG1
 40
0.0
  9
$LOFTMAG2
 40
0.0
  9
$LOFTPARAM
 70
     7
  9
$LOFTNORMALS
280
     1
  9
$LATITUDE
 40
37.795
  9
$LONGITUDE
 40
-122.394
  9
$NORTHDIRECTION
 40
0.0
  9
$TIMEZONE
 70
 -8000
  9
$LIGHTGLYPHDISPLAY
280
     1
  9
$TILEMODELIGHTSYNCH
280
     1
  9
$CMATERIAL
347
96
  9
$SOLIDHIST
280
     1
  9
$SHOWHIST
280
     1
  9
$DWFFRAME
280
     2
  9
$DGNFRAME
280
     0
  9
$REALWORLDSCALE
290
     1
  9
$INTERFERECOLOR
 62
     1
  9
$CSHADOW
280
     0
  9
$SHADOWPLANELOCATION
 40
0.0
  0
ENDSEC
  0
SECTION
  2
CLASSES
  0
CLASS
  1
ACDBDICTIONARYWDFLT
  2
AcDbDictionaryWithDefault
  3
ObjectDBX Classes
 90
        0
 91
        5
280
     0
281
     0
  0
CLASS
  1
ACDBPLACEHOLDER
  2
AcDbPlaceHolder
  3
ObjectDBX Classes
 90
        0
 91
        1
280
     0
281
     0
  0
CLASS
  1
LAYOUT
  2
AcDbLayout
  3
ObjectDBX Classes
 90
        0
 91
        1
280
     0
281
     0
  0
CLASS
  1
DICTIONARYVAR
  2
AcDbDictionaryVar
  3
ObjectDBX Classes
 90
        0
 91
        5
280
     0
281
     0
  0
CLASS
  1
TABLESTYLE
  2
AcDbTableStyle
  3
ObjectDBX Classes
 90
     4095
 91
        5
280
     0
281
     0
  0
CLASS
  1
MATERIAL
  2
AcDbMaterial
  3
ObjectDBX Classes
 90
     1153
 91
        5
280
     0
281
     0
  0
CLASS
  1
VISUALSTYLE
  2
AcDbVisualStyle
  3
ObjectDBX Classes
 90
     4095
 91
        5
280
     0
281
     0
  0
CLASS
  1
SCALE
  2
AcDbScale
  3
ObjectDBX Classes
 90
     1153
 91
        5
280
     0
281
     0
  0
CLASS
  1
CELLSTYLEMAP
  2
AcDbCellStyleMap
  3
ObjectDBX Classes
 90
     1152
 91
        5
280
     0
281
     0
  0
CLASS
  1
RASTERVARIABLES
  2
AcDbRasterVariables
  3
ISM
 90
        0
 91
        5
280
     0
281
     0
  0
CLASS
  1
SUN
  2
AcDbSun
  3
SCENEOE
 90
     1153
 91
        5
280
     0
281
     0
  0
CLASS
  1
MLEADERSTYLE
  2
AcDbMLeaderStyle
  3
ACDB_MLEADERSTYLE_CLASS
 90
     4095
 91
        5
280
     0
281
     0
  0
CLASS
  1
DIMASSOC
  2
AcDbDimAssoc
  3
"AcDbDimAssoc|Product Desc:     AcDim ARX App For Dimension|Company:          Autodesk, Inc.|WEB Address:      www.autodesk.com"
 90
        0
 91
        5
280
     0
281
     0
  0
ENDSEC
  0
SECTION
  2
TABLES
  0
TABLE
  2
VPORT
  5
8
330
0
100
AcDbSymbolTable
 70
     1
  0
VPORT
  5
94
330
8
100
AcDbSymbolTableRecord
100
AcDbViewportTableRecord
  2
*Active
 70
     0
 10
0.0
 20
0.0
 11
1.0
 21
1.0
 12
1107.630089266035
 22
522.3086471500214
 13
0.0
 23
0.0
 14
0.5
 24
0.5
 15
0.5
 25
0.5
 16
0.0
 26
0.0
 36
1.0
 17
-27.66959356597954
 27
-19.53870295786135
 37
0.0
 40
312.8012135026161
 41
1.944153577661431
 42
50.0
 43
0.0
 44
0.0
 50
0.0
 51
0.0
 71
    16
 72
  1000
 73
     1
 74
     3
 75
     0
 76
     0
 77
     0
 78
     0
281
     0
 65
     1
110
0.0
120
0.0
130
0.0
111
1.0
121
0.0
131
0.0
112
0.0
122
1.0
132
0.0
 79
     0
146
0.0
348
9F
 60
     2
 61
     5
292
     1
282
     1
141
0.0
142
0.0
 63
   250
421
  3355443
361
ED
  0
ENDTAB
  0
TABLE
  2
LTYPE
  5
5
330
0
100
AcDbSymbolTable
 70
     1
  0
LTYPE
  5
14
330
5
100
AcDbSymbolTableRecord
100
AcDbLinetypeTableRecord
  2
ByBlock
 70
     0
  3

 72
    65
 73
     0
 40
0.0
  0
LTYPE
  5
15
330
5
100
AcDbSymbolTableRecord
100
AcDbLinetypeTableRecord
  2
ByLayer
 70
     0
  3
Solid line
 72
    65
 73
     0
 40
0.0
  0
LTYPE
  5
16
330
5
100
AcDbSymbolTableRecord
100
AcDbLinetypeTableRecord
  2
Continuous
 70
     0
  3
Solid line
 72
    65
 73
     0
 40
0.0
  0
ENDTAB
  0
TABLE
  2
LAYER
  5
2
102
{ACAD_XDICTIONARY
360
2ED
102
}
330
0
100
AcDbSymbolTable
 70
     5
  0
LAYER
  5
10
330
2
100
AcDbSymbolTableRecord
100
AcDbLayerTableRecord
  2
0
 70
     0
 62
     7
  6
Continuous
370
    -3
390
F
347
98
348
0
  0
LAYER
  5
126
330
2
100
AcDbSymbolTableRecord
100
AcDbLayerTableRecord
  2
Koty
 70
     0
 62
     1
  6
Continuous
370
     5
390
F
347
98
348
0
1001
AcAecLayerStandard
1000

1000

  0
LAYER
  5
129
330
2
100
AcDbSymbolTableRecord
100
AcDbLayerTableRecord
  2
Obrys
 70
     0
 62
     5
  6
Continuous
370
    30
390
F
347
98
348
0
1001
AcAecLayerStandard
1000

1000

  0
LAYER
  5
498
330
2
100
AcDbSymbolTableRecord
100
AcDbLayerTableRecord
  2
Defpoints
 70
     0
 62
     7
  6
Continuous
290
     0
370
    -3
390
F
347
98
348
0
  0
LAYER
  5
528
330
2
100
AcDbSymbolTableRecord
100
AcDbLayerTableRecord
  2
1
 70
     0
 62
     7
  6
Continuous
370
    -3
390
F
347
98
348
0
  0
ENDTAB
  0
TABLE
  2
STYLE
  5
3
330
0
100
AcDbSymbolTable
 70
     1
  0
STYLE
  5
11
330
3
100
AcDbSymbolTableRecord
100
AcDbTextStyleTableRecord
  2
Standard
 70
     0
 40
0.0
 41
1.0
 50
0.0
 71
     0
 42
0.2
  3
arial.ttf
  4

1001
ACAD
1000
Arial
1071
        0
  0
ENDTAB
  0
TABLE
  2
VIEW
  5
6
330
0
100
AcDbSymbolTable
 70
     0
  0
ENDTAB
  0
TABLE
  2
UCS
  5
7
330
0
100
AcDbSymbolTable
 70
     0
  0
ENDTAB
  0
TABLE
  2
APPID
  5
9
330
0
100
AcDbSymbolTable
 70
     2
  0
APPID
  5
12
330
9
100
AcDbSymbolTableRecord
100
AcDbRegAppTableRecord
  2
ACAD
 70
     0
  0
APPID
  5
128
330
9
100
AcDbSymbolTableRecord
100
AcDbRegAppTableRecord
  2
AcAecLayerStandard
 70
     0
  0
ENDTAB
  0
TABLE
  2
DIMSTYLE
  5
A
330
0
100
AcDbSymbolTable
 70
     1
100
AcDbDimStyleTable
  0
DIMSTYLE
105
27
102
{ACAD_REACTORS
330
499
330
4A9
330
4B9
330
4C9
102
}
330
A
100
AcDbSymbolTableRecord
100
AcDbDimStyleTableRecord
  2
Standard
 70
     0
178
     0
340
11
  0
ENDTAB
  0
TABLE
  2
BLOCK_RECORD
  5
1
330
0
100
AcDbSymbolTable
 70
     6
  0
BLOCK_RECORD
  5
1F
330
1
100
AcDbSymbolTableRecord
100
AcDbBlockTableRecord
  2
*Model_Space
340
22
 70
     0
280
     1
281
     0
  0
BLOCK_RECORD
  5
4F0
330
1
100
AcDbSymbolTableRecord
100
AcDbBlockTableRecord
  2
*Paper_Space
340
4F1
 70
     0
280
     1
281
     0
  0
BLOCK_RECORD
  5
49C
330
1
100
AcDbSymbolTableRecord
100
AcDbBlockTableRecord
  2
*D2
340
0
 70
     0
280
     1
281
     0
  0
BLOCK_RECORD
  5
4AC
330
1
100
AcDbSymbolTableRecord
100
AcDbBlockTableRecord
  2
*D3
340
0
 70
     0
280
     1
281
     0
  0
BLOCK_RECORD
  5
4BC
330
1
100
AcDbSymbolTableRecord
100
AcDbBlockTableRecord
  2
*D4
340
0
 70
     0
280
     1
281
     0
  0
BLOCK_RECORD
  5
4CC
330
1
100
AcDbSymbolTableRecord
100
AcDbBlockTableRecord
  2
*D5
340
0
 70
     0
280
     1
281
     0
  0
ENDTAB
  0
ENDSEC
  0
SECTION
  2
BLOCKS
  0
BLOCK
  5
20
330
1F
100
AcDbEntity
  8
0
100
AcDbBlockBegin
  2
*Model_Space
 70
     0
 10
0.0
 20
0.0
 30
0.0
  3
*Model_Space
  1
*Model_Space
  0
ENDBLK
  5
21
330
1F
100
AcDbEntity
  8
0
100
AcDbBlockEnd
  0
BLOCK
  5
4F2
330
4F0
100
AcDbEntity
 67
     1
  8
0
100
AcDbBlockBegin
  2
*Paper_Space
 70
     0
 10
0.0
 20
0.0
 30
0.0
  3
*Paper_Space
  1
*Paper_Space
  0
ENDBLK
  5
4F3
330
4F0
100
AcDbEntity
 67
     1
  8
0
100
AcDbBlockEnd
  0
BLOCK
  5
49D
330
49C
100
AcDbEntity
  8
0
100
AcDbBlockBegin
  2
*D2
 70
     1
 10
0.0
 20
0.0
 30
0.0
  3
*D2
  1
*D2
  0
LINE
  5
49F
330
49C
100
AcDbEntity
  8
Koty
 62
     0
370
    -2
100
AcDbLine
 10
855.9907378815918
 20
517.7294387885918
 30
0.0
 11
855.9907378815918
 21
491.621621513466
 31
0.0
  0
LINE
  5
4A0
330
49C
100
AcDbEntity
  8
Koty
 62
     0
370
    -2
100
AcDbLine
 10
1337.990737881592
 20
517.7294387885918
 30
0.0
 11
1337.990737881592
 21
491.621621513466
 31
0.0
  0
LINE
  5
4A1
330
49C
100
AcDbEntity
  8
Koty
 62
     0
370
    -2
100
AcDbLine
 10
861.9907378815918
 20
491.801621513466
 30
0.0
 11
1331.990737881592
 21
491.801621513466
 31
0.0
  0
SOLID
  5
4A2
330
49C
100
AcDbEntity
  8
Koty
 62
     0
100
AcDbTrace
 10
861.9907378815918
 20
492.801621513466
 30
0.0
 11
861.9907378815918
 21
490.801621513466
 31
0.0
 12
855.9907378815918
 22
491.801621513466
 32
0.0
 13
855.9907378815918
 23
491.801621513466
 33
0.0
  0
SOLID
  5
4A3
330
49C
100
AcDbEntity
  8
Koty
 62
     0
100
AcDbTrace
 10
1331.990737881592
 20
490.801621513466
 30
0.0
 11
1331.990737881592
 21
492.801621513466
 31
0.0
 12
1337.990737881592
 22
491.801621513466
 32
0.0
 13
1337.990737881592
 23
491.801621513466
 33
0.0
  0
MTEXT
  5
4A4
330
49C
100
AcDbEntity
  8
Koty
 62
     0
100
AcDbMText
 10
1096.990737881592
 20
496.404621513466
 30
0.0
 40
6.0
 41
0.0
 46
0.0
 71
     5
 72
     1
  1
\A1;482,0
 73
     1
 44
1.0
  0
POINT
  5
4A5
330
49C
100
AcDbEntity
  8
Defpoints
 62
     0
100
AcDbPoint
 10
855.9907378815918
 20
517.7919387885918
 30
0.0
  0
POINT
  5
4A6
330
49C
100
AcDbEntity
  8
Defpoints
 62
     0
100
AcDbPoint
 10
1337.990737881592
 20
517.7919387885918
 30
0.0
  0
POINT
  5
4A7
330
49C
100
AcDbEntity
  8
Defpoints
 62
     0
100
AcDbPoint
 10
1337.990737881592
 20
491.801621513466
 30
0.0
  0
ENDBLK
  5
49E
330
49C
100
AcDbEntity
  8
0
100
AcDbBlockEnd
  0
BLOCK
  5
4AD
330
4AC
100
AcDbEntity
  8
0
100
AcDbBlockBegin
  2
*D3
 70
     1
 10
0.0
 20
0.0
 30
0.0
  3
*D3
  1
*D3
  0
LINE
  5
4AF
330
4AC
100
AcDbEntity
  8
Koty
 62
     0
370
    -2
100
AcDbLine
 10
1313.053237881592
 20
556.3919387885918
 30
0.0
 11
1358.571855947523
 21
556.3919387885918
 31
0.0
  0
LINE
  5
4B0
330
4AC
100
AcDbEntity
  8
Koty
 62
     0
370
    -2
100
AcDbLine
 10
1313.053237881592
 20
512.3919387885918
 30
0.0
 11
1358.571855947523
 21
512.3919387885918
 31
0.0
  0
LINE
  5
4B1
330
4AC
100
AcDbEntity
  8
Koty
 62
     0
370
    -2
100
AcDbLine
 10
1358.391855947523
 20
550.3919387885918
 30
0.0
 11
1358.391855947523
 21
518.3919387885918
 31
0.0
  0
SOLID
  5
4B2
330
4AC
100
AcDbEntity
  8
Koty
 62
     0
100
AcDbTrace
 10
1359.391855947523
 20
550.3919387885918
 30
0.0
 11
1357.391855947523
 21
550.3919387885918
 31
0.0
 12
1358.391855947523
 22
556.3919387885918
 32
0.0
 13
1358.391855947523
 23
556.3919387885918
 33
0.0
  0
SOLID
  5
4B3
330
4AC
100
AcDbEntity
  8
Koty
 62
     0
100
AcDbTrace
 10
1357.391855947523
 20
518.3919387885918
 30
0.0
 11
1359.391855947523
 21
518.3919387885918
 31
0.0
 12
1358.391855947523
 22
512.3919387885918
 32
0.0
 13
1358.391855947523
 23
512.3919387885918
 33
0.0
  0
MTEXT
  5
4B4
330
4AC
100
AcDbEntity
  8
Koty
 62
     0
100
AcDbMText
 10
1353.788855947523
 20
534.3919387885918
 30
0.0
 40
6.0
 41
0.0
 46
0.0
 71
     5
 72
     1
  1
\A1;44,0
 11
0.0
 21
1.0
 31
0.0
 73
     1
 44
1.0
  0
POINT
  5
4B5
330
4AC
100
AcDbEntity
  8
Defpoints
 62
     0
100
AcDbPoint
 10
1312.990737881592
 20
556.3919387885918
 30
0.0
  0
POINT
  5
4B6
330
4AC
100
AcDbEntity
  8
Defpoints
 62
     0
100
AcDbPoint
 10
1312.990737881592
 20
512.3919387885918
 30
0.0
  0
POINT
  5
4B7
330
4AC
100
AcDbEntity
  8
Defpoints
 62
     0
100
AcDbPoint
 10
1358.391855947523
 20
512.3919387885918
 30
0.0
  0
ENDBLK
  5
4AE
330
4AC
100
AcDbEntity
  8
0
100
AcDbBlockEnd
  0
BLOCK
  5
4BD
330
4BC
100
AcDbEntity
  8
0
100
AcDbBlockBegin
  2
*D4
 70
     1
 10
0.0
 20
0.0
 30
0.0
  3
*D4
  1
*D4
  0
LINE
  5
4BF
330
4BC
100
AcDbEntity
  8
Koty
 62
     0
370
    -2
100
AcDbLine
 10
1313.053237881592
 20
451.8969517885918
 30
0.0
 11
1358.671855947523
 21
451.8969517885918
 31
0.0
  0
LINE
  5
4C0
330
4BC
100
AcDbEntity
  8
Koty
 62
     0
370
    -2
100
AcDbLine
 10
1338.053237881592
 20
407.8969517885918
 30
0.0
 11
1358.671855947523
 21
407.8969517885918
 31
0.0
  0
LINE
  5
4C1
330
4BC
100
AcDbEntity
  8
Koty
 62
     0
370
    -2
100
AcDbLine
 10
1358.491855947523
 20
445.8969517885918
 30
0.0
 11
1358.491855947523
 21
413.8969517885918
 31
0.0
  0
SOLID
  5
4C2
330
4BC
100
AcDbEntity
  8
Koty
 62
     0
100
AcDbTrace
 10
1359.491855947523
 20
445.8969517885918
 30
0.0
 11
1357.491855947523
 21
445.8969517885918
 31
0.0
 12
1358.491855947523
 22
451.8969517885918
 32
0.0
 13
1358.491855947523
 23
451.8969517885918
 33
0.0
  0
SOLID
  5
4C3
330
4BC
100
AcDbEntity
  8
Koty
 62
     0
100
AcDbTrace
 10
1357.491855947523
 20
413.8969517885918
 30
0.0
 11
1359.491855947523
 21
413.8969517885918
 31
0.0
 12
1358.491855947523
 22
407.8969517885918
 32
0.0
 13
1358.491855947523
 23
407.8969517885918
 33
0.0
  0
MTEXT
  5
4C4
330
4BC
100
AcDbEntity
  8
Koty
 62
     0
100
AcDbMText
 10
1353.888855947523
 20
429.8969517885918
 30
0.0
 40
6.0
 41
0.0
 46
0.0
 71
     5
 72
     1
  1
\A1;44,0
 11
0.0
 21
1.0
 31
0.0
 73
     1
 44
1.0
  0
POINT
  5
4C5
330
4BC
100
AcDbEntity
  8
Defpoints
 62
     0
100
AcDbPoint
 10
1312.990737881592
 20
451.8969517885918
 30
0.0
  0
POINT
  5
4C6
330
4BC
100
AcDbEntity
  8
Defpoints
 62
     0
100
AcDbPoint
 10
1337.990737881592
 20
407.8969517885918
 30
0.0
  0
POINT
  5
4C7
330
4BC
100
AcDbEntity
  8
Defpoints
 62
     0
100
AcDbPoint
 10
1358.491855947523
 20
407.8969517885918
 30
0.0
  0
ENDBLK
  5
4BE
330
4BC
100
AcDbEntity
  8
0
100
AcDbBlockEnd
  0
BLOCK
  5
4CD
330
4CC
100
AcDbEntity
  8
0
100
AcDbBlockBegin
  2
*D5
 70
     1
 10
0.0
 20
0.0
 30
0.0
  3
*D5
  1
*D5
  0
LINE
  5
4CF
330
4CC
100
AcDbEntity
  8
Koty
 62
     0
370
    -2
100
AcDbLine
 10
874.4907378815919
 20
450.2594517885918
 30
0.0
 11
874.4907378815919
 21
467.4485880025568
 31
0.0
  0
LINE
  5
4D0
330
4CC
100
AcDbEntity
  8
Koty
 62
     0
370
    -2
100
AcDbLine
 10
1319.490737881592
 20
450.2594517885918
 30
0.0
 11
1319.490737881592
 21
467.4485880025568
 31
0.0
  0
LINE
  5
4D1
330
4CC
100
AcDbEntity
  8
Koty
 62
     0
370
    -2
100
AcDbLine
 10
880.4907378815919
 20
467.2685880025568
 30
0.0
 11
1313.490737881592
 21
467.2685880025568
 31
0.0
  0
SOLID
  5
4D2
330
4CC
100
AcDbEntity
  8
Koty
 62
     0
100
AcDbTrace
 10
880.4907378815919
 20
468.2685880025568
 30
0.0
 11
880.4907378815919
 21
466.2685880025568
 31
0.0
 12
874.4907378815919
 22
467.2685880025568
 32
0.0
 13
874.4907378815919
 23
467.2685880025568
 33
0.0
  0
SOLID
  5
4D3
330
4CC
100
AcDbEntity
  8
Koty
 62
     0
100
AcDbTrace
 10
1313.490737881592
 20
466.2685880025568
 30
0.0
 11
1313.490737881592
 21
468.2685880025568
 31
0.0
 12
1319.490737881592
 22
467.2685880025568
 32
0.0
 13
1319.490737881592
 23
467.2685880025568
 33
0.0
  0
MTEXT
  5
4D4
330
4CC
100
AcDbEntity
  8
Koty
 62
     0
100
AcDbMText
 10
1096.990737881592
 20
471.8715880025568
 30
0.0
 40
6.0
 41
0.0
 46
0.0
 71
     5
 72
     1
  1
\A1;445,0
 73
     1
 44
1.0
  0
POINT
  5
4D5
330
4CC
100
AcDbEntity
  8
Defpoints
 62
     0
100
AcDbPoint
 10
874.4907378815919
 20
450.1969517885918
 30
0.0
  0
POINT
  5
4D6
330
4CC
100
AcDbEntity
  8
Defpoints
 62
     0
100
AcDbPoint
 10
1319.490737881592
 20
450.1969517885918
 30
0.0
  0
POINT
  5
4D7
330
4CC
100
AcDbEntity
  8
Defpoints
 62
     0
100
AcDbPoint
 10
1319.490737881592
 20
467.2685880025568
 30
0.0
  0
ENDBLK
  5
4CE
330
4CC
100
AcDbEntity
  8
0
100
AcDbBlockEnd
  0
ENDSEC
  0
SECTION
  2
ENTITIES
  0
LINE
  5
2F2
330
1F
100
AcDbEntity
  8
Obrys
100
AcDbLine
 10
880.9907378815919
 20
512.3919387885918
 30
0.0
 11
1312.990737881592
 21
512.3919387885918
 31
0.0
  0
LINE
  5
2F3
330
1F
100
AcDbEntity
  8
Obrys
100
AcDbLine
 10
1075.559654881592
 20
513.8924997885917
 30
0.0
 11
1075.559654881592
 21
554.8913787885919
 31
0.0
  0
LINE
  5
2F4
330
1F
100
AcDbEntity
  8
Obrys
100
AcDbLine
 10
1049.645994881592
 20
540.1945707885918
 30
0.0
 11
1050.154646881592
 21
541.4581777885918
 31
0.0
  0
LINE
  5
2F5
330
1F
100
AcDbEntity
  8
Obrys
 48
1.75
100
AcDbLine
 10
1327.790737881592
 20
514.8919387885918
 30
0.0
 11
1331.290737881592
 21
514.8919387885918
 31
0.0
  0
LINE
  5
2F6
330
1F
100
AcDbEntity
  8
Obrys
 48
1.75
100
AcDbLine
 10
1331.290737881592
 20
522.0919387885918
 30
0.0
 11
1327.790737881592
 21
522.0919387885918
 31
0.0
  0
LINE
  5
2F7
330
1F
100
AcDbEntity
  8
Obrys
 48
1.75
100
AcDbLine
 10
1327.790737881592
 20
530.7919387885918
 30
0.0
 11
1331.290737881592
 21
530.7919387885918
 31
0.0
  0
LINE
  5
2F8
330
1F
100
AcDbEntity
  8
Obrys
 48
1.75
100
AcDbLine
 10
1331.290737881592
 20
537.9919387885918
 30
0.0
 11
1327.790737881592
 21
537.9919387885918
 31
0.0
  0
LINE
  5
2F9
330
1F
100
AcDbEntity
  8
Obrys
 48
1.75
100
AcDbLine
 10
1327.790737881592
 20
546.6919387885918
 30
0.0
 11
1331.290737881592
 21
546.6919387885918
 31
0.0
  0
LINE
  5
2FA
330
1F
100
AcDbEntity
  8
Obrys
 48
1.75
100
AcDbLine
 10
1331.290737881592
 20
553.8919387885918
 30
0.0
 11
1327.790737881592
 21
553.8919387885918
 31
0.0
  0
LINE
  5
2FB
330
1F
100
AcDbEntity
  8
Obrys
 48
1.75
100
AcDbLine
 10
1321.561447881592
 20
512.5919387885918
 30
0.0
 11
1332.690737881592
 21
512.5919387885918
 31
0.0
  0
LINE
  5
2FC
330
1F
100
AcDbEntity
  8
Obrys
100
AcDbLine
 10
1320.990737881592
 20
555.6919387885918
 30
0.0
 11
1320.990737881592
 21
513.0919387885918
 31
0.0
  0
LINE
  5
2FD
330
1F
100
AcDbEntity
  8
Obrys
 48
1.75
100
AcDbLine
 10
1321.861447881592
 20
556.1919387885918
 30
0.0
 11
1332.690737881592
 21
556.1919387885918
 31
0.0
  0
LINE
  5
2FE
330
1F
100
AcDbEntity
  8
Obrys
 48
1.75
100
AcDbLine
 10
1317.990737881592
 20
556.1919387885918
 30
0.0
 11
1319.490737881592
 21
556.1919387885918
 31
0.0
  0
LINE
  5
2FF
330
1F
100
AcDbEntity
  8
Obrys
 48
1.75
100
AcDbLine
 10
1317.990737881592
 20
512.5919387885918
 30
0.0
 11
1319.490737881592
 21
512.5919387885918
 31
0.0
  0
LINE
  5
300
330
1F
100
AcDbEntity
  8
Obrys
 48
1.75
100
AcDbLine
 10
866.190737881592
 20
553.8919387885918
 30
0.0
 11
862.690737881592
 21
553.8919387885918
 31
0.0
  0
LINE
  5
301
330
1F
100
AcDbEntity
  8
Obrys
 48
1.75
100
AcDbLine
 10
862.690737881592
 20
546.6919387885918
 30
0.0
 11
866.190737881592
 21
546.6919387885918
 31
0.0
  0
LINE
  5
302
330
1F
100
AcDbEntity
  8
Obrys
 48
1.75
100
AcDbLine
 10
866.190737881592
 20
537.9919387885918
 30
0.0
 11
862.690737881592
 21
537.9919387885918
 31
0.0
  0
LINE
  5
303
330
1F
100
AcDbEntity
  8
Obrys
 48
1.75
100
AcDbLine
 10
862.690737881592
 20
530.7919387885918
 30
0.0
 11
866.190737881592
 21
530.7919387885918
 31
0.0
  0
LINE
  5
304
330
1F
100
AcDbEntity
  8
Obrys
 48
1.75
100
AcDbLine
 10
866.190737881592
 20
522.0919387885918
 30
0.0
 11
862.690737881592
 21
522.0919387885918
 31
0.0
  0
LINE
  5
305
330
1F
100
AcDbEntity
  8
Obrys
 48
1.75
100
AcDbLine
 10
862.690737881592
 20
514.8919387885918
 30
0.0
 11
866.190737881592
 21
514.8919387885918
 31
0.0
  0
LINE
  5
306
330
1F
100
AcDbEntity
  8
Obrys
 48
1.75
100
AcDbLine
 10
872.420026881592
 20
556.1919387885918
 30
0.0
 11
861.290737881592
 21
556.1919387885918
 31
0.0
  0
LINE
  5
307
330
1F
100
AcDbEntity
  8
Obrys
100
AcDbLine
 10
872.9907378815919
 20
513.0919387885918
 30
0.0
 11
872.9907378815919
 21
555.6919387885918
 31
0.0
  0
LINE
  5
308
330
1F
100
AcDbEntity
  8
Obrys
 48
1.75
100
AcDbLine
 10
872.120026881592
 20
512.5919387885918
 30
0.0
 11
861.290737881592
 21
512.5919387885918
 31
0.0
  0
LINE
  5
309
330
1F
100
AcDbEntity
  8
Obrys
 48
1.75
100
AcDbLine
 10
875.9907378815919
 20
512.5919387885918
 30
0.0
 11
874.4907378815919
 21
512.5919387885918
 31
0.0
  0
LINE
  5
30A
330
1F
100
AcDbEntity
  8
Obrys
 48
1.75
100
AcDbLine
 10
875.9907378815919
 20
556.1919387885918
 30
0.0
 11
874.4907378815919
 21
556.1919387885918
 31
0.0
  0
LINE
  5
30B
330
1F
100
AcDbEntity
  8
Obrys
100
AcDbLine
 10
880.9907378815919
 20
554.8919387885918
 30
0.0
 11
1312.990737881592
 21
554.8919387885918
 31
0.0
  0
LINE
  5
30C
330
1F
100
AcDbEntity
  8
Obrys
100
AcDbLine
 10
880.9907378815919
 20
554.1274727885918
 30
0.0
 11
880.9907378815919
 21
556.3919387885918
 31
0.0
  0
LINE
  5
30D
330
1F
100
AcDbEntity
  8
Obrys
100
AcDbLine
 10
880.9907378815919
 20
513.8919387885918
 30
0.0
 11
1312.990737881592
 21
513.8919387885918
 31
0.0
  0
LINE
  5
30E
330
1F
100
AcDbEntity
  8
Obrys
100
AcDbLine
 10
880.9907378815919
 20
556.3919387885918
 30
0.0
 11
1312.990737881592
 21
556.3919387885918
 31
0.0
  0
LINE
  5
30F
330
1F
100
AcDbEntity
  8
Obrys
100
AcDbLine
 10
1277.540663881592
 20
525.9420127885918
 30
0.0
 11
1278.448517881592
 21
526.7327247885918
 31
0.0
  0
LINE
  5
310
330
1F
100
AcDbEntity
  8
Obrys
100
AcDbLine
 10
1140.356383881592
 20
533.8539387885918
 30
0.0
 11
1140.426987881592
 21
533.0469387885918
 31
0.0
  0
LINE
  5
311
330
1F
100
AcDbEntity
  8
Obrys
100
AcDbLine
 10
1044.945555881592
 20
540.7794047885918
 30
0.0
 11
1047.043173881592
 21
538.6817867885918
 31
0.0
  0
LINE
  5
312
330
1F
100
AcDbEntity
  8
Obrys
100
AcDbLine
 10
1140.628737881592
 20
534.6575857885917
 30
0.0
 11
1141.435737881592
 21
534.7281887885918
 31
0.0
  0
LINE
  5
313
330
1F
100
AcDbEntity
  8
Obrys
100
AcDbLine
 10
1059.893369881592
 20
529.9471967885918
 30
0.0
 11
1061.156975881592
 21
530.4558487885918
 31
0.0
  0
LINE
  5
314
330
1F
100
AcDbEntity
  8
Obrys
100
AcDbLine
 10
1011.426987881592
 20
535.7369387885918
 30
0.0
 11
1011.356383881592
 21
534.9299387885918
 31
0.0
  0
LINE
  5
315
330
1F
100
AcDbEntity
  8
Obrys
100
AcDbLine
 10
1235.081022881592
 20
526.7595427885918
 30
0.0
 11
1235.589675881592
 21
528.0231487885918
 31
0.0
  0
LINE
  5
316
330
1F
100
AcDbEntity
  8
Obrys
100
AcDbLine
 10
1191.540663881592
 20
525.9420127885918
 30
0.0
 11
1192.448517881592
 21
526.7327247885918
 31
0.0
  0
LINE
  5
317
330
1F
100
AcDbEntity
  8
Obrys
100
AcDbLine
 10
1290.559623881592
 20
513.8924997885917
 30
0.0
 11
1290.559623881592
 21
554.8913787885919
 31
0.0
  0
LINE
  5
318
330
1F
100
AcDbEntity
  8
Obrys
100
AcDbLine
 10
946.490767881592
 20
513.8924997885917
 30
0.0
 11
946.490767881592
 21
554.8913787885919
 31
0.0
  0
LINE
  5
319
330
1F
100
AcDbEntity
  8
Obrys
100
AcDbLine
 10
1063.081022881592
 20
526.7595427885918
 30
0.0
 11
1063.589675881592
 21
528.0231487885918
 31
0.0
  0
LINE
  5
31A
330
1F
100
AcDbEntity
  8
Obrys
100
AcDbLine
 10
1145.866557881592
 20
530.3146967885918
 30
0.0
 11
1145.075839881592
 21
529.4068367885918
 31
0.0
  0
LINE
  5
31B
330
1F
100
AcDbEntity
  8
Obrys
100
AcDbLine
 10
1264.645994881592
 20
540.1945707885918
 30
0.0
 11
1265.154646881592
 21
541.4581777885918
 31
0.0
  0
LINE
  5
31C
330
1F
100
AcDbEntity
  8
Obrys
100
AcDbLine
 10
1274.893369881592
 20
529.9471967885918
 30
0.0
 11
1276.156975881592
 21
530.4558487885918
 31
0.0
  0
LINE
  5
31D
330
1F
100
AcDbEntity
  8
Obrys
100
AcDbLine
 10
1181.745737881592
 20
534.7281887885918
 30
0.0
 11
1181.745737881592
 21
534.0556887885919
 31
0.0
  0
LINE
  5
31E
330
1F
100
AcDbEntity
  8
Obrys
100
AcDbLine
 10
1174.640811881592
 20
542.8418657885918
 30
0.0
 11
1175.431523881592
 21
543.7497197885918
 31
0.0
  0
LINE
  5
31F
330
1F
100
AcDbEntity
  8
Obrys
100
AcDbLine
 10
1312.990737881592
 20
554.1274727885918
 30
0.0
 11
1312.990737881592
 21
556.3919387885918
 31
0.0
  0
LINE
  5
320
330
1F
100
AcDbEntity
  8
Obrys
100
AcDbLine
 10
1088.640811881592
 20
542.8418657885918
 30
0.0
 11
1089.431523881592
 21
543.7497197885918
 31
0.0
  0
LINE
  5
321
330
1F
100
AcDbEntity
  8
Obrys
100
AcDbLine
 10
1141.435737881592
 20
534.0556887885919
 30
0.0
 11
1140.628737881592
 21
534.1262927885917
 31
0.0
  0
LINE
  5
322
330
1F
100
AcDbEntity
  8
Obrys
100
AcDbLine
 10
1106.081022881592
 20
526.7595427885918
 30
0.0
 11
1106.589675881592
 21
528.0231487885918
 31
0.0
  0
LINE
  5
323
330
1F
100
AcDbEntity
  8
Obrys
100
AcDbLine
 10
903.552933881592
 20
554.8913787885919
 30
0.0
 11
903.552933881592
 21
513.8924997885917
 31
0.0
  0
LINE
  5
324
330
1F
100
AcDbEntity
  8
Obrys
100
AcDbLine
 10
1139.825090881592
 20
534.9299387885918
 30
0.0
 11
1139.754487881592
 21
535.7369387885918
 31
0.0
  0
LINE
  5
325
330
1F
100
AcDbEntity
  8
Obrys
100
AcDbLine
 10
1182.552737881592
 20
534.1262927885917
 30
0.0
 11
1181.745737881592
 21
534.0556887885919
 31
0.0
  0
LINE
  5
326
330
1F
100
AcDbEntity
  8
Obrys
100
AcDbLine
 10
1050.013494881592
 20
540.1677587885918
 30
0.0
 11
1049.105634881592
 21
539.3770417885918
 31
0.0
  0
LINE
  5
327
330
1F
100
AcDbEntity
  8
Obrys
 48
1.75
100
AcDbLine
 10
855.9907378815919
 20
550.9919387885918
 30
0.0
 11
855.9907378815919
 21
517.7919387885918
 31
0.0
  0
LINE
  5
328
330
1F
100
AcDbEntity
  8
Obrys
100
AcDbLine
 10
1182.754487881592
 20
533.0469387885918
 30
0.0
 11
1182.825090881592
 21
533.8539387885918
 31
0.0
  0
LINE
  5
329
330
1F
100
AcDbEntity
  8
Obrys
100
AcDbLine
 10
1001.945555881592
 20
540.7794047885918
 30
0.0
 11
1004.043173881592
 21
538.6817867885918
 31
0.0
  0
LINE
  5
32A
330
1F
100
AcDbEntity
  8
Obrys
100
AcDbLine
 10
1045.640811881592
 20
542.8418657885918
 30
0.0
 11
1046.431523881592
 21
543.7497197885918
 31
0.0
  0
LINE
  5
32B
330
1F
100
AcDbEntity
  8
Obrys
100
AcDbLine
 10
1046.458340881592
 20
543.3822247885918
 30
0.0
 11
1047.721947881592
 21
543.8908777885918
 31
0.0
  0
LINE
  5
32C
330
1F
100
AcDbEntity
  8
Obrys
100
AcDbLine
 10
1274.866557881592
 20
530.3146967885918
 30
0.0
 11
1274.075839881592
 21
529.4068367885918
 31
0.0
  0
LINE
  5
32D
330
1F
100
AcDbEntity
  8
Obrys
100
AcDbLine
 10
1010.754487881592
 20
535.7369387885918
 30
0.0
 11
1011.426987881592
 21
535.7369387885918
 31
0.0
  0
LINE
  5
32E
330
1F
100
AcDbEntity
  8
Obrys
100
AcDbLine
 10
1012.435737881592
 20
534.0556887885919
 30
0.0
 11
1011.628737881592
 21
534.1262927885917
 31
0.0
  0
LINE
  5
32F
330
1F
100
AcDbEntity
  8
Obrys
100
AcDbLine
 10
1010.825090881592
 20
534.9299387885918
 30
0.0
 11
1010.754487881592
 21
535.7369387885918
 31
0.0
  0
LINE
  5
330
330
1F
100
AcDbEntity
  8
Obrys
100
AcDbLine
 10
1016.893369881592
 20
529.9471967885918
 30
0.0
 11
1018.156975881592
 21
530.4558487885918
 31
0.0
  0
LINE
  5
331
330
1F
100
AcDbEntity
  8
Obrys
100
AcDbLine
 10
1221.645994881592
 20
540.1945707885918
 30
0.0
 11
1222.154646881592
 21
541.4581777885918
 31
0.0
  0
LINE
  5
332
330
1F
100
AcDbEntity
  8
Obrys
100
AcDbLine
 10
1184.435737881592
 20
534.7281887885918
 30
0.0
 11
1184.435737881592
 21
534.0556887885919
 31
0.0
  0
LINE
  5
333
330
1F
100
AcDbEntity
  8
Obrys
100
AcDbLine
 10
1181.745737881592
 20
534.7281887885918
 30
0.0
 11
1182.552737881592
 21
534.6575857885917
 31
0.0
  0
LINE
  5
334
330
1F
100
AcDbEntity
  8
Obrys
100
AcDbLine
 10
967.754487881592
 20
533.0469387885918
 30
0.0
 11
967.825090881592
 21
533.8539387885918
 31
0.0
  0
LINE
  5
335
330
1F
100
AcDbEntity
  8
Obrys
100
AcDbLine
 10
1062.540663881592
 20
525.9420127885918
 30
0.0
 11
1063.448517881592
 21
526.7327247885918
 31
0.0
  0
LINE
  5
336
330
1F
100
AcDbEntity
  8
Obrys
100
AcDbLine
 10
1011.628737881592
 20
534.6575857885917
 30
0.0
 11
1012.435737881592
 21
534.7281887885918
 31
0.0
  0
LINE
  5
337
330
1F
100
AcDbEntity
  8
Obrys
100
AcDbLine
 10
1007.013494881592
 20
540.1677587885918
 30
0.0
 11
1006.105634881592
 21
539.3770417885918
 31
0.0
  0
LINE
  5
338
330
1F
100
AcDbEntity
  8
Obrys
100
AcDbLine
 10
1182.825090881592
 20
534.9299387885918
 30
0.0
 11
1182.754487881592
 21
535.7369387885918
 31
0.0
  0
LINE
  5
339
330
1F
100
AcDbEntity
  8
Obrys
100
AcDbLine
 10
1054.628737881592
 20
534.6575857885917
 30
0.0
 11
1055.435737881592
 21
534.7281887885918
 31
0.0
  0
LINE
  5
33A
330
1F
100
AcDbEntity
  8
Obrys
100
AcDbLine
 10
969.435737881592
 20
534.7281887885918
 30
0.0
 11
969.435737881592
 21
534.0556887885919
 31
0.0
  0
LINE
  5
33B
330
1F
100
AcDbEntity
  8
Obrys
100
AcDbLine
 10
966.745737881592
 20
534.7281887885918
 30
0.0
 11
967.5527378815921
 21
534.6575857885917
 31
0.0
  0
LINE
  5
33C
330
1F
100
AcDbEntity
  8
Obrys
100
AcDbLine
 10
1226.628737881592
 20
534.6575857885917
 30
0.0
 11
1227.435737881592
 21
534.7281887885918
 31
0.0
  0
LINE
  5
33D
330
1F
100
AcDbEntity
  8
Obrys
100
AcDbLine
 10
1188.866557881592
 20
530.3146967885918
 30
0.0
 11
1188.075839881592
 21
529.4068367885918
 31
0.0
  0
LINE
  5
33E
330
1F
100
AcDbEntity
  8
Obrys
100
AcDbLine
 10
1132.458340881592
 20
543.3822247885918
 30
0.0
 11
1133.721947881592
 21
543.8908777885918
 31
0.0
  0
LINE
  5
33F
330
1F
100
AcDbEntity
  8
Obrys
100
AcDbLine
 10
1054.356383881592
 20
533.8539387885918
 30
0.0
 11
1054.426987881592
 21
533.0469387885918
 31
0.0
  0
LINE
  5
340
330
1F
100
AcDbEntity
  8
Obrys
100
AcDbLine
 10
1003.458340881592
 20
543.3822247885918
 30
0.0
 11
1004.721947881592
 21
543.8908777885918
 31
0.0
  0
LINE
  5
341
330
1F
100
AcDbEntity
  8
Obrys
100
AcDbLine
 10
1267.745737881592
 20
534.7281887885918
 30
0.0
 11
1268.552737881592
 21
534.6575857885917
 31
0.0
  0
LINE
  5
342
330
1F
100
AcDbEntity
  8
Obrys
100
AcDbLine
 10
1136.013494881592
 20
540.1677587885918
 30
0.0
 11
1135.105634881592
 21
539.3770417885918
 31
0.0
  0
LINE
  5
343
330
1F
100
AcDbEntity
  8
Obrys
100
AcDbLine
 10
968.3563838815919
 20
533.8539387885918
 30
0.0
 11
968.4269878815919
 21
533.0469387885918
 31
0.0
  0
LINE
  5
344
330
1F
100
AcDbEntity
  8
Obrys
100
AcDbLine
 10
1270.435737881592
 20
534.7281887885918
 30
0.0
 11
1270.435737881592
 21
534.0556887885919
 31
0.0
  0
LINE
  5
345
330
1F
100
AcDbEntity
  8
Obrys
100
AcDbLine
 10
875.9907378815919
 20
512.5919387885918
 30
0.0
 11
875.9907378815919
 21
556.1919387885918
 31
0.0
  0
LINE
  5
346
330
1F
100
AcDbEntity
  8
Obrys
100
AcDbLine
 10
880.9907378815919
 20
514.6564057885918
 30
0.0
 11
880.9907378815919
 21
512.3919387885918
 31
0.0
  0
LINE
  5
347
330
1F
100
AcDbEntity
  8
Obrys
100
AcDbLine
 10
968.628737881592
 20
534.6575857885917
 30
0.0
 11
969.435737881592
 21
534.7281887885918
 31
0.0
  0
LINE
  5
348
330
1F
100
AcDbEntity
  8
Obrys
100
AcDbLine
 10
1019.540663881592
 20
525.9420127885918
 30
0.0
 11
1020.448517881592
 21
526.7327247885918
 31
0.0
  0
LINE
  5
349
330
1F
100
AcDbEntity
  8
Obrys
100
AcDbLine
 10
1149.081022881592
 20
526.7595427885918
 30
0.0
 11
1149.589675881592
 21
528.0231487885918
 31
0.0
  0
LINE
  5
34A
330
1F
100
AcDbEntity
  8
Obrys
100
AcDbLine
 10
1118.559654881592
 20
513.8924997885917
 30
0.0
 11
1118.559654881592
 21
554.8913787885919
 31
0.0
  0
LINE
  5
34B
330
1F
100
AcDbEntity
  8
Obrys
100
AcDbLine
 10
1130.945555881592
 20
540.7794047885918
 30
0.0
 11
1133.043173881592
 21
538.6817867885918
 31
0.0
  0
LINE
  5
34C
330
1F
100
AcDbEntity
  8
Obrys
100
AcDbLine
 10
1278.081022881592
 20
526.7595427885918
 30
0.0
 11
1278.589675881592
 21
528.0231487885918
 31
0.0
  0
LINE
  5
34D
330
1F
100
AcDbEntity
  8
Obrys
100
AcDbLine
 10
1135.645994881592
 20
540.1945707885918
 30
0.0
 11
1136.154646881592
 21
541.4581777885918
 31
0.0
  0
LINE
  5
34E
330
1F
100
AcDbEntity
  8
Obrys
100
AcDbLine
 10
1259.945555881592
 20
540.7794047885918
 30
0.0
 11
1262.043173881592
 21
538.6817867885918
 31
0.0
  0
LINE
  5
34F
330
1F
100
AcDbEntity
  8
Obrys
100
AcDbLine
 10
1145.893369881592
 20
529.9471967885918
 30
0.0
 11
1147.156975881592
 21
530.4558487885918
 31
0.0
  0
LINE
  5
350
330
1F
100
AcDbEntity
  8
Obrys
100
AcDbLine
 10
1269.426987881592
 20
533.0469387885918
 30
0.0
 11
1268.754487881592
 21
533.0469387885918
 31
0.0
  0
LINE
  5
351
330
1F
100
AcDbEntity
  8
Obrys
100
AcDbLine
 10
1020.081022881592
 20
526.7595427885918
 30
0.0
 11
1020.589675881592
 21
528.0231487885918
 31
0.0
  0
LINE
  5
352
330
1F
100
AcDbEntity
  8
Obrys
100
AcDbLine
 10
1060.478202881592
 20
525.2467577885918
 30
0.0
 11
1058.380584881592
 21
527.3443757885918
 31
0.0
  0
LINE
  5
353
330
1F
100
AcDbEntity
  8
Obrys
100
AcDbLine
 10
1217.640811881592
 20
542.8418657885918
 30
0.0
 11
1218.431523881592
 21
543.7497197885918
 31
0.0
  0
LINE
  5
354
330
1F
100
AcDbEntity
  8
Obrys
100
AcDbLine
 10
969.435737881592
 20
534.0556887885919
 30
0.0
 11
968.628737881592
 21
534.1262927885917
 31
0.0
  0
LINE
  5
355
330
1F
100
AcDbEntity
  8
Obrys
100
AcDbLine
 10
1017.478202881592
 20
525.2467577885918
 30
0.0
 11
1015.380584881592
 21
527.3443757885918
 31
0.0
  0
LINE
  5
356
330
1F
100
AcDbEntity
  8
Obrys
100
AcDbLine
 10
967.825090881592
 20
534.9299387885918
 30
0.0
 11
967.754487881592
 21
535.7369387885918
 31
0.0
  0
LINE
  5
357
330
1F
100
AcDbEntity
  8
Obrys
100
AcDbLine
 10
1105.540663881592
 20
525.9420127885918
 30
0.0
 11
1106.448517881592
 21
526.7327247885918
 31
0.0
  0
LINE
  5
358
330
1F
100
AcDbEntity
  8
Obrys
100
AcDbLine
 10
1179.013494881592
 20
540.1677587885918
 30
0.0
 11
1178.105634881592
 21
539.3770417885918
 31
0.0
  0
LINE
  5
359
330
1F
100
AcDbEntity
  8
Obrys
100
AcDbLine
 10
1183.628737881592
 20
534.6575857885917
 30
0.0
 11
1184.435737881592
 21
534.7281887885918
 31
0.0
  0
LINE
  5
35A
330
1F
100
AcDbEntity
  8
Obrys
100
AcDbLine
 10
1269.356383881592
 20
533.8539387885918
 30
0.0
 11
1269.426987881592
 21
533.0469387885918
 31
0.0
  0
LINE
  5
35B
330
1F
100
AcDbEntity
  8
Obrys
100
AcDbLine
 10
1183.356383881592
 20
533.8539387885918
 30
0.0
 11
1183.426987881592
 21
533.0469387885918
 31
0.0
  0
LINE
  5
35C
330
1F
100
AcDbEntity
  8
Obrys
100
AcDbLine
 10
1139.754487881592
 20
533.0469387885918
 30
0.0
 11
1139.825090881592
 21
533.8539387885918
 31
0.0
  0
LINE
  5
35D
330
1F
100
AcDbEntity
  8
Obrys
100
AcDbLine
 10
1231.893369881592
 20
529.9471967885918
 30
0.0
 11
1233.156975881592
 21
530.4558487885918
 31
0.0
  0
LINE
  5
35E
330
1F
100
AcDbEntity
  8
Obrys
100
AcDbLine
 10
1232.478202881592
 20
525.2467577885918
 30
0.0
 11
1230.380584881592
 21
527.3443757885918
 31
0.0
  0
LINE
  5
35F
330
1F
100
AcDbEntity
  8
Obrys
100
AcDbLine
 10
1204.559654881592
 20
513.8924997885917
 30
0.0
 11
1204.559654881592
 21
554.8913787885919
 31
0.0
  0
LINE
  5
360
330
1F
100
AcDbEntity
  8
Obrys
100
AcDbLine
 10
1218.458340881592
 20
543.3822247885918
 30
0.0
 11
1219.721947881592
 21
543.8908777885918
 31
0.0
  0
LINE
  5
361
330
1F
100
AcDbEntity
  8
Obrys
100
AcDbLine
 10
1189.478202881592
 20
525.2467577885918
 30
0.0
 11
1187.380584881592
 21
527.3443757885918
 31
0.0
  0
LINE
  5
362
330
1F
100
AcDbEntity
  8
Obrys
100
AcDbLine
 10
1216.945555881592
 20
540.7794047885918
 30
0.0
 11
1219.043173881592
 21
538.6817867885918
 31
0.0
  0
LINE
  5
363
330
1F
100
AcDbEntity
  8
Obrys
100
AcDbLine
 10
1140.426987881592
 20
535.7369387885918
 30
0.0
 11
1140.356383881592
 21
534.9299387885918
 31
0.0
  0
LINE
  5
364
330
1F
100
AcDbEntity
  8
Obrys
100
AcDbLine
 10
973.8665578815919
 20
530.3146967885918
 30
0.0
 11
973.075839881592
 21
529.4068367885918
 31
0.0
  0
LINE
  5
365
330
1F
100
AcDbEntity
  8
Obrys
 48
1.75
100
AcDbLine
 10
1337.990737881592
 20
517.7919387885918
 30
0.0
 11
1337.990737881592
 21
550.9919387885918
 31
0.0
  0
LINE
  5
366
330
1F
100
AcDbEntity
  8
Obrys
100
AcDbLine
 10
856.089174881592
 20
539.0919387885918
 30
0.0
 11
789.190737881592
 21
539.0919387885918
 31
0.0
  0
LINE
  5
367
330
1F
100
AcDbEntity
  8
Obrys
100
AcDbLine
 10
1146.478202881592
 20
525.2467577885918
 30
0.0
 11
1144.380584881592
 21
527.3443757885918
 31
0.0
  0
LINE
  5
368
330
1F
100
AcDbEntity
  8
Obrys
100
AcDbLine
 10
1141.435737881592
 20
534.7281887885918
 30
0.0
 11
1141.435737881592
 21
534.0556887885919
 31
0.0
  0
LINE
  5
369
330
1F
100
AcDbEntity
  8
Obrys
100
AcDbLine
 10
1312.258504881592
 20
516.4241727885918
 30
0.0
 11
1306.626523881592
 21
522.0561527885918
 31
0.0
  0
LINE
  5
36A
330
1F
100
AcDbEntity
  8
Obrys
100
AcDbLine
 10
1317.990737881592
 20
556.1919387885918
 30
0.0
 11
1317.990737881592
 21
512.5919387885918
 31
0.0
  0
LINE
  5
36B
330
1F
100
AcDbEntity
  8
Obrys
100
AcDbLine
 10
1016.866557881592
 20
530.3146967885918
 30
0.0
 11
1016.075839881592
 21
529.4068367885918
 31
0.0
  0
LINE
  5
36C
330
1F
100
AcDbEntity
  8
Obrys
100
AcDbLine
 10
1260.640811881592
 20
542.8418657885918
 30
0.0
 11
1261.431523881592
 21
543.7497197885918
 31
0.0
  0
LINE
  5
36D
330
1F
100
AcDbEntity
  8
Obrys
100
AcDbLine
 10
1095.745737881592
 20
534.7281887885918
 30
0.0
 11
1096.552737881592
 21
534.6575857885917
 31
0.0
  0
LINE
  5
36E
330
1F
100
AcDbEntity
  8
Obrys
100
AcDbLine
 10
1192.081022881592
 20
526.7595427885918
 30
0.0
 11
1192.589675881592
 21
528.0231487885918
 31
0.0
  0
LINE
  5
36F
330
1F
100
AcDbEntity
  8
Obrys
100
AcDbLine
 10
1269.426987881592
 20
535.7369387885918
 30
0.0
 11
1269.356383881592
 21
534.9299387885918
 31
0.0
  0
LINE
  5
370
330
1F
100
AcDbEntity
  8
Obrys
100
AcDbLine
 10
1098.435737881592
 20
534.7281887885918
 30
0.0
 11
1098.435737881592
 21
534.0556887885919
 31
0.0
  0
LINE
  5
371
330
1F
100
AcDbEntity
  8
Obrys
100
AcDbLine
 10
1175.458340881592
 20
543.3822247885918
 30
0.0
 11
1176.721947881592
 21
543.8908777885918
 31
0.0
  0
LINE
  5
372
330
1F
100
AcDbEntity
  8
Obrys
100
AcDbLine
 10
1178.645994881592
 20
540.1945707885918
 30
0.0
 11
1179.154646881592
 21
541.4581777885918
 31
0.0
  0
LINE
  5
373
330
1F
100
AcDbEntity
  8
Obrys
100
AcDbLine
 10
1096.754487881592
 20
535.7369387885918
 30
0.0
 11
1097.426987881592
 21
535.7369387885918
 31
0.0
  0
LINE
  5
374
330
1F
100
AcDbEntity
  8
Obrys
100
AcDbLine
 10
1183.426987881592
 20
535.7369387885918
 30
0.0
 11
1183.356383881592
 21
534.9299387885918
 31
0.0
  0
LINE
  5
375
330
1F
100
AcDbEntity
  8
Obrys
100
AcDbLine
 10
1102.866557881592
 20
530.3146967885918
 30
0.0
 11
1102.075839881592
 21
529.4068367885918
 31
0.0
  0
LINE
  5
376
330
1F
100
AcDbEntity
  8
Obrys
100
AcDbLine
 10
973.893369881592
 20
529.9471967885918
 30
0.0
 11
975.156975881592
 21
530.4558487885918
 31
0.0
  0
LINE
  5
377
330
1F
100
AcDbEntity
  8
Obrys
100
AcDbLine
 10
1173.945555881592
 20
540.7794047885918
 30
0.0
 11
1176.043173881592
 21
538.6817867885918
 31
0.0
  0
LINE
  5
378
330
1F
100
AcDbEntity
  8
Obrys
100
AcDbLine
 10
1131.640811881592
 20
542.8418657885918
 30
0.0
 11
1132.431523881592
 21
543.7497197885918
 31
0.0
  0
LINE
  5
379
330
1F
100
AcDbEntity
  8
Obrys
100
AcDbLine
 10
1306.626523881592
 20
546.7277257885918
 30
0.0
 11
1312.258504881592
 21
552.3597057885918
 31
0.0
  0
LINE
  5
37A
330
1F
100
AcDbEntity
  8
Obrys
100
AcDbLine
 10
959.6408118815921
 20
542.8418657885918
 30
0.0
 11
960.431523881592
 21
543.7497197885918
 31
0.0
  0
LINE
  5
37B
330
1F
100
AcDbEntity
  8
Obrys
100
AcDbLine
 10
1268.754487881592
 20
535.7369387885918
 30
0.0
 11
1269.426987881592
 21
535.7369387885918
 31
0.0
  0
LINE
  5
37C
330
1F
100
AcDbEntity
  8
Obrys
100
AcDbLine
 10
789.190737881592
 20
529.6919387885918
 30
0.0
 11
856.089174881592
 21
529.6919387885918
 31
0.0
  0
LINE
  5
37D
330
1F
100
AcDbEntity
  8
Obrys
100
AcDbLine
 10
1097.628737881592
 20
534.6575857885917
 30
0.0
 11
1098.435737881592
 21
534.7281887885918
 31
0.0
  0
LINE
  5
37E
330
1F
100
AcDbEntity
  8
Obrys
100
AcDbLine
 10
1148.540663881592
 20
525.9420127885918
 30
0.0
 11
1149.448517881592
 21
526.7327247885918
 31
0.0
  0
LINE
  5
37F
330
1F
100
AcDbEntity
  8
Obrys
100
AcDbLine
 10
1097.356383881592
 20
533.8539387885918
 30
0.0
 11
1097.426987881592
 21
533.0469387885918
 31
0.0
  0
LINE
  5
380
330
1F
100
AcDbEntity
  8
Obrys
100
AcDbLine
 10
1092.645994881592
 20
540.1945707885918
 30
0.0
 11
1093.154646881592
 21
541.4581777885918
 31
0.0
  0
LINE
  5
381
330
1F
100
AcDbEntity
  8
Obrys
100
AcDbLine
 10
1224.745737881592
 20
534.7281887885918
 30
0.0
 11
1225.552737881592
 21
534.6575857885917
 31
0.0
  0
LINE
  5
382
330
1F
100
AcDbEntity
  8
Obrys
100
AcDbLine
 10
1275.478202881592
 20
525.2467577885918
 30
0.0
 11
1273.380584881592
 21
527.3443757885918
 31
0.0
  0
LINE
  5
383
330
1F
100
AcDbEntity
  8
Obrys
100
AcDbLine
 10
1010.754487881592
 20
533.0469387885918
 30
0.0
 11
1010.825090881592
 21
533.8539387885918
 31
0.0
  0
LINE
  5
384
330
1F
100
AcDbEntity
  8
Obrys
100
AcDbLine
 10
1097.426987881592
 20
533.0469387885918
 30
0.0
 11
1096.754487881592
 21
533.0469387885918
 31
0.0
  0
LINE
  5
385
330
1F
100
AcDbEntity
  8
Obrys
100
AcDbLine
 10
1313.195972881592
 20
556.3865647885918
 30
0.0
 11
1317.795972881592
 21
556.2661097885918
 31
0.0
  0
LINE
  5
386
330
1F
100
AcDbEntity
  8
Obrys
100
AcDbLine
 10
1312.990737881592
 20
512.3919387885918
 30
0.0
 11
1312.990737881592
 21
514.6564057885918
 31
0.0
  0
LINE
  5
387
330
1F
100
AcDbEntity
  8
Obrys
100
AcDbLine
 10
964.013494881592
 20
540.1677587885918
 30
0.0
 11
963.105634881592
 21
539.3770417885918
 31
0.0
  0
LINE
  5
388
330
1F
100
AcDbEntity
  8
Obrys
100
AcDbLine
 10
1161.559623881592
 20
513.8924997885917
 30
0.0
 11
1161.559623881592
 21
554.8913787885919
 31
0.0
  0
LINE
  5
389
330
1F
100
AcDbEntity
  8
Obrys
100
AcDbLine
 10
880.7855018815919
 20
512.3973137885918
 30
0.0
 11
876.185501881592
 21
512.5177687885918
 31
0.0
  0
LINE
  5
38A
330
1F
100
AcDbEntity
  8
Obrys
100
AcDbLine
 10
1139.754487881592
 20
535.7369387885918
 30
0.0
 11
1140.426987881592
 21
535.7369387885918
 31
0.0
  0
LINE
  5
38B
330
1F
100
AcDbEntity
  8
Obrys
100
AcDbLine
 10
1270.435737881592
 20
534.0556887885919
 30
0.0
 11
1269.628737881592
 21
534.1262927885917
 31
0.0
  0
LINE
  5
38C
330
1F
100
AcDbEntity
  8
Obrys
100
AcDbLine
 10
1268.825090881592
 20
534.9299387885918
 30
0.0
 11
1268.754487881592
 21
535.7369387885918
 31
0.0
  0
LINE
  5
38D
330
1F
100
AcDbEntity
  8
Obrys
100
AcDbLine
 10
966.745737881592
 20
534.7281887885918
 30
0.0
 11
966.745737881592
 21
534.0556887885919
 31
0.0
  0
LINE
  5
38E
330
1F
100
AcDbEntity
  8
Obrys
100
AcDbLine
 10
1093.013494881592
 20
540.1677587885918
 30
0.0
 11
1092.105634881592
 21
539.3770417885918
 31
0.0
  0
LINE
  5
38F
330
1F
100
AcDbEntity
  8
Obrys
100
AcDbLine
 10
960.458340881592
 20
543.3822247885918
 30
0.0
 11
961.721947881592
 21
543.8908777885918
 31
0.0
  0
LINE
  5
390
330
1F
100
AcDbEntity
  8
Obrys
100
AcDbLine
 10
974.478202881592
 20
525.2467577885918
 30
0.0
 11
972.380584881592
 21
527.3443757885918
 31
0.0
  0
LINE
  5
391
330
1F
100
AcDbEntity
  8
Obrys
100
AcDbLine
 10
977.0810228815919
 20
526.7595427885918
 30
0.0
 11
977.589675881592
 21
528.0231487885918
 31
0.0
  0
LINE
  5
392
330
1F
100
AcDbEntity
  8
Obrys
100
AcDbLine
 10
1087.945555881592
 20
540.7794047885918
 30
0.0
 11
1090.043173881592
 21
538.6817867885918
 31
0.0
  0
LINE
  5
393
330
1F
100
AcDbEntity
  8
Obrys
100
AcDbLine
 10
1226.426987881592
 20
533.0469387885918
 30
0.0
 11
1225.754487881592
 21
533.0469387885918
 31
0.0
  0
LINE
  5
394
330
1F
100
AcDbEntity
  8
Obrys
100
AcDbLine
 10
1234.540663881592
 20
525.9420127885918
 30
0.0
 11
1235.448517881592
 21
526.7327247885918
 31
0.0
  0
LINE
  5
395
330
1F
100
AcDbEntity
  8
Obrys
100
AcDbLine
 10
1231.866557881592
 20
530.3146967885918
 30
0.0
 11
1231.075839881592
 21
529.4068367885918
 31
0.0
  0
LINE
  5
396
330
1F
100
AcDbEntity
  8
Obrys
100
AcDbLine
 10
1226.356383881592
 20
533.8539387885918
 30
0.0
 11
1226.426987881592
 21
533.0469387885918
 31
0.0
  0
LINE
  5
397
330
1F
100
AcDbEntity
  8
Obrys
100
AcDbLine
 10
1055.435737881592
 20
534.7281887885918
 30
0.0
 11
1055.435737881592
 21
534.0556887885919
 31
0.0
  0
LINE
  5
398
330
1F
100
AcDbEntity
  8
Obrys
100
AcDbLine
 10
1097.426987881592
 20
535.7369387885918
 30
0.0
 11
1097.356383881592
 21
534.9299387885918
 31
0.0
  0
LINE
  5
399
330
1F
100
AcDbEntity
  8
Obrys
100
AcDbLine
 10
1227.435737881592
 20
534.0556887885919
 30
0.0
 11
1226.628737881592
 21
534.1262927885917
 31
0.0
  0
LINE
  5
39A
330
1F
100
AcDbEntity
  8
Obrys
100
AcDbLine
 10
1052.745737881592
 20
534.7281887885918
 30
0.0
 11
1053.552737881592
 21
534.6575857885917
 31
0.0
  0
LINE
  5
39B
330
1F
100
AcDbEntity
  8
Obrys
100
AcDbLine
 10
958.945555881592
 20
540.7794047885918
 30
0.0
 11
961.043173881592
 21
538.6817867885918
 31
0.0
  0
LINE
  5
39C
330
1F
100
AcDbEntity
  8
Obrys
100
AcDbLine
 10
1225.825090881592
 20
534.9299387885918
 30
0.0
 11
1225.754487881592
 21
535.7369387885918
 31
0.0
  0
LINE
  5
39D
330
1F
100
AcDbEntity
  8
Obrys
100
AcDbLine
 10
1225.754487881592
 20
535.7369387885918
 30
0.0
 11
1226.426987881592
 21
535.7369387885918
 31
0.0
  0
LINE
  5
39E
330
1F
100
AcDbEntity
  8
Obrys
100
AcDbLine
 10
1222.013494881592
 20
540.1677587885918
 30
0.0
 11
1221.105634881592
 21
539.3770417885918
 31
0.0
  0
LINE
  5
39F
330
1F
100
AcDbEntity
  8
Obrys
100
AcDbLine
 10
1098.435737881592
 20
534.0556887885919
 30
0.0
 11
1097.628737881592
 21
534.1262927885917
 31
0.0
  0
LINE
  5
3A0
330
1F
100
AcDbEntity
  8
Obrys
100
AcDbLine
 10
1095.745737881592
 20
534.7281887885918
 30
0.0
 11
1095.745737881592
 21
534.0556887885919
 31
0.0
  0
LINE
  5
3A1
330
1F
100
AcDbEntity
  8
Obrys
100
AcDbLine
 10
1054.426987881592
 20
533.0469387885918
 30
0.0
 11
1053.754487881592
 21
533.0469387885918
 31
0.0
  0
LINE
  5
3A2
330
1F
100
AcDbEntity
  8
Obrys
100
AcDbLine
 10
1096.825090881592
 20
534.9299387885918
 30
0.0
 11
1096.754487881592
 21
535.7369387885918
 31
0.0
  0
LINE
  5
3A3
330
1F
100
AcDbEntity
  8
Obrys
100
AcDbLine
 10
1225.754487881592
 20
533.0469387885918
 30
0.0
 11
1225.825090881592
 21
533.8539387885918
 31
0.0
  0
LINE
  5
3A4
330
1F
100
AcDbEntity
  8
Obrys
100
AcDbLine
 10
881.722970881592
 20
552.3597057885918
 30
0.0
 11
887.354950881592
 21
546.7277257885918
 31
0.0
  0
LINE
  5
3A5
330
1F
100
AcDbEntity
  8
Obrys
100
AcDbLine
 10
876.185501881592
 20
556.2661097885918
 30
0.0
 11
880.7855018815919
 21
556.3865647885918
 31
0.0
  0
LINE
  5
3A6
330
1F
100
AcDbEntity
  8
Obrys
100
AcDbLine
 10
887.940737881592
 20
545.3135117885918
 30
0.0
 11
887.940737881592
 21
523.4703667885918
 31
0.0
  0
LINE
  5
3A7
330
1F
100
AcDbEntity
  8
Obrys
100
AcDbLine
 10
887.354950881592
 20
522.0561527885918
 30
0.0
 11
881.722970881592
 21
516.4241727885918
 31
0.0
  0
LINE
  5
3A8
330
1F
100
AcDbEntity
  8
Obrys
100
AcDbLine
 10
1261.458340881592
 20
543.3822247885918
 30
0.0
 11
1262.721947881592
 21
543.8908777885918
 31
0.0
  0
LINE
  5
3A9
330
1F
100
AcDbEntity
  8
Obrys
100
AcDbLine
 10
1268.552737881592
 20
534.1262927885917
 30
0.0
 11
1267.745737881592
 21
534.0556887885919
 31
0.0
  0
LINE
  5
3AA
330
1F
100
AcDbEntity
  8
Obrys
100
AcDbLine
 10
1096.754487881592
 20
533.0469387885918
 30
0.0
 11
1096.825090881592
 21
533.8539387885918
 31
0.0
  0
LINE
  5
3AB
330
1F
100
AcDbEntity
  8
Obrys
100
AcDbLine
 10
1265.013494881592
 20
540.1677587885918
 30
0.0
 11
1264.105634881592
 21
539.3770417885918
 31
0.0
  0
LINE
  5
3AC
330
1F
100
AcDbEntity
  8
Obrys
100
AcDbLine
 10
967.754487881592
 20
535.7369387885918
 30
0.0
 11
968.4269878815919
 21
535.7369387885918
 31
0.0
  0
LINE
  5
3AD
330
1F
100
AcDbEntity
  8
Obrys
100
AcDbLine
 10
1089.458340881592
 20
543.3822247885918
 30
0.0
 11
1090.721947881592
 21
543.8908777885918
 31
0.0
  0
LINE
  5
3AE
330
1F
100
AcDbEntity
  8
Obrys
100
AcDbLine
 10
1103.478202881592
 20
525.2467577885918
 30
0.0
 11
1101.380584881592
 21
527.3443757885918
 31
0.0
  0
LINE
  5
3AF
330
1F
100
AcDbEntity
  8
Obrys
100
AcDbLine
 10
1102.893369881592
 20
529.9471967885918
 30
0.0
 11
1104.156975881592
 21
530.4558487885918
 31
0.0
  0
LINE
  5
3B0
330
1F
100
AcDbEntity
  8
Obrys
100
AcDbLine
 10
1268.754487881592
 20
533.0469387885918
 30
0.0
 11
1268.825090881592
 21
533.8539387885918
 31
0.0
  0
LINE
  5
3B1
330
1F
100
AcDbEntity
  8
Obrys
100
AcDbLine
 10
1226.426987881592
 20
535.7369387885918
 30
0.0
 11
1226.356383881592
 21
534.9299387885918
 31
0.0
  0
LINE
  5
3B2
330
1F
100
AcDbEntity
  8
Obrys
100
AcDbLine
 10
1055.435737881592
 20
534.0556887885919
 30
0.0
 11
1054.628737881592
 21
534.1262927885917
 31
0.0
  0
LINE
  5
3B3
330
1F
100
AcDbEntity
  8
Obrys
100
AcDbLine
 10
1053.825090881592
 20
534.9299387885918
 30
0.0
 11
1053.754487881592
 21
535.7369387885918
 31
0.0
  0
LINE
  5
3B4
330
1F
100
AcDbEntity
  8
Obrys
100
AcDbLine
 10
1053.754487881592
 20
535.7369387885918
 30
0.0
 11
1054.426987881592
 21
535.7369387885918
 31
0.0
  0
LINE
  5
3B5
330
1F
100
AcDbEntity
  8
Obrys
100
AcDbLine
 10
1225.552737881592
 20
534.1262927885917
 30
0.0
 11
1224.745737881592
 21
534.0556887885919
 31
0.0
  0
LINE
  5
3B6
330
1F
100
AcDbEntity
  8
Obrys
100
AcDbLine
 10
1032.621820881592
 20
554.8913787885919
 30
0.0
 11
1032.621820881592
 21
513.8924997885917
 31
0.0
  0
LINE
  5
3B7
330
1F
100
AcDbEntity
  8
Obrys
100
AcDbLine
 10
1184.435737881592
 20
534.0556887885919
 30
0.0
 11
1183.628737881592
 21
534.1262927885917
 31
0.0
  0
LINE
  5
3B8
330
1F
100
AcDbEntity
  8
Obrys
100
AcDbLine
 10
1012.435737881592
 20
534.7281887885918
 30
0.0
 11
1012.435737881592
 21
534.0556887885919
 31
0.0
  0
LINE
  5
3B9
330
1F
100
AcDbEntity
  8
Obrys
100
AcDbLine
 10
1009.745737881592
 20
534.7281887885918
 30
0.0
 11
1010.552737881592
 21
534.6575857885917
 31
0.0
  0
LINE
  5
3BA
330
1F
100
AcDbEntity
  8
Obrys
100
AcDbLine
 10
1182.754487881592
 20
535.7369387885918
 30
0.0
 11
1183.426987881592
 21
535.7369387885918
 31
0.0
  0
LINE
  5
3BB
330
1F
100
AcDbEntity
  8
Obrys
100
AcDbLine
 10
1053.552737881592
 20
534.1262927885917
 30
0.0
 11
1052.745737881592
 21
534.0556887885919
 31
0.0
  0
LINE
  5
3BC
330
1F
100
AcDbEntity
  8
Obrys
100
AcDbLine
 10
1269.628737881592
 20
534.6575857885917
 30
0.0
 11
1270.435737881592
 21
534.7281887885918
 31
0.0
  0
LINE
  5
3BD
330
1F
100
AcDbEntity
  8
Obrys
100
AcDbLine
 10
1006.645994881592
 20
540.1945707885918
 30
0.0
 11
1007.154646881592
 21
541.4581777885918
 31
0.0
  0
LINE
  5
3BE
330
1F
100
AcDbEntity
  8
Obrys
100
AcDbLine
 10
1188.893369881592
 20
529.9471967885918
 30
0.0
 11
1190.156975881592
 21
530.4558487885918
 31
0.0
  0
LINE
  5
3BF
330
1F
100
AcDbEntity
  8
Obrys
100
AcDbLine
 10
1052.745737881592
 20
534.7281887885918
 30
0.0
 11
1052.745737881592
 21
534.0556887885919
 31
0.0
  0
LINE
  5
3C0
330
1F
100
AcDbEntity
  8
Obrys
100
AcDbLine
 10
1053.754487881592
 20
533.0469387885918
 30
0.0
 11
1053.825090881592
 21
533.8539387885918
 31
0.0
  0
LINE
  5
3C1
330
1F
100
AcDbEntity
  8
Obrys
100
AcDbLine
 10
989.621850881592
 20
554.8913787885919
 30
0.0
 11
989.621850881592
 21
513.8924997885917
 31
0.0
  0
LINE
  5
3C2
330
1F
100
AcDbEntity
  8
Obrys
100
AcDbLine
 10
1224.745737881592
 20
534.7281887885918
 30
0.0
 11
1224.745737881592
 21
534.0556887885919
 31
0.0
  0
LINE
  5
3C3
330
1F
100
AcDbEntity
  8
Obrys
100
AcDbLine
 10
1059.866557881592
 20
530.3146967885918
 30
0.0
 11
1059.075839881592
 21
529.4068367885918
 31
0.0
  0
LINE
  5
3C4
330
1F
100
AcDbEntity
  8
Obrys
100
AcDbLine
 10
1247.559654881592
 20
513.8924997885917
 30
0.0
 11
1247.559654881592
 21
554.8913787885919
 31
0.0
  0
LINE
  5
3C5
330
1F
100
AcDbEntity
  8
Obrys
100
AcDbLine
 10
1317.795972881592
 20
512.5177687885918
 30
0.0
 11
1313.195972881592
 21
512.3973137885918
 31
0.0
  0
LINE
  5
3C6
330
1F
100
AcDbEntity
  8
Obrys
100
AcDbLine
 10
1011.426987881592
 20
533.0469387885918
 30
0.0
 11
1010.754487881592
 21
533.0469387885918
 31
0.0
  0
LINE
  5
3C7
330
1F
100
AcDbEntity
  8
Obrys
100
AcDbLine
 10
1138.745737881592
 20
534.7281887885918
 30
0.0
 11
1139.552737881592
 21
534.6575857885917
 31
0.0
  0
LINE
  5
3C8
330
1F
100
AcDbEntity
  8
Obrys
100
AcDbLine
 10
1138.745737881592
 20
534.7281887885918
 30
0.0
 11
1138.745737881592
 21
534.0556887885919
 31
0.0
  0
LINE
  5
3C9
330
1F
100
AcDbEntity
  8
Obrys
100
AcDbLine
 10
1306.040737881592
 20
523.4703667885918
 30
0.0
 11
1306.040737881592
 21
545.3135117885918
 31
0.0
  0
LINE
  5
3CA
330
1F
100
AcDbEntity
  8
Obrys
100
AcDbLine
 10
1183.426987881592
 20
533.0469387885918
 30
0.0
 11
1182.754487881592
 21
533.0469387885918
 31
0.0
  0
LINE
  5
3CB
330
1F
100
AcDbEntity
  8
Obrys
100
AcDbLine
 10
1009.745737881592
 20
534.7281887885918
 30
0.0
 11
1009.745737881592
 21
534.0556887885919
 31
0.0
  0
LINE
  5
3CC
330
1F
100
AcDbEntity
  8
Obrys
100
AcDbLine
 10
1054.426987881592
 20
535.7369387885918
 30
0.0
 11
1054.356383881592
 21
534.9299387885918
 31
0.0
  0
LINE
  5
3CD
330
1F
100
AcDbEntity
  8
Obrys
100
AcDbLine
 10
976.540663881592
 20
525.9420127885918
 30
0.0
 11
977.448517881592
 21
526.7327247885918
 31
0.0
  0
LINE
  5
3CE
330
1F
100
AcDbEntity
  8
Obrys
100
AcDbLine
 10
963.6459948815921
 20
540.1945707885918
 30
0.0
 11
964.154646881592
 21
541.4581777885918
 31
0.0
  0
LINE
  5
3CF
330
1F
100
AcDbEntity
  8
Obrys
100
AcDbLine
 10
1002.640811881592
 20
542.8418657885918
 30
0.0
 11
1003.431523881592
 21
543.7497197885918
 31
0.0
  0
LINE
  5
3D0
330
1F
100
AcDbEntity
  8
Obrys
100
AcDbLine
 10
1227.435737881592
 20
534.7281887885918
 30
0.0
 11
1227.435737881592
 21
534.0556887885919
 31
0.0
  0
LINE
  5
3D1
330
1F
100
AcDbEntity
  8
Obrys
100
AcDbLine
 10
1011.356383881592
 20
533.8539387885918
 30
0.0
 11
1011.426987881592
 21
533.0469387885918
 31
0.0
  0
LINE
  5
3D2
330
1F
100
AcDbEntity
  8
Obrys
100
AcDbLine
 10
1139.552737881592
 20
534.1262927885917
 30
0.0
 11
1138.745737881592
 21
534.0556887885919
 31
0.0
  0
LINE
  5
3D3
330
1F
100
AcDbEntity
  8
Obrys
100
AcDbLine
 10
1267.745737881592
 20
534.7281887885918
 30
0.0
 11
1267.745737881592
 21
534.0556887885919
 31
0.0
  0
LINE
  5
3D4
330
1F
100
AcDbEntity
  8
Obrys
100
AcDbLine
 10
1010.552737881592
 20
534.1262927885917
 30
0.0
 11
1009.745737881592
 21
534.0556887885919
 31
0.0
  0
LINE
  5
3D5
330
1F
100
AcDbEntity
  8
Obrys
100
AcDbLine
 10
968.4269878815919
 20
533.0469387885918
 30
0.0
 11
967.754487881592
 21
533.0469387885918
 31
0.0
  0
LINE
  5
3D6
330
1F
100
AcDbEntity
  8
Obrys
100
AcDbLine
 10
967.5527378815921
 20
534.1262927885917
 30
0.0
 11
966.745737881592
 21
534.0556887885919
 31
0.0
  0
LINE
  5
3D7
330
1F
100
AcDbEntity
  8
Obrys
100
AcDbLine
 10
1096.552737881592
 20
534.1262927885917
 30
0.0
 11
1095.745737881592
 21
534.0556887885919
 31
0.0
  0
LINE
  5
3D8
330
1F
100
AcDbEntity
  8
Obrys
100
AcDbLine
 10
1140.426987881592
 20
533.0469387885918
 30
0.0
 11
1139.754487881592
 21
533.0469387885918
 31
0.0
  0
LINE
  5
3D9
330
1F
100
AcDbEntity
  8
Obrys
100
AcDbLine
 10
968.4269878815919
 20
535.7369387885918
 30
0.0
 11
968.3563838815919
 21
534.9299387885918
 31
0.0
  0
LINE
  5
3DA
330
1F
100
AcDbEntity
  8
Obrys
 48
1.75
100
AcDbLine
 10
1321.361447881592
 20
555.6919387885918
 30
0.0
 11
1317.990737881592
 21
555.6919387885918
 31
0.0
  0
LINE
  5
3DB
330
1F
100
AcDbEntity
  8
Obrys
 48
1.75
100
AcDbLine
 10
1317.990737881592
 20
513.0919387885918
 30
0.0
 11
1321.061447881592
 21
513.0919387885918
 31
0.0
  0
LINE
  5
3DC
330
1F
100
AcDbEntity
  8
Obrys
 48
1.75
100
AcDbLine
 10
1319.490737881592
 20
556.1919387885918
 30
0.0
 11
1319.490737881592
 21
555.6919387885918
 31
0.0
  0
LINE
  5
3DD
330
1F
100
AcDbEntity
  8
Obrys
 48
1.75
100
AcDbLine
 10
1319.490737881592
 20
513.0919387885918
 30
0.0
 11
1319.490737881592
 21
512.5919387885918
 31
0.0
  0
LINE
  5
3DE
330
1F
100
AcDbEntity
  8
Obrys
 48
1.75
100
AcDbLine
 10
875.9907378815919
 20
555.6919387885918
 30
0.0
 11
872.920026881592
 21
555.6919387885918
 31
0.0
  0
LINE
  5
3DF
330
1F
100
AcDbEntity
  8
Obrys
 48
1.75
100
AcDbLine
 10
874.4907378815919
 20
512.5919387885918
 30
0.0
 11
874.4907378815919
 21
513.0919387885918
 31
0.0
  0
LINE
  5
3E0
330
1F
100
AcDbEntity
  8
Obrys
 48
1.75
100
AcDbLine
 10
874.4907378815919
 20
555.6919387885918
 30
0.0
 11
874.4907378815919
 21
556.1919387885918
 31
0.0
  0
LINE
  5
3E1
330
1F
100
AcDbEntity
  8
Obrys
100
AcDbLine
 10
789.190737881592
 20
539.0919387885918
 30
0.0
 11
789.190737881592
 21
529.6919387885918
 31
0.0
  0
LINE
  5
3E2
330
1F
100
AcDbEntity
  8
Obrys
100
AcDbLine
 10
880.9907378815919
 20
407.8969517885918
 30
0.0
 11
1312.990737881592
 21
407.8969517885918
 31
0.0
  0
LINE
  5
3E3
330
1F
100
AcDbEntity
  8
Obrys
100
AcDbLine
 10
880.9907378815919
 20
442.8665677885919
 30
0.0
 11
1312.990737881592
 21
442.8665677885919
 31
0.0
  0
LINE
  5
3E4
102
{ACAD_REACTORS
330
4BB
102
}
330
1F
100
AcDbEntity
  8
Obrys
100
AcDbLine
 10
1312.990737881592
 20
407.8969517885918
 30
0.0
 11
1312.990737881592
 21
451.8969517885918
 31
0.0
  0
LINE
  5
3E5
330
1F
100
AcDbEntity
  8
Obrys
100
AcDbLine
 10
880.9907378815919
 20
445.3950287885918
 30
0.0
 11
1312.990737881592
 21
445.3950287885918
 31
0.0
  0
LINE
  5
3E6
330
1F
100
AcDbEntity
  8
Obrys
100
AcDbLine
 10
880.9907378815919
 20
407.8969517885918
 30
0.0
 11
880.9907378815919
 21
451.8969517885918
 31
0.0
  0
LINE
  5
3E7
330
1F
100
AcDbEntity
  8
Obrys
100
AcDbLine
 10
880.9907378815919
 20
451.8969517885918
 30
0.0
 11
1312.990737881592
 21
451.8969517885918
 31
0.0
  0
LINE
  5
3E8
330
1F
100
AcDbEntity
  8
Obrys
 48
1.75
100
AcDbLine
 10
1319.490737881592
 20
410.8969517885918
 30
0.0
 11
1319.490737881592
 21
450.1969517885918
 31
0.0
  0
LINE
  5
3E9
330
1F
100
AcDbEntity
  8
Obrys
 48
1.75
100
AcDbLine
 10
855.9907378815919
 20
409.3969517885918
 30
0.0
 11
855.9907378815919
 21
407.8969517885918
 31
0.0
  0
LINE
  5
3EA
102
{ACAD_REACTORS
330
4CB
102
}
330
1F
100
AcDbEntity
  8
Obrys
 48
1.75
100
AcDbLine
 10
874.4907378815919
 20
410.8969517885918
 30
0.0
 11
874.4907378815919
 21
450.1969517885918
 31
0.0
  0
LINE
  5
3EB
102
{ACAD_REACTORS
330
4BB
102
}
330
1F
100
AcDbEntity
  8
Obrys
 48
1.75
100
AcDbLine
 10
1337.990737881592
 20
409.3969517885918
 30
0.0
 11
1337.990737881592
 21
407.8969517885918
 31
0.0
  0
LINE
  5
3EC
102
{ACAD_REACTORS
330
4CB
102
}
330
1F
100
AcDbEntity
  8
Obrys
 48
1.75
100
AcDbLine
 10
1317.990737881592
 20
450.1969517885918
 30
0.0
 11
1319.490737881592
 21
450.1969517885918
 31
0.0
  0
LINE
  5
3ED
330
1F
100
AcDbEntity
  8
Obrys
100
AcDbLine
 10
880.790737881592
 20
407.8969517885918
 30
0.0
 11
876.190737881592
 21
407.8969517885918
 31
0.0
  0
LINE
  5
3EE
330
1F
100
AcDbEntity
  8
Obrys
100
AcDbLine
 10
878.9907378815919
 20
434.8894117885918
 30
0.0
 11
878.9907378815919
 21
440.9044927885918
 31
0.0
  0
LINE
  5
3EF
330
1F
100
AcDbEntity
  8
Obrys
100
AcDbLine
 10
875.990737884738
 20
434.6211222536693
 30
0.0
 11
878.795972881592
 21
434.6894797885918
 31
0.0
  0
LINE
  5
3F0
330
1F
100
AcDbEntity
  8
Obrys
100
AcDbLine
 10
878.795972881592
 20
441.1044237885918
 30
0.0
 11
875.9907384919304
 21
441.1727813235967
 31
0.0
  0
LINE
  5
3F1
330
1F
100
AcDbEntity
  8
Obrys
100
AcDbLine
 10
876.185501881592
 20
451.7711227885918
 30
0.0
 11
880.7855018815919
 21
451.8915777885918
 31
0.0
  0
LINE
  5
3F2
330
1F
100
AcDbEntity
  8
Obrys
 48
1.75
100
AcDbLine
 10
874.4907378815919
 20
450.1969517885918
 30
0.0
 11
875.9907378815919
 21
450.1969517885918
 31
0.0
  0
LINE
  5
3F3
330
1F
100
AcDbEntity
  8
Obrys
100
AcDbLine
 10
874.489174881592
 20
434.5969517885918
 30
0.0
 11
789.190737881592
 21
434.5969517885918
 31
0.0
  0
LINE
  5
3F4
330
1F
100
AcDbEntity
  8
Obrys
100
AcDbLine
 10
789.190737881592
 20
425.1969517885918
 30
0.0
 11
874.489174881592
 21
425.1969517885918
 31
0.0
  0
LINE
  5
3F5
330
1F
100
AcDbEntity
  8
Obrys
100
AcDbLine
 10
1317.790737881592
 20
407.8969517885918
 30
0.0
 11
1313.190737881592
 21
407.8969517885918
 31
0.0
  0
LINE
  5
3F6
330
1F
100
AcDbEntity
  8
Obrys
100
AcDbLine
 10
1314.990737881592
 20
440.9044927885918
 30
0.0
 11
1314.990737881592
 21
434.8894117885918
 31
0.0
  0
LINE
  5
3F7
330
1F
100
AcDbEntity
  8
Obrys
100
AcDbLine
 10
1315.185501881592
 20
434.6894797885918
 30
0.0
 11
1317.990738271254
 21
434.6211222535869
 31
0.0
  0
LINE
  5
3F8
330
1F
100
AcDbEntity
  8
Obrys
100
AcDbLine
 10
1317.990737878446
 20
441.1662010623272
 30
0.0
 11
1315.185501881592
 21
441.1044237885918
 31
0.0
  0
LINE
  5
3F9
330
1F
100
AcDbEntity
  8
Obrys
100
AcDbLine
 10
1313.195972881592
 20
451.8915777885918
 30
0.0
 11
1317.795972881592
 21
451.7711227885918
 31
0.0
  0
LINE
  5
3FA
330
1F
100
AcDbEntity
  8
Obrys
100
AcDbLine
 10
1317.990737881592
 20
451.5711907885918
 30
0.0
 11
1317.990737881592
 21
408.0969517885918
 31
0.0
  0
LINE
  5
3FB
330
1F
100
AcDbEntity
  8
Obrys
 48
1.75
100
AcDbLine
 10
1320.990737881592
 20
409.3969517885918
 30
0.0
 11
1337.990737881592
 21
409.3969517885918
 31
0.0
  0
LINE
  5
3FC
330
1F
100
AcDbEntity
  8
Obrys
 48
1.75
100
AcDbLine
 10
1320.990737881592
 20
407.8969517885827
 30
0.0
 11
1337.990737881592
 21
407.8969517885918
 31
0.0
  0
LINE
  5
3FD
330
1F
100
AcDbEntity
  8
Obrys
 48
1.75
100
AcDbLine
 10
855.9907378815919
 20
407.8969517885918
 30
0.0
 11
872.9907378815919
 21
407.8969517885827
 31
0.0
  0
LINE
  5
3FE
330
1F
100
AcDbEntity
  8
Obrys
100
AcDbLine
 10
789.190737881592
 20
425.1969517885918
 30
0.0
 11
789.190737881592
 21
434.5969517885918
 31
0.0
  0
ARC
  5
3FF
330
1F
100
AcDbEntity
  8
Obrys
 48
1.75
100
AcDbCircle
 10
1327.790737881592
 20
518.4919387885918
 30
0.0
 40
3.599999999999966
100
AcDbArc
 50
90.0
 51
270.0
  0
ARC
  5
400
330
1F
100
AcDbEntity
  8
Obrys
 48
1.75
100
AcDbCircle
 10
1331.290737881592
 20
518.4919387885918
 30
0.0
 40
3.599999999999952
100
AcDbArc
 50
270.0
 51
90.0
  0
ARC
  5
401
330
1F
100
AcDbEntity
  8
Obrys
 48
1.75
100
AcDbCircle
 10
1327.790737881592
 20
534.3919387885918
 30
0.0
 40
3.599999999999963
100
AcDbArc
 50
90.0
 51
270.0
  0
ARC
  5
402
330
1F
100
AcDbEntity
  8
Obrys
 48
1.75
100
AcDbCircle
 10
1331.290737881592
 20
534.3919387885918
 30
0.0
 40
3.599999999999955
100
AcDbArc
 50
270.0
 51
90.0
  0
ARC
  5
403
330
1F
100
AcDbEntity
  8
Obrys
 48
1.75
100
AcDbCircle
 10
1327.790737881592
 20
550.2919387885918
 30
0.0
 40
3.599999999999964
100
AcDbArc
 50
90.0
 51
270.0
  0
ARC
  5
404
330
1F
100
AcDbEntity
  8
Obrys
 48
1.75
100
AcDbCircle
 10
1331.290737881592
 20
550.2919387885918
 30
0.0
 40
3.599999999999955
100
AcDbArc
 50
270.0
 51
90.0
  0
ARC
  5
405
330
1F
100
AcDbEntity
  8
Obrys
 48
1.75
100
AcDbCircle
 10
-1321.061447881592
 20
512.5919387885918
 30
0.0
 40
0.5
210
0.0
220
0.0
230
-1.0
100
AcDbArc
 50
90.0
 51
180.0
  0
ARC
  5
406
330
1F
100
AcDbEntity
  8
Obrys
 48
1.75
100
AcDbCircle
 10
-1321.361447881592
 20
556.1919387885918
 30
0.0
 40
0.5
210
0.0
220
0.0
230
-1.0
100
AcDbArc
 50
180.0
 51
270.0
  0
ARC
  5
407
330
1F
100
AcDbEntity
  8
Obrys
 48
1.75
100
AcDbCircle
 10
-1332.618363126177
 20
550.8172106724959
 30
0.0
 40
5.375215384258826
210
0.0
220
0.0
230
-1.0
100
AcDbArc
 50
90.77148412471263
 51
178.1372006884549
  0
ARC
  5
408
102
{ACAD_REACTORS
330
49B
102
}
330
1F
100
AcDbEntity
  8
Obrys
 48
1.75
100
AcDbCircle
 10
-1332.618363126175
 20
517.9666669046939
 30
0.0
 40
5.375215384261455
210
0.0
220
0.0
230
-1.0
100
AcDbArc
 50
181.8627993116096
 51
269.2285158752611
  0
ARC
  5
409
330
1F
100
AcDbEntity
  8
Obrys
 48
1.75
100
AcDbCircle
 10
866.190737881592
 20
550.2919387885918
 30
0.0
 40
3.599999999999966
100
AcDbArc
 50
270.0
 51
90.0
  0
ARC
  5
40A
330
1F
100
AcDbEntity
  8
Obrys
 48
1.75
100
AcDbCircle
 10
862.690737881592
 20
550.2919387885918
 30
0.0
 40
3.599999999999952
100
AcDbArc
 50
90.0
 51
270.0
  0
ARC
  5
40B
330
1F
100
AcDbEntity
  8
Obrys
 48
1.75
100
AcDbCircle
 10
866.190737881592
 20
534.3919387885918
 30
0.0
 40
3.599999999999963
100
AcDbArc
 50
270.0
 51
90.0
  0
ARC
  5
40C
330
1F
100
AcDbEntity
  8
Obrys
 48
1.75
100
AcDbCircle
 10
862.690737881592
 20
534.3919387885918
 30
0.0
 40
3.599999999999955
100
AcDbArc
 50
90.0
 51
270.0
  0
ARC
  5
40D
330
1F
100
AcDbEntity
  8
Obrys
 48
1.75
100
AcDbCircle
 10
866.190737881592
 20
518.4919387885918
 30
0.0
 40
3.599999999999964
100
AcDbArc
 50
270.0
 51
90.0
  0
ARC
  5
40E
330
1F
100
AcDbEntity
  8
Obrys
 48
1.75
100
AcDbCircle
 10
862.690737881592
 20
518.4919387885918
 30
0.0
 40
3.599999999999955
100
AcDbArc
 50
90.0
 51
270.0
  0
ARC
  5
40F
330
1F
100
AcDbEntity
  8
Obrys
 48
1.75
100
AcDbCircle
 10
-872.920026881592
 20
556.1919387885918
 30
0.0
 40
0.5
210
0.0
220
0.0
230
-1.0
100
AcDbArc
 50
270.0
 51
0.0
  0
ARC
  5
410
330
1F
100
AcDbEntity
  8
Obrys
 48
1.75
100
AcDbCircle
 10
-872.620026881592
 20
512.5919387885918
 30
0.0
 40
0.5
210
0.0
220
0.0
230
-1.0
100
AcDbArc
 50
0.0
 51
90.0
  0
ARC
  5
411
330
1F
100
AcDbEntity
  8
Obrys
 48
1.75
100
AcDbCircle
 10
-861.3631126370067
 20
517.9666669046877
 30
0.0
 40
5.375215384258826
210
0.0
220
0.0
230
-1.0
100
AcDbArc
 50
270.7714841247114
 51
358.1372006884549
  0
ARC
  5
412
330
1F
100
AcDbEntity
  8
Obrys
 48
1.75
100
AcDbCircle
 10
-861.3631126370094
 20
550.8172106724896
 30
0.0
 40
5.375215384261687
210
0.0
220
0.0
230
-1.0
100
AcDbArc
 50
1.862799311610789
 51
89.22851587525989
  0
CIRCLE
  5
413
330
1F
100
AcDbEntity
  8
Obrys
100
AcDbCircle
 10
-1060.808251881592
 20
527.6744247885918
 30
0.0
 40
2.803176709070639
210
0.0
220
0.0
230
-1.0
  0
CIRCLE
  5
414
330
1F
100
AcDbEntity
  8
Obrys
100
AcDbCircle
 10
-1054.090737881592
 20
534.3919387885918
 30
0.0
 40
3.100903218855192
210
0.0
220
0.0
230
-1.0
  0
ARC
  5
415
330
1F
100
AcDbEntity
  8
Obrys
100
AcDbCircle
 10
1317.790737881592
 20
556.0661787885917
 30
0.0
 40
0.2
100
AcDbArc
 50
0.0
 51
88.50000000002305
  0
CIRCLE
  5
416
330
1F
100
AcDbEntity
  8
Obrys
100
AcDbCircle
 10
-1133.373222881592
 20
541.1094537885918
 30
0.0
 40
2.803176709070639
210
0.0
220
0.0
230
-1.0
  0
CIRCLE
  5
417
330
1F
100
AcDbEntity
  8
Obrys
100
AcDbCircle
 10
-1017.808251881592
 20
527.6744247885918
 30
0.0
 40
2.803176709070639
210
0.0
220
0.0
230
-1.0
  0
CIRCLE
  5
418
330
1F
100
AcDbEntity
  8
Obrys
100
AcDbCircle
 10
1226.090737881592
 20
534.3919387885918
 30
0.0
 40
19.00951715924332
  0
CIRCLE
  5
419
330
1F
100
AcDbEntity
  8
Obrys
100
AcDbCircle
 10
911.583827881592
 20
521.5818617885918
 30
0.0
 40
2.38165
  0
CIRCLE
  5
41A
330
1F
100
AcDbEntity
  8
Obrys
100
AcDbCircle
 10
-1004.373222881592
 20
541.1094537885918
 30
0.0
 40
2.803176709070639
210
0.0
220
0.0
230
-1.0
  0
CIRCLE
  5
41B
330
1F
100
AcDbEntity
  8
Obrys
100
AcDbCircle
 10
-1090.373222881592
 20
541.1094537885918
 30
0.0
 40
2.803176709070639
210
0.0
220
0.0
230
-1.0
  0
CIRCLE
  5
41C
330
1F
100
AcDbEntity
  8
Obrys
100
AcDbCircle
 10
-1262.373222881592
 20
541.1094537885918
 30
0.0
 40
2.803176709070639
210
0.0
220
0.0
230
-1.0
  0
CIRCLE
  5
41D
330
1F
100
AcDbEntity
  8
Obrys
100
AcDbCircle
 10
-1103.808251881592
 20
527.6744247885918
 30
0.0
 40
2.803176709070639
210
0.0
220
0.0
230
-1.0
  0
ARC
  5
41E
330
1F
100
AcDbEntity
  8
Obrys
100
AcDbCircle
 10
-885.940737881592
 20
523.4703667885918
 30
0.0
 40
2.0
210
0.0
220
0.0
230
-1.0
100
AcDbArc
 50
180.0
 51
225.0
  0
ARC
  5
41F
330
1F
100
AcDbEntity
  8
Obrys
100
AcDbCircle
 10
880.790737881592
 20
512.5972447885918
 30
0.0
 40
0.2
100
AcDbArc
 50
268.4999999999905
 51
0.0
  0
ARC
  5
420
330
1F
100
AcDbEntity
  8
Obrys
100
AcDbCircle
 10
-1313.190737881592
 20
556.1866337885918
 30
0.0
 40
0.2
210
0.0
220
0.0
230
-1.0
100
AcDbArc
 50
0.0
 51
91.49999999997695
  0
ARC
  5
421
330
1F
100
AcDbEntity
  8
Obrys
100
AcDbCircle
 10
-1308.040737881592
 20
545.3135117885918
 30
0.0
 40
2.0
210
0.0
220
0.0
230
-1.0
100
AcDbArc
 50
0.0
 51
44.9999999999954
  0
CIRCLE
  5
422
330
1F
100
AcDbEntity
  8
Obrys
100
AcDbCircle
 10
-1219.373222881592
 20
541.1094537885918
 30
0.0
 40
2.803176709070639
210
0.0
220
0.0
230
-1.0
  0
CIRCLE
  5
423
330
1F
100
AcDbEntity
  8
Obrys
100
AcDbCircle
 10
968.0907378815921
 20
534.3919387885918
 30
0.0
 40
19.00951715924332
  0
ARC
  5
424
330
1F
100
AcDbEntity
  8
Obrys
100
AcDbCircle
 10
-1313.190737881592
 20
512.5972447885918
 30
0.0
 40
0.2
210
0.0
220
0.0
230
-1.0
100
AcDbArc
 50
268.500000000023
 51
0.0
  0
ARC
  5
425
330
1F
100
AcDbEntity
  8
Obrys
100
AcDbCircle
 10
876.190737881592
 20
512.7176997885917
 30
0.0
 40
0.2
100
AcDbArc
 50
180.0
 51
268.4999999999905
  0
CIRCLE
  5
426
330
1F
100
AcDbEntity
  8
Obrys
100
AcDbCircle
 10
1054.090737881592
 20
534.3919387885918
 30
0.0
 40
19.00951715924332
  0
CIRCLE
  5
427
330
1F
100
AcDbEntity
  8
Obrys
100
AcDbCircle
 10
-1276.161804881592
 20
541.4630067885918
 30
0.0
 40
2.752085816247519
210
0.0
220
0.0
230
-1.0
  0
CIRCLE
  5
428
330
1F
100
AcDbEntity
  8
Obrys
100
AcDbCircle
 10
-1183.090737881592
 20
534.3919387885918
 30
0.0
 40
3.100903218855192
210
0.0
220
0.0
230
-1.0
  0
CIRCLE
  5
429
330
1F
100
AcDbEntity
  8
Obrys
100
AcDbCircle
 10
-1011.090737881592
 20
534.3919387885918
 30
0.0
 40
3.100903218855192
210
0.0
220
0.0
230
-1.0
  0
CIRCLE
  5
42A
330
1F
100
AcDbEntity
  8
Obrys
100
AcDbCircle
 10
-1189.808251881592
 20
527.6744247885918
 30
0.0
 40
2.803176709070639
210
0.0
220
0.0
230
-1.0
  0
CIRCLE
  5
42B
330
1F
100
AcDbEntity
  8
Obrys
100
AcDbCircle
 10
-1047.373222881592
 20
541.1094537885918
 30
0.0
 40
2.803176709070639
210
0.0
220
0.0
230
-1.0
  0
ARC
  5
42C
330
1F
100
AcDbEntity
  8
Obrys
100
AcDbCircle
 10
883.4907378815919
 20
514.6564057885918
 30
0.0
 40
2.5
100
AcDbArc
 50
135.0
 51
180.0
  0
ARC
  5
42D
330
1F
100
AcDbEntity
  8
Obrys
100
AcDbCircle
 10
1310.490737881592
 20
554.1274727885918
 30
0.0
 40
2.5
100
AcDbArc
 50
314.9999999999963
 51
0.0
  0
ARC
  5
42E
330
1F
100
AcDbEntity
  8
Obrys
100
AcDbCircle
 10
-1308.040737881592
 20
523.4703667885918
 30
0.0
 40
2.0
210
0.0
220
0.0
230
-1.0
100
AcDbArc
 50
315.0000000000047
 51
0.0
  0
CIRCLE
  5
42F
330
1F
100
AcDbEntity
  8
Obrys
100
AcDbCircle
 10
-974.808251881592
 20
527.6744247885918
 30
0.0
 40
2.803176709070639
210
0.0
220
0.0
230
-1.0
  0
CIRCLE
  5
430
330
1F
100
AcDbEntity
  8
Obrys
100
AcDbCircle
 10
-1232.808251881592
 20
527.6744247885918
 30
0.0
 40
2.803176709070639
210
0.0
220
0.0
230
-1.0
  0
ARC
  5
431
330
1F
100
AcDbEntity
  8
Obrys
100
AcDbCircle
 10
883.4907378815919
 20
554.1274727885918
 30
0.0
 40
2.5
100
AcDbArc
 50
180.0
 51
225.0
  0
ARC
  5
432
330
1F
100
AcDbEntity
  8
Obrys
100
AcDbCircle
 10
880.790737881592
 20
556.1866337885918
 30
0.0
 40
0.2
100
AcDbArc
 50
0.0
 51
91.5000000000095
  0
CIRCLE
  5
433
330
1F
100
AcDbEntity
  8
Obrys
100
AcDbCircle
 10
-1275.808251881592
 20
527.6744247885918
 30
0.0
 40
2.803176709070639
210
0.0
220
0.0
230
-1.0
  0
CIRCLE
  5
434
330
1F
100
AcDbEntity
  8
Obrys
100
AcDbCircle
 10
-1018.161804881592
 20
541.4630067885918
 30
0.0
 40
2.752085816247519
210
0.0
220
0.0
230
-1.0
  0
CIRCLE
  5
435
330
1F
100
AcDbEntity
  8
Obrys
100
AcDbCircle
 10
-1147.161804881592
 20
541.4630067885918
 30
0.0
 40
2.752085816247519
210
0.0
220
0.0
230
-1.0
  0
CIRCLE
  5
436
330
1F
100
AcDbEntity
  8
Obrys
100
AcDbCircle
 10
-961.373222881592
 20
541.1094537885918
 30
0.0
 40
2.803176709070639
210
0.0
220
0.0
230
-1.0
  0
CIRCLE
  5
437
330
1F
100
AcDbEntity
  8
Obrys
100
AcDbCircle
 10
-1061.161804881592
 20
541.4630067885918
 30
0.0
 40
2.752085816247519
210
0.0
220
0.0
230
-1.0
  0
CIRCLE
  5
438
330
1F
100
AcDbEntity
  8
Obrys
100
AcDbCircle
 10
1269.090737881592
 20
534.3919387885918
 30
0.0
 40
19.00951715924332
  0
CIRCLE
  5
439
330
1F
100
AcDbEntity
  8
Obrys
100
AcDbCircle
 10
-1176.373222881592
 20
541.1094537885918
 30
0.0
 40
2.803176709070639
210
0.0
220
0.0
230
-1.0
  0
CIRCLE
  5
43A
330
1F
100
AcDbEntity
  8
Obrys
100
AcDbCircle
 10
1011.090737881592
 20
534.3919387885918
 30
0.0
 40
19.00951715924332
  0
CIRCLE
  5
43B
330
1F
100
AcDbEntity
  8
Obrys
100
AcDbCircle
 10
1183.090737881592
 20
534.3919387885918
 30
0.0
 40
19.00951715924332
  0
CIRCLE
  5
43C
330
1F
100
AcDbEntity
  8
Obrys
100
AcDbCircle
 10
-1146.808251881592
 20
527.6744247885918
 30
0.0
 40
2.803176709070639
210
0.0
220
0.0
230
-1.0
  0
CIRCLE
  5
43D
330
1F
100
AcDbEntity
  8
Obrys
100
AcDbCircle
 10
1140.090737881592
 20
534.3919387885918
 30
0.0
 40
19.00951715924332
  0
ARC
  5
43E
330
1F
100
AcDbEntity
  8
Obrys
100
AcDbCircle
 10
1310.490737881592
 20
514.6564057885918
 30
0.0
 40
2.5
100
AcDbArc
 50
0.0
 51
45.00000000000185
  0
CIRCLE
  5
43F
330
1F
100
AcDbEntity
  8
Obrys
100
AcDbCircle
 10
-1226.090737881592
 20
534.3919387885918
 30
0.0
 40
3.100903218855192
210
0.0
220
0.0
230
-1.0
  0
CIRCLE
  5
440
330
1F
100
AcDbEntity
  8
Obrys
100
AcDbCircle
 10
-1233.161804881592
 20
541.4630067885918
 30
0.0
 40
2.752085816247519
210
0.0
220
0.0
230
-1.0
  0
ARC
  5
441
330
1F
100
AcDbEntity
  8
Obrys
100
AcDbCircle
 10
1317.790737881592
 20
512.7176997885917
 30
0.0
 40
0.2
100
AcDbArc
 50
271.499999999977
 51
0.0
  0
CIRCLE
  5
442
330
1F
100
AcDbEntity
  8
Obrys
100
AcDbCircle
 10
-1140.090737881592
 20
534.3919387885918
 30
0.0
 40
3.100903218855192
210
0.0
220
0.0
230
-1.0
  0
CIRCLE
  5
443
330
1F
100
AcDbEntity
  8
Obrys
100
AcDbCircle
 10
-1190.161804881592
 20
541.4630067885918
 30
0.0
 40
2.752085816247519
210
0.0
220
0.0
230
-1.0
  0
ARC
  5
444
330
1F
100
AcDbEntity
  8
Obrys
100
AcDbCircle
 10
-885.940737881592
 20
545.3135117885918
 30
0.0
 40
2.0
210
0.0
220
0.0
230
-1.0
100
AcDbArc
 50
135.0
 51
180.0
  0
CIRCLE
  5
445
330
1F
100
AcDbEntity
  8
Obrys
100
AcDbCircle
 10
-1269.090737881592
 20
534.3919387885918
 30
0.0
 40
3.100903218855192
210
0.0
220
0.0
230
-1.0
  0
CIRCLE
  5
446
330
1F
100
AcDbEntity
  8
Obrys
100
AcDbCircle
 10
-1097.090737881592
 20
534.3919387885918
 30
0.0
 40
3.100903218855192
210
0.0
220
0.0
230
-1.0
  0
ARC
  5
447
330
1F
100
AcDbEntity
  8
Obrys
100
AcDbCircle
 10
876.190737881592
 20
556.0661787885917
 30
0.0
 40
0.2
100
AcDbArc
 50
91.5000000000095
 51
180.0
  0
CIRCLE
  5
448
330
1F
100
AcDbEntity
  8
Obrys
100
AcDbCircle
 10
-1104.161804881592
 20
541.4630067885918
 30
0.0
 40
2.752085816247519
210
0.0
220
0.0
230
-1.0
  0
CIRCLE
  5
449
330
1F
100
AcDbEntity
  8
Obrys
100
AcDbCircle
 10
1097.090737881592
 20
534.3919387885918
 30
0.0
 40
19.00951715924332
  0
CIRCLE
  5
44A
330
1F
100
AcDbEntity
  8
Obrys
100
AcDbCircle
 10
-968.0907378815921
 20
534.3919387885918
 30
0.0
 40
3.100903218855192
210
0.0
220
0.0
230
-1.0
  0
ARC
  5
44B
330
1F
100
AcDbEntity
  8
Obrys
 48
1.75
100
AcDbCircle
 10
-1320.990737881592
 20
410.8969517885918
 30
0.0
 40
1.5
210
0.0
220
0.0
230
-1.0
100
AcDbArc
 50
270.0
 51
0.0
  0
ARC
  5
44C
330
1F
100
AcDbEntity
  8
Obrys
 48
1.75
100
AcDbCircle
 10
-1320.990737881592
 20
410.8969517885918
 30
0.0
 40
3.000000000009047
210
0.0
220
0.0
230
-1.0
100
AcDbArc
 50
270.0
 51
0.0
  0
ARC
  5
44D
330
1F
100
AcDbEntity
  8
Obrys
 48
1.75
100
AcDbCircle
 10
-872.9907378815919
 20
410.8969517885918
 30
0.0
 40
3.000000000009047
210
0.0
220
0.0
230
-1.0
100
AcDbArc
 50
180.0
 51
270.0
  0
ARC
  5
44E
330
1F
100
AcDbEntity
  8
Obrys
 48
1.75
100
AcDbCircle
 10
-872.9907378815919
 20
410.8969517885918
 30
0.0
 40
1.5
210
0.0
220
0.0
230
-1.0
100
AcDbArc
 50
180.0
 51
270.0
  0
ARC
  5
44F
330
1F
100
AcDbEntity
  8
Obrys
100
AcDbCircle
 10
1314.659158881592
 20
437.8969517885918
 30
0.0
 40
2.081578571428572
100
AcDbArc
 50
279.1657969999981
 51
80.83420300000188
  0
ARC
  5
450
330
1F
100
AcDbEntity
  8
Obrys
100
AcDbCircle
 10
880.790737881592
 20
408.0969517885918
 30
0.0
 40
0.2
100
AcDbArc
 50
270.0
 51
0.0
  0
ARC
  5
451
330
1F
100
AcDbEntity
  8
Obrys
100
AcDbCircle
 10
-876.190737881592
 20
408.0969517885918
 30
0.0
 40
0.2
210
0.0
220
0.0
230
-1.0
100
AcDbArc
 50
270.0
 51
0.0
  0
ARC
  5
452
330
1F
100
AcDbEntity
  8
Obrys
100
AcDbCircle
 10
-876.190737881592
 20
451.5711907885918
 30
0.0
 40
0.2
210
0.0
220
0.0
230
-1.0
100
AcDbArc
 50
0.0
 51
88.49999999999092
  0
ARC
  5
453
330
1F
100
AcDbEntity
  8
Obrys
100
AcDbCircle
 10
1313.190737881592
 20
408.0969517885918
 30
0.0
 40
0.2
100
AcDbArc
 50
180.0
 51
270.0
  0
ARC
  5
454
330
1F
100
AcDbEntity
  8
Obrys
100
AcDbCircle
 10
1317.790737881592
 20
408.0969517885918
 30
0.0
 40
0.2
100
AcDbArc
 50
270.0
 51
0.0
  0
ARC
  5
455
330
1F
100
AcDbEntity
  8
Obrys
100
AcDbCircle
 10
-1313.190737881592
 20
451.6916467885918
 30
0.0
 40
0.2
210
0.0
220
0.0
230
-1.0
100
AcDbArc
 50
0.0
 51
91.49999999997651
  0
ARC
  5
456
330
1F
100
AcDbEntity
  8
Obrys
100
AcDbCircle
 10
1317.790737881592
 20
451.5711907885918
 30
0.0
 40
0.2
100
AcDbArc
 50
0.0
 51
88.50000000002348
  0
ARC
  5
457
330
1F
100
AcDbEntity
  8
Obrys
100
AcDbCircle
 10
-878.790737881592
 20
434.8894117885918
 30
0.0
 40
0.1999999999989726
210
0.0
220
0.0
230
-1.0
100
AcDbArc
 50
180.0
 51
268.5000000000159
  0
ARC
  5
458
330
1F
100
AcDbEntity
  8
Obrys
100
AcDbCircle
 10
-878.790737881592
 20
440.9044927885918
 30
0.0
 40
0.1999999999989726
210
0.0
220
0.0
230
-1.0
100
AcDbArc
 50
91.49999999998418
 51
180.0
  0
ARC
  5
459
330
1F
100
AcDbEntity
  8
Obrys
100
AcDbCircle
 10
-1315.190737881592
 20
434.8894117885918
 30
0.0
 40
0.199999999999645
210
0.0
220
0.0
230
-1.0
100
AcDbArc
 50
271.4999999999795
 51
0.0
  0
ARC
  5
45A
330
1F
100
AcDbEntity
  8
Obrys
100
AcDbCircle
 10
-1315.190737881592
 20
440.9044927885918
 30
0.0
 40
0.1999999999995566
210
0.0
220
0.0
230
-1.0
100
AcDbArc
 50
0.0
 51
88.50000000002007
  0
LINE
  5
45B
330
1F
100
AcDbEntity
  8
Obrys
100
AcDbLine
 10
855.9907378815919
 20
409.3969517885918
 30
0.0
 11
872.9907378815919
 21
409.3969517885918
 31
0.0
  0
ARC
  5
45C
330
1F
100
AcDbEntity
  8
Obrys
100
AcDbCircle
 10
879.3223158815921
 20
437.8969517885918
 30
0.0
 40
2.081578571428635
100
AcDbArc
 50
99.16579700000096
 51
260.834202999999
  0
LINE
  5
45D
330
1F
100
AcDbEntity
  8
Obrys
100
AcDbLine
 10
875.9907378815919
 20
408.0969517885918
 30
0.0
 11
875.9907378815919
 21
451.5711907885918
 31
0.0
  0
ARC
  5
45E
330
1F
100
AcDbEntity
  8
Obrys
100
AcDbCircle
 10
909.4065899437142
 20
407.8963858401975
 30
-0.0000000000000219
 40
0.2044348482676861
100
AcDbArc
 50
179.8411044295609
 51
256.1737481830771
  0
ARC
  5
45F
330
1F
100
AcDbEntity
  8
Obrys
100
AcDbCircle
 10
913.7654373702753
 20
407.8929694838141
 30
0.000000000000001
 40
0.2001021617855814
100
AcDbArc
 50
282.8441385481358
 51
1.140625497901966
  0
ARC
  5
460
330
1F
100
AcDbEntity
  8
Obrys
100
AcDbCircle
 10
911.5838279119305
 20
417.4469515194359
 30
0.0000000000003327
 40
9.999999730841067
100
AcDbArc
 50
257.1376607184054
 51
282.8623311738318
  0
LINE
  5
461
330
1F
100
AcDbEntity
  8
Obrys
100
AcDbLine
 10
909.3577344333363
 20
407.6978745148481
 30
0.0000000000000167
 11
913.8099200109605
 21
407.69787419984
 31
0.0000000000003327
  0
ARC
  5
462
330
1F
100
AcDbEntity
  8
Obrys
100
AcDbCircle
 10
880.7816802598503
 20
451.6823515775529
 30
0.0
 40
0.2092611100477996
100
AcDbArc
 50
2.52695958009872
 51
88.95358019566856
  0
ARC
  5
463
330
1F
100
AcDbEntity
  8
Obrys
100
AcDbCircle
 10
968.6011753799373
 20
533.8815012902464
 30
0.0
 40
0.2463383225557949
100
AcDbArc
 50
83.57579135990908
 51
186.424208640088
  0
ARC
  5
464
330
1F
100
AcDbEntity
  8
Obrys
100
AcDbCircle
 10
967.5803008671239
 20
533.8815026729189
 30
0.0
 40
0.2463370027067292
100
AcDbArc
 50
353.5754331651543
 51
96.42435646202404
  0
ARC
  5
465
330
1F
100
AcDbEntity
  8
Obrys
100
AcDbCircle
 10
967.5803022497857
 20
534.9023744203981
 30
0.0
 40
0.2463356828710762
100
AcDbArc
 50
263.5752853432581
 51
6.424714656741898
  0
ARC
  5
466
330
1F
100
AcDbEntity
  8
Obrys
100
AcDbCircle
 10
968.6011739972649
 20
534.9023758030601
 30
0.0
 40
0.2463370027068517
100
AcDbArc
 50
173.5756435380052
 51
276.4245668348165
  0
CIRCLE
  5
467
330
1F
100
AcDbEntity
  8
Obrys
100
AcDbCircle
 10
-975.1618048815919
 20
541.4630067885918
 30
0.0
 40
2.752085816247519
210
0.0
220
0.0
230
-1.0
  0
ARC
  5
468
330
1F
100
AcDbEntity
  8
Obrys
100
AcDbCircle
 10
1011.601175379937
 20
533.8815012902464
 30
0.0
 40
0.2463383225557949
100
AcDbArc
 50
83.57579135990908
 51
186.424208640088
  0
ARC
  5
469
330
1F
100
AcDbEntity
  8
Obrys
100
AcDbCircle
 10
1011.601173997265
 20
534.9023758030601
 30
0.0
 40
0.2463370027068517
100
AcDbArc
 50
173.5756435380052
 51
276.4245668348165
  0
ARC
  5
46A
330
1F
100
AcDbEntity
  8
Obrys
100
AcDbCircle
 10
1010.580302249786
 20
534.9023744203981
 30
0.0
 40
0.2463356828710197
100
AcDbArc
 50
263.5752853432551
 51
6.424714656744857
  0
ARC
  5
46B
330
1F
100
AcDbEntity
  8
Obrys
100
AcDbCircle
 10
1010.580300867124
 20
533.8815026729189
 30
0.0
 40
0.2463370027067292
100
AcDbArc
 50
353.5754331651543
 51
96.42435646202404
  0
ARC
  5
46C
330
1F
100
AcDbEntity
  8
Obrys
100
AcDbCircle
 10
1054.601175379937
 20
533.8815012902464
 30
0.0
 40
0.2463383225557949
100
AcDbArc
 50
83.57579135993535
 51
186.424208640088
  0
ARC
  5
46D
330
1F
100
AcDbEntity
  8
Obrys
100
AcDbCircle
 10
1053.575966044782
 20
533.8691159751772
 30
0.0
 40
0.2582236645298937
100
AcDbArc
 50
356.6304785058249
 51
95.16094107249033
  0
ARC
  5
46E
330
1F
100
AcDbEntity
  8
Obrys
100
AcDbCircle
 10
1053.580302249786
 20
534.9023744203981
 30
0.0
 40
0.2463356828710762
100
AcDbArc
 50
263.5752853432581
 51
6.424714656741898
  0
ARC
  5
46F
330
1F
100
AcDbEntity
  8
Obrys
100
AcDbCircle
 10
1054.601173997265
 20
534.9023758030601
 30
0.0
 40
0.2463370027068517
100
AcDbArc
 50
173.5756435380111
 51
276.4245668347639
  0
ARC
  5
470
330
1F
100
AcDbEntity
  8
Obrys
100
AcDbCircle
 10
1096.580302249786
 20
534.9023744203981
 30
0.0
 40
0.2463356828710762
100
AcDbArc
 50
263.5752853432581
 51
6.424714656741898
  0
ARC
  5
471
330
1F
100
AcDbEntity
  8
Obrys
100
AcDbCircle
 10
1097.601173997265
 20
534.9023758030601
 30
0.0
 40
0.2463370027068517
100
AcDbArc
 50
173.5756435380111
 51
276.4245668347639
  0
ARC
  5
472
330
1F
100
AcDbEntity
  8
Obrys
100
AcDbCircle
 10
1097.601175379937
 20
533.8815012902464
 30
0.0
 40
0.2463383225557949
100
AcDbArc
 50
83.57579135993535
 51
186.424208640088
  0
ARC
  5
473
330
1F
100
AcDbEntity
  8
Obrys
100
AcDbCircle
 10
1096.580300867124
 20
533.8815026729189
 30
0.0
 40
0.2463370027067292
100
AcDbArc
 50
353.5754331651543
 51
96.42435646202404
  0
ARC
  5
474
330
1F
100
AcDbEntity
  8
Obrys
100
AcDbCircle
 10
1139.580302249786
 20
534.9023744203981
 30
0.0
 40
0.2463356828710762
100
AcDbArc
 50
263.5752853432581
 51
6.424714656741898
  0
ARC
  5
475
330
1F
100
AcDbEntity
  8
Obrys
100
AcDbCircle
 10
1139.580300867124
 20
533.8815026729189
 30
0.0
 40
0.2463370027067292
100
AcDbArc
 50
353.5754331651543
 51
96.42435646202404
  0
ARC
  5
476
330
1F
100
AcDbEntity
  8
Obrys
100
AcDbCircle
 10
1140.601175379937
 20
533.8815012902464
 30
0.0
 40
0.2463383225557949
100
AcDbArc
 50
83.57579135993535
 51
186.424208640088
  0
ARC
  5
477
330
1F
100
AcDbEntity
  8
Obrys
100
AcDbCircle
 10
1140.601173997265
 20
534.9023758030601
 30
0.0
 40
0.2463370027068795
100
AcDbArc
 50
173.5756435380111
 51
276.4245668347639
  0
ARC
  5
478
330
1F
100
AcDbEntity
  8
Obrys
100
AcDbCircle
 10
1182.580300867124
 20
533.8815026729189
 30
0.0
 40
0.2463370027067228
100
AcDbArc
 50
353.5754331651602
 51
96.42435646202404
  0
ARC
  5
479
330
1F
100
AcDbEntity
  8
Obrys
100
AcDbCircle
 10
1182.580302249786
 20
534.9023744203981
 30
0.0
 40
0.2463356828710762
100
AcDbArc
 50
263.5752853432055
 51
6.424714656741898
  0
ARC
  5
47A
330
1F
100
AcDbEntity
  8
Obrys
100
AcDbCircle
 10
1183.602808817567
 20
534.9070473467059
 30
0.0
 40
0.2508054731019652
100
AcDbArc
 50
174.0139493558361
 51
275.9340218591605
  0
ARC
  5
47B
330
1F
100
AcDbEntity
  8
Obrys
100
AcDbCircle
 10
1183.601175379937
 20
533.8815012902464
 30
0.0
 40
0.2463383225556819
100
AcDbArc
 50
83.57579135987984
 51
186.4242086400998
  0
ARC
  5
47C
330
1F
100
AcDbEntity
  8
Obrys
100
AcDbCircle
 10
1225.580302249786
 20
534.9023744203981
 30
0.0
 40
0.2463356828710762
100
AcDbArc
 50
263.5752853432055
 51
6.424714656741898
  0
ARC
  5
47D
330
1F
100
AcDbEntity
  8
Obrys
100
AcDbCircle
 10
1225.580300867124
 20
533.8815026729189
 30
0.0
 40
0.2463370027067228
100
AcDbArc
 50
353.5754331651602
 51
96.42435646202404
  0
ARC
  5
47E
330
1F
100
AcDbEntity
  8
Obrys
100
AcDbCircle
 10
1226.601175379937
 20
533.8815012902464
 30
0.0
 40
0.2463383225556819
100
AcDbArc
 50
83.57579135987984
 51
186.4242086400998
  0
ARC
  5
47F
330
1F
100
AcDbEntity
  8
Obrys
100
AcDbCircle
 10
1226.601173997265
 20
534.9023758030601
 30
0.0
 40
0.246337002706823
100
AcDbArc
 50
173.5756435380052
 51
276.4245668347639
  0
ARC
  5
480
330
1F
100
AcDbEntity
  8
Obrys
100
AcDbCircle
 10
1268.580302249786
 20
534.9023744203981
 30
0.0
 40
0.2463356828710762
100
AcDbArc
 50
263.5752853432055
 51
6.424714656741898
  0
ARC
  5
481
330
1F
100
AcDbEntity
  8
Obrys
100
AcDbCircle
 10
1268.580300867124
 20
533.8815026729189
 30
0.0
 40
0.2463370027067228
100
AcDbArc
 50
353.5754331651602
 51
96.42435646202404
  0
ARC
  5
482
330
1F
100
AcDbEntity
  8
Obrys
100
AcDbCircle
 10
1269.601175379937
 20
533.8815012902464
 30
0.0
 40
0.2463383225556819
100
AcDbArc
 50
83.57579135987984
 51
186.4242086400998
  0
ARC
  5
483
330
1F
100
AcDbEntity
  8
Obrys
100
AcDbCircle
 10
1269.601173997265
 20
534.9023758030601
 30
0.0
 40
0.246337002706823
100
AcDbArc
 50
173.5756435380052
 51
276.4245668347639
  0
ARC
  5
484
330
1F
100
AcDbEntity
  8
Obrys
100
AcDbCircle
 10
961.3732234106232
 20
541.109453317623
 30
0.0
 40
2.450000041056399
100
AcDbArc
 50
111.9267813863842
 51
338.0732186136158
  0
ARC
  5
485
330
1F
100
AcDbEntity
  8
Obrys
100
AcDbCircle
 10
974.8082514592757
 20
527.6744250792676
 30
0.0
 40
2.449999906916189
100
AcDbArc
 50
111.9267586660181
 51
338.0732233597
  0
ARC
  5
486
330
1F
100
AcDbEntity
  8
Obrys
100
AcDbCircle
 10
1004.373223410623
 20
541.109453317623
 30
0.0
 40
2.450000041056399
100
AcDbArc
 50
111.9267813863842
 51
338.0732186136158
  0
ARC
  5
487
330
1F
100
AcDbEntity
  8
Obrys
100
AcDbCircle
 10
1017.808251459276
 20
527.6744250792676
 30
0.0
 40
2.449999906916275
100
AcDbArc
 50
111.9267586660171
 51
338.0732233597
  0
ARC
  5
488
330
1F
100
AcDbEntity
  8
Obrys
100
AcDbCircle
 10
1047.373223410623
 20
541.109453317623
 30
0.0
 40
2.450000041056399
100
AcDbArc
 50
111.9267813863867
 51
338.0732186136148
  0
ARC
  5
489
330
1F
100
AcDbEntity
  8
Obrys
100
AcDbCircle
 10
1060.808251459276
 20
527.6744250792676
 30
0.0
 40
2.449999906916189
100
AcDbArc
 50
111.9267586660181
 51
338.0732233597
  0
ARC
  5
48A
330
1F
100
AcDbEntity
  8
Obrys
100
AcDbCircle
 10
1090.373223410623
 20
541.109453317623
 30
0.0
 40
2.450000041056399
100
AcDbArc
 50
111.9267813863867
 51
338.0732186136148
  0
ARC
  5
48B
330
1F
100
AcDbEntity
  8
Obrys
100
AcDbCircle
 10
1103.808251459276
 20
527.6744250792676
 30
0.0
 40
2.449999906916275
100
AcDbArc
 50
111.9267586660171
 51
338.0732233597
  0
ARC
  5
48C
330
1F
100
AcDbEntity
  8
Obrys
100
AcDbCircle
 10
1133.373223410623
 20
541.109453317623
 30
0.0
 40
2.450000041056399
100
AcDbArc
 50
111.9267813863867
 51
338.0732186136148
  0
ARC
  5
48D
330
1F
100
AcDbEntity
  8
Obrys
100
AcDbCircle
 10
1146.808251459276
 20
527.6744250792676
 30
0.0
 40
2.449999906916275
100
AcDbArc
 50
111.9267586660171
 51
338.0732233597
  0
ARC
  5
48E
330
1F
100
AcDbEntity
  8
Obrys
100
AcDbCircle
 10
1176.373223410623
 20
541.109453317623
 30
0.0
 40
2.450000041056452
100
AcDbArc
 50
111.9267813863817
 51
338.0732186136148
  0
ARC
  5
48F
330
1F
100
AcDbEntity
  8
Obrys
100
AcDbCircle
 10
1189.808251459276
 20
527.6744250792676
 30
0.0
 40
2.449999906916381
100
AcDbArc
 50
111.9267586660211
 51
338.073223359702
  0
ARC
  5
490
330
1F
100
AcDbEntity
  8
Obrys
100
AcDbCircle
 10
1219.373223410623
 20
541.109453317623
 30
0.0
 40
2.450000041056452
100
AcDbArc
 50
111.9267813863817
 51
338.0732186136148
  0
ARC
  5
491
330
1F
100
AcDbEntity
  8
Obrys
100
AcDbCircle
 10
1232.808251459276
 20
527.6744250792676
 30
0.0
 40
2.449999906916381
100
AcDbArc
 50
111.9267586660211
 51
338.073223359702
  0
ARC
  5
492
330
1F
100
AcDbEntity
  8
Obrys
100
AcDbCircle
 10
1262.373223410623
 20
541.109453317623
 30
0.0
 40
2.450000041056452
100
AcDbArc
 50
111.9267813863817
 51
338.0732186136148
  0
ARC
  5
493
330
1F
100
AcDbEntity
  8
Obrys
100
AcDbCircle
 10
1275.808251459276
 20
527.6744250792676
 30
0.0
 40
2.449999906916381
100
AcDbArc
 50
111.9267586660211
 51
338.073223359702
  0
LINE
  5
494
330
1F
100
AcDbEntity
  8
Obrys
100
AcDbLine
 10
872.620026881592
 20
513.0919387885918
 30
0.0
 11
874.4907378815919
 21
513.0919387885918
 31
0.0
  0
DIMENSION
  5
499
102
{ACAD_REACTORS
330
49B
102
}
102
{ACAD_XDICTIONARY
360
49A
102
}
330
1F
100
AcDbEntity
  8
Koty
100
AcDbDimension
280
     0
  2
*D2
 10
1337.990737881592
 20
491.801621513466
 30
0.0
 11
1096.990737881592
 21
496.404621513466
 31
0.0
 70
    32
 71
     5
 42
482.0000000000001
 73
     0
 74
     0
 75
     0
  3
Standard
100
AcDbAlignedDimension
 13
855.9907378815918
 23
517.7919387885918
 33
0.0
 14
1337.990737881592
 24
517.7919387885918
 34
0.0
100
AcDbRotatedDimension
1001
ACAD
1000
DSTYLE
1002
{
1070
   271
1070
     1
1070
   278
1070
    44
1070
   140
1040
6.0
1070
    73
1070
     0
1070
    77
1070
     1
1070
   147
1040
1.0
1070
    41
1040
6.0
1002
}
  0
DIMENSION
  5
4A9
102
{ACAD_XDICTIONARY
360
4AA
102
}
330
1F
100
AcDbEntity
  8
Koty
100
AcDbDimension
280
     0
  2
*D3
 10
1358.391855947523
 20
512.3919387885918
 30
0.0
 11
1353.788855947523
 21
534.3919387885918
 31
0.0
 70
    32
 71
     5
 42
44.0
 73
     0
 74
     0
 75
     0
  3
Standard
100
AcDbAlignedDimension
 13
1312.990737881592
 23
556.3919387885918
 33
0.0
 14
1312.990737881592
 24
512.3919387885918
 34
0.0
 50
90.0
100
AcDbRotatedDimension
1001
ACAD
1000
DSTYLE
1002
{
1070
   271
1070
     1
1070
   278
1070
    44
1070
   140
1040
6.0
1070
    73
1070
     0
1070
    77
1070
     1
1070
   147
1040
1.0
1070
    41
1040
6.0
1002
}
  0
DIMENSION
  5
4B9
102
{ACAD_REACTORS
330
4BB
102
}
102
{ACAD_XDICTIONARY
360
4BA
102
}
330
1F
100
AcDbEntity
  8
Koty
100
AcDbDimension
280
     0
  2
*D4
 10
1358.491855947523
 20
407.8969517885918
 30
0.0
 11
1353.888855947523
 21
429.8969517885918
 31
0.0
 70
    32
 71
     5
 42
44.0
 73
     0
 74
     0
 75
     0
  3
Standard
100
AcDbAlignedDimension
 13
1312.990737881592
 23
451.8969517885918
 33
0.0
 14
1337.990737881592
 24
407.8969517885918
 34
0.0
 50
90.0
100
AcDbRotatedDimension
1001
ACAD
1000
DSTYLE
1002
{
1070
   271
1070
     1
1070
   278
1070
    44
1070
   140
1040
6.0
1070
    73
1070
     0
1070
    77
1070
     1
1070
   147
1040
1.0
1070
    41
1040
6.0
1002
}
  0
DIMENSION
  5
4C9
102
{ACAD_REACTORS
330
4CB
102
}
102
{ACAD_XDICTIONARY
360
4CA
102
}
330
1F
100
AcDbEntity
  8
Koty
100
AcDbDimension
280
     0
  2
*D5
 10
1319.490737881592
 20
467.2685880025568
 30
0.0
 11
1096.990737881592
 21
471.8715880025568
 31
0.0
 70
    32
 71
     5
 42
445.0
 73
     0
 74
     0
 75
     0
  3
Standard
100
AcDbAlignedDimension
 13
874.4907378815919
 23
450.1969517885918
 33
0.0
 14
1319.490737881592
 24
450.1969517885918
 34
0.0
100
AcDbRotatedDimension
1001
ACAD
1000
DSTYLE
1002
{
1070
   271
1070
     1
1070
   278
1070
    44
1070
   140
1040
6.0
1070
    73
1070
     0
1070
    77
1070
     1
1070
   147
1040
1.0
1070
    41
1040
6.0
1002
}
  0
LINE
  5
54F
330
1F
100
AcDbEntity
  8
Obrys
  6
Continuous
100
AcDbLine
 10
880.9907378815919
 20
414.8969517885918
 30
0.0
 11
1312.990737881592
 21
414.8969517885918
 31
0.0
  0
LINE
  5
550
330
1F
100
AcDbEntity
  8
Obrys
  6
Continuous
100
AcDbLine
 10
880.9907378815919
 20
413.8969517885918
 30
0.0
 11
1312.990737881592
 21
413.8969517885918
 31
0.0
  0
VIEWPORT
  5
4F4
330
4F0
100
AcDbEntity
 67
     1
  8
0
100
AcDbViewport
 10
5.25
 20
3.5
 30
0.0
 40
12.6
 41
8.4
 68
     1
 69
     1
 12
5.25
 22
3.5
 13
0.0
 23
0.0
 14
0.5
 24
0.5
 15
0.0
 25
0.0
 16
0.0
 26
0.0
 36
1.0
 17
0.0
 27
0.0
 37
0.0
 42
50.0
 43
0.0
 44
0.0
 45
8.4
 50
0.0
 51
0.0
 72
   100
 90
   557152
  1

281
     0
 71
     1
 74
     0
110
0.0
120
0.0
130
0.0
111
1.0
121
0.0
131
0.0
112
0.0
122
1.0
132
0.0
 79
     0
146
0.0
170
     0
 61
     5
348
9F
292
     1
282
     1
141
0.0
142
0.0
 63
   256
361
4F6
  0
VIEWPORT
  5
4F5
330
4F0
100
AcDbEntity
 67
     1
  8
0
100
AcDbViewport
 10
5.25
 20
3.5
 30
0.0
 40
8.4
 41
5.600000000000001
 68
     2
 69
     2
 12
1074.341296914557
 22
481.9194452885933
 13
0.0
 23
0.0
 14
0.5
 24
0.5
 15
0.0
 25
0.0
 16
0.0
 26
0.0
 36
1.0
 17
0.0
 27
0.0
 37
0.0
 42
50.0
 43
0.0
 44
0.0
 45
387.8047602848329
 50
0.0
 51
0.0
 72
   100
 90
   557152
  1

281
     0
 71
     1
 74
     0
110
0.0
120
0.0
130
0.0
111
1.0
121
0.0
131
0.0
112
0.0
122
1.0
132
0.0
 79
     0
146
0.0
170
     0
 61
     5
348
9F
292
     1
282
     1
141
0.0
142
0.0
 63
   256
  0
ENDSEC
  0
SECTION
  2
OBJECTS
  0
DICTIONARY
  5
C
330
0
100
AcDbDictionary
281
     1
  3
ACAD_COLOR
350
73
  3
ACAD_DETAILVIEWSTYLE
350
122
  3
ACAD_GROUP
350
D
  3
ACAD_IMAGE_VARS
350
DC
  3
ACAD_LAYOUT
350
1A
  3
ACAD_MATERIAL
350
72
  3
ACAD_MLEADERSTYLE
350
B5
  3
ACAD_MLINESTYLE
350
17
  3
ACAD_PLOTSETTINGS
350
19
  3
ACAD_PLOTSTYLENAME
350
E
  3
ACAD_SCALELIST
350
B6
  3
ACAD_SECTIONVIEWSTYLE
350
123
  3
ACAD_TABLESTYLE
350
86
  3
ACAD_VISUALSTYLE
350
99
  3
ACDB_RECOMPOSE_DATA
350
563
  3
AcDbVariableDictionary
350
66
  3
APPDATA
350
E1
  0
SUN
  5
ED
330
94
100
AcDbSun
 90
        1
290
     0
 63
     7
421
 16777215
 40
1.0
291
     1
 91
  2455826
 92
 54000000
292
     0
 70
     2
 71
   256
280
     1
  0
DICTIONARY
  5
2ED
330
2
100
AcDbDictionary
280
     1
281
     1
  3
ACAD_LAYERSTATES
360
2EE
  3
ACLYDICTIONARY
360
497
  0
DICTIONARY
  5
49A
330
499
100
AcDbDictionary
280
     1
281
     1
  3
ACAD_DIMASSOC
360
49B
  0
DICTIONARY
  5
4AA
330
4A9
100
AcDbDictionary
280
     1
281
     1
  0
DICTIONARY
  5
4BA
330
4B9
100
AcDbDictionary
280
     1
281
     1
  3
ACAD_DIMASSOC
360
4BB
  0
DICTIONARY
  5
4CA
330
4C9
100
AcDbDictionary
280
     1
281
     1
  3
ACAD_DIMASSOC
360
4CB
  0
SUN
  5
4F6
330
4F4
100
AcDbSun
 90
        1
290
     0
 63
     7
421
 16777215
 40
1.0
291
     1
 91
  2455826
 92
 54000000
292
     0
 70
     2
 71
   256
280
     1
  0
DICTIONARY
  5
73
102
{ACAD_REACTORS
330
C
102
}
330
C
100
AcDbDictionary
281
     1
  0
DICTIONARY
  5
122
102
{ACAD_REACTORS
330
C
102
}
330
C
100
AcDbDictionary
281
     1
  0
DICTIONARY
  5
D
102
{ACAD_REACTORS
330
C
102
}
330
C
100
AcDbDictionary
281
     1
  0
RASTERVARIABLES
  5
DC
102
{ACAD_REACTORS
330
C
102
}
330
C
100
AcDbRasterVariables
 90
        0
 70
     1
 71
     1
 72
     5
  0
DICTIONARY
  5
1A
102
{ACAD_REACTORS
330
C
102
}
330
C
100
AcDbDictionary
281
     1
  3
Model
350
22
  3
Sheet1
350
4F1
  0
DICTIONARY
  5
72
102
{ACAD_REACTORS
330
C
102
}
330
C
100
AcDbDictionary
281
     1
  3
ByBlock
350
E2
  3
ByLayer
350
96
  3
Global
350
98
  0
DICTIONARY
  5
B5
102
{ACAD_REACTORS
330
C
102
}
330
C
100
AcDbDictionary
281
     1
  3
Standard
350
124
  0
DICTIONARY
  5
17
102
{ACAD_REACTORS
330
C
102
}
330
C
100
AcDbDictionary
281
     1
  3
Standard
350
18
  0
DICTIONARY
  5
19
102
{ACAD_REACTORS
330
C
102
}
330
C
100
AcDbDictionary
281
     1
  0
ACDBDICTIONARYWDFLT
  5
E
102
{ACAD_REACTORS
330
C
102
}
330
C
100
AcDbDictionary
281
     1
  3
Normal
350
F
100
AcDbDictionaryWithDefault
340
F
  0
DICTIONARY
  5
B6
102
{ACAD_REACTORS
330
C
102
}
330
C
100
AcDbDictionary
281
     1
  3
A0
350
B7
  3
A1
350
B8
  3
A2
350
B9
  3
A3
350
BA
  3
A4
350
BB
  3
A5
350
BC
  3
A6
350
BD
  3
A7
350
BE
  3
A8
350
BF
  3
A9
350
C0
  3
B0
350
C1
  3
B1
350
C2
  3
B2
350
C3
  3
B3
350
C4
  3
B4
350
C5
  3
B5
350
C6
  3
B6
350
C7
  3
B7
350
C8
  3
B8
350
C9
  3
B9
350
CA
  3
C0
350
CB
  3
C1
350
CC
  3
C2
350
CD
  3
C3
350
CE
  3
C4
350
CF
  3
C5
350
D0
  3
C6
350
D1
  3
C7
350
D2
  3
C8
350
D3
  3
C9
350
D4
  3
D0
350
D5
  3
D1
350
D6
  3
D2
350
D7
  0
DICTIONARY
  5
123
102
{ACAD_REACTORS
330
C
102
}
330
C
100
AcDbDictionary
281
     1
  0
DICTIONARY
  5
86
102
{ACAD_REACTORS
330
C
102
}
330
C
100
AcDbDictionary
281
     1
  3
Standard
350
87
  0
DICTIONARY
  5
99
102
{ACAD_REACTORS
330
C
102
}
330
C
100
AcDbDictionary
281
     1
  3
2dWireframe
350
9F
  3
3D Hidden
350
A1
  3
3dWireframe
350
A0
  3
Basic
350
9E
  3
Brighten
350
A5
  3
ColorChange
350
A9
  3
Conceptual
350
A2
  3
Dim
350
A4
  3
EdgeColorOff
350
E7
  3
Facepattern
350
A8
  3
Flat
350
9A
  3
FlatWithEdges
350
9B
  3
Gouraud
350
9C
  3
GouraudWithEdges
350
9D
  3
Hidden
350
E4
  3
JitterOff
350
E5
  3
Linepattern
350
A7
  3
OverhangOff
350
E6
  3
Realistic
350
A3
  3
Shaded
350
EC
  3
Shaded with edges
350
EB
  3
Shades of Gray
350
E8
  3
Sketchy
350
E9
  3
Thicken
350
A6
  3
Wireframe
350
E3
  3
X-Ray
350
EA
  0
XRECORD
  5
563
102
{ACAD_REACTORS
330
C
102
}
330
C
100
AcDbXrecord
280
     1
 90
        1
330
87
  0
DICTIONARY
  5
66
102
{ACAD_REACTORS
330
C
102
}
330
C
100
AcDbDictionary
281
     1
  3
CANNOSCALE
350
D8
  3
CMLEADERSTYLE
350
4D9
  3
CTABLESTYLE
350
89
  3
DIMASSOC
350
67
  3
HIDETEXT
350
6B
  3
LIGHTSINBLOCKS
350
DF
  3
XCLIPFRAME
350
E0
  0
DICTIONARY
  5
E1
102
{ACAD_REACTORS
330
C
102
}
330
C
100
AcDbDictionary
281
     1
  0
DICTIONARY
  5
2EE
102
{ACAD_REACTORS
330
2ED
102
}
330
2ED
100
AcDbDictionary
281
     1
  3
ARGON_LAYERP_1
350
496
  0
DICTIONARY
  5
497
102
{ACAD_REACTORS
330
2ED
102
}
330
2ED
100
AcDbDictionary
281
     1
1001
ACAD
1000
<All
  0
DIMASSOC
  5
49B
102
{ACAD_REACTORS
330
49A
102
}
330
49A
100
AcDbDimAssoc
330
499
 90
        2
 70
     0
 71
     1
  1
AcDbOsnapPointRef
 72
    13
331
408
 73
     0
 91
        0
 40
0.0
 10
0.0
 20
0.0
 30
0.0
 75
     0
  0
DIMASSOC
  5
4BB
102
{ACAD_REACTORS
330
4BA
102
}
330
4BA
100
AcDbDimAssoc
330
4B9
 90
        3
 70
     0
 71
     1
  1
AcDbOsnapPointRef
 72
     1
331
3E4
 73
     0
 91
        0
 40
0.0
 10
0.0
 20
0.0
 30
0.0
 75
     0
  1
AcDbOsnapPointRef
 72
     1
331
3EB
 73
     0
 91
        0
 40
0.0
 10
0.0
 20
0.0
 30
0.0
 75
     0
  0
DIMASSOC
  5
4CB
102
{ACAD_REACTORS
330
4CA
102
}
330
4CA
100
AcDbDimAssoc
330
4C9
 90
        3
 70
     0
 71
     1
  1
AcDbOsnapPointRef
 72
     1
331
3EA
 73
     0
 91
        0
 40
0.0
 10
0.0
 20
0.0
 30
0.0
 75
     0
  1
AcDbOsnapPointRef
 72
     1
331
3EC
 73
     0
 91
        0
 40
0.0
 10
0.0
 20
0.0
 30
0.0
 75
     0
  0
LAYOUT
  5
22
102
{ACAD_REACTORS
330
1A
102
}
330
1A
100
AcDbPlotSettings
  1

  2
none_device
  4
ANSI_A_(8.50_x_11.00_Inches)
  6

 40
6.35
 41
19.05
 42
6.35
 43
19.05
 44
215.9
 45
279.4
 46
11.11250000000003
 47
0.0000000000000142
 48
0.0
 49
0.0
140
0.0
141
0.0
142
1.0
143
1.263157894736842
 70
 11444
 72
     0
 73
     1
 74
     1
  7
monochrome.ctb
 75
     0
 76
     0
 77
     2
 78
   300
147
0.7916666666666665
148
-702.8076765758875
149
-496.2830551296954
100
AcDbLayout
  1
Model
 70
     1
 71
     0
 10
0.0
 20
0.0
 11
12.0
 21
9.0
 12
0.0
 22
0.0
 32
0.0
 14
789.190737881592
 24
407.4469517885948
 34
0.0
 15
1359.491855947523
 25
556.3919387885918
 35
0.0000000000003327
146
0.0
 13
0.0
 23
0.0
 33
0.0
 16
1.0
 26
0.0
 36
0.0
 17
0.0
 27
1.0
 37
0.0
 76
     0
330
1F
331
94
  0
LAYOUT
  5
4F1
102
{ACAD_REACTORS
330
1A
102
}
330
1A
100
AcDbPlotSettings
  1

  2
none_device
  4
ANSI_A_(11.00_x_8.50_Inches)
  6

 40
6.35
 41
19.05
 42
6.35
 43
19.05
 44
279.4
 45
215.9
 46
0.0
 47
0.0
 48
0.0
 49
0.0
140
0.0
141
0.0
142
1.0
143
1.0
 70
   688
 72
     0
 73
     0
 74
     5
  7

 75
    16
 76
     0
 77
     2
 78
   300
147
1.0
148
0.0
149
0.0
100
AcDbLayout
  1
Sheet1
 70
     1
 71
     1
 10
0.0
 20
0.0
 11
0.0
 21
0.0
 12
0.0
 22
0.0
 32
0.0
 14
1.05
 24
0.6999999999999997
 34
0.0
 15
9.45
 25
6.300000000000001
 35
0.0
146
0.0
 13
0.0
 23
0.0
 33
0.0
 16
1.0
 26
0.0
 36
0.0
 17
0.0
 27
1.0
 37
0.0
 76
     0
330
4F0
331
4F4
  0
MATERIAL
  5
E2
102
{ACAD_REACTORS
330
72
102
}
330
72
100
AcDbMaterial
  1
ByBlock
 72
     1
 94
      127
  0
MATERIAL
  5
96
102
{ACAD_REACTORS
330
72
102
}
330
72
100
AcDbMaterial
  1
ByLayer
 72
     1
 94
       63
  0
MATERIAL
  5
98
102
{ACAD_REACTORS
330
72
102
}
330
72
100
AcDbMaterial
  1
Global
 72
     1
 94
       63
  0
MLEADERSTYLE
  5
124
102
{ACAD_REACTORS
330
B5
102
}
330
B5
100
AcDbMLeaderStyle
179
     2
170
     2
171
     1
172
     0
 90
        2
 40
0.0
 41
0.0
173
     1
 91
-1056964608
340
14
 92
       -2
290
     1
 42
0.09
291
     1
 43
0.36
  3
Standard
341
0
 44
0.18
300

342
11
174
     1
178
     6
175
     1
176
     0
 93
-1056964608
 45
0.18
292
     0
297
     0
 46
0.18
343
0
 94
-1056964608
 47
1.0
 49
1.0
140
1.0
293
     1
141
0.0
294
     1
177
     0
142
1.0
295
     0
296
     0
143
0.125
271
     0
272
     9
273
     9
298
     0
  0
MLINESTYLE
  5
18
102
{ACAD_REACTORS
330
17
102
}
330
17
100
AcDbMlineStyle
  2
STANDARD
 70
     0
  3

 62
   256
 51
90.0
 52
90.0
 71
     2
 49
0.5
 62
   256
  6
BYLAYER
 49
-0.5
 62
   256
  6
BYLAYER
  0
ACDBPLACEHOLDER
  5
F
102
{ACAD_REACTORS
330
E
102
}
330
E
  0
SCALE
  5
B7
102
{ACAD_REACTORS
330
B6
102
}
330
B6
100
AcDbScale
 70
     0
300
1:1
140
1.0
141
1.0
290
     1
  0
SCALE
  5
B8
102
{ACAD_REACTORS
330
B6
102
}
330
B6
100
AcDbScale
 70
     0
300
1:2
140
1.0
141
2.0
290
     0
  0
SCALE
  5
B9
102
{ACAD_REACTORS
330
B6
102
}
330
B6
100
AcDbScale
 70
     0
300
1:4
140
1.0
141
4.0
290
     0
  0
SCALE
  5
BA
102
{ACAD_REACTORS
330
B6
102
}
330
B6
100
AcDbScale
 70
     0
300
1:5
140
1.0
141
5.0
290
     0
  0
SCALE
  5
BB
102
{ACAD_REACTORS
330
B6
102
}
330
B6
100
AcDbScale
 70
     0
300
1:8
140
1.0
141
8.0
290
     0
  0
SCALE
  5
BC
102
{ACAD_REACTORS
330
B6
102
}
330
B6
100
AcDbScale
 70
     0
300
1:10
140
1.0
141
10.0
290
     0
  0
SCALE
  5
BD
102
{ACAD_REACTORS
330
B6
102
}
330
B6
100
AcDbScale
 70
     0
300
1:16
140
1.0
141
16.0
290
     0
  0
SCALE
  5
BE
102
{ACAD_REACTORS
330
B6
102
}
330
B6
100
AcDbScale
 70
     0
300
1:20
140
1.0
141
20.0
290
     0
  0
SCALE
  5
BF
102
{ACAD_REACTORS
330
B6
102
}
330
B6
100
AcDbScale
 70
     0
300
1:30
140
1.0
141
30.0
290
     0
  0
SCALE
  5
C0
102
{ACAD_REACTORS
330
B6
102
}
330
B6
100
AcDbScale
 70
     0
300
1:40
140
1.0
141
40.0
290
     0
  0
SCALE
  5
C1
102
{ACAD_REACTORS
330
B6
102
}
330
B6
100
AcDbScale
 70
     0
300
1:50
140
1.0
141
50.0
290
     0
  0
SCALE
  5
C2
102
{ACAD_REACTORS
330
B6
102
}
330
B6
100
AcDbScale
 70
     0
300
1:100
140
1.0
141
100.0
290
     0
  0
SCALE
  5
C3
102
{ACAD_REACTORS
330
B6
102
}
330
B6
100
AcDbScale
 70
     0
300
2:1
140
2.0
141
1.0
290
     0
  0
SCALE
  5
C4
102
{ACAD_REACTORS
330
B6
102
}
330
B6
100
AcDbScale
 70
     0
300
4:1
140
4.0
141
1.0
290
     0
  0
SCALE
  5
C5
102
{ACAD_REACTORS
330
B6
102
}
330
B6
100
AcDbScale
 70
     0
300
8:1
140
8.0
141
1.0
290
     0
  0
SCALE
  5
C6
102
{ACAD_REACTORS
330
B6
102
}
330
B6
100
AcDbScale
 70
     0
300
10:1
140
10.0
141
1.0
290
     0
  0
SCALE
  5
C7
102
{ACAD_REACTORS
330
B6
102
}
330
B6
100
AcDbScale
 70
     0
300
100:1
140
100.0
141
1.0
290
     0
  0
SCALE
  5
C8
102
{ACAD_REACTORS
330
B6
102
}
330
B6
100
AcDbScale
 70
     0
300
1/128" = 1'-0"
140
0.0078125
141
12.0
290
     0
  0
SCALE
  5
C9
102
{ACAD_REACTORS
330
B6
102
}
330
B6
100
AcDbScale
 70
     0
300
1/64" = 1'-0"
140
0.015625
141
12.0
290
     0
  0
SCALE
  5
CA
102
{ACAD_REACTORS
330
B6
102
}
330
B6
100
AcDbScale
 70
     0
300
1/32" = 1'-0"
140
0.03125
141
12.0
290
     0
  0
SCALE
  5
CB
102
{ACAD_REACTORS
330
B6
102
}
330
B6
100
AcDbScale
 70
     0
300
1/16" = 1'-0"
140
0.0625
141
12.0
290
     0
  0
SCALE
  5
CC
102
{ACAD_REACTORS
330
B6
102
}
330
B6
100
AcDbScale
 70
     0
300
3/32" = 1'-0"
140
0.09375
141
12.0
290
     0
  0
SCALE
  5
CD
102
{ACAD_REACTORS
330
B6
102
}
330
B6
100
AcDbScale
 70
     0
300
1/8" = 1'-0"
140
0.125
141
12.0
290
     0
  0
SCALE
  5
CE
102
{ACAD_REACTORS
330
B6
102
}
330
B6
100
AcDbScale
 70
     0
300
3/16" = 1'-0"
140
0.1875
141
12.0
290
     0
  0
SCALE
  5
CF
102
{ACAD_REACTORS
330
B6
102
}
330
B6
100
AcDbScale
 70
     0
300
1/4" = 1'-0"
140
0.25
141
12.0
290
     0
  0
SCALE
  5
D0
102
{ACAD_REACTORS
330
B6
102
}
330
B6
100
AcDbScale
 70
     0
300
3/8" = 1'-0"
140
0.375
141
12.0
290
     0
  0
SCALE
  5
D1
102
{ACAD_REACTORS
330
B6
102
}
330
B6
100
AcDbScale
 70
     0
300
1/2" = 1'-0"
140
0.5
141
12.0
290
     0
  0
SCALE
  5
D2
102
{ACAD_REACTORS
330
B6
102
}
330
B6
100
AcDbScale
 70
     0
300
3/4" = 1'-0"
140
0.75
141
12.0
290
     0
  0
SCALE
  5
D3
102
{ACAD_REACTORS
330
B6
102
}
330
B6
100
AcDbScale
 70
     0
300
1" = 1'-0"
140
1.0
141
12.0
290
     0
  0
SCALE
  5
D4
102
{ACAD_REACTORS
330
B6
102
}
330
B6
100
AcDbScale
 70
     0
300
1-1/2" = 1'-0"
140
1.5
141
12.0
290
     0
  0
SCALE
  5
D5
102
{ACAD_REACTORS
330
B6
102
}
330
B6
100
AcDbScale
 70
     0
300
3" = 1'-0"
140
3.0
141
12.0
290
     0
  0
SCALE
  5
D6
102
{ACAD_REACTORS
330
B6
102
}
330
B6
100
AcDbScale
 70
     0
300
6" = 1'-0"
140
6.0
141
12.0
290
     0
  0
SCALE
  5
D7
102
{ACAD_REACTORS
330
B6
102
}
330
B6
100
AcDbScale
 70
     0
300
1'-0" = 1'-0"
140
12.0
141
12.0
290
     0
  0
TABLESTYLE
  5
87
102
{ACAD_REACTORS
330
86
102
}
102
{ACAD_XDICTIONARY
360
561
102
}
330
86
100
AcDbTableStyle
  3
Standard
 70
     0
 71
     0
 40
0.06
 41
0.06
280
     0
281
     0
  7
Standard
140
0.18
170
     2
 62
     0
 63
   257
283
     0
 90
      512
 91
        0
  1

274
    -2
284
     1
 64
     0
275
    -2
285
     1
 65
     0
276
    -2
286
     1
 66
     0
277
    -2
287
     1
 67
     0
278
    -2
288
     1
 68
     0
279
    -2
289
     1
 69
     0
  7
Standard
140
0.25
170
     5
 62
     0
 63
   257
283
     0
 90
      512
 91
        0
  1

274
    -2
284
     1
 64
     0
275
    -2
285
     1
 65
     0
276
    -2
286
     1
 66
     0
277
    -2
287
     1
 67
     0
278
    -2
288
     1
 68
     0
279
    -2
289
     1
 69
     0
  7
Standard
140
0.18
170
     5
 62
     0
 63
   257
283
     0
 90
      512
 91
        0
  1

274
    -2
284
     1
 64
     0
275
    -2
285
     1
 65
     0
276
    -2
286
     1
 66
     0
277
    -2
287
     1
 67
     0
278
    -2
288
     1
 68
     0
279
    -2
289
     1
 69
     0
  0
VISUALSTYLE
  5
9F
102
{ACAD_REACTORS
330
99
102
}
330
99
100
AcDbVisualStyle
  2
2dWireframe
 70
     4
177
     3
291
     0
 70
    58
 90
        0
176
     1
 90
        2
176
     1
 90
        1
176
     1
 90
        0
176
     1
 40
-0.6
176
     1
 40
-30.0
176
     1
 62
     7
420
 16777215
176
     1
 90
        1
176
     1
 90
        4
176
     1
 62
     7
176
     1
 62
   257
176
     1
 90
        1
176
     1
 90
        1
176
     1
 40
1.0
176
     1
 90
        0
176
     1
 62
   257
176
     1
 40
1.0
176
     1
 90
        1
176
     1
 90
        6
176
     1
 90
        2
176
     1
 62
     7
176
     1
 90
        5
176
     1
 90
        0
176
     1
 90
        0
176
     1
290
     0
176
     1
 90
        1
176
     1
 40
0.0
176
     1
 90
        0
176
     1
290
     1
176
     1
290
     1
176
     1
290
     0
176
     1
290
     0
176
     1
290
     0
176
     1
290
     0
176
     1
290
     0
176
     1
290
     0
176
     1
290
     0
176
     1
 90
       50
176
     1
 40
0.0
176
     1
 40
1.0
176
     1
 90
        0
176
     1
 62
    18
420
        0
176
     1
 90
       50
176
     1
 90
        3
176
     1
 62
     5
420
      255
176
     1
290
     0
176
     1
 90
       50
176
     1
 90
       50
176
     1
 90
       50
176
     1
290
     0
176
     1
 90
       50
176
     1
 62
   256
176
     0
 40
1.0
176
     0
 90
        2
176
     1
  1
strokes_ogs.tif
176
     1
290
     0
176
     1
 40
1.0
176
     1
 40
1.0
176
     1
  0
VISUALSTYLE
  5
A1
102
{ACAD_REACTORS
330
99
102
}
330
99
100
AcDbVisualStyle
  2
3D Hidden
 70
     6
177
     3
291
     0
 70
    58
 90
        1
176
     1
 90
        2
176
     1
 90
        2
176
     1
 90
        0
176
     1
 40
-0.6
176
     1
 40
-30.0
176
     1
 62
     7
420
 16777215
176
     1
 90
        2
176
     1
 90
        2
176
     1
 62
     7
176
     1
 62
   257
176
     1
 90
        2
176
     1
 90
        1
176
     1
 40
40.0
176
     1
 90
        0
176
     1
 62
   257
176
     1
 40
1.0
176
     1
 90
        1
176
     1
 90
        6
176
     1
 90
        2
176
     1
 62
     7
176
     1
 90
        3
176
     1
 90
        0
176
     1
 90
        0
176
     1
290
     0
176
     1
 90
        1
176
     1
 40
0.0
176
     1
 90
        0
176
     1
290
     0
176
     1
290
     1
176
     1
290
     1
176
     1
290
     0
176
     1
290
     0
176
     1
290
     0
176
     1
290
     0
176
     1
290
     0
176
     1
290
     0
176
     1
 90
       50
176
     1
 40
0.0
176
     1
 40
1.0
176
     1
 90
        0
176
     1
 62
    18
420
        0
176
     1
 90
       50
176
     1
 90
        3
176
     1
 62
     5
420
      255
176
     1
290
     0
176
     1
 90
       50
176
     1
 90
       50
176
     1
 90
       50
176
     1
290
     0
176
     1
 90
       50
176
     1
 62
   256
176
     0
 40
1.0
176
     0
 90
        2
176
     1
  1
strokes_ogs.tif
176
     1
290
     0
176
     1
 40
1.0
176
     1
 40
1.0
176
     1
  0
VISUALSTYLE
  5
A0
102
{ACAD_REACTORS
330
99
102
}
330
99
100
AcDbVisualStyle
  2
3dWireframe
 70
     5
177
     3
291
     0
 70
    58
 90
        0
176
     1
 90
        2
176
     1
 90
        1
176
     1
 90
        0
176
     1
 40
-0.6
176
     1
 40
-30.0
176
     1
 62
     7
420
 16777215
176
     1
 90
        1
176
     1
 90
        4
176
     1
 62
     7
176
     1
 62
   257
176
     1
 90
        1
176
     1
 90
        1
176
     1
 40
1.0
176
     1
 90
        0
176
     1
 62
   257
176
     1
 40
1.0
176
     1
 90
        1
176
     1
 90
        6
176
     1
 90
        2
176
     1
 62
     7
176
     1
 90
        5
176
     1
 90
        0
176
     1
 90
        0
176
     1
290
     0
176
     1
 90
        1
176
     1
 40
0.0
176
     1
 90
        0
176
     1
290
     0
176
     1
290
     1
176
     1
290
     1
176
     1
290
     0
176
     1
290
     0
176
     1
290
     0
176
     1
290
     0
176
     1
290
     0
176
     1
290
     0
176
     1
 90
       50
176
     1
 40
0.0
176
     1
 40
1.0
176
     1
 90
        0
176
     1
 62
    18
420
        0
176
     1
 90
       50
176
     1
 90
        3
176
     1
 62
     5
420
      255
176
     1
290
     0
176
     1
 90
       50
176
     1
 90
       50
176
     1
 90
       50
176
     1
290
     0
176
     1
 90
       50
176
     1
 62
   256
176
     0
 40
1.0
176
     0
 90
        2
176
     1
  1
strokes_ogs.tif
176
     1
290
     0
176
     1
 40
1.0
176
     1
 40
1.0
176
     1
  0
VISUALSTYLE
  5
9E
102
{ACAD_REACTORS
330
99
102
}
330
99
100
AcDbVisualStyle
  2
Basic
 70
     7
177
     3
291
     1
 70
    58
 90
        1
176
     1
 90
        0
176
     1
 90
        1
176
     1
 90
        0
176
     1
 40
-0.6
176
     1
 40
-30.0
176
     1
 62
     7
420
 16777215
176
     1
 90
        0
176
     1
 90
        4
176
     1
 62
     7
176
     1
 62
   257
176
     1
 90
        1
176
     1
 90
        1
176
     1
 40
1.0
176
     1
 90
        8
176
     1
 62
     7
176
     1
 40
1.0
176
     1
 90
        1
176
     1
 90
        6
176
     1
 90
        2
176
     1
 62
     7
176
     1
 90
        5
176
     1
 90
        0
176
     1
 90
        0
176
     1
290
     0
176
     1
 90
        1
176
     1
 40
0.0
176
     1
 90
        0
176
     1
290
     0
176
     1
290
     1
176
     1
290
     1
176
     1
290
     0
176
     1
290
     0
176
     1
290
     0
176
     1
290
     0
176
     1
290
     0
176
     1
290
     0
176
     1
 90
       50
176
     1
 40
0.0
176
     1
 40
1.0
176
     1
 90
        0
176
     1
 62
    18
420
        0
176
     1
 90
       50
176
     1
 90
        3
176
     1
 62
     5
420
      255
176
     1
290
     0
176
     1
 90
       50
176
     1
 90
       50
176
     1
 90
       50
176
     1
290
     0
176
     1
 90
       50
176
     1
 62
   256
176
     0
 40
1.0
176
     0
 90
        2
176
     1
  1
strokes_ogs.tif
176
     1
290
     0
176
     1
 40
1.0
176
     1
 40
1.0
176
     1
  0
VISUALSTYLE
  5
A5
102
{ACAD_REACTORS
330
99
102
}
330
99
100
AcDbVisualStyle
  2
Brighten
 70
    12
177
     3
291
     1
 70
    58
 90
        2
176
     1
 90
        2
176
     1
 90
        1
176
     1
 90
        0
176
     1
 40
-0.6
176
     1
 40
-30.0
176
     1
 62
     7
420
 16777215
176
     1
 90
        1
176
     1
 90
        4
176
     1
 62
     7
176
     1
 62
   257
176
     1
 90
        1
176
     1
 90
        1
176
     1
 40
1.0
176
     1
 90
        8
176
     1
 62
     7
176
     1
 40
1.0
176
     1
 90
        1
176
     1
 90
        6
176
     1
 90
        2
176
     1
 62
     7
176
     1
 90
        5
176
     1
 90
        0
176
     1
 90
        0
176
     1
290
     0
176
     1
 90
        1
176
     1
 40
50.0
176
     1
 90
        0
176
     1
290
     0
176
     1
290
     1
176
     1
290
     1
176
     1
290
     0
176
     1
290
     0
176
     1
290
     0
176
     1
290
     0
176
     1
290
     0
176
     1
290
     0
176
     1
 90
       50
176
     1
 40
0.0
176
     1
 40
1.0
176
     1
 90
        0
176
     1
 62
    18
420
        0
176
     1
 90
       50
176
     1
 90
        3
176
     1
 62
     5
420
      255
176
     1
290
     0
176
     1
 90
       50
176
     1
 90
       50
176
     1
 90
       50
176
     1
290
     0
176
     1
 90
       50
176
     1
 62
   256
176
     0
 40
1.0
176
     0
 90
        2
176
     1
  1
strokes_ogs.tif
176
     1
290
     0
176
     1
 40
1.0
176
     1
 40
1.0
176
     1
  0
VISUALSTYLE
  5
A9
102
{ACAD_REACTORS
330
99
102
}
330
99
100
AcDbVisualStyle
  2
ColorChange
 70
    16
177
     3
291
     1
 70
    58
 90
        2
176
     1
 90
        2
176
     1
 90
        3
176
     1
 90
        0
176
     1
 40
-0.6
176
     1
 40
-30.0
176
     1
 62
     8
420
  8421504
176
     1
 90
        1
176
     1
 90
        4
176
     1
 62
     7
176
     1
 62
   257
176
     1
 90
        1
176
     1
 90
        1
176
     1
 40
1.0
176
     1
 90
        8
176
     1
 62
     8
420
  8421504
176
     1
 40
1.0
176
     1
 90
        1
176
     1
 90
        6
176
     1
 90
        2
176
     1
 62
     7
176
     1
 90
        5
176
     1
 90
        0
176
     1
 90
        0
176
     1
290
     0
176
     1
 90
        1
176
     1
 40
0.0
176
     1
 90
        0
176
     1
290
     0
176
     1
290
     1
176
     1
290
     1
176
     1
290
     0
176
     1
290
     0
176
     1
290
     0
176
     1
290
     0
176
     1
290
     0
176
     1
290
     0
176
     1
 90
       50
176
     1
 40
0.0
176
     1
 40
1.0
176
     1
 90
        0
176
     1
 62
    18
420
        0
176
     1
 90
       50
176
     1
 90
        3
176
     1
 62
     5
420
      255
176
     1
290
     0
176
     1
 90
       50
176
     1
 90
       50
176
     1
 90
       50
176
     1
290
     0
176
     1
 90
       50
176
     1
 62
   256
176
     0
 40
1.0
176
     0
 90
        2
176
     1
  1
strokes_ogs.tif
176
     1
290
     0
176
     1
 40
1.0
176
     1
 40
1.0
176
     1
  0
VISUALSTYLE
  5
A2
102
{ACAD_REACTORS
330
99
102
}
330
99
100
AcDbVisualStyle
  2
Conceptual
 70
     9
177
     3
291
     0
 70
    58
 90
        3
176
     1
 90
        2
176
     1
 90
        1
176
     1
 90
        0
176
     1
 40
-0.6
176
     1
 40
-30.0
176
     1
 62
     7
420
 16777215
176
     1
 90
        2
176
     1
 90
        2
176
     1
 62
     7
176
     1
 62
   257
176
     1
 90
        1
176
     1
 90
        1
176
     1
 40
40.0
176
     1
 90
        8
176
     1
 62
     7
176
     1
 40
1.0
176
     1
 90
        1
176
     1
 90
        6
176
     1
 90
        2
176
     1
 62
     7
176
     1
 90
        3
176
     1
 90
        0
176
     1
 90
        0
176
     1
290
     0
176
     1
 90
        1
176
     1
 40
0.0
176
     1
 90
        0
176
     1
290
     0
176
     1
290
     1
176
     1
290
     1
176
     1
290
     0
176
     1
290
     0
176
     1
290
     0
176
     1
290
     0
176
     1
290
     0
176
     1
290
     0
176
     1
 90
       50
176
     1
 40
0.0
176
     1
 40
1.0
176
     1
 90
        0
176
     1
 62
    18
420
        0
176
     1
 90
       50
176
     1
 90
        3
176
     1
 62
     5
420
      255
176
     1
290
     0
176
     1
 90
       50
176
     1
 90
       50
176
     1
 90
       50
176
     1
290
     0
176
     1
 90
       50
176
     1
 62
   256
176
     0
 40
1.0
176
     0
 90
        2
176
     1
  1
strokes_ogs.tif
176
     1
290
     0
176
     1
 40
1.0
176
     1
 40
1.0
176
     1
  0
VISUALSTYLE
  5
A4
102
{ACAD_REACTORS
330
99
102
}
330
99
100
AcDbVisualStyle
  2
Dim
 70
    11
177
     3
291
     1
 70
    58
 90
        2
176
     1
 90
        2
176
     1
 90
        1
176
     1
 90
        0
176
     1
 40
-0.6
176
     1
 40
-30.0
176
     1
 62
     7
420
 16777215
176
     1
 90
        1
176
     1
 90
        4
176
     1
 62
     7
176
     1
 62
   257
176
     1
 90
        1
176
     1
 90
        1
176
     1
 40
1.0
176
     1
 90
        8
176
     1
 62
     7
176
     1
 40
1.0
176
     1
 90
        1
176
     1
 90
        6
176
     1
 90
        2
176
     1
 62
     7
176
     1
 90
        5
176
     1
 90
        0
176
     1
 90
        0
176
     1
290
     0
176
     1
 90
        1
176
     1
 40
-50.0
176
     1
 90
        0
176
     1
290
     0
176
     1
290
     1
176
     1
290
     1
176
     1
290
     0
176
     1
290
     0
176
     1
290
     0
176
     1
290
     0
176
     1
290
     0
176
     1
290
     0
176
     1
 90
       50
176
     1
 40
0.0
176
     1
 40
1.0
176
     1
 90
        0
176
     1
 62
    18
420
        0
176
     1
 90
       50
176
     1
 90
        3
176
     1
 62
     5
420
      255
176
     1
290
     0
176
     1
 90
       50
176
     1
 90
       50
176
     1
 90
       50
176
     1
290
     0
176
     1
 90
       50
176
     1
 62
   256
176
     0
 40
1.0
176
     0
 90
        2
176
     1
  1
strokes_ogs.tif
176
     1
290
     0
176
     1
 40
1.0
176
     1
 40
1.0
176
     1
  0
VISUALSTYLE
  5
E7
102
{ACAD_REACTORS
330
99
102
}
330
99
100
AcDbVisualStyle
  2
EdgeColorOff
 70
    22
177
     3
291
     1
 70
    58
 90
        2
176
     0
 90
        2
176
     0
 90
        0
176
     0
 90
        0
176
     0
 40
0.6
176
     0
 40
30.0
176
     0
 62
     7
420
 16777215
176
     0
 90
        1
176
     0
 90
        4
176
     0
 62
     7
176
     0
 62
   257
176
     0
 90
        1
176
     0
 90
        1
176
     0
 40
1.0
176
     0
 90
        8
176
     2
 62
     7
176
     0
 40
1.0
176
     0
 90
        1
176
     0
 90
        6
176
     0
 90
        2
176
     0
 62
     7
176
     0
 90
        5
176
     0
 90
        0
176
     0
 90
        0
176
     0
290
     0
176
     0
 90
        1
176
     0
 40
0.0
176
     0
 90
        0
176
     0
290
     0
176
     0
290
     1
176
     0
290
     1
176
     0
290
     0
176
     0
290
     0
176
     0
290
     0
176
     0
290
     0
176
     0
290
     0
176
     0
290
     0
176
     0
 90
       50
176
     0
 40
0.0
176
     0
 40
1.0
176
     0
 90
        0
176
     0
 62
    18
420
        0
176
     0
 90
       50
176
     0
 90
        3
176
     0
 62
     5
420
      255
176
     0
290
     0
176
     0
 90
       50
176
     0
 90
       50
176
     0
 90
       50
176
     0
290
     0
176
     0
 90
       50
176
     0
 62
   256
176
     0
 40
1.0
176
     0
 90
        2
176
     0
  1
strokes_ogs.tif
176
     0
290
     0
176
     0
 40
1.0
176
     0
 40
1.0
176
     0
  0
VISUALSTYLE
  5
A8
102
{ACAD_REACTORS
330
99
102
}
330
99
100
AcDbVisualStyle
  2
Facepattern
 70
    15
177
     3
291
     1
 70
    58
 90
        2
176
     1
 90
        2
176
     1
 90
        1
176
     1
 90
        0
176
     1
 40
-0.6
176
     1
 40
-30.0
176
     1
 62
     7
420
 16777215
176
     1
 90
        1
176
     1
 90
        4
176
     1
 62
     7
176
     1
 62
   257
176
     1
 90
        1
176
     1
 90
        1
176
     1
 40
1.0
176
     1
 90
        8
176
     1
 62
     7
176
     1
 40
1.0
176
     1
 90
        1
176
     1
 90
        6
176
     1
 90
        2
176
     1
 62
     7
176
     1
 90
        5
176
     1
 90
        0
176
     1
 90
        0
176
     1
290
     0
176
     1
 90
        1
176
     1
 40
0.0
176
     1
 90
        0
176
     1
290
     0
176
     1
290
     1
176
     1
290
     1
176
     1
290
     0
176
     1
290
     0
176
     1
290
     0
176
     1
290
     0
176
     1
290
     0
176
     1
290
     0
176
     1
 90
       50
176
     1
 40
0.0
176
     1
 40
1.0
176
     1
 90
        0
176
     1
 62
    18
420
        0
176
     1
 90
       50
176
     1
 90
        3
176
     1
 62
     5
420
      255
176
     1
290
     0
176
     1
 90
       50
176
     1
 90
       50
176
     1
 90
       50
176
     1
290
     0
176
     1
 90
       50
176
     1
 62
   256
176
     0
 40
1.0
176
     0
 90
        2
176
     1
  1
strokes_ogs.tif
176
     1
290
     0
176
     1
 40
1.0
176
     1
 40
1.0
176
     1
  0
VISUALSTYLE
  5
9A
102
{ACAD_REACTORS
330
99
102
}
330
99
100
AcDbVisualStyle
  2
Flat
 70
     0
177
     3
291
     1
 70
    58
 90
        2
176
     1
 90
        1
176
     1
 90
        1
176
     1
 90
        2
176
     1
 40
-0.6
176
     1
 40
30.0
176
     1
 62
     7
420
 16777215
176
     1
 90
        0
176
     1
 90
        4
176
     1
 62
     7
176
     1
 62
   257
176
     1
 90
        1
176
     1
 90
        1
176
     1
 40
1.0
176
     1
 90
        8
176
     1
 62
     7
176
     1
 40
1.0
176
     1
 90
        1
176
     1
 90
        6
176
     1
 90
        2
176
     1
 62
     7
176
     1
 90
        5
176
     1
 90
        0
176
     1
 90
        0
176
     1
290
     0
176
     1
 90
        1
176
     1
 40
0.0
176
     1
 90
        0
176
     1
290
     0
176
     1
290
     1
176
     1
290
     1
176
     1
290
     0
176
     1
290
     0
176
     1
290
     0
176
     1
290
     0
176
     1
290
     0
176
     1
290
     0
176
     1
 90
       50
176
     1
 40
0.0
176
     1
 40
1.0
176
     1
 90
        0
176
     1
 62
    18
420
        0
176
     1
 90
       50
176
     1
 90
        3
176
     1
 62
     5
420
      255
176
     1
290
     0
176
     1
 90
       50
176
     1
 90
       50
176
     1
 90
       50
176
     1
290
     0
176
     1
 90
       50
176
     1
 62
   256
176
     0
 40
1.0
176
     0
 90
        2
176
     1
  1
strokes_ogs.tif
176
     1
290
     0
176
     1
 40
1.0
176
     1
 40
1.0
176
     1
  0
VISUALSTYLE
  5
9B
102
{ACAD_REACTORS
330
99
102
}
330
99
100
AcDbVisualStyle
  2
FlatWithEdges
 70
     1
177
     3
291
     1
 70
    58
 90
        2
176
     1
 90
        1
176
     1
 90
        1
176
     1
 90
        2
176
     1
 40
-0.6
176
     1
 40
30.0
176
     1
 62
     7
420
 16777215
176
     1
 90
        1
176
     1
 90
        4
176
     1
 62
     7
176
     1
 62
   257
176
     1
 90
        1
176
     1
 90
        1
176
     1
 40
1.0
176
     1
 90
        0
176
     1
 62
   257
176
     1
 40
1.0
176
     1
 90
        1
176
     1
 90
        6
176
     1
 90
        2
176
     1
 62
     7
176
     1
 90
        5
176
     1
 90
        0
176
     1
 90
        0
176
     1
290
     0
176
     1
 90
        1
176
     1
 40
0.0
176
     1
 90
        0
176
     1
290
     0
176
     1
290
     1
176
     1
290
     1
176
     1
290
     0
176
     1
290
     0
176
     1
290
     0
176
     1
290
     0
176
     1
290
     0
176
     1
290
     0
176
     1
 90
       50
176
     1
 40
0.0
176
     1
 40
1.0
176
     1
 90
        0
176
     1
 62
    18
420
        0
176
     1
 90
       50
176
     1
 90
        3
176
     1
 62
     5
420
      255
176
     1
290
     0
176
     1
 90
       50
176
     1
 90
       50
176
     1
 90
       50
176
     1
290
     0
176
     1
 90
       50
176
     1
 62
   256
176
     0
 40
1.0
176
     0
 90
        2
176
     1
  1
strokes_ogs.tif
176
     1
290
     0
176
     1
 40
1.0
176
     1
 40
1.0
176
     1
  0
VISUALSTYLE
  5
9C
102
{ACAD_REACTORS
330
99
102
}
330
99
100
AcDbVisualStyle
  2
Gouraud
 70
     2
177
     3
291
     1
 70
    58
 90
        2
176
     1
 90
        2
176
     1
 90
        1
176
     1
 90
        2
176
     1
 40
-0.6
176
     1
 40
30.0
176
     1
 62
     7
420
 16777215
176
     1
 90
        0
176
     1
 90
        4
176
     1
 62
     7
176
     1
 62
   257
176
     1
 90
        1
176
     1
 90
        1
176
     1
 40
1.0
176
     1
 90
        0
176
     1
 62
     7
176
     1
 40
1.0
176
     1
 90
        1
176
     1
 90
        6
176
     1
 90
        2
176
     1
 62
     7
176
     1
 90
        5
176
     1
 90
        0
176
     1
 90
        0
176
     1
290
     0
176
     1
 90
        1
176
     1
 40
0.0
176
     1
 90
        0
176
     1
290
     0
176
     1
290
     1
176
     1
290
     1
176
     1
290
     0
176
     1
290
     0
176
     1
290
     0
176
     1
290
     0
176
     1
290
     0
176
     1
290
     0
176
     1
 90
       50
176
     1
 40
0.0
176
     1
 40
1.0
176
     1
 90
        0
176
     1
 62
    18
420
        0
176
     1
 90
       50
176
     1
 90
        3
176
     1
 62
     5
420
      255
176
     1
290
     0
176
     1
 90
       50
176
     1
 90
       50
176
     1
 90
       50
176
     1
290
     0
176
     1
 90
       50
176
     1
 62
   256
176
     0
 40
1.0
176
     0
 90
        2
176
     1
  1
strokes_ogs.tif
176
     1
290
     0
176
     1
 40
1.0
176
     1
 40
1.0
176
     1
  0
VISUALSTYLE
  5
9D
102
{ACAD_REACTORS
330
99
102
}
330
99
100
AcDbVisualStyle
  2
GouraudWithEdges
 70
     3
177
     3
291
     1
 70
    58
 90
        2
176
     1
 90
        2
176
     1
 90
        1
176
     1
 90
        2
176
     1
 40
-0.6
176
     1
 40
30.0
176
     1
 62
     7
420
 16777215
176
     1
 90
        1
176
     1
 90
        4
176
     1
 62
     7
176
     1
 62
   257
176
     1
 90
        1
176
     1
 90
        1
176
     1
 40
1.0
176
     1
 90
        0
176
     1
 62
   257
176
     1
 40
1.0
176
     1
 90
        1
176
     1
 90
        6
176
     1
 90
        2
176
     1
 62
     7
176
     1
 90
        5
176
     1
 90
        0
176
     1
 90
        0
176
     1
290
     0
176
     1
 90
        1
176
     1
 40
0.0
176
     1
 90
        0
176
     1
290
     0
176
     1
290
     1
176
     1
290
     1
176
     1
290
     0
176
     1
290
     0
176
     1
290
     0
176
     1
290
     0
176
     1
290
     0
176
     1
290
     0
176
     1
 90
       50
176
     1
 40
0.0
176
     1
 40
1.0
176
     1
 90
        0
176
     1
 62
    18
420
        0
176
     1
 90
       50
176
     1
 90
        3
176
     1
 62
     5
420
      255
176
     1
290
     0
176
     1
 90
       50
176
     1
 90
       50
176
     1
 90
       50
176
     1
290
     0
176
     1
 90
       50
176
     1
 62
   256
176
     0
 40
1.0
176
     0
 90
        2
176
     1
  1
strokes_ogs.tif
176
     1
290
     0
176
     1
 40
1.0
176
     1
 40
1.0
176
     1
  0
VISUALSTYLE
  5
E4
102
{ACAD_REACTORS
330
99
102
}
330
99
100
AcDbVisualStyle
  2
Hidden
 70
     6
177
     3
291
     0
 70
    58
 90
        1
176
     1
 90
        2
176
     1
 90
        2
176
     1
 90
        0
176
     1
 40
0.6
176
     1
 40
30.0
176
     1
 62
     7
420
 16777215
176
     1
 90
        2
176
     1
 90
        2
176
     1
 62
     7
176
     1
 62
   257
176
     1
 90
        2
176
     1
 90
        1
176
     1
 40
40.0
176
     1
 90
        0
176
     1
 62
   257
176
     1
 40
1.0
176
     1
 90
        1
176
     1
 90
        6
176
     1
 90
        2
176
     1
 62
     7
176
     1
 90
        3
176
     1
 90
        0
176
     1
 90
        0
176
     1
290
     0
176
     1
 90
        1
176
     1
 40
0.0
176
     1
 90
        0
176
     1
290
     0
176
     1
290
     1
176
     1
290
     1
176
     1
290
     0
176
     1
290
     0
176
     1
290
     0
176
     1
290
     0
176
     1
290
     0
176
     1
290
     0
176
     1
 90
       50
176
     1
 40
0.0
176
     1
 40
1.0
176
     1
 90
        0
176
     1
 62
    18
420
        0
176
     1
 90
       50
176
     1
 90
        3
176
     1
 62
     5
420
      255
176
     1
290
     0
176
     1
 90
       50
176
     1
 90
       50
176
     1
 90
       50
176
     1
290
     0
176
     1
 90
       50
176
     1
 62
   256
176
     0
 40
1.0
176
     0
 90
        2
176
     1
  1
strokes_ogs.tif
176
     1
290
     0
176
     1
 40
1.0
176
     1
 40
1.0
176
     1
  0
VISUALSTYLE
  5
E5
102
{ACAD_REACTORS
330
99
102
}
330
99
100
AcDbVisualStyle
  2
JitterOff
 70
    20
177
     3
291
     1
 70
    58
 90
        2
176
     0
 90
        2
176
     0
 90
        0
176
     0
 90
        0
176
     0
 40
0.6
176
     0
 40
30.0
176
     0
 62
     7
420
 16777215
176
     0
 90
        1
176
     0
 90
        4
176
     0
 62
     7
176
     0
 62
   257
176
     0
 90
        1
176
     0
 90
        1
176
     0
 40
1.0
176
     0
 90
       10
176
     2
 62
     7
176
     0
 40
1.0
176
     0
 90
        1
176
     0
 90
        6
176
     0
 90
        2
176
     0
 62
     7
176
     0
 90
        5
176
     0
 90
        0
176
     0
 90
        0
176
     0
290
     0
176
     0
 90
        1
176
     0
 40
0.0
176
     0
 90
        0
176
     0
290
     0
176
     0
290
     1
176
     0
290
     1
176
     0
290
     0
176
     0
290
     0
176
     0
290
     0
176
     0
290
     0
176
     0
290
     0
176
     0
290
     0
176
     0
 90
       50
176
     0
 40
0.0
176
     0
 40
1.0
176
     0
 90
        0
176
     0
 62
    18
420
        0
176
     0
 90
       50
176
     0
 90
        3
176
     0
 62
     5
420
      255
176
     0
290
     0
176
     0
 90
       50
176
     0
 90
       50
176
     0
 90
       50
176
     0
290
     0
176
     0
 90
       50
176
     0
 62
   256
176
     0
 40
1.0
176
     0
 90
        2
176
     0
  1
strokes_ogs.tif
176
     0
290
     0
176
     0
 40
1.0
176
     0
 40
1.0
176
     0
  0
VISUALSTYLE
  5
A7
102
{ACAD_REACTORS
330
99
102
}
330
99
100
AcDbVisualStyle
  2
Linepattern
 70
    14
177
     3
291
     1
 70
    58
 90
        2
176
     1
 90
        2
176
     1
 90
        1
176
     1
 90
        0
176
     1
 40
-0.6
176
     1
 40
-30.0
176
     1
 62
     7
420
 16777215
176
     1
 90
        1
176
     1
 90
        4
176
     1
 62
     7
176
     1
 62
   257
176
     1
 90
        7
176
     1
 90
        7
176
     1
 40
1.0
176
     1
 90
        8
176
     1
 62
     7
176
     1
 40
1.0
176
     1
 90
        1
176
     1
 90
        6
176
     1
 90
        2
176
     1
 62
     7
176
     1
 90
        5
176
     1
 90
        0
176
     1
 90
        0
176
     1
290
     0
176
     1
 90
        1
176
     1
 40
0.0
176
     1
 90
        0
176
     1
290
     0
176
     1
290
     1
176
     1
290
     1
176
     1
290
     0
176
     1
290
     0
176
     1
290
     0
176
     1
290
     0
176
     1
290
     0
176
     1
290
     0
176
     1
 90
       50
176
     1
 40
0.0
176
     1
 40
1.0
176
     1
 90
        0
176
     1
 62
    18
420
        0
176
     1
 90
       50
176
     1
 90
        3
176
     1
 62
     5
420
      255
176
     1
290
     0
176
     1
 90
       50
176
     1
 90
       50
176
     1
 90
       50
176
     1
290
     0
176
     1
 90
       50
176
     1
 62
   256
176
     0
 40
1.0
176
     0
 90
        2
176
     1
  1
strokes_ogs.tif
176
     1
290
     0
176
     1
 40
1.0
176
     1
 40
1.0
176
     1
  0
VISUALSTYLE
  5
E6
102
{ACAD_REACTORS
330
99
102
}
330
99
100
AcDbVisualStyle
  2
OverhangOff
 70
    21
177
     3
291
     1
 70
    58
 90
        2
176
     0
 90
        2
176
     0
 90
        0
176
     0
 90
        0
176
     0
 40
0.6
176
     0
 40
30.0
176
     0
 62
     7
420
 16777215
176
     0
 90
        1
176
     0
 90
        4
176
     0
 62
     7
176
     0
 62
   257
176
     0
 90
        1
176
     0
 90
        1
176
     0
 40
1.0
176
     0
 90
        9
176
     2
 62
     7
176
     0
 40
1.0
176
     0
 90
        1
176
     0
 90
        6
176
     0
 90
        2
176
     0
 62
     7
176
     0
 90
        5
176
     0
 90
        0
176
     0
 90
        0
176
     0
290
     0
176
     0
 90
        1
176
     0
 40
0.0
176
     0
 90
        0
176
     0
290
     0
176
     0
290
     1
176
     0
290
     1
176
     0
290
     0
176
     0
290
     0
176
     0
290
     0
176
     0
290
     0
176
     0
290
     0
176
     0
290
     0
176
     0
 90
       50
176
     0
 40
0.0
176
     0
 40
1.0
176
     0
 90
        0
176
     0
 62
    18
420
        0
176
     0
 90
       50
176
     0
 90
        3
176
     0
 62
     5
420
      255
176
     0
290
     0
176
     0
 90
       50
176
     0
 90
       50
176
     0
 90
       50
176
     0
290
     0
176
     0
 90
       50
176
     0
 62
   256
176
     0
 40
1.0
176
     0
 90
        2
176
     0
  1
strokes_ogs.tif
176
     0
290
     0
176
     0
 40
1.0
176
     0
 40
1.0
176
     0
  0
VISUALSTYLE
  5
A3
102
{ACAD_REACTORS
330
99
102
}
330
99
100
AcDbVisualStyle
  2
Realistic
 70
     8
177
     3
291
     0
 70
    58
 90
        2
176
     1
 90
        2
176
     1
 90
        1
176
     1
 90
        0
176
     1
 40
-0.6
176
     1
 40
-30.0
176
     1
 62
     7
420
 16777215
176
     1
 90
        1
176
     1
 90
        0
176
     1
 62
     7
176
     1
 62
   257
176
     1
 90
        1
176
     1
 90
        1
176
     1
 40
1.0
176
     1
 90
        8
176
     1
 62
     8
420
  7895160
176
     1
 40
1.0
176
     1
 90
        1
176
     1
 90
        6
176
     1
 90
        2
176
     1
 62
     7
176
     1
 90
        5
176
     1
 90
        0
176
     1
 90
        0
176
     1
290
     0
176
     1
 90
       13
176
     1
 40
0.0
176
     1
 90
        0
176
     1
290
     0
176
     1
290
     1
176
     1
290
     1
176
     1
290
     0
176
     1
290
     0
176
     1
290
     0
176
     1
290
     0
176
     1
290
     0
176
     1
290
     0
176
     1
 90
       50
176
     1
 40
0.0
176
     1
 40
1.0
176
     1
 90
        0
176
     1
 62
    18
420
        0
176
     1
 90
       50
176
     1
 90
        3
176
     1
 62
     5
420
      255
176
     1
290
     0
176
     1
 90
       50
176
     1
 90
       50
176
     1
 90
       50
176
     1
290
     0
176
     1
 90
       50
176
     1
 62
   256
176
     0
 40
1.0
176
     0
 90
        2
176
     1
  1
strokes_ogs.tif
176
     1
290
     0
176
     1
 40
1.0
176
     1
 40
1.0
176
     1
  0
VISUALSTYLE
  5
EC
102
{ACAD_REACTORS
330
99
102
}
330
99
100
AcDbVisualStyle
  2
Shaded
 70
    27
177
     3
291
     0
 70
    58
 90
        2
176
     1
 90
        2
176
     1
 90
        1
176
     1
 90
        2
176
     1
 40
0.6
176
     1
 40
30.0
176
     1
 62
     7
420
 16777215
176
     1
 90
        0
176
     1
 90
        4
176
     1
 62
     7
176
     1
 62
   257
176
     1
 90
        1
176
     1
 90
        1
176
     1
 40
1.0
176
     1
 90
        8
176
     1
 62
   257
176
     1
 40
1.0
176
     1
 90
        1
176
     1
 90
        6
176
     1
 90
        2
176
     1
 62
     8
420
  7895160
176
     1
 90
        3
176
     1
 90
        0
176
     1
 90
        0
176
     1
290
     0
176
     1
 90
        5
176
     1
 40
0.0
176
     1
 90
        0
176
     1
290
     0
176
     1
290
     1
176
     1
290
     1
176
     1
290
     0
176
     1
290
     0
176
     1
290
     0
176
     1
290
     0
176
     1
290
     0
176
     1
290
     0
176
     1
 90
       50
176
     1
 40
0.0
176
     1
 40
1.0
176
     1
 90
        0
176
     1
 62
    18
420
        0
176
     1
 90
       50
176
     1
 90
        3
176
     1
 62
     5
420
      255
176
     1
290
     0
176
     1
 90
       50
176
     1
 90
       50
176
     1
 90
       50
176
     1
290
     0
176
     1
 90
       50
176
     1
 62
   256
176
     0
 40
1.0
176
     0
 90
        2
176
     1
  1
strokes_ogs.tif
176
     1
290
     0
176
     1
 40
1.0
176
     1
 40
1.0
176
     1
  0
VISUALSTYLE
  5
EB
102
{ACAD_REACTORS
330
99
102
}
330
99
100
AcDbVisualStyle
  2
Shaded with edges
 70
    26
177
     3
291
     0
 70
    58
 90
        2
176
     1
 90
        2
176
     1
 90
        1
176
     1
 90
        2
176
     1
 40
0.6
176
     1
 40
30.0
176
     1
 62
     7
420
 16777215
176
     1
 90
        1
176
     1
 90
       10
176
     1
 62
     7
176
     1
 62
   257
176
     1
 90
        2
176
     1
 90
        1
176
     1
 40
1.0
176
     1
 90
        8
176
     1
 62
   257
176
     1
 40
1.0
176
     1
 90
        1
176
     1
 90
        6
176
     1
 90
        2
176
     1
 62
     7
176
     1
 90
        3
176
     1
 90
        0
176
     1
 90
        0
176
     1
290
     0
176
     1
 90
        5
176
     1
 40
0.0
176
     1
 90
        0
176
     1
290
     0
176
     1
290
     1
176
     1
290
     1
176
     1
290
     0
176
     1
290
     0
176
     1
290
     0
176
     1
290
     0
176
     1
290
     0
176
     1
290
     0
176
     1
 90
       50
176
     1
 40
0.0
176
     1
 40
1.0
176
     1
 90
        0
176
     1
 62
    18
420
        0
176
     1
 90
       50
176
     1
 90
        3
176
     1
 62
     5
420
      255
176
     1
290
     0
176
     1
 90
       50
176
     1
 90
       50
176
     1
 90
       50
176
     1
290
     0
176
     1
 90
       50
176
     1
 62
   256
176
     0
 40
1.0
176
     0
 90
        2
176
     1
  1
strokes_ogs.tif
176
     1
290
     0
176
     1
 40
1.0
176
     1
 40
1.0
176
     1
  0
VISUALSTYLE
  5
E8
102
{ACAD_REACTORS
330
99
102
}
330
99
100
AcDbVisualStyle
  2
Shades of Gray
 70
    23
177
     3
291
     0
 70
    58
 90
        2
176
     1
 90
        2
176
     1
 90
        3
176
     1
 90
        0
176
     1
 40
0.6
176
     1
 40
30.0
176
     1
 62
     7
420
 16777215
176
     1
 90
        2
176
     1
 90
        2
176
     1
 62
     7
176
     1
 62
     7
176
     1
 90
        1
176
     1
 90
        1
176
     1
 40
40.0
176
     1
 90
        8
176
     1
 62
     7
176
     1
 40
1.0
176
     1
 90
        1
176
     1
 90
        6
176
     1
 90
        2
176
     1
 62
     7
176
     1
 90
        3
176
     1
 90
        0
176
     1
 90
        0
176
     1
290
     0
176
     1
 90
        1
176
     1
 40
0.0
176
     1
 90
        0
176
     1
290
     0
176
     1
290
     1
176
     1
290
     1
176
     1
290
     0
176
     1
290
     0
176
     1
290
     0
176
     1
290
     0
176
     1
290
     0
176
     1
290
     0
176
     1
 90
       50
176
     1
 40
0.0
176
     1
 40
1.0
176
     1
 90
        0
176
     1
 62
    18
420
        0
176
     1
 90
       50
176
     1
 90
        3
176
     1
 62
     5
420
      255
176
     1
290
     0
176
     1
 90
       50
176
     1
 90
       50
176
     1
 90
       50
176
     1
290
     0
176
     1
 90
       50
176
     1
 62
   256
176
     0
 40
1.0
176
     0
 90
        2
176
     1
  1
strokes_ogs.tif
176
     1
290
     0
176
     1
 40
1.0
176
     1
 40
1.0
176
     1
  0
VISUALSTYLE
  5
E9
102
{ACAD_REACTORS
330
99
102
}
330
99
100
AcDbVisualStyle
  2
Sketchy
 70
    24
177
     3
291
     0
 70
    58
 90
        1
176
     1
 90
        2
176
     1
 90
        2
176
     1
 90
        0
176
     1
 40
0.6
176
     1
 40
30.0
176
     1
 62
     7
420
 16777215
176
     1
 90
        2
176
     1
 90
        2
176
     1
 62
     7
176
     1
 62
     7
176
     1
 90
        1
176
     1
 90
        1
176
     1
 40
40.0
176
     1
 90
       11
176
     1
 62
     7
176
     1
 40
1.0
176
     1
 90
        1
176
     1
 90
        6
176
     1
 90
        2
176
     1
 62
     7
176
     1
 90
        6
176
     1
 90
        0
176
     1
 90
        0
176
     1
290
     0
176
     1
 90
        1
176
     1
 40
0.0
176
     1
 90
        0
176
     1
290
     0
176
     1
290
     1
176
     1
290
     1
176
     1
290
     0
176
     1
290
     0
176
     1
290
     0
176
     1
290
     0
176
     1
290
     0
176
     1
290
     0
176
     1
 90
       50
176
     1
 40
0.0
176
     1
 40
1.0
176
     1
 90
        0
176
     1
 62
    18
420
        0
176
     1
 90
       50
176
     1
 90
        3
176
     1
 62
     5
420
      255
176
     1
290
     0
176
     1
 90
       50
176
     1
 90
       50
176
     1
 90
       50
176
     1
290
     0
176
     1
 90
       50
176
     1
 62
   256
176
     0
 40
1.0
176
     0
 90
        2
176
     1
  1
strokes_ogs.tif
176
     1
290
     0
176
     1
 40
1.0
176
     1
 40
1.0
176
     1
  0
VISUALSTYLE
  5
A6
102
{ACAD_REACTORS
330
99
102
}
330
99
100
AcDbVisualStyle
  2
Thicken
 70
    13
177
     3
291
     1
 70
    58
 90
        2
176
     1
 90
        2
176
     1
 90
        1
176
     1
 90
        0
176
     1
 40
-0.6
176
     1
 40
-30.0
176
     1
 62
     7
420
 16777215
176
     1
 90
        1
176
     1
 90
        4
176
     1
 62
     7
176
     1
 62
   257
176
     1
 90
        1
176
     1
 90
        1
176
     1
 40
1.0
176
     1
 90
       12
176
     1
 62
     7
176
     1
 40
1.0
176
     1
 90
        1
176
     1
 90
        6
176
     1
 90
        2
176
     1
 62
     7
176
     1
 90
        5
176
     1
 90
        0
176
     1
 90
        0
176
     1
290
     0
176
     1
 90
        1
176
     1
 40
0.0
176
     1
 90
        0
176
     1
290
     0
176
     1
290
     1
176
     1
290
     1
176
     1
290
     0
176
     1
290
     0
176
     1
290
     0
176
     1
290
     0
176
     1
290
     0
176
     1
290
     0
176
     1
 90
       50
176
     1
 40
0.0
176
     1
 40
1.0
176
     1
 90
        0
176
     1
 62
    18
420
        0
176
     1
 90
       50
176
     1
 90
        3
176
     1
 62
     5
420
      255
176
     1
290
     0
176
     1
 90
       50
176
     1
 90
       50
176
     1
 90
       50
176
     1
290
     0
176
     1
 90
       50
176
     1
 62
   256
176
     0
 40
1.0
176
     0
 90
        2
176
     1
  1
strokes_ogs.tif
176
     1
290
     0
176
     1
 40
1.0
176
     1
 40
1.0
176
     1
  0
VISUALSTYLE
  5
E3
102
{ACAD_REACTORS
330
99
102
}
330
99
100
AcDbVisualStyle
  2
Wireframe
 70
     5
177
     3
291
     0
 70
    58
 90
        0
176
     1
 90
        2
176
     1
 90
        0
176
     1
 90
        0
176
     1
 40
0.6
176
     1
 40
30.0
176
     1
 62
     7
420
 16777215
176
     1
 90
        1
176
     1
 90
        4
176
     1
 62
     7
176
     1
 62
   257
176
     1
 90
        1
176
     1
 90
        1
176
     1
 40
1.0
176
     1
 90
        0
176
     1
 62
   257
176
     1
 40
1.0
176
     1
 90
        1
176
     1
 90
        6
176
     1
 90
        2
176
     1
 62
     7
176
     1
 90
        3
176
     1
 90
        0
176
     1
 90
        0
176
     1
290
     0
176
     1
 90
        1
176
     1
 40
0.0
176
     1
 90
        0
176
     1
290
     0
176
     1
290
     1
176
     1
290
     1
176
     1
290
     0
176
     1
290
     0
176
     1
290
     0
176
     1
290
     0
176
     1
290
     0
176
     1
290
     0
176
     1
 90
       50
176
     1
 40
0.0
176
     1
 40
1.0
176
     1
 90
        0
176
     1
 62
    18
420
        0
176
     1
 90
       50
176
     1
 90
        3
176
     1
 62
     5
420
      255
176
     1
290
     0
176
     1
 90
       50
176
     1
 90
       50
176
     1
 90
       50
176
     1
290
     0
176
     1
 90
       50
176
     1
 62
   256
176
     0
 40
1.0
176
     0
 90
        2
176
     1
  1
strokes_ogs.tif
176
     1
290
     0
176
     1
 40
1.0
176
     1
 40
1.0
176
     1
  0
VISUALSTYLE
  5
EA
102
{ACAD_REACTORS
330
99
102
}
330
99
100
AcDbVisualStyle
  2
X-Ray
 70
    25
177
     3
291
     0
 70
    58
 90
        2
176
     1
 90
        2
176
     1
 90
        1
176
     1
 90
        1
176
     1
 40
0.5
176
     1
 40
30.0
176
     1
 62
     7
420
 16777215
176
     1
 90
        1
176
     1
 90
        0
176
     1
 62
     7
176
     1
 62
   257
176
     1
 90
        1
176
     1
 90
        1
176
     1
 40
1.0
176
     1
 90
        8
176
     1
 62
     7
176
     1
 40
1.0
176
     1
 90
        1
176
     1
 90
        6
176
     1
 90
        2
176
     1
 62
     7
176
     1
 90
        3
176
     1
 90
        0
176
     1
 90
        0
176
     1
290
     0
176
     1
 90
       13
176
     1
 40
0.0
176
     1
 90
        0
176
     1
290
     0
176
     1
290
     1
176
     1
290
     1
176
     1
290
     0
176
     1
290
     0
176
     1
290
     0
176
     1
290
     0
176
     1
290
     0
176
     1
290
     0
176
     1
 90
       50
176
     1
 40
0.0
176
     1
 40
1.0
176
     1
 90
        0
176
     1
 62
    18
420
        0
176
     1
 90
       50
176
     1
 90
        3
176
     1
 62
     5
420
      255
176
     1
290
     0
176
     1
 90
       50
176
     1
 90
       50
176
     1
 90
       50
176
     1
290
     0
176
     1
 90
       50
176
     1
 62
   256
176
     0
 40
1.0
176
     0
 90
        2
176
     1
  1
strokes_ogs.tif
176
     1
290
     0
176
     1
 40
1.0
176
     1
 40
1.0
176
     1
  0
DICTIONARYVAR
  5
D8
102
{ACAD_REACTORS
330
66
102
}
330
66
100
DictionaryVariables
280
     0
  1
1:1
  0
DICTIONARYVAR
  5
4D9
102
{ACAD_REACTORS
330
66
102
}
330
66
100
DictionaryVariables
280
     0
  1
Standard
  0
DICTIONARYVAR
  5
89
102
{ACAD_REACTORS
330
66
102
}
330
66
100
DictionaryVariables
280
     0
  1
Standard
  0
DICTIONARYVAR
  5
67
102
{ACAD_REACTORS
330
66
102
}
330
66
100
DictionaryVariables
280
     0
  1
2
  0
DICTIONARYVAR
  5
6B
102
{ACAD_REACTORS
330
66
102
}
330
66
100
DictionaryVariables
280
     0
  1
1
  0
DICTIONARYVAR
  5
DF
102
{ACAD_REACTORS
330
66
102
}
330
66
100
DictionaryVariables
280
     0
  1
0
  0
DICTIONARYVAR
  5
E0
102
{ACAD_REACTORS
330
66
102
}
330
66
100
DictionaryVariables
280
     0
  1
0
  0
XRECORD
  5
496
102
{ACAD_REACTORS
330
2EE
102
}
330
2EE
100
AcDbXrecord
280
     1
 91
     1023
301

290
     0
302
0
330
10
 90
        8
 62
     7
370
    -3
331
16
  1
Color_7
330
126
 90
        8
 62
     1
370
     5
331
16
  1
Color_1
330
129
 90
        8
 62
     5
370
    30
331
16
  1
Color_5
  0
DICTIONARY
  5
561
330
87
100
AcDbDictionary
280
     1
281
     1
  3
ACAD_ROUNDTRIP_2008_TABLESTYLE_CELLSTYLEMAP
360
562
  0
CELLSTYLEMAP
  5
562
102
{ACAD_REACTORS
330
561
102
}
330
561
100
AcDbCellStyleMap
 90
        3
300
CELLSTYLE
  1
TABLEFORMAT_BEGIN
 90
        5
170
     1
 91
        0
 92
    32768
 62
   257
 93
        1
300
CONTENTFORMAT
  1
CONTENTFORMAT_BEGIN
 90
        0
 91
        0
 92
      512
 93
        0
300

 40
0.0
140
1.0
 94
        5
 62
     0
340
11
144
0.25
309
CONTENTFORMAT_END
171
     0
 94
        6
 95
        1
302
GRIDFORMAT
  1
GRIDFORMAT_BEGIN
 90
        0
 91
        1
 62
     0
 92
       -2
340
0
 93
        0
 40
0.045
309
GRIDFORMAT_END
 95
        2
302
GRIDFORMAT
  1
GRIDFORMAT_BEGIN
 90
        0
 91
        1
 62
     0
 92
       -2
340
0
 93
        0
 40
0.045
309
GRIDFORMAT_END
 95
        4
302
GRIDFORMAT
  1
GRIDFORMAT_BEGIN
 90
        0
 91
        1
 62
     0
 92
       -2
340
0
 93
        0
 40
0.045
309
GRIDFORMAT_END
 95
        8
302
GRIDFORMAT
  1
GRIDFORMAT_BEGIN
 90
        0
 91
        1
 62
     0
 92
       -2
340
0
 93
        0
 40
0.045
309
GRIDFORMAT_END
 95
       16
302
GRIDFORMAT
  1
GRIDFORMAT_BEGIN
 90
        0
 91
        1
 62
     0
 92
       -2
340
0
 93
        0
 40
0.045
309
GRIDFORMAT_END
 95
       32
302
GRIDFORMAT
  1
GRIDFORMAT_BEGIN
 90
        0
 91
        1
 62
     0
 92
       -2
340
0
 93
        0
 40
0.045
309
GRIDFORMAT_END
309
TABLEFORMAT_END
  1
CELLSTYLE_BEGIN
 90
        1
 91
        1
300
_TITLE
309
CELLSTYLE_END
300
CELLSTYLE
  1
TABLEFORMAT_BEGIN
 90
        5
170
     1
 91
        0
 92
        0
 62
   257
 93
        1
300
CONTENTFORMAT
  1
CONTENTFORMAT_BEGIN
 90
        0
 91
        0
 92
      512
 93
        0
300

 40
0.0
140
1.0
 94
        5
 62
     0
340
11
144
0.18
309
CONTENTFORMAT_END
171
     0
 94
        6
 95
        1
302
GRIDFORMAT
  1
GRIDFORMAT_BEGIN
 90
        0
 91
        1
 62
     0
 92
       -2
340
0
 93
        0
 40
0.045
309
GRIDFORMAT_END
 95
        2
302
GRIDFORMAT
  1
GRIDFORMAT_BEGIN
 90
        0
 91
        1
 62
     0
 92
       -2
340
0
 93
        0
 40
0.045
309
GRIDFORMAT_END
 95
        4
302
GRIDFORMAT
  1
GRIDFORMAT_BEGIN
 90
        0
 91
        1
 62
     0
 92
       -2
340
0
 93
        0
 40
0.045
309
GRIDFORMAT_END
 95
        8
302
GRIDFORMAT
  1
GRIDFORMAT_BEGIN
 90
        0
 91
        1
 62
     0
 92
       -2
340
0
 93
        0
 40
0.045
309
GRIDFORMAT_END
 95
       16
302
GRIDFORMAT
  1
GRIDFORMAT_BEGIN
 90
        0
 91
        1
 62
     0
 92
       -2
340
0
 93
        0
 40
0.045
309
GRIDFORMAT_END
 95
       32
302
GRIDFORMAT
  1
GRIDFORMAT_BEGIN
 90
        0
 91
        1
 62
     0
 92
       -2
340
0
 93
        0
 40
0.045
309
GRIDFORMAT_END
309
TABLEFORMAT_END
  1
CELLSTYLE_BEGIN
 90
        2
 91
        1
300
_HEADER
309
CELLSTYLE_END
300
CELLSTYLE
  1
TABLEFORMAT_BEGIN
 90
        5
170
     1
 91
        0
 92
        0
 62
   257
 93
        1
300
CONTENTFORMAT
  1
CONTENTFORMAT_BEGIN
 90
        0
 91
        0
 92
      512
 93
        0
300

 40
0.0
140
1.0
 94
        2
 62
     0
340
11
144
0.18
309
CONTENTFORMAT_END
171
     0
 94
        6
 95
        1
302
GRIDFORMAT
  1
GRIDFORMAT_BEGIN
 90
        0
 91
        1
 62
     0
 92
       -2
340
0
 93
        0
 40
0.045
309
GRIDFORMAT_END
 95
        2
302
GRIDFORMAT
  1
GRIDFORMAT_BEGIN
 90
        0
 91
        1
 62
     0
 92
       -2
340
0
 93
        0
 40
0.045
309
GRIDFORMAT_END
 95
        4
302
GRIDFORMAT
  1
GRIDFORMAT_BEGIN
 90
        0
 91
        1
 62
     0
 92
       -2
340
0
 93
        0
 40
0.045
309
GRIDFORMAT_END
 95
        8
302
GRIDFORMAT
  1
GRIDFORMAT_BEGIN
 90
        0
 91
        1
 62
     0
 92
       -2
340
0
 93
        0
 40
0.045
309
GRIDFORMAT_END
 95
       16
302
GRIDFORMAT
  1
GRIDFORMAT_BEGIN
 90
        0
 91
        1
 62
     0
 92
       -2
340
0
 93
        0
 40
0.045
309
GRIDFORMAT_END
 95
       32
302
GRIDFORMAT
  1
GRIDFORMAT_BEGIN
 90
        0
 91
        1
 62
     0
 92
       -2
340
0
 93
        0
 40
0.045
309
GRIDFORMAT_END
309
TABLEFORMAT_END
  1
CELLSTYLE_BEGIN
 90
        3
 91
        2
300
_DATA
309
CELLSTYLE_END
  0
ENDSEC
  0
EOF
