  0
SECTION
  2
HEADER
  9
$ACADVER
  1
AC1027
  9
$ACADMAINTVER
 70
     8
  9
$DWGCODEPAGE
  3
ANSI_1250
  9
$REQUIREDVERSIONS
160
                 0
  9
$LASTSAVEDBY
  1
jaromir.podrabsky
  9
$INSBASE
 10
0.0
 20
0.0
 30
0.0
  9
$EXTMIN
 10
341.7444292988899
 20
207.9256120613036
 30
-0.0000000000000156
  9
$EXTMAX
 10
915.2920003265136
 20
355.9453800613036
 30
0.0000000000001805
  9
$LIMMIN
 10
0.0
 20
0.0
  9
$LIMMAX
 10
12.0
 20
9.0
  9
$ORTHOMODE
 70
     0
  9
$REGENMODE
 70
     1
  9
$FILLMODE
 70
     1
  9
$QTEXTMODE
 70
     0
  9
$MIRRTEXT
 70
     0
  9
$LTSCALE
 40
1.0
  9
$ATTMODE
 70
     1
  9
$TEXTSIZE
 40
0.2
  9
$TRACEWID
 40
0.05
  9
$TEXTSTYLE
  7
Standard
  9
$CLAYER
  8
0
  9
$CELTYPE
  6
ByLayer
  9
$CECOLOR
 62
   256
  9
$CELTSCALE
 40
1.0
  9
$DISPSILH
 70
     0
  9
$DIMSCALE
 40
1.0
  9
$DIMASZ
 40
0.18
  9
$DIMEXO
 40
0.0625
  9
$DIMDLI
 40
0.38
  9
$DIMRND
 40
0.0
  9
$DIMDLE
 40
0.0
  9
$DIMEXE
 40
0.18
  9
$DIMTP
 40
0.0
  9
$DIMTM
 40
0.0
  9
$DIMTXT
 40
0.18
  9
$DIMCEN
 40
0.09
  9
$DIMTSZ
 40
0.0
  9
$DIMTOL
 70
     0
  9
$DIMLIM
 70
     0
  9
$DIMTIH
 70
     1
  9
$DIMTOH
 70
     1
  9
$DIMSE1
 70
     0
  9
$DIMSE2
 70
     0
  9
$DIMTAD
 70
     0
  9
$DIMZIN
 70
     0
  9
$DIMBLK
  1

  9
$DIMASO
 70
     1
  9
$DIMSHO
 70
     1
  9
$DIMPOST
  1

  9
$DIMAPOST
  1

  9
$DIMALT
 70
     0
  9
$DIMALTD
 70
     2
  9
$DIMALTF
 40
25.4
  9
$DIMLFAC
 40
1.0
  9
$DIMTOFL
 70
     0
  9
$DIMTVP
 40
0.0
  9
$DIMTIX
 70
     0
  9
$DIMSOXD
 70
     0
  9
$DIMSAH
 70
     0
  9
$DIMBLK1
  1

  9
$DIMBLK2
  1

  9
$DIMSTYLE
  2
Standard
  9
$DIMCLRD
 70
     0
  9
$DIMCLRE
 70
     0
  9
$DIMCLRT
 70
     0
  9
$DIMTFAC
 40
1.0
  9
$DIMGAP
 40
0.09
  9
$DIMJUST
 70
     0
  9
$DIMSD1
 70
     0
  9
$DIMSD2
 70
     0
  9
$DIMTOLJ
 70
     1
  9
$DIMTZIN
 70
     0
  9
$DIMALTZ
 70
     0
  9
$DIMALTTZ
 70
     0
  9
$DIMUPT
 70
     0
  9
$DIMDEC
 70
     4
  9
$DIMTDEC
 70
     4
  9
$DIMALTU
 70
     2
  9
$DIMALTTD
 70
     2
  9
$DIMTXSTY
  7
Standard
  9
$DIMAUNIT
 70
     0
  9
$DIMADEC
 70
     0
  9
$DIMALTRND
 40
0.0
  9
$DIMAZIN
 70
     0
  9
$DIMDSEP
 70
    46
  9
$DIMATFIT
 70
     3
  9
$DIMFRAC
 70
     0
  9
$DIMLDRBLK
  1

  9
$DIMLUNIT
 70
     2
  9
$DIMLWD
 70
    -2
  9
$DIMLWE
 70
    -2
  9
$DIMTMOVE
 70
     0
  9
$DIMFXL
 40
1.0
  9
$DIMFXLON
 70
     0
  9
$DIMJOGANG
 40
0.7853981633974483
  9
$DIMTFILL
 70
     0
  9
$DIMTFILLCLR
 70
     0
  9
$DIMARCSYM
 70
     0
  9
$DIMLTYPE
  6

  9
$DIMLTEX1
  6

  9
$DIMLTEX2
  6

  9
$DIMTXTDIRECTION
 70
     0
  9
$LUNITS
 70
     2
  9
$LUPREC
 70
     4
  9
$SKETCHINC
 40
0.1
  9
$FILLETRAD
 40
0.0
  9
$AUNITS
 70
     0
  9
$AUPREC
 70
     0
  9
$MENU
  1
.
  9
$ELEVATION
 40
0.0
  9
$PELEVATION
 40
0.0
  9
$THICKNESS
 40
0.0
  9
$LIMCHECK
 70
     0
  9
$CHAMFERA
 40
0.0
  9
$CHAMFERB
 40
0.0
  9
$CHAMFERC
 40
0.0
  9
$CHAMFERD
 40
0.0
  9
$SKPOLY
 70
     0
  9
$TDCREATE
 40
2452643.105050937
  9
$TDUCREATE
 40
2452643.063384271
  9
$TDUPDATE
 40
2457420.434008379
  9
$TDUUPDATE
 40
2457420.392341713
  9
$TDINDWG
 40
0.0039179167
  9
$TDUSRTIMER
 40
2457420.392098322
  9
$USRTIMER
 70
     1
  9
$ANGBASE
 50
0.0
  9
$ANGDIR
 70
     0
  9
$PDMODE
 70
     0
  9
$PDSIZE
 40
0.0
  9
$PLINEWID
 40
0.0
  9
$SPLFRAME
 70
     0
  9
$SPLINETYPE
 70
     6
  9
$SPLINESEGS
 70
     8
  9
$HANDSEED
  5
506
  9
$SURFTAB1
 70
     6
  9
$SURFTAB2
 70
     6
  9
$SURFTYPE
 70
     6
  9
$SURFU
 70
     6
  9
$SURFV
 70
     6
  9
$UCSBASE
  2

  9
$UCSNAME
  2

  9
$UCSORG
 10
0.0
 20
0.0
 30
0.0
  9
$UCSXDIR
 10
1.0
 20
0.0
 30
0.0
  9
$UCSYDIR
 10
0.0
 20
1.0
 30
0.0
  9
$UCSORTHOREF
  2

  9
$UCSORTHOVIEW
 70
     0
  9
$UCSORGTOP
 10
0.0
 20
0.0
 30
0.0
  9
$UCSORGBOTTOM
 10
0.0
 20
0.0
 30
0.0
  9
$UCSORGLEFT
 10
0.0
 20
0.0
 30
0.0
  9
$UCSORGRIGHT
 10
0.0
 20
0.0
 30
0.0
  9
$UCSORGFRONT
 10
0.0
 20
0.0
 30
0.0
  9
$UCSORGBACK
 10
0.0
 20
0.0
 30
0.0
  9
$PUCSBASE
  2

  9
$PUCSNAME
  2

  9
$PUCSORG
 10
0.0
 20
0.0
 30
0.0
  9
$PUCSXDIR
 10
1.0
 20
0.0
 30
0.0
  9
$PUCSYDIR
 10
0.0
 20
1.0
 30
0.0
  9
$PUCSORTHOREF
  2

  9
$PUCSORTHOVIEW
 70
     0
  9
$PUCSORGTOP
 10
0.0
 20
0.0
 30
0.0
  9
$PUCSORGBOTTOM
 10
0.0
 20
0.0
 30
0.0
  9
$PUCSORGLEFT
 10
0.0
 20
0.0
 30
0.0
  9
$PUCSORGRIGHT
 10
0.0
 20
0.0
 30
0.0
  9
$PUCSORGFRONT
 10
0.0
 20
0.0
 30
0.0
  9
$PUCSORGBACK
 10
0.0
 20
0.0
 30
0.0
  9
$USERI1
 70
     0
  9
$USERI2
 70
     0
  9
$USERI3
 70
     0
  9
$USERI4
 70
     0
  9
$USERI5
 70
     0
  9
$USERR1
 40
0.0
  9
$USERR2
 40
0.0
  9
$USERR3
 40
0.0
  9
$USERR4
 40
0.0
  9
$USERR5
 40
0.0
  9
$WORLDVIEW
 70
     1
  9
$SHADEDGE
 70
     3
  9
$SHADEDIF
 70
    70
  9
$TILEMODE
 70
     0
  9
$MAXACTVP
 70
    64
  9
$PINSBASE
 10
0.0
 20
0.0
 30
0.0
  9
$PLIMCHECK
 70
     0
  9
$PEXTMIN
 10
1.05
 20
0.6999999999999997
 30
0.0
  9
$PEXTMAX
 10
9.45
 20
6.300000000000001
 30
0.0
  9
$PLIMMIN
 10
-0.25
 20
-0.7499999999999999
  9
$PLIMMAX
 10
10.75
 20
7.75
  9
$UNITMODE
 70
     0
  9
$VISRETAIN
 70
     1
  9
$PLINEGEN
 70
     0
  9
$PSLTSCALE
 70
     1
  9
$TREEDEPTH
 70
  3020
  9
$CMLSTYLE
  2
Standard
  9
$CMLJUST
 70
     0
  9
$CMLSCALE
 40
1.0
  9
$PROXYGRAPHICS
 70
     1
  9
$MEASUREMENT
 70
     0
  9
$CELWEIGHT
370
    -1
  9
$ENDCAPS
280
     0
  9
$JOINSTYLE
280
     0
  9
$LWDISPLAY
290
     0
  9
$INSUNITS
 70
     1
  9
$HYPERLINKBASE
  1

  9
$STYLESHEET
  1

  9
$XEDIT
290
     1
  9
$CEPSNTYPE
380
     0
  9
$PSTYLEMODE
290
     1
  9
$FINGERPRINTGUID
  2
{FDEAD576-A652-11D2-9A35-0060089B3A3F}
  9
$VERSIONGUID
  2
{FBC2AE19-5C5C-49EC-81BC-71B1A3362A02}
  9
$EXTNAMES
290
     1
  9
$PSVPSCALE
 40
0.0
  9
$OLESTARTUP
290
     0
  9
$SORTENTS
280
   127
  9
$INDEXCTL
280
     0
  9
$HIDETEXT
280
     1
  9
$XCLIPFRAME
280
     0
  9
$HALOGAP
280
     0
  9
$OBSCOLOR
 70
   257
  9
$OBSLTYPE
280
     0
  9
$INTERSECTIONDISPLAY
280
     0
  9
$INTERSECTIONCOLOR
 70
   257
  9
$DIMASSOC
280
     2
  9
$PROJECTNAME
  1

  9
$CAMERADISPLAY
290
     0
  9
$LENSLENGTH
 40
50.0
  9
$CAMERAHEIGHT
 40
0.0
  9
$STEPSPERSEC
 40
2.0
  9
$STEPSIZE
 40
6.0
  9
$3DDWFPREC
 40
2.0
  9
$PSOLWIDTH
 40
0.25
  9
$PSOLHEIGHT
 40
4.0
  9
$LOFTANG1
 40
1.570796326794897
  9
$LOFTANG2
 40
1.570796326794897
  9
$LOFTMAG1
 40
0.0
  9
$LOFTMAG2
 40
0.0
  9
$LOFTPARAM
 70
     7
  9
$LOFTNORMALS
280
     1
  9
$LATITUDE
 40
37.795
  9
$LONGITUDE
 40
-122.394
  9
$NORTHDIRECTION
 40
0.0
  9
$TIMEZONE
 70
 -8000
  9
$LIGHTGLYPHDISPLAY
280
     1
  9
$TILEMODELIGHTSYNCH
280
     1
  9
$CMATERIAL
347
96
  9
$SOLIDHIST
280
     1
  9
$SHOWHIST
280
     1
  9
$DWFFRAME
280
     2
  9
$DGNFRAME
280
     0
  9
$REALWORLDSCALE
290
     1
  9
$INTERFERECOLOR
 62
     1
  9
$CSHADOW
280
     0
  9
$SHADOWPLANELOCATION
 40
0.0
  0
ENDSEC
  0
SECTION
  2
CLASSES
  0
CLASS
  1
ACDBDICTIONARYWDFLT
  2
AcDbDictionaryWithDefault
  3
ObjectDBX Classes
 90
        0
 91
        4
280
     0
281
     0
  0
CLASS
  1
ACDBPLACEHOLDER
  2
AcDbPlaceHolder
  3
ObjectDBX Classes
 90
        0
 91
        1
280
     0
281
     0
  0
CLASS
  1
LAYOUT
  2
AcDbLayout
  3
ObjectDBX Classes
 90
        0
 91
        1
280
     0
281
     0
  0
CLASS
  1
DICTIONARYVAR
  2
AcDbDictionaryVar
  3
ObjectDBX Classes
 90
        0
 91
        4
280
     0
281
     0
  0
CLASS
  1
TABLESTYLE
  2
AcDbTableStyle
  3
ObjectDBX Classes
 90
     4095
 91
        4
280
     0
281
     0
  0
CLASS
  1
MATERIAL
  2
AcDbMaterial
  3
ObjectDBX Classes
 90
     1153
 91
        4
280
     0
281
     0
  0
CLASS
  1
VISUALSTYLE
  2
AcDbVisualStyle
  3
ObjectDBX Classes
 90
     4095
 91
        4
280
     0
281
     0
  0
CLASS
  1
SCALE
  2
AcDbScale
  3
ObjectDBX Classes
 90
     1153
 91
        4
280
     0
281
     0
  0
CLASS
  1
CELLSTYLEMAP
  2
AcDbCellStyleMap
  3
ObjectDBX Classes
 90
     1152
 91
        4
280
     0
281
     0
  0
CLASS
  1
RASTERVARIABLES
  2
AcDbRasterVariables
  3
ISM
 90
        0
 91
        4
280
     0
281
     0
  0
CLASS
  1
SUN
  2
AcDbSun
  3
SCENEOE
 90
     1153
 91
        4
280
     0
281
     0
  0
CLASS
  1
MLEADERSTYLE
  2
AcDbMLeaderStyle
  3
ACDB_MLEADERSTYLE_CLASS
 90
     4095
 91
        4
280
     0
281
     0
  0
CLASS
  1
DIMASSOC
  2
AcDbDimAssoc
  3
"AcDbDimAssoc|Product Desc:     AcDim ARX App For Dimension|Company:          Autodesk, Inc.|WEB Address:      www.autodesk.com"
 90
        0
 91
        4
280
     0
281
     0
  0
ENDSEC
  0
SECTION
  2
TABLES
  0
TABLE
  2
VPORT
  5
8
330
0
100
AcDbSymbolTable
 70
     1
  0
VPORT
  5
94
330
8
100
AcDbSymbolTableRecord
100
AcDbViewportTableRecord
  2
*Active
 70
     0
 10
0.0
 20
0.0
 11
1.0
 21
1.0
 12
663.1194688172052
 22
320.3886124613723
 13
0.0
 23
0.0
 14
0.5
 24
0.5
 15
0.5
 25
0.5
 16
0.0
 26
0.0
 36
1.0
 17
-27.66959356597977
 27
-19.53870295786203
 37
0.0
 40
312.8012135026165
 41
1.944153577661431
 42
50.0
 43
0.0
 44
0.0
 50
0.0
 51
0.0
 71
    16
 72
  1000
 73
     1
 74
     3
 75
     0
 76
     0
 77
     0
 78
     0
281
     0
 65
     1
110
0.0
120
0.0
130
0.0
111
1.0
121
0.0
131
0.0
112
0.0
122
1.0
132
0.0
 79
     0
146
0.0
348
9F
 60
     2
 61
     5
292
     1
282
     1
141
0.0
142
0.0
 63
   250
421
  3355443
361
ED
  0
ENDTAB
  0
TABLE
  2
LTYPE
  5
5
330
0
100
AcDbSymbolTable
 70
     2
  0
LTYPE
  5
14
330
5
100
AcDbSymbolTableRecord
100
AcDbLinetypeTableRecord
  2
ByBlock
 70
     0
  3

 72
    65
 73
     0
 40
0.0
  0
LTYPE
  5
15
330
5
100
AcDbSymbolTableRecord
100
AcDbLinetypeTableRecord
  2
ByLayer
 70
     0
  3

 72
    65
 73
     0
 40
0.0
  0
LTYPE
  5
16
330
5
100
AcDbSymbolTableRecord
100
AcDbLinetypeTableRecord
  2
Continuous
 70
     0
  3
Solid line
 72
    65
 73
     0
 40
0.0
  0
LTYPE
  5
129
330
5
100
AcDbSymbolTableRecord
100
AcDbLinetypeTableRecord
  2
DASHED
 70
     0
  3
__ __ __ __ __ __ __ __ __
 72
    65
 73
     2
 40
25.72
 49
12.86
 74
     4
 75
     0
340
0
 46
0.0
 50
0.0
 44
0.0
 45
0.0
 49
-12.86
 74
     4
 75
     0
340
0
 46
0.0
 50
0.0
 44
0.0
 45
0.0
  0
ENDTAB
  0
TABLE
  2
LAYER
  5
2
102
{ACAD_XDICTIONARY
360
2F4
102
}
330
0
100
AcDbSymbolTable
 70
     4
  0
LAYER
  5
10
330
2
100
AcDbSymbolTableRecord
100
AcDbLayerTableRecord
  2
0
 70
     0
 62
     7
  6
Continuous
370
    -3
390
F
347
98
348
0
  0
LAYER
  5
126
330
2
100
AcDbSymbolTableRecord
100
AcDbLayerTableRecord
  2
Obrys
 70
     0
 62
     5
  6
Continuous
370
    30
390
F
347
98
348
0
1001
AcAecLayerStandard
1000

1000

  0
LAYER
  5
4A6
330
2
100
AcDbSymbolTableRecord
100
AcDbLayerTableRecord
  2
Koty
 70
     0
 62
     1
  6
Continuous
370
     5
390
F
347
98
348
0
1001
AcAecLayerStandard
1000

1000

  0
LAYER
  5
4AB
330
2
100
AcDbSymbolTableRecord
100
AcDbLayerTableRecord
  2
Defpoints
 70
     0
 62
     7
  6
Continuous
290
     0
370
    -3
390
F
347
98
348
0
  0
ENDTAB
  0
TABLE
  2
STYLE
  5
3
330
0
100
AcDbSymbolTable
 70
     1
  0
STYLE
  5
11
330
3
100
AcDbSymbolTableRecord
100
AcDbTextStyleTableRecord
  2
Standard
 70
     0
 40
0.0
 41
1.0
 50
0.0
 71
     0
 42
0.2
  3
arial.ttf
  4

1001
ACAD
1000
Arial
1071
        0
  0
ENDTAB
  0
TABLE
  2
VIEW
  5
6
330
0
100
AcDbSymbolTable
 70
     0
  0
ENDTAB
  0
TABLE
  2
UCS
  5
7
330
0
100
AcDbSymbolTable
 70
     0
  0
ENDTAB
  0
TABLE
  2
APPID
  5
9
330
0
100
AcDbSymbolTable
 70
     2
  0
APPID
  5
12
330
9
100
AcDbSymbolTableRecord
100
AcDbRegAppTableRecord
  2
ACAD
 70
     0
  0
APPID
  5
128
330
9
100
AcDbSymbolTableRecord
100
AcDbRegAppTableRecord
  2
AcAecLayerStandard
 70
     0
  0
ENDTAB
  0
TABLE
  2
DIMSTYLE
  5
A
330
0
100
AcDbSymbolTable
 70
     1
100
AcDbDimStyleTable
  0
DIMSTYLE
105
27
102
{ACAD_REACTORS
330
4AC
330
4BC
330
4CC
330
4DC
102
}
330
A
100
AcDbSymbolTableRecord
100
AcDbDimStyleTableRecord
  2
Standard
 70
     0
178
     0
340
11
  0
ENDTAB
  0
TABLE
  2
BLOCK_RECORD
  5
1
330
0
100
AcDbSymbolTable
 70
     6
  0
BLOCK_RECORD
  5
1F
330
1
100
AcDbSymbolTableRecord
100
AcDbBlockTableRecord
  2
*Model_Space
340
22
 70
     0
280
     1
281
     0
  0
BLOCK_RECORD
  5
58
330
1
100
AcDbSymbolTableRecord
100
AcDbBlockTableRecord
  2
*Paper_Space
340
59
 70
     0
280
     1
281
     0
  0
BLOCK_RECORD
  5
4AF
330
1
100
AcDbSymbolTableRecord
100
AcDbBlockTableRecord
  2
*D2
340
0
 70
     0
280
     1
281
     0
  0
BLOCK_RECORD
  5
4BF
330
1
100
AcDbSymbolTableRecord
100
AcDbBlockTableRecord
  2
*D3
340
0
 70
     0
280
     1
281
     0
  0
BLOCK_RECORD
  5
4CF
330
1
100
AcDbSymbolTableRecord
100
AcDbBlockTableRecord
  2
*D4
340
0
 70
     0
280
     1
281
     0
  0
BLOCK_RECORD
  5
4DF
330
1
100
AcDbSymbolTableRecord
100
AcDbBlockTableRecord
  2
*D5
340
0
 70
     0
280
     1
281
     0
  0
ENDTAB
  0
ENDSEC
  0
SECTION
  2
BLOCKS
  0
BLOCK
  5
20
330
1F
100
AcDbEntity
  8
0
100
AcDbBlockBegin
  2
*Model_Space
 70
     0
 10
0.0
 20
0.0
 30
0.0
  3
*Model_Space
  1
*Model_Space
  0
ENDBLK
  5
21
330
1F
100
AcDbEntity
  8
0
100
AcDbBlockEnd
  0
BLOCK
  5
5A
330
58
100
AcDbEntity
 67
     1
  8
0
100
AcDbBlockBegin
  2
*Paper_Space
 70
     0
 10
0.0
 20
0.0
 30
0.0
  3
*Paper_Space
  1
*Paper_Space
  0
ENDBLK
  5
5B
330
58
100
AcDbEntity
 67
     1
  8
0
100
AcDbBlockEnd
  0
BLOCK
  5
4B0
330
4AF
100
AcDbEntity
  8
0
100
AcDbBlockBegin
  2
*D2
 70
     1
 10
0.0
 20
0.0
 30
0.0
  3
*D2
  1
*D2
  0
LINE
  5
4B2
330
4AF
100
AcDbEntity
  8
Koty
 62
     0
370
    -2
100
AcDbLine
 10
408.5444292988899
 20
317.2828800613036
 30
0.0
 11
408.5444292988899
 21
289.9708909286483
 31
0.0
  0
LINE
  5
4B3
330
4AF
100
AcDbEntity
  8
Koty
 62
     0
370
    -2
100
AcDbLine
 10
890.5444292988898
 20
317.2828800613036
 30
0.0
 11
890.5444292988898
 21
289.9708909286483
 31
0.0
  0
LINE
  5
4B4
330
4AF
100
AcDbEntity
  8
Koty
 62
     0
370
    -2
100
AcDbLine
 10
414.5444292988899
 20
290.1508909286483
 30
0.0
 11
884.5444292988898
 21
290.1508909286483
 31
0.0
  0
SOLID
  5
4B5
330
4AF
100
AcDbEntity
  8
Koty
 62
     0
100
AcDbTrace
 10
414.5444292988899
 20
291.1508909286483
 30
0.0
 11
414.5444292988899
 21
289.1508909286483
 31
0.0
 12
408.5444292988899
 22
290.1508909286483
 32
0.0
 13
408.5444292988899
 23
290.1508909286483
 33
0.0
  0
SOLID
  5
4B6
330
4AF
100
AcDbEntity
  8
Koty
 62
     0
100
AcDbTrace
 10
884.5444292988898
 20
289.1508909286483
 30
0.0
 11
884.5444292988898
 21
291.1508909286483
 31
0.0
 12
890.5444292988898
 22
290.1508909286483
 32
0.0
 13
890.5444292988898
 23
290.1508909286483
 33
0.0
  0
MTEXT
  5
4B7
330
4AF
100
AcDbEntity
  8
Koty
 62
     0
100
AcDbMText
 10
649.5444292988898
 20
294.7538909286483
 30
0.0
 40
6.0
 41
0.0
 46
0.0
 71
     5
 72
     1
  1
\A1;482,0
 73
     1
 44
1.0
  0
POINT
  5
4B8
330
4AF
100
AcDbEntity
  8
Defpoints
 62
     0
100
AcDbPoint
 10
408.5444292988899
 20
317.3453800613036
 30
0.0
  0
POINT
  5
4B9
330
4AF
100
AcDbEntity
  8
Defpoints
 62
     0
100
AcDbPoint
 10
890.5444292988898
 20
317.3453800613036
 30
0.0
  0
POINT
  5
4BA
330
4AF
100
AcDbEntity
  8
Defpoints
 62
     0
100
AcDbPoint
 10
890.5444292988898
 20
290.1508909286483
 30
0.0
  0
ENDBLK
  5
4B1
330
4AF
100
AcDbEntity
  8
0
100
AcDbBlockEnd
  0
BLOCK
  5
4C0
330
4BF
100
AcDbEntity
  8
0
100
AcDbBlockBegin
  2
*D3
 70
     1
 10
0.0
 20
0.0
 30
0.0
  3
*D3
  1
*D3
  0
LINE
  5
4C2
330
4BF
100
AcDbEntity
  8
Koty
 62
     0
370
    -2
100
AcDbLine
 10
865.6069292988898
 20
355.9453800613036
 30
0.0
 11
914.4720003265136
 21
355.9453800613036
 31
0.0
  0
LINE
  5
4C3
330
4BF
100
AcDbEntity
  8
Koty
 62
     0
370
    -2
100
AcDbLine
 10
865.6069292988898
 20
311.9453800613036
 30
0.0
 11
914.4720003265136
 21
311.9453800613036
 31
0.0
  0
LINE
  5
4C4
330
4BF
100
AcDbEntity
  8
Koty
 62
     0
370
    -2
100
AcDbLine
 10
914.2920003265136
 20
349.9453800613036
 30
0.0
 11
914.2920003265136
 21
317.9453800613036
 31
0.0
  0
SOLID
  5
4C5
330
4BF
100
AcDbEntity
  8
Koty
 62
     0
100
AcDbTrace
 10
915.2920003265136
 20
349.9453800613036
 30
0.0
 11
913.2920003265136
 21
349.9453800613036
 31
0.0
 12
914.2920003265136
 22
355.9453800613036
 32
0.0
 13
914.2920003265136
 23
355.9453800613036
 33
0.0
  0
SOLID
  5
4C6
330
4BF
100
AcDbEntity
  8
Koty
 62
     0
100
AcDbTrace
 10
913.2920003265136
 20
317.9453800613036
 30
0.0
 11
915.2920003265136
 21
317.9453800613036
 31
0.0
 12
914.2920003265136
 22
311.9453800613036
 32
0.0
 13
914.2920003265136
 23
311.9453800613036
 33
0.0
  0
MTEXT
  5
4C7
330
4BF
100
AcDbEntity
  8
Koty
 62
     0
100
AcDbMText
 10
909.6890003265137
 20
333.9453800613036
 30
0.0
 40
6.0
 41
0.0
 46
0.0
 71
     5
 72
     1
  1
\A1;44,0
 11
0.0
 21
1.0
 31
0.0
 73
     1
 44
1.0
  0
POINT
  5
4C8
330
4BF
100
AcDbEntity
  8
Defpoints
 62
     0
100
AcDbPoint
 10
865.5444292988898
 20
355.9453800613036
 30
0.0
  0
POINT
  5
4C9
330
4BF
100
AcDbEntity
  8
Defpoints
 62
     0
100
AcDbPoint
 10
865.5444292988898
 20
311.9453800613036
 30
0.0
  0
POINT
  5
4CA
330
4BF
100
AcDbEntity
  8
Defpoints
 62
     0
100
AcDbPoint
 10
914.2920003265136
 20
311.9453800613036
 30
0.0
  0
ENDBLK
  5
4C1
330
4BF
100
AcDbEntity
  8
0
100
AcDbBlockEnd
  0
BLOCK
  5
4D0
330
4CF
100
AcDbEntity
  8
0
100
AcDbBlockBegin
  2
*D4
 70
     1
 10
0.0
 20
0.0
 30
0.0
  3
*D4
  1
*D4
  0
LINE
  5
4D2
330
4CF
100
AcDbEntity
  8
Koty
 62
     0
370
    -2
100
AcDbLine
 10
890.60692929889
 20
215.2488600613037
 30
0.0
 11
914.4720003265136
 21
215.2488600613037
 31
0.0
  0
LINE
  5
4D3
330
4CF
100
AcDbEntity
  8
Koty
 62
     0
370
    -2
100
AcDbLine
 10
865.7069292988899
 20
259.2488600613037
 30
0.0
 11
914.4720003265136
 21
259.2488600613037
 31
0.0
  0
LINE
  5
4D4
330
4CF
100
AcDbEntity
  8
Koty
 62
     0
370
    -2
100
AcDbLine
 10
914.2920003265136
 20
221.2488600613037
 30
0.0
 11
914.2920003265136
 21
253.2488600613037
 31
0.0
  0
SOLID
  5
4D5
330
4CF
100
AcDbEntity
  8
Koty
 62
     0
100
AcDbTrace
 10
913.2920003265136
 20
221.2488600613037
 30
0.0
 11
915.2920003265136
 21
221.2488600613037
 31
0.0
 12
914.2920003265136
 22
215.2488600613037
 32
0.0
 13
914.2920003265136
 23
215.2488600613037
 33
0.0
  0
SOLID
  5
4D6
330
4CF
100
AcDbEntity
  8
Koty
 62
     0
100
AcDbTrace
 10
915.2920003265136
 20
253.2488600613037
 30
0.0
 11
913.2920003265136
 21
253.2488600613037
 31
0.0
 12
914.2920003265136
 22
259.2488600613037
 32
0.0
 13
914.2920003265136
 23
259.2488600613037
 33
0.0
  0
MTEXT
  5
4D7
330
4CF
100
AcDbEntity
  8
Koty
 62
     0
100
AcDbMText
 10
909.6890003265137
 20
237.2488600613037
 30
0.0
 40
6.0
 41
0.0
 46
0.0
 71
     5
 72
     1
  1
\A1;44,0
 11
0.0
 21
1.0
 31
0.0
 73
     1
 44
1.0
  0
POINT
  5
4D8
330
4CF
100
AcDbEntity
  8
Defpoints
 62
     0
100
AcDbPoint
 10
890.54442929889
 20
215.2488600613037
 30
0.0
  0
POINT
  5
4D9
330
4CF
100
AcDbEntity
  8
Defpoints
 62
     0
100
AcDbPoint
 10
865.6444292988899
 20
259.2488600613037
 30
0.0
  0
POINT
  5
4DA
330
4CF
100
AcDbEntity
  8
Defpoints
 62
     0
100
AcDbPoint
 10
914.2920003265136
 20
259.2488600613037
 30
0.0
  0
ENDBLK
  5
4D1
330
4CF
100
AcDbEntity
  8
0
100
AcDbBlockEnd
  0
BLOCK
  5
4E0
330
4DF
100
AcDbEntity
  8
0
100
AcDbBlockBegin
  2
*D5
 70
     1
 10
0.0
 20
0.0
 30
0.0
  3
*D5
  1
*D5
  0
LINE
  5
4E2
330
4DF
100
AcDbEntity
  8
Koty
 62
     0
370
    -2
100
AcDbLine
 10
427.04442929889
 20
257.6113600613036
 30
0.0
 11
427.04442929889
 21
271.9067356830753
 31
0.0
  0
LINE
  5
4E3
330
4DF
100
AcDbEntity
  8
Koty
 62
     0
370
    -2
100
AcDbLine
 10
872.0444292988899
 20
257.6113600613036
 30
0.0
 11
872.0444292988899
 21
271.9067356830753
 31
0.0
  0
LINE
  5
4E4
330
4DF
100
AcDbEntity
  8
Koty
 62
     0
370
    -2
100
AcDbLine
 10
433.04442929889
 20
271.7267356830753
 30
0.0
 11
866.0444292988899
 21
271.7267356830753
 31
0.0
  0
SOLID
  5
4E5
330
4DF
100
AcDbEntity
  8
Koty
 62
     0
100
AcDbTrace
 10
433.04442929889
 20
272.7267356830753
 30
0.0
 11
433.04442929889
 21
270.7267356830753
 31
0.0
 12
427.04442929889
 22
271.7267356830753
 32
0.0
 13
427.04442929889
 23
271.7267356830753
 33
0.0
  0
SOLID
  5
4E6
330
4DF
100
AcDbEntity
  8
Koty
 62
     0
100
AcDbTrace
 10
866.0444292988899
 20
270.7267356830753
 30
0.0
 11
866.0444292988899
 21
272.7267356830753
 31
0.0
 12
872.0444292988899
 22
271.7267356830753
 32
0.0
 13
872.0444292988899
 23
271.7267356830753
 33
0.0
  0
MTEXT
  5
4E7
330
4DF
100
AcDbEntity
  8
Koty
 62
     0
100
AcDbMText
 10
649.54442929889
 20
276.3297356830753
 30
0.0
 40
6.0
 41
0.0
 46
0.0
 71
     5
 72
     1
  1
\A1;445,0
 73
     1
 44
1.0
  0
POINT
  5
4E8
330
4DF
100
AcDbEntity
  8
Defpoints
 62
     0
100
AcDbPoint
 10
427.04442929889
 20
257.5488600613036
 30
0.0
  0
POINT
  5
4E9
330
4DF
100
AcDbEntity
  8
Defpoints
 62
     0
100
AcDbPoint
 10
872.0444292988899
 20
257.5488600613036
 30
0.0
  0
POINT
  5
4EA
330
4DF
100
AcDbEntity
  8
Defpoints
 62
     0
100
AcDbPoint
 10
872.0444292988899
 20
271.7267356830753
 30
0.0
  0
ENDBLK
  5
4E1
330
4DF
100
AcDbEntity
  8
0
100
AcDbBlockEnd
  0
ENDSEC
  0
SECTION
  2
ENTITIES
  0
LINE
  5
2F9
330
1F
100
AcDbEntity
  8
Obrys
  6
Continuous
100
AcDbLine
 10
481.81106329889
 20
333.4453800613036
 30
0.0
 11
481.81106329889
 21
334.4453800613036
 31
0.0
  0
LINE
  5
2FA
330
1F
100
AcDbEntity
  8
Obrys
  6
Continuous
100
AcDbLine
 10
486.76593029889
 20
334.4453800613036
 30
0.0
 11
486.76593029889
 21
333.4453800613036
 31
0.0
  0
LINE
  5
2FB
330
1F
100
AcDbEntity
  8
Obrys
  6
Continuous
100
AcDbLine
 10
464.98966729889
 20
343.1453800613036
 30
0.0
 11
464.98966729889
 21
324.7453800613036
 31
0.0
  0
LINE
  5
2FC
330
1F
100
AcDbEntity
  8
Obrys
  6
Continuous
100
AcDbLine
 10
490.32713029889
 20
343.1453800613036
 30
0.0
 11
490.32713029889
 21
324.7453800613036
 31
0.0
  0
LINE
  5
2FD
330
1F
100
AcDbEntity
  8
Obrys
  6
Continuous
100
AcDbLine
 10
461.57554229889
 20
323.0453800613037
 30
0.0
 11
461.57554229889
 21
344.8453800613036
 31
0.0
  0
LINE
  5
2FE
330
1F
100
AcDbEntity
  8
Obrys
  6
Continuous
100
AcDbLine
 10
463.1755422988899
 20
346.4453800613036
 30
0.0
 11
491.97554229889
 21
346.4453800613036
 31
0.0
  0
LINE
  5
2FF
330
1F
100
AcDbEntity
  8
Obrys
  6
Continuous
100
AcDbLine
 10
493.57554229889
 20
344.8453800613036
 30
0.0
 11
493.57554229889
 21
323.0453800613037
 31
0.0
  0
LINE
  5
300
330
1F
100
AcDbEntity
  8
Obrys
  6
Continuous
100
AcDbLine
 10
491.97554229889
 20
321.4453800613036
 30
0.0
 11
463.1755422988899
 21
321.4453800613036
 31
0.0
  0
LINE
  5
301
330
1F
100
AcDbEntity
  8
Obrys
  6
Continuous
100
AcDbLine
 10
466.82251829889
 20
343.6453800613036
 30
0.0
 11
467.3331892988899
 21
343.6453800613036
 31
0.0
  0
LINE
  5
302
330
1F
100
AcDbEntity
  8
Obrys
  6
Continuous
100
AcDbLine
 10
467.3331892988899
 20
324.2453800613036
 30
0.0
 11
466.82251829889
 21
324.2453800613036
 31
0.0
  0
LINE
  5
303
330
1F
100
AcDbEntity
  8
Obrys
  6
Continuous
100
AcDbLine
 10
467.3331892988899
 20
343.6453800613036
 30
0.0
 11
489.37870129889
 21
343.6453800613036
 31
0.0
  0
LINE
  5
304
330
1F
100
AcDbEntity
  8
Obrys
  6
Continuous
100
AcDbLine
 10
489.37870129889
 20
324.2453800613036
 30
0.0
 11
467.3331892988899
 21
324.2453800613036
 31
0.0
  0
LINE
  5
305
330
1F
100
AcDbEntity
  8
Obrys
  6
Continuous
100
AcDbLine
 10
486.76593029889
 20
333.4453800613036
 30
0.0
 11
481.81106329889
 21
333.4453800613036
 31
0.0
  0
LINE
  5
306
330
1F
100
AcDbEntity
  8
Obrys
  6
Continuous
100
AcDbLine
 10
481.81106329889
 20
334.4453800613036
 30
0.0
 11
486.76593029889
 21
334.4453800613036
 31
0.0
  0
LINE
  5
307
330
1F
100
AcDbEntity
  8
Obrys
  6
Continuous
100
AcDbLine
 10
466.82251829889
 20
324.2453800613036
 30
0.0
 11
465.48966729889
 21
324.2453800613036
 31
0.0
  0
LINE
  5
308
330
1F
100
AcDbEntity
  8
Obrys
  6
Continuous
100
AcDbLine
 10
465.48966729889
 20
343.6453800613036
 30
0.0
 11
466.82251829889
 21
343.6453800613036
 31
0.0
  0
LINE
  5
309
330
1F
100
AcDbEntity
  8
Obrys
  6
Continuous
100
AcDbLine
 10
489.82713029889
 20
324.2453800613036
 30
0.0
 11
489.37870129889
 21
324.2453800613036
 31
0.0
  0
LINE
  5
30A
330
1F
100
AcDbEntity
  8
Obrys
  6
Continuous
100
AcDbLine
 10
489.37870129889
 20
343.6453800613036
 30
0.0
 11
489.82713029889
 21
343.6453800613036
 31
0.0
  0
LINE
  5
30B
330
1F
100
AcDbEntity
  8
Obrys
  6
Continuous
100
AcDbLine
 10
433.54442929889
 20
215.2488600613037
 30
0.0
 11
865.5444292988899
 21
215.2488600613037
 31
0.0
  0
LINE
  5
30C
330
1F
100
AcDbEntity
  8
Obrys
  6
Continuous
100
AcDbLine
 10
433.54442929889
 20
222.2488600613037
 30
0.0
 11
865.5444292988899
 21
222.2488600613037
 31
0.0
  0
LINE
  5
30D
330
1F
100
AcDbEntity
  8
Obrys
  6
Continuous
100
AcDbLine
 10
433.54442929889
 20
250.2184750613036
 30
0.0
 11
865.5444292988899
 21
250.2184750613036
 31
0.0
  0
LINE
  5
30E
330
1F
100
AcDbEntity
  8
Obrys
  6
Continuous
100
AcDbLine
 10
433.54442929889
 20
221.2488600613037
 30
0.0
 11
865.5444292988899
 21
221.2488600613037
 31
0.0
  0
LINE
  5
30F
330
1F
100
AcDbEntity
  8
Obrys
  6
Continuous
100
AcDbLine
 10
433.54442929889
 20
252.7469360613036
 30
0.0
 11
865.5444292988899
 21
252.7469360613036
 31
0.0
  0
LINE
  5
310
330
1F
100
AcDbEntity
  8
Obrys
  6
Continuous
100
AcDbLine
 10
433.54442929889
 20
259.2488600613037
 30
0.0
 11
865.5444292988899
 21
259.2488600613037
 31
0.0
  0
LINE
  5
311
330
1F
100
AcDbEntity
  8
Obrys
  6
DASHED
 48
1.75
100
AcDbLine
 10
408.54442929889
 20
216.7488600613037
 30
0.0
 11
408.54442929889
 21
215.2488600613037
 31
0.0
  0
LINE
  5
312
102
{ACAD_REACTORS
330
4DE
102
}
330
1F
100
AcDbEntity
  8
Obrys
  6
DASHED
 48
1.75
100
AcDbLine
 10
427.04442929889
 20
218.2488600613037
 30
0.0
 11
427.04442929889
 21
257.5488600613036
 31
0.0
  0
LINE
  5
313
330
1F
100
AcDbEntity
  8
Obrys
  6
Continuous
100
AcDbLine
 10
461.57554229889
 20
213.7488600613037
 30
0.0
 11
461.57554229889
 21
215.2488600613037
 31
0.0
  0
LINE
  5
314
330
1F
100
AcDbEntity
  8
Obrys
  6
Continuous
100
AcDbLine
 10
493.07554229889
 20
213.2488600613037
 30
0.0
 11
462.07554229889
 21
213.2488600613037
 31
0.0
  0
LINE
  5
315
330
1F
100
AcDbEntity
  8
Obrys
  6
Continuous
100
AcDbLine
 10
493.57554229889
 20
215.2488600613037
 30
0.0
 11
493.57554229889
 21
213.7488600613037
 31
0.0
  0
LINE
  5
316
330
1F
100
AcDbEntity
  8
Obrys
  6
Continuous
100
AcDbLine
 10
490.32713029889
 20
213.2488600613037
 30
0.0
 11
490.32713029889
 21
213.0826030613036
 31
0.0
  0
LINE
  5
317
330
1F
100
AcDbEntity
  8
Obrys
  6
Continuous
100
AcDbLine
 10
427.04286629889
 20
241.9488600613036
 30
0.0
 11
341.7444292988899
 21
241.9488600613036
 31
0.0
  0
LINE
  5
318
330
1F
100
AcDbEntity
  8
Obrys
  6
Continuous
100
AcDbLine
 10
341.7444292988899
 20
232.5488600613036
 30
0.0
 11
427.04286629889
 21
232.5488600613036
 31
0.0
  0
LINE
  5
319
330
1F
100
AcDbEntity
  8
Obrys
  6
Continuous
100
AcDbLine
 10
870.34442929889
 20
215.2488600613037
 30
0.0
 11
865.7444292988899
 21
215.2488600613037
 31
0.0
  0
LINE
  5
31A
330
1F
100
AcDbEntity
  8
Obrys
  6
Continuous
100
AcDbLine
 10
867.5444292988899
 20
248.2564000613036
 30
0.0
 11
867.5444292988899
 21
242.2413200613036
 31
0.0
  0
LINE
  5
31B
330
1F
100
AcDbEntity
  8
Obrys
  6
Continuous
100
AcDbLine
 10
867.73919329889
 20
242.0413880613036
 30
0.0
 11
870.5444296885515
 21
241.9730305262987
 31
0.0
  0
LINE
  5
31C
330
1F
100
AcDbEntity
  8
Obrys
  6
Continuous
100
AcDbLine
 10
870.5444292957441
 20
248.5246895962261
 30
0.0
 11
867.73919329889
 21
248.4563320613036
 31
0.0
  0
LINE
  5
31D
330
1F
100
AcDbEntity
  8
Obrys
  6
Continuous
100
AcDbLine
 10
865.7496642988899
 20
259.2434860613036
 30
0.0
 11
870.3496642988899
 21
259.1230300613036
 31
0.0
  0
LINE
  5
31E
330
1F
100
AcDbEntity
  8
Obrys
  6
Continuous
100
AcDbLine
 10
870.5444292988899
 20
258.9230990613036
 30
0.0
 11
870.54442929889
 21
215.4488600613036
 31
0.0
  0
LINE
  5
31F
330
1F
100
AcDbEntity
  8
Obrys
  6
DASHED
 48
1.75
100
AcDbLine
 10
427.04442929889
 20
257.5488600613036
 30
0.0
 11
428.54442929889
 21
257.5488600613036
 31
0.0
  0
LINE
  5
320
330
1F
100
AcDbEntity
  8
Obrys
  6
Continuous
100
AcDbLine
 10
433.34442929889
 20
215.2488600613037
 30
0.0
 11
428.7444292988899
 21
215.2488600613037
 31
0.0
  0
LINE
  5
321
330
1F
100
AcDbEntity
  8
Obrys
  6
Continuous
100
AcDbLine
 10
431.54442929889
 20
242.2413200613036
 30
0.0
 11
431.54442929889
 21
248.2564000613036
 31
0.0
  0
LINE
  5
322
330
1F
100
AcDbEntity
  8
Obrys
  6
Continuous
100
AcDbLine
 10
431.3496642988899
 20
248.4563320613036
 30
0.0
 11
428.5444293020359
 21
248.5246895962261
 31
0.0
  0
LINE
  5
323
330
1F
100
AcDbEntity
  8
Obrys
  6
Continuous
100
AcDbLine
 10
428.544429302036
 20
241.9730305263811
 30
0.0
 11
431.3496642988899
 21
242.0413880613036
 31
0.0
  0
LINE
  5
324
330
1F
100
AcDbEntity
  8
Obrys
  6
Continuous
100
AcDbLine
 10
428.54442929889
 20
215.4488600613036
 30
0.0
 11
428.54442929889
 21
258.9230990613036
 31
0.0
  0
LINE
  5
325
330
1F
100
AcDbEntity
  8
Obrys
  6
Continuous
100
AcDbLine
 10
428.73919329889
 20
259.1230300613036
 30
0.0
 11
433.33919329889
 21
259.2434860613036
 31
0.0
  0
LINE
  5
326
330
1F
100
AcDbEntity
  8
Obrys
  6
DASHED
 48
1.75
100
AcDbLine
 10
890.54442929889
 20
216.7488600613037
 30
0.0
 11
890.54442929889
 21
215.2488600613037
 31
0.0
  0
LINE
  5
327
330
1F
100
AcDbEntity
  8
Obrys
  6
DASHED
 48
1.75
100
AcDbLine
 10
870.5444292988899
 20
257.5488600613036
 30
0.0
 11
872.0444292988899
 21
257.5488600613036
 31
0.0
  0
LINE
  5
328
330
1F
100
AcDbEntity
  8
Obrys
  6
DASHED
 48
1.75
100
AcDbLine
 10
873.5444292988899
 20
216.7488600613037
 30
0.0
 11
890.54442929889
 21
216.7488600613037
 31
0.0
  0
LINE
  5
329
330
1F
100
AcDbEntity
  8
Obrys
  6
DASHED
 48
1.75
100
AcDbLine
 10
873.5444292988899
 20
215.2488600612946
 30
0.0
 11
890.54442929889
 21
215.2488600613037
 31
0.0
  0
LINE
  5
32A
102
{ACAD_REACTORS
330
4DE
102
}
330
1F
100
AcDbEntity
  8
Obrys
  6
DASHED
 48
1.75
100
AcDbLine
 10
872.0444292988899
 20
257.5488600613036
 30
0.0
 11
872.0444292988899
 21
218.2488600613037
 31
0.0
  0
LINE
  5
32B
330
1F
100
AcDbEntity
  8
Obrys
  6
DASHED
 48
1.75
100
AcDbLine
 10
408.54442929889
 20
216.7488600613037
 30
0.0
 11
425.54442929889
 21
216.7488600613037
 31
0.0
  0
LINE
  5
32C
330
1F
100
AcDbEntity
  8
Obrys
  6
DASHED
 48
1.75
100
AcDbLine
 10
408.54442929889
 20
215.2488600613037
 30
0.0
 11
425.54442929889
 21
215.2488600612946
 31
0.0
  0
LINE
  5
32D
330
1F
100
AcDbEntity
  8
Obrys
  6
Continuous
100
AcDbLine
 10
865.5444292988899
 20
215.2488600613037
 30
0.0
 11
865.5444292988899
 21
259.2488600613037
 31
0.0
  0
LINE
  5
32E
330
1F
100
AcDbEntity
  8
Obrys
  6
Continuous
100
AcDbLine
 10
433.54442929889
 20
215.2488600613037
 30
0.0
 11
433.54442929889
 21
259.2488600613037
 31
0.0
  0
LINE
  5
32F
330
1F
100
AcDbEntity
  8
Obrys
  6
Continuous
100
AcDbLine
 10
341.7444292988899
 20
241.9488600613036
 30
0.0
 11
341.7444292988899
 21
232.5488600613036
 31
0.0
  0
ARC
  5
330
330
1F
100
AcDbEntity
  8
Obrys
  6
Continuous
100
AcDbCircle
 10
465.48966729889
 20
324.7453800613036
 30
0.0
 40
0.5
100
AcDbArc
 50
180.0
 51
270.0
  0
ARC
  5
331
330
1F
100
AcDbEntity
  8
Obrys
  6
Continuous
100
AcDbCircle
 10
465.48966729889
 20
343.1453800613036
 30
0.0
 40
0.5
100
AcDbArc
 50
90.0
 51
180.0
  0
ARC
  5
332
330
1F
100
AcDbEntity
  8
Obrys
  6
Continuous
100
AcDbCircle
 10
-489.82713029889
 20
324.7453800613036
 30
0.0
 40
0.5
210
0.0
220
0.0
230
-1.0
100
AcDbArc
 50
180.0
 51
270.0
  0
ARC
  5
333
330
1F
100
AcDbEntity
  8
Obrys
  6
Continuous
100
AcDbCircle
 10
489.82713029889
 20
343.1453800613036
 30
0.0
 40
0.5
100
AcDbArc
 50
0.0
 51
90.0
  0
ARC
  5
334
330
1F
100
AcDbEntity
  8
Obrys
  6
Continuous
100
AcDbCircle
 10
-463.1755422988899
 20
344.8453800613036
 30
0.0
 40
1.6
210
0.0
220
0.0
230
-1.0
100
AcDbArc
 50
0.0
 51
90.0
  0
ARC
  5
335
330
1F
100
AcDbEntity
  8
Obrys
  6
Continuous
100
AcDbCircle
 10
-491.97554229889
 20
344.8453800613036
 30
0.0
 40
1.6
210
0.0
220
0.0
230
-1.0
100
AcDbArc
 50
90.0
 51
180.0
  0
ARC
  5
336
330
1F
100
AcDbEntity
  8
Obrys
  6
Continuous
100
AcDbCircle
 10
-491.97554229889
 20
323.0453800613037
 30
0.0
 40
1.6
210
0.0
220
0.0
230
-1.0
100
AcDbArc
 50
180.0
 51
270.0
  0
ARC
  5
337
330
1F
100
AcDbEntity
  8
Obrys
  6
Continuous
100
AcDbCircle
 10
-463.1755422988899
 20
323.0453800613037
 30
0.0
 40
1.6
210
0.0
220
0.0
230
-1.0
100
AcDbArc
 50
270.0
 51
0.0
  0
ARC
  5
338
330
1F
100
AcDbEntity
  8
Obrys
  6
DASHED
 48
1.75
100
AcDbCircle
 10
-873.5444292988899
 20
218.2488600613037
 30
0.0
 40
1.5
210
0.0
220
0.0
230
-1.0
100
AcDbArc
 50
270.0
 51
0.0
  0
ARC
  5
339
330
1F
100
AcDbEntity
  8
Obrys
  6
DASHED
 48
1.75
100
AcDbCircle
 10
-873.5444292988899
 20
218.2488600613037
 30
0.0
 40
3.000000000009047
210
0.0
220
0.0
230
-1.0
100
AcDbArc
 50
270.0
 51
0.0
  0
ARC
  5
33A
330
1F
100
AcDbEntity
  8
Obrys
  6
DASHED
 48
1.75
100
AcDbCircle
 10
-425.54442929889
 20
218.2488600613037
 30
0.0
 40
3.000000000009047
210
0.0
220
0.0
230
-1.0
100
AcDbArc
 50
180.0
 51
270.0
  0
ARC
  5
33B
330
1F
100
AcDbEntity
  8
Obrys
  6
DASHED
 48
1.75
100
AcDbCircle
 10
-425.54442929889
 20
218.2488600613037
 30
0.0
 40
1.5
210
0.0
220
0.0
230
-1.0
100
AcDbArc
 50
180.0
 51
270.0
  0
ARC
  5
33C
330
1F
100
AcDbEntity
  8
Obrys
  6
Continuous
100
AcDbCircle
 10
867.21285029889
 20
245.2488600613037
 30
0.0
 40
2.081578571428572
100
AcDbArc
 50
279.1657970000012
 51
80.8342029999988
  0
ARC
  5
33D
330
1F
100
AcDbEntity
  8
Obrys
  6
Continuous
100
AcDbCircle
 10
-462.07554229889
 20
213.7488600613037
 30
0.0
 40
0.5
210
0.0
220
0.0
230
-1.0
100
AcDbArc
 50
270.0
 51
0.0
  0
ARC
  5
33E
330
1F
100
AcDbEntity
  8
Obrys
  6
Continuous
100
AcDbCircle
 10
-493.07554229889
 20
213.7488600613037
 30
0.0
 40
0.5
210
0.0
220
0.0
230
-1.0
100
AcDbArc
 50
180.0
 51
270.0
  0
ARC
  5
33F
330
1F
100
AcDbEntity
  8
Obrys
  6
Continuous
100
AcDbCircle
 10
-470.96222029889
 20
212.1779290613036
 30
0.0
 40
5.9725532449404
210
0.0
220
0.0
230
-1.0
100
AcDbArc
 50
319.1520589999994
 51
10.32950099999953
  0
ARC
  5
340
330
1F
100
AcDbEntity
  8
Obrys
  6
Continuous
100
AcDbCircle
 10
-467.20074229889
 20
208.9256120613036
 30
0.0
 40
1.0
210
0.0
220
0.0
230
-1.0
100
AcDbArc
 50
254.6393369999982
 51
319.1520589999971
  0
ARC
  5
341
330
1F
100
AcDbEntity
  8
Obrys
  6
Continuous
100
AcDbCircle
 10
503.43615729889
 20
77.02011306130368
 30
0.0
 40
135.792053574302
100
AcDbArc
 50
95.92013799999997
 51
105.360663
  0
ARC
  5
342
330
1F
100
AcDbEntity
  8
Obrys
  6
Continuous
100
AcDbCircle
 10
-489.32713029889
 20
213.0826030613036
 30
0.0
 40
1.0
210
0.0
220
0.0
230
-1.0
100
AcDbArc
 50
180.0
 51
264.0798620000019
  0
ARC
  5
343
330
1F
100
AcDbEntity
  8
Obrys
  6
Continuous
100
AcDbCircle
 10
865.7444292988899
 20
215.4488600613036
 30
0.0
 40
0.2
100
AcDbArc
 50
180.0
 51
270.0
  0
ARC
  5
344
330
1F
100
AcDbEntity
  8
Obrys
  6
Continuous
100
AcDbCircle
 10
870.34442929889
 20
215.4488600613036
 30
0.0
 40
0.2
100
AcDbArc
 50
270.0
 51
0.0
  0
ARC
  5
345
330
1F
100
AcDbEntity
  8
Obrys
  6
Continuous
100
AcDbCircle
 10
-865.7444292988899
 20
259.0435540613036
 30
0.0
 40
0.2
210
0.0
220
0.0
230
-1.0
100
AcDbArc
 50
0.0
 51
91.50000000000908
  0
ARC
  5
346
330
1F
100
AcDbEntity
  8
Obrys
  6
Continuous
100
AcDbCircle
 10
870.34442929889
 20
258.9230990613036
 30
0.0
 40
0.2
100
AcDbArc
 50
0.0
 51
88.49999999999092
  0
ARC
  5
347
330
1F
100
AcDbEntity
  8
Obrys
  6
Continuous
100
AcDbCircle
 10
433.34442929889
 20
215.4488600613036
 30
0.0
 40
0.2
100
AcDbArc
 50
270.0
 51
0.0
  0
ARC
  5
348
330
1F
100
AcDbEntity
  8
Obrys
  6
Continuous
100
AcDbCircle
 10
-428.7444292988899
 20
215.4488600613036
 30
0.0
 40
0.2
210
0.0
220
0.0
230
-1.0
100
AcDbArc
 50
270.0
 51
0.0
  0
ARC
  5
349
330
1F
100
AcDbEntity
  8
Obrys
  6
Continuous
100
AcDbCircle
 10
-433.34442929889
 20
259.0435540613036
 30
0.0
 40
0.2
210
0.0
220
0.0
230
-1.0
100
AcDbArc
 50
88.49999999999092
 51
180.0
  0
ARC
  5
34A
330
1F
100
AcDbEntity
  8
Obrys
  6
Continuous
100
AcDbCircle
 10
-428.7444292988899
 20
258.9230990613036
 30
0.0
 40
0.2
210
0.0
220
0.0
230
-1.0
100
AcDbArc
 50
0.0
 51
88.5000000000072
  0
ARC
  5
34B
330
1F
100
AcDbEntity
  8
Obrys
  6
Continuous
100
AcDbCircle
 10
-867.7444292988899
 20
242.2413200613036
 30
0.0
 40
0.199999999999645
210
0.0
220
0.0
230
-1.0
100
AcDbArc
 50
271.5000000000118
 51
0.0
  0
ARC
  5
34C
330
1F
100
AcDbEntity
  8
Obrys
  6
Continuous
100
AcDbCircle
 10
-867.7444292988899
 20
248.2564000613036
 30
0.0
 40
0.1999999999995566
210
0.0
220
0.0
230
-1.0
100
AcDbArc
 50
0.0
 51
88.49999999998751
  0
ARC
  5
34D
330
1F
100
AcDbEntity
  8
Obrys
  6
Continuous
100
AcDbCircle
 10
-431.34442929889
 20
248.2564000613036
 30
0.0
 40
0.1999999999989726
210
0.0
220
0.0
230
-1.0
100
AcDbArc
 50
91.5000000000007
 51
180.0
  0
ARC
  5
34E
330
1F
100
AcDbEntity
  8
Obrys
  6
Continuous
100
AcDbCircle
 10
-431.34442929889
 20
242.2413200613036
 30
0.0
 40
0.1999999999989726
210
0.0
220
0.0
230
-1.0
100
AcDbArc
 50
180.0
 51
268.4999999999993
  0
LINE
  5
34F
330
1F
100
AcDbEntity
  8
Obrys
100
AcDbLine
 10
504.9114274132905
 20
215.04978243532
 30
0.000000000000007
 11
509.3636864066352
 21
215.04978243532
 31
-0.0000000000000007
  0
ARC
  5
350
330
1F
100
AcDbEntity
  8
Obrys
100
AcDbCircle
 10
504.9561244684639
 20
215.2450455109533
 30
0.0000000000000098
 40
0.2003134929228475
100
AcDbArc
 50
178.9088560929067
 51
257.1067358508615
  0
ARC
  5
351
330
1F
100
AcDbEntity
  8
Obrys
100
AcDbCircle
 10
509.3191295919296
 20
215.2448771079123
 30
-0.0000000000000156
 40
0.2001013505942653
100
AcDbArc
 50
282.8439552820631
 51
1.140529488803772
  0
ARC
  5
352
330
1F
100
AcDbEntity
  8
Obrys
100
AcDbCircle
 10
507.1375569099629
 20
224.7991930170044
 30
0.0000000000001805
 40
10.00033295576775
100
AcDbArc
 50
257.137884984262
 51
282.862115015738
  0
ARC
  5
353
330
1F
100
AcDbEntity
  8
Obrys
100
AcDbCircle
 10
431.8760072988902
 20
245.2488600613037
 30
0.0
 40
2.081578571428643
100
AcDbArc
 50
99.16579700000406
 51
260.834202999996
  0
CIRCLE
  5
354
330
1F
100
AcDbEntity
  8
Obrys
100
AcDbCircle
 10
472.4894555441688
 20
333.9454736853469
 30
0.0
 40
2.999907073697635
  0
CIRCLE
  5
355
330
1F
100
AcDbEntity
  8
Obrys
100
AcDbCircle
 10
472.4894555441688
 20
333.9454736853469
 30
0.0
 40
2.499907693636947
  0
LINE
  5
356
102
{ACAD_REACTORS
330
4BE
102
}
330
1F
100
AcDbEntity
  8
Obrys
100
AcDbLine
 10
433.5444292988899
 20
311.9453800613036
 30
0.0
 11
865.5444292988898
 21
311.9453800613036
 31
0.0
  0
LINE
  5
357
330
1F
100
AcDbEntity
  8
Obrys
100
AcDbLine
 10
628.11334629889
 20
313.4459410613036
 30
0.0
 11
628.11334629889
 21
354.4448200613037
 31
0.0
  0
LINE
  5
359
330
1F
100
AcDbEntity
  8
Obrys
 48
1.75
100
AcDbLine
 10
880.34442929889
 20
314.4453800613036
 30
0.0
 11
883.84442929889
 21
314.4453800613036
 31
0.0
  0
LINE
  5
35A
330
1F
100
AcDbEntity
  8
Obrys
 48
1.75
100
AcDbLine
 10
883.84442929889
 20
321.6453800613037
 30
0.0
 11
880.34442929889
 21
321.6453800613037
 31
0.0
  0
LINE
  5
35B
330
1F
100
AcDbEntity
  8
Obrys
 48
1.75
100
AcDbLine
 10
880.34442929889
 20
330.3453800613036
 30
0.0
 11
883.84442929889
 21
330.3453800613036
 31
0.0
  0
LINE
  5
35C
330
1F
100
AcDbEntity
  8
Obrys
 48
1.75
100
AcDbLine
 10
883.84442929889
 20
337.5453800613037
 30
0.0
 11
880.34442929889
 21
337.5453800613037
 31
0.0
  0
LINE
  5
35D
330
1F
100
AcDbEntity
  8
Obrys
 48
1.75
100
AcDbLine
 10
880.34442929889
 20
346.2453800613036
 30
0.0
 11
883.84442929889
 21
346.2453800613036
 31
0.0
  0
LINE
  5
35E
330
1F
100
AcDbEntity
  8
Obrys
 48
1.75
100
AcDbLine
 10
883.84442929889
 20
353.4453800613036
 30
0.0
 11
880.34442929889
 21
353.4453800613036
 31
0.0
  0
LINE
  5
35F
330
1F
100
AcDbEntity
  8
Obrys
 48
1.75
100
AcDbLine
 10
874.1151392988897
 20
312.1453800613037
 30
0.0
 11
885.2444292988898
 21
312.1453800613037
 31
0.0
  0
LINE
  5
360
330
1F
100
AcDbEntity
  8
Obrys
100
AcDbLine
 10
873.5444292988898
 20
355.2453800613036
 30
0.0
 11
873.5444292988898
 21
312.6453800613037
 31
0.0
  0
LINE
  5
361
330
1F
100
AcDbEntity
  8
Obrys
 48
1.75
100
AcDbLine
 10
874.4151392988899
 20
355.7453800613036
 30
0.0
 11
885.2444292988898
 21
355.7453800613036
 31
0.0
  0
LINE
  5
362
330
1F
100
AcDbEntity
  8
Obrys
 48
1.75
100
AcDbLine
 10
870.5444292988898
 20
355.7453800613036
 30
0.0
 11
872.0444292988898
 21
355.7453800613036
 31
0.0
  0
LINE
  5
363
330
1F
100
AcDbEntity
  8
Obrys
 48
1.75
100
AcDbLine
 10
870.5444292988898
 20
312.1453800613037
 30
0.0
 11
872.0444292988898
 21
312.1453800613037
 31
0.0
  0
LINE
  5
364
330
1F
100
AcDbEntity
  8
Obrys
 48
1.75
100
AcDbLine
 10
418.7444292988899
 20
353.4453800613036
 30
0.0
 11
415.2444292988899
 21
353.4453800613036
 31
0.0
  0
LINE
  5
365
330
1F
100
AcDbEntity
  8
Obrys
 48
1.75
100
AcDbLine
 10
415.2444292988899
 20
346.2453800613036
 30
0.0
 11
418.7444292988899
 21
346.2453800613036
 31
0.0
  0
LINE
  5
366
330
1F
100
AcDbEntity
  8
Obrys
 48
1.75
100
AcDbLine
 10
418.7444292988899
 20
337.5453800613037
 30
0.0
 11
415.2444292988899
 21
337.5453800613037
 31
0.0
  0
LINE
  5
367
330
1F
100
AcDbEntity
  8
Obrys
 48
1.75
100
AcDbLine
 10
415.2444292988899
 20
330.3453800613036
 30
0.0
 11
418.7444292988899
 21
330.3453800613036
 31
0.0
  0
LINE
  5
368
330
1F
100
AcDbEntity
  8
Obrys
 48
1.75
100
AcDbLine
 10
418.7444292988899
 20
321.6453800613037
 30
0.0
 11
415.2444292988899
 21
321.6453800613037
 31
0.0
  0
LINE
  5
369
330
1F
100
AcDbEntity
  8
Obrys
 48
1.75
100
AcDbLine
 10
415.2444292988899
 20
314.4453800613036
 30
0.0
 11
418.7444292988899
 21
314.4453800613036
 31
0.0
  0
LINE
  5
36A
330
1F
100
AcDbEntity
  8
Obrys
 48
1.75
100
AcDbLine
 10
424.9737182988899
 20
355.7453800613036
 30
0.0
 11
413.84442929889
 21
355.7453800613036
 31
0.0
  0
LINE
  5
36B
330
1F
100
AcDbEntity
  8
Obrys
100
AcDbLine
 10
425.5444292988899
 20
312.6453800613037
 30
0.0
 11
425.5444292988899
 21
355.2453800613036
 31
0.0
  0
LINE
  5
36C
330
1F
100
AcDbEntity
  8
Obrys
 48
1.75
100
AcDbLine
 10
424.67371829889
 20
312.1453800613037
 30
0.0
 11
413.84442929889
 21
312.1453800613037
 31
0.0
  0
LINE
  5
36D
330
1F
100
AcDbEntity
  8
Obrys
 48
1.75
100
AcDbLine
 10
428.5444292988899
 20
312.1453800613037
 30
0.0
 11
427.0444292988899
 21
312.1453800613037
 31
0.0
  0
LINE
  5
36E
330
1F
100
AcDbEntity
  8
Obrys
 48
1.75
100
AcDbLine
 10
428.5444292988899
 20
355.7453800613036
 30
0.0
 11
427.0444292988899
 21
355.7453800613036
 31
0.0
  0
LINE
  5
36F
330
1F
100
AcDbEntity
  8
Obrys
100
AcDbLine
 10
433.5444292988899
 20
354.4453800613036
 30
0.0
 11
865.5444292988898
 21
354.4453800613036
 31
0.0
  0
LINE
  5
370
330
1F
100
AcDbEntity
  8
Obrys
100
AcDbLine
 10
433.5444292988899
 20
353.6809140613037
 30
0.0
 11
433.5444292988899
 21
355.9453800613036
 31
0.0
  0
LINE
  5
371
330
1F
100
AcDbEntity
  8
Obrys
100
AcDbLine
 10
433.5444292988899
 20
313.4453800613036
 30
0.0
 11
865.5444292988898
 21
313.4453800613036
 31
0.0
  0
LINE
  5
372
102
{ACAD_REACTORS
330
4BE
102
}
330
1F
100
AcDbEntity
  8
Obrys
100
AcDbLine
 10
433.5444292988899
 20
355.9453800613036
 30
0.0
 11
865.5444292988898
 21
355.9453800613036
 31
0.0
  0
LINE
  5
373
330
1F
100
AcDbEntity
  8
Obrys
100
AcDbLine
 10
830.0943552988899
 20
325.4954540613036
 30
0.0
 11
831.00220929889
 21
326.2861660613036
 31
0.0
  0
LINE
  5
374
330
1F
100
AcDbEntity
  8
Obrys
100
AcDbLine
 10
692.9100752988899
 20
333.4073800613036
 30
0.0
 11
692.9806792988899
 21
332.6003800613036
 31
0.0
  0
LINE
  5
376
330
1F
100
AcDbEntity
  8
Obrys
100
AcDbLine
 10
693.1824292988898
 20
334.2110270613036
 30
0.0
 11
693.9894292988901
 21
334.2816300613036
 31
0.0
  0
LINE
  5
379
330
1F
100
AcDbEntity
  8
Obrys
100
AcDbLine
 10
787.63471429889
 20
326.3129840613037
 30
0.0
 11
788.1433672988899
 21
327.5765900613036
 31
0.0
  0
LINE
  5
37A
330
1F
100
AcDbEntity
  8
Obrys
100
AcDbLine
 10
744.09435529889
 20
325.4954540613036
 30
0.0
 11
745.0022092988901
 21
326.2861660613036
 31
0.0
  0
LINE
  5
37B
330
1F
100
AcDbEntity
  8
Obrys
100
AcDbLine
 10
843.1133152988898
 20
313.4459410613036
 30
0.0
 11
843.1133152988898
 21
354.4448200613037
 31
0.0
  0
LINE
  5
37C
330
1F
100
AcDbEntity
  8
Obrys
100
AcDbLine
 10
499.0444592988899
 20
313.4459410613036
 30
0.0
 11
499.0444592988899
 21
354.4448200613037
 31
0.0
  0
LINE
  5
37E
330
1F
100
AcDbEntity
  8
Obrys
100
AcDbLine
 10
698.4202492988899
 20
329.8681380613037
 30
0.0
 11
697.6295312988899
 21
328.9602780613037
 31
0.0
  0
LINE
  5
37F
330
1F
100
AcDbEntity
  8
Obrys
100
AcDbLine
 10
817.1996862988897
 20
339.7480120613037
 30
0.0
 11
817.7083382988899
 21
341.0116190613036
 31
0.0
  0
LINE
  5
380
330
1F
100
AcDbEntity
  8
Obrys
100
AcDbLine
 10
827.4470612988898
 20
329.5006380613036
 30
0.0
 11
828.7106672988898
 21
330.0092900613036
 31
0.0
  0
LINE
  5
381
330
1F
100
AcDbEntity
  8
Obrys
100
AcDbLine
 10
734.29942929889
 20
334.2816300613036
 30
0.0
 11
734.29942929889
 21
333.6091300613037
 31
0.0
  0
LINE
  5
382
330
1F
100
AcDbEntity
  8
Obrys
100
AcDbLine
 10
727.19450329889
 20
342.3953070613036
 30
0.0
 11
727.98521529889
 21
343.3031610613037
 31
0.0
  0
LINE
  5
383
330
1F
100
AcDbEntity
  8
Obrys
100
AcDbLine
 10
865.5444292988898
 20
353.6809140613037
 30
0.0
 11
865.5444292988898
 21
355.9453800613036
 31
0.0
  0
LINE
  5
384
330
1F
100
AcDbEntity
  8
Obrys
100
AcDbLine
 10
641.19450329889
 20
342.3953070613036
 30
0.0
 11
641.98521529889
 21
343.3031610613037
 31
0.0
  0
LINE
  5
385
330
1F
100
AcDbEntity
  8
Obrys
100
AcDbLine
 10
693.9894292988901
 20
333.6091300613037
 30
0.0
 11
693.1824292988898
 21
333.6797340613036
 31
0.0
  0
LINE
  5
386
330
1F
100
AcDbEntity
  8
Obrys
100
AcDbLine
 10
658.6347142988899
 20
326.3129840613037
 30
0.0
 11
659.14336729889
 21
327.5765900613036
 31
0.0
  0
LINE
  5
387
330
1F
100
AcDbEntity
  8
Obrys
100
AcDbLine
 10
456.10662529889
 20
354.4448200613037
 30
0.0
 11
456.10662529889
 21
313.4459410613036
 31
0.0
  0
LINE
  5
388
330
1F
100
AcDbEntity
  8
Obrys
100
AcDbLine
 10
692.3787822988901
 20
334.4833800613036
 30
0.0
 11
692.30817929889
 21
335.2903800613037
 31
0.0
  0
LINE
  5
389
330
1F
100
AcDbEntity
  8
Obrys
100
AcDbLine
 10
735.1064292988898
 20
333.6797340613036
 30
0.0
 11
734.29942929889
 21
333.6091300613037
 31
0.0
  0
LINE
  5
38B
102
{ACAD_REACTORS
330
4AE
102
}
330
1F
100
AcDbEntity
  8
Obrys
 48
1.75
100
AcDbLine
 10
408.5444292988899
 20
350.5453800613037
 30
0.0
 11
408.5444292988899
 21
317.3453800613036
 31
0.0
  0
LINE
  5
38C
330
1F
100
AcDbEntity
  8
Obrys
100
AcDbLine
 10
735.30817929889
 20
332.6003800613036
 30
0.0
 11
735.3787822988901
 21
333.4073800613036
 31
0.0
  0
LINE
  5
390
330
1F
100
AcDbEntity
  8
Obrys
100
AcDbLine
 10
827.42024929889
 20
329.8681380613037
 30
0.0
 11
826.6295312988898
 21
328.9602780613037
 31
0.0
  0
LINE
  5
395
330
1F
100
AcDbEntity
  8
Obrys
100
AcDbLine
 10
774.1996862988897
 20
339.7480120613037
 30
0.0
 11
774.7083382988899
 21
341.0116190613036
 31
0.0
  0
LINE
  5
396
330
1F
100
AcDbEntity
  8
Obrys
100
AcDbLine
 10
736.9894292988901
 20
334.2816300613036
 30
0.0
 11
736.9894292988901
 21
333.6091300613037
 31
0.0
  0
LINE
  5
397
330
1F
100
AcDbEntity
  8
Obrys
100
AcDbLine
 10
734.29942929889
 20
334.2816300613036
 30
0.0
 11
735.1064292988898
 21
334.2110270613036
 31
0.0
  0
LINE
  5
39B
330
1F
100
AcDbEntity
  8
Obrys
100
AcDbLine
 10
735.3787822988901
 20
334.4833800613036
 30
0.0
 11
735.30817929889
 21
335.2903800613037
 31
0.0
  0
LINE
  5
39D
330
1F
100
AcDbEntity
  8
Obrys
100
AcDbLine
 10
779.1824292988897
 20
334.2110270613036
 30
0.0
 11
779.98942929889
 21
334.2816300613036
 31
0.0
  0
LINE
  5
39E
330
1F
100
AcDbEntity
  8
Obrys
100
AcDbLine
 10
741.4202492988901
 20
329.8681380613037
 30
0.0
 11
740.6295312988899
 21
328.9602780613037
 31
0.0
  0
LINE
  5
39F
330
1F
100
AcDbEntity
  8
Obrys
100
AcDbLine
 10
685.01203229889
 20
342.9356660613036
 30
0.0
 11
686.2756392988898
 21
343.4443190613036
 31
0.0
  0
LINE
  5
3A2
330
1F
100
AcDbEntity
  8
Obrys
100
AcDbLine
 10
820.2994292988899
 20
334.2816300613036
 30
0.0
 11
821.1064292988897
 21
334.2110270613036
 31
0.0
  0
LINE
  5
3A3
330
1F
100
AcDbEntity
  8
Obrys
100
AcDbLine
 10
688.5671862988901
 20
339.7212000613036
 30
0.0
 11
687.6593262988898
 21
338.9304830613036
 31
0.0
  0
LINE
  5
3A4
330
1F
100
AcDbEntity
  8
Obrys
100
AcDbLine
 10
822.98942929889
 20
334.2816300613036
 30
0.0
 11
822.98942929889
 21
333.6091300613037
 31
0.0
  0
LINE
  5
3A5
330
1F
100
AcDbEntity
  8
Obrys
100
AcDbLine
 10
428.5444292988899
 20
312.1453800613037
 30
0.0
 11
428.5444292988899
 21
355.7453800613036
 31
0.0
  0
LINE
  5
3A6
330
1F
100
AcDbEntity
  8
Obrys
100
AcDbLine
 10
433.5444292988899
 20
314.2098470613036
 30
0.0
 11
433.5444292988899
 21
311.9453800613036
 31
0.0
  0
LINE
  5
3A8
330
1F
100
AcDbEntity
  8
Obrys
100
AcDbLine
 10
701.6347142988899
 20
326.3129840613037
 30
0.0
 11
702.14336729889
 21
327.5765900613036
 31
0.0
  0
LINE
  5
3A9
330
1F
100
AcDbEntity
  8
Obrys
100
AcDbLine
 10
671.11334629889
 20
313.4459410613036
 30
0.0
 11
671.11334629889
 21
354.4448200613037
 31
0.0
  0
LINE
  5
3AA
330
1F
100
AcDbEntity
  8
Obrys
100
AcDbLine
 10
683.49924729889
 20
340.3328460613037
 30
0.0
 11
685.5968652988898
 21
338.2352280613036
 31
0.0
  0
LINE
  5
3AB
330
1F
100
AcDbEntity
  8
Obrys
100
AcDbLine
 10
830.63471429889
 20
326.3129840613037
 30
0.0
 11
831.1433672988899
 21
327.5765900613036
 31
0.0
  0
LINE
  5
3AC
330
1F
100
AcDbEntity
  8
Obrys
100
AcDbLine
 10
688.19968629889
 20
339.7480120613037
 30
0.0
 11
688.70833829889
 21
341.0116190613036
 31
0.0
  0
LINE
  5
3AD
330
1F
100
AcDbEntity
  8
Obrys
100
AcDbLine
 10
812.4992472988899
 20
340.3328460613037
 30
0.0
 11
814.5968652988897
 21
338.2352280613036
 31
0.0
  0
LINE
  5
3AE
330
1F
100
AcDbEntity
  8
Obrys
100
AcDbLine
 10
698.4470612988899
 20
329.5006380613036
 30
0.0
 11
699.7106672988899
 21
330.0092900613036
 31
0.0
  0
LINE
  5
3AF
330
1F
100
AcDbEntity
  8
Obrys
100
AcDbLine
 10
821.98067929889
 20
332.6003800613036
 30
0.0
 11
821.3081792988899
 21
332.6003800613036
 31
0.0
  0
LINE
  5
3B2
330
1F
100
AcDbEntity
  8
Obrys
100
AcDbLine
 10
770.1945032988899
 20
342.3953070613036
 30
0.0
 11
770.9852152988899
 21
343.3031610613037
 31
0.0
  0
LINE
  5
3B4
330
1F
100
AcDbEntity
  8
Obrys
100
AcDbLine
 10
658.09435529889
 20
325.4954540613036
 30
0.0
 11
659.0022092988901
 21
326.2861660613036
 31
0.0
  0
LINE
  5
3B5
330
1F
100
AcDbEntity
  8
Obrys
100
AcDbLine
 10
731.5671862988901
 20
339.7212000613036
 30
0.0
 11
730.6593262988898
 21
338.9304830613036
 31
0.0
  0
LINE
  5
3B6
330
1F
100
AcDbEntity
  8
Obrys
100
AcDbLine
 10
736.1824292988898
 20
334.2110270613036
 30
0.0
 11
736.9894292988901
 21
334.2816300613036
 31
0.0
  0
LINE
  5
3B7
330
1F
100
AcDbEntity
  8
Obrys
100
AcDbLine
 10
821.91007529889
 20
333.4073800613036
 30
0.0
 11
821.98067929889
 21
332.6003800613036
 31
0.0
  0
LINE
  5
3B8
330
1F
100
AcDbEntity
  8
Obrys
100
AcDbLine
 10
735.9100752988901
 20
333.4073800613036
 30
0.0
 11
735.9806792988901
 21
332.6003800613036
 31
0.0
  0
LINE
  5
3B9
330
1F
100
AcDbEntity
  8
Obrys
100
AcDbLine
 10
692.30817929889
 20
332.6003800613036
 30
0.0
 11
692.3787822988901
 21
333.4073800613036
 31
0.0
  0
LINE
  5
3BA
330
1F
100
AcDbEntity
  8
Obrys
100
AcDbLine
 10
784.4470612988898
 20
329.5006380613036
 30
0.0
 11
785.7106672988898
 21
330.0092900613036
 31
0.0
  0
LINE
  5
3BB
330
1F
100
AcDbEntity
  8
Obrys
100
AcDbLine
 10
785.0318942988899
 20
324.8001990613037
 30
0.0
 11
782.9342762988897
 21
326.8978170613037
 31
0.0
  0
LINE
  5
3BC
330
1F
100
AcDbEntity
  8
Obrys
100
AcDbLine
 10
757.1133462988898
 20
313.4459410613036
 30
0.0
 11
757.1133462988898
 21
354.4448200613037
 31
0.0
  0
LINE
  5
3BD
330
1F
100
AcDbEntity
  8
Obrys
100
AcDbLine
 10
771.0120322988898
 20
342.9356660613036
 30
0.0
 11
772.2756392988897
 21
343.4443190613036
 31
0.0
  0
LINE
  5
3BE
330
1F
100
AcDbEntity
  8
Obrys
100
AcDbLine
 10
742.03189429889
 20
324.8001990613037
 30
0.0
 11
739.9342762988898
 21
326.8978170613037
 31
0.0
  0
LINE
  5
3BF
330
1F
100
AcDbEntity
  8
Obrys
100
AcDbLine
 10
769.4992472988899
 20
340.3328460613037
 30
0.0
 11
771.5968652988897
 21
338.2352280613036
 31
0.0
  0
LINE
  5
3C0
330
1F
100
AcDbEntity
  8
Obrys
100
AcDbLine
 10
692.9806792988899
 20
335.2903800613037
 30
0.0
 11
692.9100752988899
 21
334.4833800613036
 31
0.0
  0
LINE
  5
3C1
330
1F
100
AcDbEntity
  8
Obrys
 48
1.75
100
AcDbLine
 10
890.5444292988898
 20
317.3453800613036
 30
0.0
 11
890.5444292988898
 21
350.5453800613037
 31
0.0
  0
LINE
  5
3C2
330
1F
100
AcDbEntity
  8
Obrys
100
AcDbLine
 10
408.64286629889
 20
338.6453800613037
 30
0.0
 11
341.7444292988899
 21
338.6453800613037
 31
0.0
  0
LINE
  5
3C3
330
1F
100
AcDbEntity
  8
Obrys
100
AcDbLine
 10
699.03189429889
 20
324.8001990613037
 30
0.0
 11
696.9342762988898
 21
326.8978170613037
 31
0.0
  0
LINE
  5
3C4
330
1F
100
AcDbEntity
  8
Obrys
100
AcDbLine
 10
693.9894292988901
 20
334.2816300613036
 30
0.0
 11
693.9894292988901
 21
333.6091300613037
 31
0.0
  0
LINE
  5
3C5
330
1F
100
AcDbEntity
  8
Obrys
100
AcDbLine
 10
864.8121962988898
 20
315.9776140613037
 30
0.0
 11
859.1802152988898
 21
321.6095940613037
 31
0.0
  0
LINE
  5
3C6
330
1F
100
AcDbEntity
  8
Obrys
100
AcDbLine
 10
870.5444292988898
 20
355.7453800613036
 30
0.0
 11
870.5444292988898
 21
312.1453800613037
 31
0.0
  0
LINE
  5
3C8
330
1F
100
AcDbEntity
  8
Obrys
100
AcDbLine
 10
813.1945032988899
 20
342.3953070613036
 30
0.0
 11
813.9852152988899
 21
343.3031610613037
 31
0.0
  0
LINE
  5
3C9
330
1F
100
AcDbEntity
  8
Obrys
100
AcDbLine
 10
648.29942929889
 20
334.2816300613036
 30
0.0
 11
649.10642929889
 21
334.2110270613036
 31
0.0
  0
LINE
  5
3CA
330
1F
100
AcDbEntity
  8
Obrys
100
AcDbLine
 10
744.6347142988901
 20
326.3129840613037
 30
0.0
 11
745.14336729889
 21
327.5765900613036
 31
0.0
  0
LINE
  5
3CB
330
1F
100
AcDbEntity
  8
Obrys
100
AcDbLine
 10
821.98067929889
 20
335.2903800613037
 30
0.0
 11
821.91007529889
 21
334.4833800613036
 31
0.0
  0
LINE
  5
3CC
330
1F
100
AcDbEntity
  8
Obrys
100
AcDbLine
 10
650.9894292988901
 20
334.2816300613036
 30
0.0
 11
650.9894292988901
 21
333.6091300613037
 31
0.0
  0
LINE
  5
3CD
330
1F
100
AcDbEntity
  8
Obrys
100
AcDbLine
 10
728.01203229889
 20
342.9356660613036
 30
0.0
 11
729.2756392988898
 21
343.4443190613036
 31
0.0
  0
LINE
  5
3CE
330
1F
100
AcDbEntity
  8
Obrys
100
AcDbLine
 10
731.1996862988898
 20
339.7480120613037
 30
0.0
 11
731.70833829889
 21
341.0116190613036
 31
0.0
  0
LINE
  5
3CF
330
1F
100
AcDbEntity
  8
Obrys
100
AcDbLine
 10
649.30817929889
 20
335.2903800613037
 30
0.0
 11
649.9806792988899
 21
335.2903800613037
 31
0.0
  0
LINE
  5
3D0
330
1F
100
AcDbEntity
  8
Obrys
100
AcDbLine
 10
735.9806792988901
 20
335.2903800613037
 30
0.0
 11
735.9100752988901
 21
334.4833800613036
 31
0.0
  0
LINE
  5
3D1
330
1F
100
AcDbEntity
  8
Obrys
100
AcDbLine
 10
655.4202492988899
 20
329.8681380613037
 30
0.0
 11
654.6295312988899
 21
328.9602780613037
 31
0.0
  0
LINE
  5
3D2
330
1F
100
AcDbEntity
  8
Obrys
100
AcDbLine
 10
726.49924729889
 20
340.3328460613037
 30
0.0
 11
728.5968652988898
 21
338.2352280613036
 31
0.0
  0
LINE
  5
3D3
330
1F
100
AcDbEntity
  8
Obrys
100
AcDbLine
 10
684.19450329889
 20
342.3953070613036
 30
0.0
 11
684.98521529889
 21
343.3031610613037
 31
0.0
  0
LINE
  5
3D4
330
1F
100
AcDbEntity
  8
Obrys
100
AcDbLine
 10
859.1802152988898
 20
346.2811670613036
 30
0.0
 11
864.8121962988898
 21
351.9131470613036
 31
0.0
  0
LINE
  5
3D5
330
1F
100
AcDbEntity
  8
Obrys
100
AcDbLine
 10
821.3081792988899
 20
335.2903800613037
 30
0.0
 11
821.98067929889
 21
335.2903800613037
 31
0.0
  0
LINE
  5
3D6
330
1F
100
AcDbEntity
  8
Obrys
100
AcDbLine
 10
341.7444292988899
 20
329.2453800613036
 30
0.0
 11
408.64286629889
 21
329.2453800613036
 31
0.0
  0
LINE
  5
3D7
330
1F
100
AcDbEntity
  8
Obrys
100
AcDbLine
 10
650.1824292988898
 20
334.2110270613036
 30
0.0
 11
650.9894292988901
 21
334.2816300613036
 31
0.0
  0
LINE
  5
3D8
330
1F
100
AcDbEntity
  8
Obrys
100
AcDbLine
 10
701.09435529889
 20
325.4954540613036
 30
0.0
 11
702.0022092988901
 21
326.2861660613036
 31
0.0
  0
LINE
  5
3D9
330
1F
100
AcDbEntity
  8
Obrys
100
AcDbLine
 10
649.9100752988899
 20
333.4073800613036
 30
0.0
 11
649.9806792988899
 21
332.6003800613036
 31
0.0
  0
LINE
  5
3DA
330
1F
100
AcDbEntity
  8
Obrys
100
AcDbLine
 10
645.19968629889
 20
339.7480120613037
 30
0.0
 11
645.70833829889
 21
341.0116190613036
 31
0.0
  0
LINE
  5
3DB
330
1F
100
AcDbEntity
  8
Obrys
100
AcDbLine
 10
777.2994292988899
 20
334.2816300613036
 30
0.0
 11
778.1064292988897
 21
334.2110270613036
 31
0.0
  0
LINE
  5
3DC
330
1F
100
AcDbEntity
  8
Obrys
100
AcDbLine
 10
828.0318942988899
 20
324.8001990613037
 30
0.0
 11
825.9342762988897
 21
326.8978170613037
 31
0.0
  0
LINE
  5
3DE
330
1F
100
AcDbEntity
  8
Obrys
100
AcDbLine
 10
649.9806792988899
 20
332.6003800613036
 30
0.0
 11
649.30817929889
 21
332.6003800613036
 31
0.0
  0
LINE
  5
3DF
330
1F
100
AcDbEntity
  8
Obrys
100
AcDbLine
 10
865.7496642988897
 20
355.9400060613037
 30
0.0
 11
870.3496642988898
 21
355.8195510613037
 31
0.0
  0
LINE
  5
3E0
330
1F
100
AcDbEntity
  8
Obrys
100
AcDbLine
 10
865.5444292988898
 20
311.9453800613036
 30
0.0
 11
865.5444292988898
 21
314.2098470613036
 31
0.0
  0
LINE
  5
3E1
330
1F
100
AcDbEntity
  8
Obrys
100
AcDbLine
 10
714.1133152988899
 20
313.4459410613036
 30
0.0
 11
714.1133152988899
 21
354.4448200613037
 31
0.0
  0
LINE
  5
3E2
330
1F
100
AcDbEntity
  8
Obrys
100
AcDbLine
 10
433.3391932988899
 20
311.9507550613036
 30
0.0
 11
428.73919329889
 21
312.0712100613036
 31
0.0
  0
LINE
  5
3E3
330
1F
100
AcDbEntity
  8
Obrys
100
AcDbLine
 10
692.30817929889
 20
335.2903800613037
 30
0.0
 11
692.9806792988899
 21
335.2903800613037
 31
0.0
  0
LINE
  5
3E4
330
1F
100
AcDbEntity
  8
Obrys
100
AcDbLine
 10
822.98942929889
 20
333.6091300613037
 30
0.0
 11
822.1824292988897
 21
333.6797340613036
 31
0.0
  0
LINE
  5
3E5
330
1F
100
AcDbEntity
  8
Obrys
100
AcDbLine
 10
821.37878229889
 20
334.4833800613036
 30
0.0
 11
821.3081792988899
 21
335.2903800613037
 31
0.0
  0
LINE
  5
3E6
330
1F
100
AcDbEntity
  8
Obrys
100
AcDbLine
 10
645.5671862988901
 20
339.7212000613036
 30
0.0
 11
644.6593262988898
 21
338.9304830613036
 31
0.0
  0
LINE
  5
3E7
330
1F
100
AcDbEntity
  8
Obrys
100
AcDbLine
 10
640.49924729889
 20
340.3328460613037
 30
0.0
 11
642.5968652988898
 21
338.2352280613036
 31
0.0
  0
LINE
  5
3E8
330
1F
100
AcDbEntity
  8
Obrys
100
AcDbLine
 10
778.98067929889
 20
332.6003800613036
 30
0.0
 11
778.3081792988899
 21
332.6003800613036
 31
0.0
  0
LINE
  5
3E9
330
1F
100
AcDbEntity
  8
Obrys
100
AcDbLine
 10
787.0943552988899
 20
325.4954540613036
 30
0.0
 11
788.00220929889
 21
326.2861660613036
 31
0.0
  0
LINE
  5
3EA
330
1F
100
AcDbEntity
  8
Obrys
100
AcDbLine
 10
784.42024929889
 20
329.8681380613037
 30
0.0
 11
783.6295312988898
 21
328.9602780613037
 31
0.0
  0
LINE
  5
3EB
330
1F
100
AcDbEntity
  8
Obrys
100
AcDbLine
 10
778.91007529889
 20
333.4073800613036
 30
0.0
 11
778.98067929889
 21
332.6003800613036
 31
0.0
  0
LINE
  5
3ED
330
1F
100
AcDbEntity
  8
Obrys
100
AcDbLine
 10
649.9806792988899
 20
335.2903800613037
 30
0.0
 11
649.9100752988899
 21
334.4833800613036
 31
0.0
  0
LINE
  5
3EE
330
1F
100
AcDbEntity
  8
Obrys
100
AcDbLine
 10
779.98942929889
 20
333.6091300613037
 30
0.0
 11
779.1824292988897
 21
333.6797340613036
 31
0.0
  0
LINE
  5
3F0
330
1F
100
AcDbEntity
  8
Obrys
100
AcDbLine
 10
778.37878229889
 20
334.4833800613036
 30
0.0
 11
778.3081792988899
 21
335.2903800613037
 31
0.0
  0
LINE
  5
3F1
330
1F
100
AcDbEntity
  8
Obrys
100
AcDbLine
 10
778.3081792988899
 20
335.2903800613037
 30
0.0
 11
778.98067929889
 21
335.2903800613037
 31
0.0
  0
LINE
  5
3F2
330
1F
100
AcDbEntity
  8
Obrys
100
AcDbLine
 10
774.56718629889
 20
339.7212000613036
 30
0.0
 11
773.6593262988897
 21
338.9304830613036
 31
0.0
  0
LINE
  5
3F3
330
1F
100
AcDbEntity
  8
Obrys
100
AcDbLine
 10
650.9894292988901
 20
333.6091300613037
 30
0.0
 11
650.1824292988898
 21
333.6797340613036
 31
0.0
  0
LINE
  5
3F4
330
1F
100
AcDbEntity
  8
Obrys
100
AcDbLine
 10
648.29942929889
 20
334.2816300613036
 30
0.0
 11
648.29942929889
 21
333.6091300613037
 31
0.0
  0
LINE
  5
3F6
330
1F
100
AcDbEntity
  8
Obrys
100
AcDbLine
 10
649.3787822988901
 20
334.4833800613036
 30
0.0
 11
649.30817929889
 21
335.2903800613037
 31
0.0
  0
LINE
  5
3F7
330
1F
100
AcDbEntity
  8
Obrys
100
AcDbLine
 10
778.3081792988899
 20
332.6003800613036
 30
0.0
 11
778.37878229889
 21
333.4073800613036
 31
0.0
  0
LINE
  5
3F8
330
1F
100
AcDbEntity
  8
Obrys
100
AcDbLine
 10
434.27666229889
 20
351.9131470613036
 30
0.0
 11
439.90864229889
 21
346.2811670613036
 31
0.0
  0
LINE
  5
3F9
330
1F
100
AcDbEntity
  8
Obrys
100
AcDbLine
 10
428.73919329889
 20
355.8195510613037
 30
0.0
 11
433.3391932988899
 21
355.9400060613037
 31
0.0
  0
LINE
  5
3FA
330
1F
100
AcDbEntity
  8
Obrys
100
AcDbLine
 10
440.4944292988899
 20
344.8669530613036
 30
0.0
 11
440.4944292988899
 21
323.0238080613037
 31
0.0
  0
LINE
  5
3FB
330
1F
100
AcDbEntity
  8
Obrys
100
AcDbLine
 10
439.90864229889
 20
321.6095940613037
 30
0.0
 11
434.27666229889
 21
315.9776140613037
 31
0.0
  0
LINE
  5
3FC
330
1F
100
AcDbEntity
  8
Obrys
100
AcDbLine
 10
814.0120322988898
 20
342.9356660613036
 30
0.0
 11
815.2756392988897
 21
343.4443190613036
 31
0.0
  0
LINE
  5
3FD
330
1F
100
AcDbEntity
  8
Obrys
100
AcDbLine
 10
821.1064292988897
 20
333.6797340613036
 30
0.0
 11
820.2994292988899
 21
333.6091300613037
 31
0.0
  0
LINE
  5
3FE
330
1F
100
AcDbEntity
  8
Obrys
100
AcDbLine
 10
649.30817929889
 20
332.6003800613036
 30
0.0
 11
649.3787822988901
 21
333.4073800613036
 31
0.0
  0
LINE
  5
3FF
330
1F
100
AcDbEntity
  8
Obrys
100
AcDbLine
 10
817.56718629889
 20
339.7212000613036
 30
0.0
 11
816.6593262988897
 21
338.9304830613036
 31
0.0
  0
LINE
  5
400
330
1F
100
AcDbEntity
  8
Obrys
100
AcDbLine
 10
642.01203229889
 20
342.9356660613036
 30
0.0
 11
643.2756392988898
 21
343.4443190613036
 31
0.0
  0
LINE
  5
401
330
1F
100
AcDbEntity
  8
Obrys
100
AcDbLine
 10
656.03189429889
 20
324.8001990613037
 30
0.0
 11
653.9342762988898
 21
326.8978170613037
 31
0.0
  0
LINE
  5
402
330
1F
100
AcDbEntity
  8
Obrys
100
AcDbLine
 10
655.4470612988899
 20
329.5006380613036
 30
0.0
 11
656.7106672988899
 21
330.0092900613036
 31
0.0
  0
LINE
  5
403
330
1F
100
AcDbEntity
  8
Obrys
100
AcDbLine
 10
821.3081792988899
 20
332.6003800613036
 30
0.0
 11
821.37878229889
 21
333.4073800613036
 31
0.0
  0
LINE
  5
404
330
1F
100
AcDbEntity
  8
Obrys
100
AcDbLine
 10
778.98067929889
 20
335.2903800613037
 30
0.0
 11
778.91007529889
 21
334.4833800613036
 31
0.0
  0
LINE
  5
408
330
1F
100
AcDbEntity
  8
Obrys
100
AcDbLine
 10
778.1064292988897
 20
333.6797340613036
 30
0.0
 11
777.2994292988899
 21
333.6091300613037
 31
0.0
  0
LINE
  5
409
330
1F
100
AcDbEntity
  8
Obrys
100
AcDbLine
 10
585.1755122988899
 20
354.4448200613037
 30
0.0
 11
585.1755122988899
 21
313.4459410613036
 31
0.0
  0
LINE
  5
40A
330
1F
100
AcDbEntity
  8
Obrys
100
AcDbLine
 10
736.9894292988901
 20
333.6091300613037
 30
0.0
 11
736.1824292988898
 21
333.6797340613036
 31
0.0
  0
LINE
  5
40D
330
1F
100
AcDbEntity
  8
Obrys
100
AcDbLine
 10
735.30817929889
 20
335.2903800613037
 30
0.0
 11
735.9806792988901
 21
335.2903800613037
 31
0.0
  0
LINE
  5
40F
330
1F
100
AcDbEntity
  8
Obrys
100
AcDbLine
 10
822.1824292988897
 20
334.2110270613036
 30
0.0
 11
822.98942929889
 21
334.2816300613036
 31
0.0
  0
LINE
  5
411
330
1F
100
AcDbEntity
  8
Obrys
100
AcDbLine
 10
741.4470612988899
 20
329.5006380613036
 30
0.0
 11
742.7106672988899
 21
330.0092900613036
 31
0.0
  0
LINE
  5
414
330
1F
100
AcDbEntity
  8
Obrys
100
AcDbLine
 10
542.1755422988899
 20
354.4448200613037
 30
0.0
 11
542.1755422988899
 21
313.4459410613036
 31
0.0
  0
LINE
  5
415
330
1F
100
AcDbEntity
  8
Obrys
100
AcDbLine
 10
777.2994292988899
 20
334.2816300613036
 30
0.0
 11
777.2994292988899
 21
333.6091300613037
 31
0.0
  0
LINE
  5
417
330
1F
100
AcDbEntity
  8
Obrys
100
AcDbLine
 10
800.1133462988898
 20
313.4459410613036
 30
0.0
 11
800.1133462988898
 21
354.4448200613037
 31
0.0
  0
LINE
  5
418
330
1F
100
AcDbEntity
  8
Obrys
100
AcDbLine
 10
870.3496642988898
 20
312.0712100613036
 30
0.0
 11
865.7496642988897
 21
311.9507550613036
 31
0.0
  0
LINE
  5
41A
330
1F
100
AcDbEntity
  8
Obrys
100
AcDbLine
 10
691.29942929889
 20
334.2816300613036
 30
0.0
 11
692.10642929889
 21
334.2110270613036
 31
0.0
  0
LINE
  5
41B
330
1F
100
AcDbEntity
  8
Obrys
100
AcDbLine
 10
691.29942929889
 20
334.2816300613036
 30
0.0
 11
691.29942929889
 21
333.6091300613037
 31
0.0
  0
LINE
  5
41C
330
1F
100
AcDbEntity
  8
Obrys
100
AcDbLine
 10
858.59442929889
 20
323.0238080613037
 30
0.0
 11
858.59442929889
 21
344.8669530613036
 31
0.0
  0
LINE
  5
41D
330
1F
100
AcDbEntity
  8
Obrys
100
AcDbLine
 10
735.9806792988901
 20
332.6003800613036
 30
0.0
 11
735.30817929889
 21
332.6003800613036
 31
0.0
  0
LINE
  5
421
330
1F
100
AcDbEntity
  8
Obrys
100
AcDbLine
 10
779.98942929889
 20
334.2816300613036
 30
0.0
 11
779.98942929889
 21
333.6091300613037
 31
0.0
  0
LINE
  5
423
330
1F
100
AcDbEntity
  8
Obrys
100
AcDbLine
 10
692.10642929889
 20
333.6797340613036
 30
0.0
 11
691.29942929889
 21
333.6091300613037
 31
0.0
  0
LINE
  5
424
330
1F
100
AcDbEntity
  8
Obrys
100
AcDbLine
 10
820.2994292988899
 20
334.2816300613036
 30
0.0
 11
820.2994292988899
 21
333.6091300613037
 31
0.0
  0
LINE
  5
426
330
1F
100
AcDbEntity
  8
Obrys
100
AcDbLine
 10
649.10642929889
 20
333.6797340613036
 30
0.0
 11
648.29942929889
 21
333.6091300613037
 31
0.0
  0
LINE
  5
427
330
1F
100
AcDbEntity
  8
Obrys
100
AcDbLine
 10
692.9806792988899
 20
332.6003800613036
 30
0.0
 11
692.30817929889
 21
332.6003800613036
 31
0.0
  0
LINE
  5
428
330
1F
100
AcDbEntity
  8
Obrys
 48
1.75
100
AcDbLine
 10
873.9151392988899
 20
355.2453800613036
 30
0.0
 11
870.5444292988898
 21
355.2453800613036
 31
0.0
  0
LINE
  5
429
330
1F
100
AcDbEntity
  8
Obrys
 48
1.75
100
AcDbLine
 10
870.5444292988898
 20
312.6453800613037
 30
0.0
 11
873.6151392988897
 21
312.6453800613037
 31
0.0
  0
LINE
  5
42A
330
1F
100
AcDbEntity
  8
Obrys
 48
1.75
100
AcDbLine
 10
872.0444292988898
 20
355.7453800613036
 30
0.0
 11
872.0444292988898
 21
355.2453800613036
 31
0.0
  0
LINE
  5
42B
330
1F
100
AcDbEntity
  8
Obrys
 48
1.75
100
AcDbLine
 10
872.0444292988898
 20
312.6453800613037
 30
0.0
 11
872.0444292988898
 21
312.1453800613037
 31
0.0
  0
LINE
  5
42C
330
1F
100
AcDbEntity
  8
Obrys
 48
1.75
100
AcDbLine
 10
428.5444292988899
 20
355.2453800613036
 30
0.0
 11
425.4737182988899
 21
355.2453800613036
 31
0.0
  0
LINE
  5
42D
330
1F
100
AcDbEntity
  8
Obrys
 48
1.75
100
AcDbLine
 10
427.0444292988899
 20
312.1453800613037
 30
0.0
 11
427.0444292988899
 21
312.6453800613037
 31
0.0
  0
LINE
  5
42E
330
1F
100
AcDbEntity
  8
Obrys
 48
1.75
100
AcDbLine
 10
427.0444292988899
 20
355.2453800613036
 30
0.0
 11
427.0444292988899
 21
355.7453800613036
 31
0.0
  0
LINE
  5
42F
330
1F
100
AcDbEntity
  8
Obrys
100
AcDbLine
 10
341.7444292988899
 20
338.6453800613037
 30
0.0
 11
341.7444292988899
 21
329.2453800613036
 31
0.0
  0
ARC
  5
430
330
1F
100
AcDbEntity
  8
Obrys
 48
1.75
100
AcDbCircle
 10
880.34442929889
 20
318.0453800613037
 30
0.0
 40
3.599999999999966
100
AcDbArc
 50
90.0
 51
270.0
  0
ARC
  5
431
330
1F
100
AcDbEntity
  8
Obrys
 48
1.75
100
AcDbCircle
 10
883.84442929889
 20
318.0453800613037
 30
0.0
 40
3.599999999999952
100
AcDbArc
 50
270.0
 51
90.0
  0
ARC
  5
432
330
1F
100
AcDbEntity
  8
Obrys
 48
1.75
100
AcDbCircle
 10
880.34442929889
 20
333.9453800613036
 30
0.0
 40
3.599999999999963
100
AcDbArc
 50
90.0
 51
270.0
  0
ARC
  5
433
330
1F
100
AcDbEntity
  8
Obrys
 48
1.75
100
AcDbCircle
 10
883.84442929889
 20
333.9453800613036
 30
0.0
 40
3.599999999999955
100
AcDbArc
 50
270.0
 51
90.0
  0
ARC
  5
434
330
1F
100
AcDbEntity
  8
Obrys
 48
1.75
100
AcDbCircle
 10
880.34442929889
 20
349.8453800613036
 30
0.0
 40
3.599999999999964
100
AcDbArc
 50
90.0
 51
270.0
  0
ARC
  5
435
330
1F
100
AcDbEntity
  8
Obrys
 48
1.75
100
AcDbCircle
 10
883.84442929889
 20
349.8453800613036
 30
0.0
 40
3.599999999999955
100
AcDbArc
 50
270.0
 51
90.0
  0
ARC
  5
436
330
1F
100
AcDbEntity
  8
Obrys
 48
1.75
100
AcDbCircle
 10
-873.6151392988897
 20
312.1453800613037
 30
0.0
 40
0.5
210
0.0
220
0.0
230
-1.0
100
AcDbArc
 50
90.0
 51
180.0
  0
ARC
  5
437
330
1F
100
AcDbEntity
  8
Obrys
 48
1.75
100
AcDbCircle
 10
-873.9151392988899
 20
355.7453800613036
 30
0.0
 40
0.5
210
0.0
220
0.0
230
-1.0
100
AcDbArc
 50
180.0
 51
270.0
  0
ARC
  5
438
330
1F
100
AcDbEntity
  8
Obrys
 48
1.75
100
AcDbCircle
 10
-885.172054543475
 20
350.3706519452077
 30
0.0
 40
5.375215384258826
210
0.0
220
0.0
230
-1.0
100
AcDbArc
 50
90.77148412471263
 51
178.137200688455
  0
ARC
  5
439
102
{ACAD_REACTORS
330
4AE
102
}
330
1F
100
AcDbEntity
  8
Obrys
 48
1.75
100
AcDbCircle
 10
-885.1720545434725
 20
317.5201081774057
 30
0.0
 40
5.375215384261455
210
0.0
220
0.0
230
-1.0
100
AcDbArc
 50
181.8627993116096
 51
269.2285158752611
  0
ARC
  5
43A
330
1F
100
AcDbEntity
  8
Obrys
 48
1.75
100
AcDbCircle
 10
418.7444292988899
 20
349.8453800613036
 30
0.0
 40
3.599999999999966
100
AcDbArc
 50
270.0
 51
90.0
  0
ARC
  5
43B
330
1F
100
AcDbEntity
  8
Obrys
 48
1.75
100
AcDbCircle
 10
415.2444292988899
 20
349.8453800613036
 30
0.0
 40
3.599999999999952
100
AcDbArc
 50
90.0
 51
270.0
  0
ARC
  5
43C
330
1F
100
AcDbEntity
  8
Obrys
 48
1.75
100
AcDbCircle
 10
418.7444292988899
 20
333.9453800613036
 30
0.0
 40
3.599999999999963
100
AcDbArc
 50
270.0
 51
90.0
  0
ARC
  5
43D
330
1F
100
AcDbEntity
  8
Obrys
 48
1.75
100
AcDbCircle
 10
415.2444292988899
 20
333.9453800613036
 30
0.0
 40
3.599999999999955
100
AcDbArc
 50
90.0
 51
270.0
  0
ARC
  5
43E
330
1F
100
AcDbEntity
  8
Obrys
 48
1.75
100
AcDbCircle
 10
418.7444292988899
 20
318.0453800613037
 30
0.0
 40
3.599999999999964
100
AcDbArc
 50
270.0
 51
90.0
  0
ARC
  5
43F
330
1F
100
AcDbEntity
  8
Obrys
 48
1.75
100
AcDbCircle
 10
415.2444292988899
 20
318.0453800613037
 30
0.0
 40
3.599999999999955
100
AcDbArc
 50
90.0
 51
270.0
  0
ARC
  5
440
330
1F
100
AcDbEntity
  8
Obrys
 48
1.75
100
AcDbCircle
 10
-425.4737182988899
 20
355.7453800613036
 30
0.0
 40
0.5
210
0.0
220
0.0
230
-1.0
100
AcDbArc
 50
270.0
 51
0.0
  0
ARC
  5
441
330
1F
100
AcDbEntity
  8
Obrys
 48
1.75
100
AcDbCircle
 10
-425.17371829889
 20
312.1453800613037
 30
0.0
 40
0.5
210
0.0
220
0.0
230
-1.0
100
AcDbArc
 50
0.0
 51
90.0
  0
ARC
  5
442
330
1F
100
AcDbEntity
  8
Obrys
 48
1.75
100
AcDbCircle
 10
-413.9168040543046
 20
317.5201081773995
 30
0.0
 40
5.375215384258826
210
0.0
220
0.0
230
-1.0
100
AcDbArc
 50
270.7714841247114
 51
358.1372006884549
  0
ARC
  5
443
330
1F
100
AcDbEntity
  8
Obrys
 48
1.75
100
AcDbCircle
 10
-413.9168040543074
 20
350.3706519452015
 30
0.0
 40
5.375215384261687
210
0.0
220
0.0
230
-1.0
100
AcDbArc
 50
1.862799311610788
 51
89.2285158752599
  0
ARC
  5
446
330
1F
100
AcDbEntity
  8
Obrys
100
AcDbCircle
 10
870.34442929889
 20
355.6196200613036
 30
0.0
 40
0.2
100
AcDbArc
 50
0.0
 51
88.50000000002348
  0
CIRCLE
  5
447
330
1F
100
AcDbEntity
  8
Obrys
100
AcDbCircle
 10
-685.92691429889
 20
340.6628950613037
 30
0.0
 40
2.803176709070639
210
0.0
220
0.0
230
-1.0
  0
CIRCLE
  5
449
330
1F
100
AcDbEntity
  8
Obrys
100
AcDbCircle
 10
778.6444292988897
 20
333.9453800613036
 30
0.0
 40
19.00951715924332
  0
CIRCLE
  5
44A
330
1F
100
AcDbEntity
  8
Obrys
100
AcDbCircle
 10
507.13751929889
 20
321.1353030613037
 30
0.0
 40
2.38165
  0
CIRCLE
  5
44C
330
1F
100
AcDbEntity
  8
Obrys
100
AcDbCircle
 10
-642.92691429889
 20
340.6628950613037
 30
0.0
 40
2.803176709070639
210
0.0
220
0.0
230
-1.0
  0
CIRCLE
  5
44D
330
1F
100
AcDbEntity
  8
Obrys
100
AcDbCircle
 10
-814.9269142988899
 20
340.6628950613037
 30
0.0
 40
2.803176709070639
210
0.0
220
0.0
230
-1.0
  0
CIRCLE
  5
44E
330
1F
100
AcDbEntity
  8
Obrys
100
AcDbCircle
 10
-656.36194329889
 20
327.2278660613036
 30
0.0
 40
2.803176709070639
210
0.0
220
0.0
230
-1.0
  0
ARC
  5
44F
330
1F
100
AcDbEntity
  8
Obrys
100
AcDbCircle
 10
-438.4944292988899
 20
323.0238080613037
 30
0.0
 40
2.0
210
0.0
220
0.0
230
-1.0
100
AcDbArc
 50
180.0
 51
225.0
  0
ARC
  5
450
330
1F
100
AcDbEntity
  8
Obrys
100
AcDbCircle
 10
433.34442929889
 20
312.1506860613036
 30
0.0
 40
0.2
100
AcDbArc
 50
268.4999999999909
 51
0.0
  0
ARC
  5
451
330
1F
100
AcDbEntity
  8
Obrys
100
AcDbCircle
 10
-865.7444292988898
 20
355.7400750613037
 30
0.0
 40
0.2
210
0.0
220
0.0
230
-1.0
100
AcDbArc
 50
0.0
 51
91.49999999997651
  0
ARC
  5
452
330
1F
100
AcDbEntity
  8
Obrys
100
AcDbCircle
 10
-860.59442929889
 20
344.8669530613036
 30
0.0
 40
2.0
210
0.0
220
0.0
230
-1.0
100
AcDbArc
 50
0.0
 51
44.99999999999885
  0
CIRCLE
  5
453
330
1F
100
AcDbEntity
  8
Obrys
100
AcDbCircle
 10
-771.9269142988899
 20
340.6628950613037
 30
0.0
 40
2.803176709070639
210
0.0
220
0.0
230
-1.0
  0
ARC
  5
454
330
1F
100
AcDbEntity
  8
Obrys
100
AcDbCircle
 10
-865.7444292988898
 20
312.1506860613036
 30
0.0
 40
0.2
210
0.0
220
0.0
230
-1.0
100
AcDbArc
 50
268.5000000000235
 51
0.0
  0
ARC
  5
455
330
1F
100
AcDbEntity
  8
Obrys
100
AcDbCircle
 10
428.7444292988899
 20
312.2711410613036
 30
0.0
 40
0.2
100
AcDbArc
 50
180.0
 51
268.4999999999909
  0
CIRCLE
  5
457
330
1F
100
AcDbEntity
  8
Obrys
100
AcDbCircle
 10
-828.71549629889
 20
341.0164480613036
 30
0.0
 40
2.752085816247519
210
0.0
220
0.0
230
-1.0
  0
CIRCLE
  5
45A
330
1F
100
AcDbEntity
  8
Obrys
100
AcDbCircle
 10
-742.36194329889
 20
327.2278660613036
 30
0.0
 40
2.803176709070639
210
0.0
220
0.0
230
-1.0
  0
ARC
  5
45C
330
1F
100
AcDbEntity
  8
Obrys
100
AcDbCircle
 10
436.0444292988899
 20
314.2098470613036
 30
0.0
 40
2.5
100
AcDbArc
 50
135.0000000000009
 51
180.0
  0
ARC
  5
45D
330
1F
100
AcDbEntity
  8
Obrys
100
AcDbCircle
 10
863.0444292988898
 20
353.6809140613037
 30
0.0
 40
2.5
100
AcDbArc
 50
314.9999999999953
 51
0.0
  0
ARC
  5
45E
330
1F
100
AcDbEntity
  8
Obrys
100
AcDbCircle
 10
-860.59442929889
 20
323.0238080613037
 30
0.0
 40
2.0
210
0.0
220
0.0
230
-1.0
100
AcDbArc
 50
315.0000000000011
 51
0.0
  0
CIRCLE
  5
45F
330
1F
100
AcDbEntity
  8
Obrys
100
AcDbCircle
 10
-785.3619432988899
 20
327.2278660613036
 30
0.0
 40
2.803176709070639
210
0.0
220
0.0
230
-1.0
  0
ARC
  5
460
330
1F
100
AcDbEntity
  8
Obrys
100
AcDbCircle
 10
436.0444292988899
 20
353.6809140613037
 30
0.0
 40
2.5
100
AcDbArc
 50
180.0
 51
224.9999999999982
  0
ARC
  5
461
330
1F
100
AcDbEntity
  8
Obrys
100
AcDbCircle
 10
433.34442929889
 20
355.7400750613037
 30
0.0
 40
0.2
100
AcDbArc
 50
0.0
 51
91.50000000000908
  0
CIRCLE
  5
462
330
1F
100
AcDbEntity
  8
Obrys
100
AcDbCircle
 10
-828.3619432988899
 20
327.2278660613036
 30
0.0
 40
2.803176709070639
210
0.0
220
0.0
230
-1.0
  0
CIRCLE
  5
464
330
1F
100
AcDbEntity
  8
Obrys
100
AcDbCircle
 10
-699.7154962988899
 20
341.0164480613036
 30
0.0
 40
2.752085816247519
210
0.0
220
0.0
230
-1.0
  0
CIRCLE
  5
466
330
1F
100
AcDbEntity
  8
Obrys
100
AcDbCircle
 10
821.6444292988897
 20
333.9453800613036
 30
0.0
 40
19.00951715924332
  0
CIRCLE
  5
467
330
1F
100
AcDbEntity
  8
Obrys
100
AcDbCircle
 10
-728.92691429889
 20
340.6628950613037
 30
0.0
 40
2.803176709070639
210
0.0
220
0.0
230
-1.0
  0
CIRCLE
  5
469
330
1F
100
AcDbEntity
  8
Obrys
100
AcDbCircle
 10
735.6444292988898
 20
333.9453800613036
 30
0.0
 40
19.00951715924332
  0
CIRCLE
  5
46A
330
1F
100
AcDbEntity
  8
Obrys
100
AcDbCircle
 10
-699.36194329889
 20
327.2278660613036
 30
0.0
 40
2.803176709070639
210
0.0
220
0.0
230
-1.0
  0
CIRCLE
  5
46B
330
1F
100
AcDbEntity
  8
Obrys
100
AcDbCircle
 10
692.64442929889
 20
333.9453800613036
 30
0.0
 40
19.00951715924332
  0
ARC
  5
46C
330
1F
100
AcDbEntity
  8
Obrys
100
AcDbCircle
 10
863.0444292988898
 20
314.2098470613036
 30
0.0
 40
2.5
100
AcDbArc
 50
0.0
 51
45.0000000000046
  0
CIRCLE
  5
46D
330
1F
100
AcDbEntity
  8
Obrys
100
AcDbCircle
 10
-778.6444292988897
 20
333.9453800613036
 30
0.0
 40
3.100903218855192
210
0.0
220
0.0
230
-1.0
  0
CIRCLE
  5
46E
330
1F
100
AcDbEntity
  8
Obrys
100
AcDbCircle
 10
-785.71549629889
 20
341.0164480613036
 30
0.0
 40
2.752085816247519
210
0.0
220
0.0
230
-1.0
  0
ARC
  5
46F
330
1F
100
AcDbEntity
  8
Obrys
100
AcDbCircle
 10
870.34442929889
 20
312.2711410613036
 30
0.0
 40
0.2
100
AcDbArc
 50
271.4999999999765
 51
0.0
  0
CIRCLE
  5
470
330
1F
100
AcDbEntity
  8
Obrys
100
AcDbCircle
 10
-692.64442929889
 20
333.9453800613036
 30
0.0
 40
3.100903218855192
210
0.0
220
0.0
230
-1.0
  0
CIRCLE
  5
471
330
1F
100
AcDbEntity
  8
Obrys
100
AcDbCircle
 10
-742.7154962988901
 20
341.0164480613036
 30
0.0
 40
2.752085816247519
210
0.0
220
0.0
230
-1.0
  0
ARC
  5
472
330
1F
100
AcDbEntity
  8
Obrys
100
AcDbCircle
 10
-438.4944292988899
 20
344.8669530613036
 30
0.0
 40
2.0
210
0.0
220
0.0
230
-1.0
100
AcDbArc
 50
135.0
 51
180.0
  0
CIRCLE
  5
473
330
1F
100
AcDbEntity
  8
Obrys
100
AcDbCircle
 10
-821.6444292988897
 20
333.9453800613036
 30
0.0
 40
3.100903218855192
210
0.0
220
0.0
230
-1.0
  0
CIRCLE
  5
474
330
1F
100
AcDbEntity
  8
Obrys
100
AcDbCircle
 10
-649.64442929889
 20
333.9453800613036
 30
0.0
 40
3.100903218855192
210
0.0
220
0.0
230
-1.0
  0
ARC
  5
475
330
1F
100
AcDbEntity
  8
Obrys
100
AcDbCircle
 10
428.7444292988899
 20
355.6196200613036
 30
0.0
 40
0.2
100
AcDbArc
 50
91.50000000000908
 51
180.0
  0
CIRCLE
  5
476
330
1F
100
AcDbEntity
  8
Obrys
100
AcDbCircle
 10
-656.7154962988899
 20
341.0164480613036
 30
0.0
 40
2.752085816247519
210
0.0
220
0.0
230
-1.0
  0
CIRCLE
  5
477
330
1F
100
AcDbEntity
  8
Obrys
100
AcDbCircle
 10
649.64442929889
 20
333.9453800613036
 30
0.0
 40
19.00951715924332
  0
ARC
  5
480
330
1F
100
AcDbEntity
  8
Obrys
100
AcDbCircle
 10
649.1339936670837
 20
334.45581569311
 30
0.0
 40
0.2463356828710762
100
AcDbArc
 50
263.5752853432581
 51
6.424714656741898
  0
ARC
  5
481
330
1F
100
AcDbEntity
  8
Obrys
100
AcDbCircle
 10
650.154865414563
 20
334.4558170757719
 30
0.0
 40
0.2463370027068517
100
AcDbArc
 50
173.5756435380082
 51
276.4245668347625
  0
ARC
  5
482
330
1F
100
AcDbEntity
  8
Obrys
100
AcDbCircle
 10
650.1548667972353
 20
333.4349425629583
 30
0.0
 40
0.2463383225557949
100
AcDbArc
 50
83.57579135993535
 51
186.4242086400909
  0
ARC
  5
483
330
1F
100
AcDbEntity
  8
Obrys
100
AcDbCircle
 10
649.1339922844219
 20
333.4349439456308
 30
0.0
 40
0.2463370027067292
100
AcDbArc
 50
353.5754331651543
 51
96.42435646202404
  0
ARC
  5
484
330
1F
100
AcDbEntity
  8
Obrys
100
AcDbCircle
 10
692.1339936670837
 20
334.45581569311
 30
0.0
 40
0.2463356828710762
100
AcDbArc
 50
263.5752853432581
 51
6.424714656741898
  0
ARC
  5
485
330
1F
100
AcDbEntity
  8
Obrys
100
AcDbCircle
 10
692.1339922844219
 20
333.4349439456308
 30
0.0
 40
0.2463370027067292
100
AcDbArc
 50
353.5754331651543
 51
96.42435646202404
  0
ARC
  5
486
330
1F
100
AcDbEntity
  8
Obrys
100
AcDbCircle
 10
693.1548667972353
 20
333.4349425629583
 30
0.0
 40
0.2463383225557949
100
AcDbArc
 50
83.57579135993535
 51
186.4242086400909
  0
ARC
  5
487
330
1F
100
AcDbEntity
  8
Obrys
100
AcDbCircle
 10
693.154865414563
 20
334.4558170757719
 30
0.0
 40
0.2463370027068795
100
AcDbArc
 50
173.5756435380082
 51
276.4245668347625
  0
ARC
  5
488
330
1F
100
AcDbEntity
  8
Obrys
100
AcDbCircle
 10
735.1339922844217
 20
333.4349439456308
 30
0.0
 40
0.2463370027067228
100
AcDbArc
 50
353.5754331651543
 51
96.42435646202404
  0
ARC
  5
489
330
1F
100
AcDbEntity
  8
Obrys
100
AcDbCircle
 10
735.1339936670837
 20
334.45581569311
 30
0.0
 40
0.2463356828710762
100
AcDbArc
 50
263.5752853432041
 51
6.424714656741898
  0
ARC
  5
48A
330
1F
100
AcDbEntity
  8
Obrys
100
AcDbCircle
 10
736.1565002348653
 20
334.4604886194177
 30
0.0
 40
0.2508054731019652
100
AcDbArc
 50
174.0139493558388
 51
275.9340218591591
  0
ARC
  5
48B
330
1F
100
AcDbEntity
  8
Obrys
100
AcDbCircle
 10
736.1548667972351
 20
333.4349425629583
 30
0.0
 40
0.2463383225556819
100
AcDbArc
 50
83.57579135987984
 51
186.4242086400939
  0
ARC
  5
48C
330
1F
100
AcDbEntity
  8
Obrys
100
AcDbCircle
 10
778.1339936670836
 20
334.45581569311
 30
0.0
 40
0.2463356828710762
100
AcDbArc
 50
263.5752853432041
 51
6.424714656741898
  0
ARC
  5
48D
330
1F
100
AcDbEntity
  8
Obrys
100
AcDbCircle
 10
778.1339922844215
 20
333.4349439456308
 30
0.0
 40
0.2463370027067228
100
AcDbArc
 50
353.5754331651543
 51
96.42435646202404
  0
ARC
  5
48E
330
1F
100
AcDbEntity
  8
Obrys
100
AcDbCircle
 10
779.154866797235
 20
333.4349425629583
 30
0.0
 40
0.2463383225556819
100
AcDbArc
 50
83.57579135987984
 51
186.4242086400939
  0
ARC
  5
48F
330
1F
100
AcDbEntity
  8
Obrys
100
AcDbCircle
 10
779.1548654145629
 20
334.4558170757719
 30
0.0
 40
0.246337002706823
100
AcDbArc
 50
173.5756435380052
 51
276.4245668347639
  0
ARC
  5
490
330
1F
100
AcDbEntity
  8
Obrys
100
AcDbCircle
 10
821.1339936670836
 20
334.45581569311
 30
0.0
 40
0.2463356828710762
100
AcDbArc
 50
263.5752853432041
 51
6.424714656741898
  0
ARC
  5
491
330
1F
100
AcDbEntity
  8
Obrys
100
AcDbCircle
 10
821.1339922844215
 20
333.4349439456308
 30
0.0
 40
0.2463370027067228
100
AcDbArc
 50
353.5754331651543
 51
96.42435646202404
  0
ARC
  5
492
330
1F
100
AcDbEntity
  8
Obrys
100
AcDbCircle
 10
822.154866797235
 20
333.4349425629583
 30
0.0
 40
0.2463383225556819
100
AcDbArc
 50
83.57579135987984
 51
186.4242086400939
  0
ARC
  5
493
330
1F
100
AcDbEntity
  8
Obrys
100
AcDbCircle
 10
822.1548654145629
 20
334.4558170757719
 30
0.0
 40
0.246337002706823
100
AcDbArc
 50
173.5756435380052
 51
276.4245668347639
  0
ARC
  5
498
330
1F
100
AcDbEntity
  8
Obrys
100
AcDbCircle
 10
642.9269148279212
 20
340.6628945903348
 30
0.0
 40
2.450000041056399
100
AcDbArc
 50
111.9267813863877
 51
338.073218613617
  0
ARC
  5
499
330
1F
100
AcDbEntity
  8
Obrys
100
AcDbCircle
 10
656.3619428765736
 20
327.2278663519795
 30
0.0
 40
2.449999906916275
100
AcDbArc
 50
111.9267586660171
 51
338.0732233597
  0
ARC
  5
49A
330
1F
100
AcDbEntity
  8
Obrys
100
AcDbCircle
 10
685.9269148279212
 20
340.6628945903348
 30
0.0
 40
2.450000041056399
100
AcDbArc
 50
111.9267813863877
 51
338.073218613617
  0
ARC
  5
49B
330
1F
100
AcDbEntity
  8
Obrys
100
AcDbCircle
 10
699.3619428765736
 20
327.2278663519795
 30
0.0
 40
2.449999906916275
100
AcDbArc
 50
111.9267586660171
 51
338.0732233597
  0
ARC
  5
49C
330
1F
100
AcDbEntity
  8
Obrys
100
AcDbCircle
 10
728.926914827921
 20
340.6628945903348
 30
0.0
 40
2.450000041056452
100
AcDbArc
 50
111.9267813863813
 51
338.0732186136158
  0
ARC
  5
49D
330
1F
100
AcDbEntity
  8
Obrys
100
AcDbCircle
 10
742.3619428765736
 20
327.2278663519795
 30
0.0
 40
2.449999906916381
100
AcDbArc
 50
111.926758666022
 51
338.0732233597009
  0
ARC
  5
49E
330
1F
100
AcDbEntity
  8
Obrys
100
AcDbCircle
 10
771.9269148279209
 20
340.6628945903348
 30
0.0
 40
2.450000041056452
100
AcDbArc
 50
111.9267813863813
 51
338.0732186136158
  0
ARC
  5
49F
330
1F
100
AcDbEntity
  8
Obrys
100
AcDbCircle
 10
785.3619428765735
 20
327.2278663519795
 30
0.0
 40
2.449999906916381
100
AcDbArc
 50
111.926758666022
 51
338.0732233597009
  0
ARC
  5
4A0
330
1F
100
AcDbEntity
  8
Obrys
100
AcDbCircle
 10
814.9269148279209
 20
340.6628945903348
 30
0.0
 40
2.450000041056452
100
AcDbArc
 50
111.9267813863813
 51
338.0732186136158
  0
ARC
  5
4A1
330
1F
100
AcDbEntity
  8
Obrys
100
AcDbCircle
 10
828.3619428765735
 20
327.2278663519795
 30
0.0
 40
2.449999906916381
100
AcDbArc
 50
111.926758666022
 51
338.0732233597009
  0
LINE
  5
4A2
330
1F
100
AcDbEntity
  8
Obrys
100
AcDbLine
 10
425.17371829889
 20
312.6453800613037
 30
0.0
 11
427.0444292988899
 21
312.6453800613037
 31
0.0
  0
DIMENSION
  5
4AC
102
{ACAD_REACTORS
330
4AE
102
}
102
{ACAD_XDICTIONARY
360
4AD
102
}
330
1F
100
AcDbEntity
  8
Koty
100
AcDbDimension
280
     0
  2
*D2
 10
890.5444292988898
 20
290.1508909286483
 30
0.0
 11
649.5444292988898
 21
294.7538909286483
 31
0.0
 70
    32
 71
     5
 42
481.9999999999999
 73
     0
 74
     0
 75
     0
  3
Standard
100
AcDbAlignedDimension
 13
408.5444292988899
 23
317.3453800613036
 33
0.0
 14
890.5444292988898
 24
317.3453800613036
 34
0.0
100
AcDbRotatedDimension
1001
ACAD
1000
DSTYLE
1002
{
1070
   271
1070
     1
1070
   278
1070
    44
1070
   140
1040
6.0
1070
    73
1070
     0
1070
    77
1070
     1
1070
   147
1040
1.0
1070
    41
1040
6.0
1002
}
  0
DIMENSION
  5
4BC
102
{ACAD_REACTORS
330
4BE
102
}
102
{ACAD_XDICTIONARY
360
4BD
102
}
330
1F
100
AcDbEntity
  8
Koty
100
AcDbDimension
280
     0
  2
*D3
 10
914.2920003265136
 20
311.9453800613036
 30
0.0
 11
909.6890003265137
 21
333.9453800613036
 31
0.0
 70
    32
 71
     5
 42
44.0
 73
     0
 74
     0
 75
     0
  3
Standard
100
AcDbAlignedDimension
 13
865.5444292988898
 23
355.9453800613036
 33
0.0
 14
865.5444292988898
 24
311.9453800613036
 34
0.0
 50
90.0
100
AcDbRotatedDimension
1001
ACAD
1000
DSTYLE
1002
{
1070
   271
1070
     1
1070
   278
1070
    44
1070
   140
1040
6.0
1070
    73
1070
     0
1070
    77
1070
     1
1070
   147
1040
1.0
1070
    41
1040
6.0
1002
}
  0
DIMENSION
  5
4CC
102
{ACAD_XDICTIONARY
360
4CD
102
}
330
1F
100
AcDbEntity
  8
Koty
100
AcDbDimension
280
     0
  2
*D4
 10
914.2920003265136
 20
259.2488600613037
 30
0.0
 11
909.6890003265137
 21
237.2488600613037
 31
0.0
 70
    32
 71
     5
 42
44.0
 73
     0
 74
     0
 75
     0
  3
Standard
100
AcDbAlignedDimension
 13
890.54442929889
 23
215.2488600613037
 33
0.0
 14
865.6444292988899
 24
259.2488600613037
 34
0.0
 50
90.0
100
AcDbRotatedDimension
1001
ACAD
1000
DSTYLE
1002
{
1070
   271
1070
     1
1070
   278
1070
    44
1070
   140
1040
6.0
1070
    73
1070
     0
1070
    77
1070
     1
1070
   147
1040
1.0
1070
    41
1040
6.0
1002
}
  0
DIMENSION
  5
4DC
102
{ACAD_REACTORS
330
4DE
102
}
102
{ACAD_XDICTIONARY
360
4DD
102
}
330
1F
100
AcDbEntity
  8
Koty
100
AcDbDimension
280
     0
  2
*D5
 10
872.0444292988899
 20
271.7267356830753
 30
0.0
 11
649.54442929889
 21
276.3297356830753
 31
0.0
 70
    32
 71
     5
 42
444.9999999999999
 73
     0
 74
     0
 75
     0
  3
Standard
100
AcDbAlignedDimension
 13
427.04442929889
 23
257.5488600613036
 33
0.0
 14
872.0444292988899
 24
257.5488600613036
 34
0.0
100
AcDbRotatedDimension
1001
ACAD
1000
DSTYLE
1002
{
1070
   271
1070
     1
1070
   278
1070
    44
1070
   140
1040
6.0
1070
    73
1070
     0
1070
    77
1070
     1
1070
   147
1040
1.0
1070
    41
1040
6.0
1002
}
  0
VIEWPORT
  5
4EC
330
58
100
AcDbEntity
 67
     1
  8
0
100
AcDbViewport
 10
0.0
 20
0.0
 30
0.0
 40
16.33089005235603
 41
8.400000000000002
 68
     1
 69
     1
 12
5.302774869109947
 22
3.451623036649215
 13
0.0
 23
0.0
 14
0.5
 24
0.5
 15
0.0
 25
0.0
 16
0.0
 26
0.0
 36
1.0
 17
0.0
 27
0.0
 37
0.0
 42
50.0
 43
0.0
 44
0.0
 45
8.400000000000002
 50
0.0
 51
0.0
 72
   100
 90
   557168
  1

281
     0
 71
     1
 74
     0
110
0.0
120
0.0
130
0.0
111
1.0
121
0.0
131
0.0
112
0.0
122
1.0
132
0.0
 79
     0
146
0.0
170
     0
 61
     5
348
9F
292
     1
282
     1
141
0.0
142
0.0
 63
   256
361
4EE
  0
VIEWPORT
  5
4ED
330
58
100
AcDbEntity
 67
     1
  8
0
100
AcDbViewport
 10
5.25
 20
3.5
 30
0.0
 40
8.4
 41
5.600000000000001
 68
     2
 69
     2
 12
628.5182148127018
 22
281.9354960613036
 13
0.0
 23
0.0
 14
0.5
 24
0.5
 15
0.0
 25
0.0
 16
0.0
 26
0.0
 36
1.0
 17
0.0
 27
0.0
 37
0.0
 42
50.0
 43
0.0
 44
0.0
 45
390.0123482987841
 50
0.0
 51
0.0
 72
   100
 90
   557152
  1

281
     0
 71
     1
 74
     0
110
0.0
120
0.0
130
0.0
111
1.0
121
0.0
131
0.0
112
0.0
122
1.0
132
0.0
 79
     0
146
0.0
170
     0
 61
     5
348
9F
292
     1
282
     1
141
0.0
142
0.0
 63
   256
  0
ENDSEC
  0
SECTION
  2
OBJECTS
  0
DICTIONARY
  5
C
330
0
100
AcDbDictionary
281
     1
  3
ACAD_COLOR
350
73
  3
ACAD_DETAILVIEWSTYLE
350
122
  3
ACAD_GROUP
350
D
  3
ACAD_IMAGE_VARS
350
DC
  3
ACAD_LAYOUT
350
1A
  3
ACAD_MATERIAL
350
72
  3
ACAD_MLEADERSTYLE
350
B5
  3
ACAD_MLINESTYLE
350
17
  3
ACAD_PLOTSETTINGS
350
19
  3
ACAD_PLOTSTYLENAME
350
E
  3
ACAD_SCALELIST
350
B6
  3
ACAD_SECTIONVIEWSTYLE
350
123
  3
ACAD_TABLESTYLE
350
86
  3
ACAD_VISUALSTYLE
350
99
  3
ACDB_RECOMPOSE_DATA
350
505
  3
AcDbVariableDictionary
350
66
  3
APPDATA
350
E1
  0
SUN
  5
ED
330
94
100
AcDbSun
 90
        1
290
     0
 63
     7
421
 16777215
 40
1.0
291
     1
 91
  2455826
 92
 54000000
292
     0
 70
     2
 71
   256
280
     1
  0
DICTIONARY
  5
2F4
330
2
100
AcDbDictionary
280
     1
281
     1
  3
ACAD_LAYERSTATES
360
2F5
  3
ACLYDICTIONARY
360
4AA
  0
DICTIONARY
  5
4AD
330
4AC
100
AcDbDictionary
280
     1
281
     1
  3
ACAD_DIMASSOC
360
4AE
  0
DICTIONARY
  5
4BD
330
4BC
100
AcDbDictionary
280
     1
281
     1
  3
ACAD_DIMASSOC
360
4BE
  0
DICTIONARY
  5
4CD
330
4CC
100
AcDbDictionary
280
     1
281
     1
  0
DICTIONARY
  5
4DD
330
4DC
100
AcDbDictionary
280
     1
281
     1
  3
ACAD_DIMASSOC
360
4DE
  0
SUN
  5
4EE
330
4EC
100
AcDbSun
 90
        1
290
     0
 63
     7
421
 16777215
 40
1.0
291
     1
 91
  2455826
 92
 54000000
292
     0
 70
     2
 71
   256
280
     1
  0
DICTIONARY
  5
73
102
{ACAD_REACTORS
330
C
102
}
330
C
100
AcDbDictionary
281
     1
  0
DICTIONARY
  5
122
102
{ACAD_REACTORS
330
C
102
}
330
C
100
AcDbDictionary
281
     1
  0
DICTIONARY
  5
D
102
{ACAD_REACTORS
330
C
102
}
330
C
100
AcDbDictionary
281
     1
  0
RASTERVARIABLES
  5
DC
102
{ACAD_REACTORS
330
C
102
}
330
C
100
AcDbRasterVariables
 90
        0
 70
     1
 71
     1
 72
     5
  0
DICTIONARY
  5
1A
102
{ACAD_REACTORS
330
C
102
}
330
C
100
AcDbDictionary
281
     1
  3
Model
350
22
  3
Sheet1
350
59
  0
DICTIONARY
  5
72
102
{ACAD_REACTORS
330
C
102
}
330
C
100
AcDbDictionary
281
     1
  3
ByBlock
350
E2
  3
ByLayer
350
96
  3
Global
350
98
  0
DICTIONARY
  5
B5
102
{ACAD_REACTORS
330
C
102
}
330
C
100
AcDbDictionary
281
     1
  3
Standard
350
124
  0
DICTIONARY
  5
17
102
{ACAD_REACTORS
330
C
102
}
330
C
100
AcDbDictionary
281
     1
  3
Standard
350
18
  0
DICTIONARY
  5
19
102
{ACAD_REACTORS
330
C
102
}
330
C
100
AcDbDictionary
281
     1
  0
ACDBDICTIONARYWDFLT
  5
E
102
{ACAD_REACTORS
330
C
102
}
330
C
100
AcDbDictionary
281
     1
  3
Normal
350
F
100
AcDbDictionaryWithDefault
340
F
  0
DICTIONARY
  5
B6
102
{ACAD_REACTORS
330
C
102
}
330
C
100
AcDbDictionary
281
     1
  3
A0
350
B7
  3
A1
350
B8
  3
A2
350
B9
  3
A3
350
BA
  3
A4
350
BB
  3
A5
350
BC
  3
A6
350
BD
  3
A7
350
BE
  3
A8
350
BF
  3
A9
350
C0
  3
B0
350
C1
  3
B1
350
C2
  3
B2
350
C3
  3
B3
350
C4
  3
B4
350
C5
  3
B5
350
C6
  3
B6
350
C7
  3
B7
350
C8
  3
B8
350
C9
  3
B9
350
CA
  3
C0
350
CB
  3
C1
350
CC
  3
C2
350
CD
  3
C3
350
CE
  3
C4
350
CF
  3
C5
350
D0
  3
C6
350
D1
  3
C7
350
D2
  3
C8
350
D3
  3
C9
350
D4
  3
D0
350
D5
  3
D1
350
D6
  3
D2
350
D7
  0
DICTIONARY
  5
123
102
{ACAD_REACTORS
330
C
102
}
330
C
100
AcDbDictionary
281
     1
  0
DICTIONARY
  5
86
102
{ACAD_REACTORS
330
C
102
}
330
C
100
AcDbDictionary
281
     1
  3
Standard
350
87
  0
DICTIONARY
  5
99
102
{ACAD_REACTORS
330
C
102
}
330
C
100
AcDbDictionary
281
     1
  3
2dWireframe
350
9F
  3
3D Hidden
350
A1
  3
3dWireframe
350
A0
  3
Basic
350
9E
  3
Brighten
350
A5
  3
ColorChange
350
A9
  3
Conceptual
350
A2
  3
Dim
350
A4
  3
EdgeColorOff
350
E7
  3
Facepattern
350
A8
  3
Flat
350
9A
  3
FlatWithEdges
350
9B
  3
Gouraud
350
9C
  3
GouraudWithEdges
350
9D
  3
Hidden
350
E4
  3
JitterOff
350
E5
  3
Linepattern
350
A7
  3
OverhangOff
350
E6
  3
Realistic
350
A3
  3
Shaded
350
EC
  3
Shaded with edges
350
EB
  3
Shades of Gray
350
E8
  3
Sketchy
350
E9
  3
Thicken
350
A6
  3
Wireframe
350
E3
  3
X-Ray
350
EA
  0
XRECORD
  5
505
102
{ACAD_REACTORS
330
C
102
}
330
C
100
AcDbXrecord
280
     1
 90
        1
330
87
  0
DICTIONARY
  5
66
102
{ACAD_REACTORS
330
C
102
}
330
C
100
AcDbDictionary
281
     1
  3
CANNOSCALE
350
D8
  3
CMLEADERSTYLE
350
4A3
  3
CTABLESTYLE
350
89
  3
DIMASSOC
350
67
  3
HIDETEXT
350
6B
  3
LIGHTSINBLOCKS
350
DF
  3
XCLIPFRAME
350
E0
  0
DICTIONARY
  5
E1
102
{ACAD_REACTORS
330
C
102
}
330
C
100
AcDbDictionary
281
     1
  0
DICTIONARY
  5
2F5
102
{ACAD_REACTORS
330
2F4
102
}
330
2F4
100
AcDbDictionary
281
     1
  3
ARGON_LAYERP_2
350
4A9
  0
DICTIONARY
  5
4AA
102
{ACAD_REACTORS
330
2F4
102
}
330
2F4
100
AcDbDictionary
281
     1
1001
ACAD
1000
<All
  0
DIMASSOC
  5
4AE
102
{ACAD_REACTORS
330
4AD
102
}
330
4AD
100
AcDbDimAssoc
330
4AC
 90
        3
 70
     0
 71
     1
  1
AcDbOsnapPointRef
 72
     1
331
38B
 73
     0
 91
        0
 40
0.0
 10
0.0
 20
0.0
 30
0.0
 75
     0
  1
AcDbOsnapPointRef
 72
    13
331
439
 73
     0
 91
        0
 40
0.0
 10
0.0
 20
0.0
 30
0.0
 75
     0
  0
DIMASSOC
  5
4BE
102
{ACAD_REACTORS
330
4BD
102
}
330
4BD
100
AcDbDimAssoc
330
4BC
 90
        3
 70
     0
 71
     1
  1
AcDbOsnapPointRef
 72
     1
331
372
 73
     0
 91
        0
 40
0.0
 10
0.0
 20
0.0
 30
0.0
 75
     0
  1
AcDbOsnapPointRef
 72
     1
331
356
 73
     0
 91
        0
 40
0.0
 10
0.0
 20
0.0
 30
0.0
 75
     0
  0
DIMASSOC
  5
4DE
102
{ACAD_REACTORS
330
4DD
102
}
330
4DD
100
AcDbDimAssoc
330
4DC
 90
        3
 70
     0
 71
     1
  1
AcDbOsnapPointRef
 72
     1
331
312
 73
     0
 91
        0
 40
0.0
 10
0.0
 20
0.0
 30
0.0
 75
     0
  1
AcDbOsnapPointRef
 72
    13
331
32A
 73
     0
 91
        0
 40
0.0
 10
0.0
 20
0.0
 30
0.0
 75
     0
  0
LAYOUT
  5
22
102
{ACAD_REACTORS
330
1A
102
}
330
1A
100
AcDbPlotSettings
  1

  2
none_device
  4
ANSI_A_(8.50_x_11.00_Inches)
  6

 40
6.35
 41
19.05
 42
6.35
 43
19.05
 44
215.9
 45
279.4
 46
11.11250000000003
 47
0.0000000000000142
 48
0.0
 49
0.0
140
0.0
141
0.0
142
1.0
143
1.263157894736842
 70
 11444
 72
     0
 73
     1
 74
     1
  7
monochrome.ctb
 75
     0
 76
     0
 77
     2
 78
   300
147
0.7916666666666665
148
-702.8076765758875
149
-496.2830551296954
100
AcDbLayout
  1
Model
 70
     1
 71
     0
 10
0.0
 20
0.0
 11
12.0
 21
9.0
 12
0.0
 22
0.0
 32
0.0
 14
341.7444292988899
 24
207.9256120613036
 34
-0.0000000000000156
 15
915.2920003265136
 25
355.9453800613036
 35
0.0000000000001805
146
0.0
 13
0.0
 23
0.0
 33
0.0
 16
1.0
 26
0.0
 36
0.0
 17
0.0
 27
1.0
 37
0.0
 76
     0
330
1F
331
94
  0
LAYOUT
  5
59
102
{ACAD_REACTORS
330
1A
102
}
330
1A
100
AcDbPlotSettings
  1

  2
none_device
  4
ANSI_A_(11.00_x_8.50_Inches)
  6

 40
6.35
 41
19.05
 42
6.35
 43
19.05
 44
279.4
 45
215.9
 46
0.0
 47
0.0
 48
0.0
 49
0.0
140
0.0
141
0.0
142
1.0
143
1.0
 70
   688
 72
     0
 73
     0
 74
     5
  7

 75
    16
 76
     0
 77
     2
 78
   300
147
1.0
148
0.0
149
0.0
100
AcDbLayout
  1
Sheet1
 70
     1
 71
     1
 10
0.0
 20
0.0
 11
10.75
 21
7.75
 12
0.0
 22
0.0
 32
0.0
 14
1.05
 24
0.6999999999999997
 34
0.0
 15
9.45
 25
6.300000000000001
 35
0.0
146
0.0
 13
0.0
 23
0.0
 33
0.0
 16
1.0
 26
0.0
 36
0.0
 17
0.0
 27
1.0
 37
0.0
 76
     0
330
58
331
4EC
  0
MATERIAL
  5
E2
102
{ACAD_REACTORS
330
72
102
}
330
72
100
AcDbMaterial
  1
ByBlock
 72
     1
 94
      127
  0
MATERIAL
  5
96
102
{ACAD_REACTORS
330
72
102
}
330
72
100
AcDbMaterial
  1
ByLayer
 72
     1
 94
       63
  0
MATERIAL
  5
98
102
{ACAD_REACTORS
330
72
102
}
330
72
100
AcDbMaterial
  1
Global
 72
     1
 94
       63
  0
MLEADERSTYLE
  5
124
102
{ACAD_REACTORS
330
B5
102
}
330
B5
100
AcDbMLeaderStyle
179
     2
170
     2
171
     1
172
     0
 90
        2
 40
0.0
 41
0.0
173
     1
 91
-1056964608
340
14
 92
       -2
290
     1
 42
0.09
291
     1
 43
0.36
  3
Standard
341
0
 44
0.18
300

342
11
174
     1
178
     6
175
     1
176
     0
 93
-1056964608
 45
0.18
292
     0
297
     0
 46
0.18
343
0
 94
-1056964608
 47
1.0
 49
1.0
140
1.0
293
     1
141
0.0
294
     1
177
     0
142
1.0
295
     0
296
     0
143
0.125
271
     0
272
     9
273
     9
298
     0
  0
MLINESTYLE
  5
18
102
{ACAD_REACTORS
330
17
102
}
330
17
100
AcDbMlineStyle
  2
STANDARD
 70
     0
  3

 62
   256
 51
90.0
 52
90.0
 71
     2
 49
0.5
 62
   256
  6
BYLAYER
 49
-0.5
 62
   256
  6
BYLAYER
  0
ACDBPLACEHOLDER
  5
F
102
{ACAD_REACTORS
330
E
102
}
330
E
  0
SCALE
  5
B7
102
{ACAD_REACTORS
330
B6
102
}
330
B6
100
AcDbScale
 70
     0
300
1:1
140
1.0
141
1.0
290
     1
  0
SCALE
  5
B8
102
{ACAD_REACTORS
330
B6
102
}
330
B6
100
AcDbScale
 70
     0
300
1:2
140
1.0
141
2.0
290
     0
  0
SCALE
  5
B9
102
{ACAD_REACTORS
330
B6
102
}
330
B6
100
AcDbScale
 70
     0
300
1:4
140
1.0
141
4.0
290
     0
  0
SCALE
  5
BA
102
{ACAD_REACTORS
330
B6
102
}
330
B6
100
AcDbScale
 70
     0
300
1:5
140
1.0
141
5.0
290
     0
  0
SCALE
  5
BB
102
{ACAD_REACTORS
330
B6
102
}
330
B6
100
AcDbScale
 70
     0
300
1:8
140
1.0
141
8.0
290
     0
  0
SCALE
  5
BC
102
{ACAD_REACTORS
330
B6
102
}
330
B6
100
AcDbScale
 70
     0
300
1:10
140
1.0
141
10.0
290
     0
  0
SCALE
  5
BD
102
{ACAD_REACTORS
330
B6
102
}
330
B6
100
AcDbScale
 70
     0
300
1:16
140
1.0
141
16.0
290
     0
  0
SCALE
  5
BE
102
{ACAD_REACTORS
330
B6
102
}
330
B6
100
AcDbScale
 70
     0
300
1:20
140
1.0
141
20.0
290
     0
  0
SCALE
  5
BF
102
{ACAD_REACTORS
330
B6
102
}
330
B6
100
AcDbScale
 70
     0
300
1:30
140
1.0
141
30.0
290
     0
  0
SCALE
  5
C0
102
{ACAD_REACTORS
330
B6
102
}
330
B6
100
AcDbScale
 70
     0
300
1:40
140
1.0
141
40.0
290
     0
  0
SCALE
  5
C1
102
{ACAD_REACTORS
330
B6
102
}
330
B6
100
AcDbScale
 70
     0
300
1:50
140
1.0
141
50.0
290
     0
  0
SCALE
  5
C2
102
{ACAD_REACTORS
330
B6
102
}
330
B6
100
AcDbScale
 70
     0
300
1:100
140
1.0
141
100.0
290
     0
  0
SCALE
  5
C3
102
{ACAD_REACTORS
330
B6
102
}
330
B6
100
AcDbScale
 70
     0
300
2:1
140
2.0
141
1.0
290
     0
  0
SCALE
  5
C4
102
{ACAD_REACTORS
330
B6
102
}
330
B6
100
AcDbScale
 70
     0
300
4:1
140
4.0
141
1.0
290
     0
  0
SCALE
  5
C5
102
{ACAD_REACTORS
330
B6
102
}
330
B6
100
AcDbScale
 70
     0
300
8:1
140
8.0
141
1.0
290
     0
  0
SCALE
  5
C6
102
{ACAD_REACTORS
330
B6
102
}
330
B6
100
AcDbScale
 70
     0
300
10:1
140
10.0
141
1.0
290
     0
  0
SCALE
  5
C7
102
{ACAD_REACTORS
330
B6
102
}
330
B6
100
AcDbScale
 70
     0
300
100:1
140
100.0
141
1.0
290
     0
  0
SCALE
  5
C8
102
{ACAD_REACTORS
330
B6
102
}
330
B6
100
AcDbScale
 70
     0
300
1/128" = 1'-0"
140
0.0078125
141
12.0
290
     0
  0
SCALE
  5
C9
102
{ACAD_REACTORS
330
B6
102
}
330
B6
100
AcDbScale
 70
     0
300
1/64" = 1'-0"
140
0.015625
141
12.0
290
     0
  0
SCALE
  5
CA
102
{ACAD_REACTORS
330
B6
102
}
330
B6
100
AcDbScale
 70
     0
300
1/32" = 1'-0"
140
0.03125
141
12.0
290
     0
  0
SCALE
  5
CB
102
{ACAD_REACTORS
330
B6
102
}
330
B6
100
AcDbScale
 70
     0
300
1/16" = 1'-0"
140
0.0625
141
12.0
290
     0
  0
SCALE
  5
CC
102
{ACAD_REACTORS
330
B6
102
}
330
B6
100
AcDbScale
 70
     0
300
3/32" = 1'-0"
140
0.09375
141
12.0
290
     0
  0
SCALE
  5
CD
102
{ACAD_REACTORS
330
B6
102
}
330
B6
100
AcDbScale
 70
     0
300
1/8" = 1'-0"
140
0.125
141
12.0
290
     0
  0
SCALE
  5
CE
102
{ACAD_REACTORS
330
B6
102
}
330
B6
100
AcDbScale
 70
     0
300
3/16" = 1'-0"
140
0.1875
141
12.0
290
     0
  0
SCALE
  5
CF
102
{ACAD_REACTORS
330
B6
102
}
330
B6
100
AcDbScale
 70
     0
300
1/4" = 1'-0"
140
0.25
141
12.0
290
     0
  0
SCALE
  5
D0
102
{ACAD_REACTORS
330
B6
102
}
330
B6
100
AcDbScale
 70
     0
300
3/8" = 1'-0"
140
0.375
141
12.0
290
     0
  0
SCALE
  5
D1
102
{ACAD_REACTORS
330
B6
102
}
330
B6
100
AcDbScale
 70
     0
300
1/2" = 1'-0"
140
0.5
141
12.0
290
     0
  0
SCALE
  5
D2
102
{ACAD_REACTORS
330
B6
102
}
330
B6
100
AcDbScale
 70
     0
300
3/4" = 1'-0"
140
0.75
141
12.0
290
     0
  0
SCALE
  5
D3
102
{ACAD_REACTORS
330
B6
102
}
330
B6
100
AcDbScale
 70
     0
300
1" = 1'-0"
140
1.0
141
12.0
290
     0
  0
SCALE
  5
D4
102
{ACAD_REACTORS
330
B6
102
}
330
B6
100
AcDbScale
 70
     0
300
1-1/2" = 1'-0"
140
1.5
141
12.0
290
     0
  0
SCALE
  5
D5
102
{ACAD_REACTORS
330
B6
102
}
330
B6
100
AcDbScale
 70
     0
300
3" = 1'-0"
140
3.0
141
12.0
290
     0
  0
SCALE
  5
D6
102
{ACAD_REACTORS
330
B6
102
}
330
B6
100
AcDbScale
 70
     0
300
6" = 1'-0"
140
6.0
141
12.0
290
     0
  0
SCALE
  5
D7
102
{ACAD_REACTORS
330
B6
102
}
330
B6
100
AcDbScale
 70
     0
300
1'-0" = 1'-0"
140
12.0
141
12.0
290
     0
  0
TABLESTYLE
  5
87
102
{ACAD_REACTORS
330
86
102
}
102
{ACAD_XDICTIONARY
360
503
102
}
330
86
100
AcDbTableStyle
  3
Standard
 70
     0
 71
     0
 40
0.06
 41
0.06
280
     0
281
     0
  7
Standard
140
0.18
170
     2
 62
     0
 63
   257
283
     0
 90
      512
 91
        0
  1

274
    -2
284
     1
 64
     0
275
    -2
285
     1
 65
     0
276
    -2
286
     1
 66
     0
277
    -2
287
     1
 67
     0
278
    -2
288
     1
 68
     0
279
    -2
289
     1
 69
     0
  7
Standard
140
0.25
170
     5
 62
     0
 63
   257
283
     0
 90
      512
 91
        0
  1

274
    -2
284
     1
 64
     0
275
    -2
285
     1
 65
     0
276
    -2
286
     1
 66
     0
277
    -2
287
     1
 67
     0
278
    -2
288
     1
 68
     0
279
    -2
289
     1
 69
     0
  7
Standard
140
0.18
170
     5
 62
     0
 63
   257
283
     0
 90
      512
 91
        0
  1

274
    -2
284
     1
 64
     0
275
    -2
285
     1
 65
     0
276
    -2
286
     1
 66
     0
277
    -2
287
     1
 67
     0
278
    -2
288
     1
 68
     0
279
    -2
289
     1
 69
     0
  0
VISUALSTYLE
  5
9F
102
{ACAD_REACTORS
330
99
102
}
330
99
100
AcDbVisualStyle
  2
2dWireframe
 70
     4
177
     3
291
     0
 70
    58
 90
        0
176
     1
 90
        2
176
     1
 90
        1
176
     1
 90
        0
176
     1
 40
-0.6
176
     1
 40
-30.0
176
     1
 62
     7
420
 16777215
176
     1
 90
        1
176
     1
 90
        4
176
     1
 62
     7
176
     1
 62
   257
176
     1
 90
        1
176
     1
 90
        1
176
     1
 40
1.0
176
     1
 90
        0
176
     1
 62
   257
176
     1
 40
1.0
176
     1
 90
        1
176
     1
 90
        6
176
     1
 90
        2
176
     1
 62
     7
176
     1
 90
        5
176
     1
 90
        0
176
     1
 90
        0
176
     1
290
     0
176
     1
 90
        1
176
     1
 40
0.0
176
     1
 90
        0
176
     1
290
     1
176
     1
290
     1
176
     1
290
     0
176
     1
290
     0
176
     1
290
     0
176
     1
290
     0
176
     1
290
     0
176
     1
290
     0
176
     1
290
     0
176
     1
 90
       50
176
     1
 40
0.0
176
     1
 40
1.0
176
     1
 90
        0
176
     1
 62
    18
420
        0
176
     1
 90
       50
176
     1
 90
        3
176
     1
 62
     5
420
      255
176
     1
290
     0
176
     1
 90
       50
176
     1
 90
       50
176
     1
 90
       50
176
     1
290
     0
176
     1
 90
       50
176
     1
 62
   256
176
     0
 40
1.0
176
     0
 90
        2
176
     1
  1
strokes_ogs.tif
176
     1
290
     0
176
     1
 40
1.0
176
     1
 40
1.0
176
     1
  0
VISUALSTYLE
  5
A1
102
{ACAD_REACTORS
330
99
102
}
330
99
100
AcDbVisualStyle
  2
3D Hidden
 70
     6
177
     3
291
     0
 70
    58
 90
        1
176
     1
 90
        2
176
     1
 90
        2
176
     1
 90
        0
176
     1
 40
-0.6
176
     1
 40
-30.0
176
     1
 62
     7
420
 16777215
176
     1
 90
        2
176
     1
 90
        2
176
     1
 62
     7
176
     1
 62
   257
176
     1
 90
        2
176
     1
 90
        1
176
     1
 40
40.0
176
     1
 90
        0
176
     1
 62
   257
176
     1
 40
1.0
176
     1
 90
        1
176
     1
 90
        6
176
     1
 90
        2
176
     1
 62
     7
176
     1
 90
        3
176
     1
 90
        0
176
     1
 90
        0
176
     1
290
     0
176
     1
 90
        1
176
     1
 40
0.0
176
     1
 90
        0
176
     1
290
     0
176
     1
290
     1
176
     1
290
     1
176
     1
290
     0
176
     1
290
     0
176
     1
290
     0
176
     1
290
     0
176
     1
290
     0
176
     1
290
     0
176
     1
 90
       50
176
     1
 40
0.0
176
     1
 40
1.0
176
     1
 90
        0
176
     1
 62
    18
420
        0
176
     1
 90
       50
176
     1
 90
        3
176
     1
 62
     5
420
      255
176
     1
290
     0
176
     1
 90
       50
176
     1
 90
       50
176
     1
 90
       50
176
     1
290
     0
176
     1
 90
       50
176
     1
 62
   256
176
     0
 40
1.0
176
     0
 90
        2
176
     1
  1
strokes_ogs.tif
176
     1
290
     0
176
     1
 40
1.0
176
     1
 40
1.0
176
     1
  0
VISUALSTYLE
  5
A0
102
{ACAD_REACTORS
330
99
102
}
330
99
100
AcDbVisualStyle
  2
3dWireframe
 70
     5
177
     3
291
     0
 70
    58
 90
        0
176
     1
 90
        2
176
     1
 90
        1
176
     1
 90
        0
176
     1
 40
-0.6
176
     1
 40
-30.0
176
     1
 62
     7
420
 16777215
176
     1
 90
        1
176
     1
 90
        4
176
     1
 62
     7
176
     1
 62
   257
176
     1
 90
        1
176
     1
 90
        1
176
     1
 40
1.0
176
     1
 90
        0
176
     1
 62
   257
176
     1
 40
1.0
176
     1
 90
        1
176
     1
 90
        6
176
     1
 90
        2
176
     1
 62
     7
176
     1
 90
        5
176
     1
 90
        0
176
     1
 90
        0
176
     1
290
     0
176
     1
 90
        1
176
     1
 40
0.0
176
     1
 90
        0
176
     1
290
     0
176
     1
290
     1
176
     1
290
     1
176
     1
290
     0
176
     1
290
     0
176
     1
290
     0
176
     1
290
     0
176
     1
290
     0
176
     1
290
     0
176
     1
 90
       50
176
     1
 40
0.0
176
     1
 40
1.0
176
     1
 90
        0
176
     1
 62
    18
420
        0
176
     1
 90
       50
176
     1
 90
        3
176
     1
 62
     5
420
      255
176
     1
290
     0
176
     1
 90
       50
176
     1
 90
       50
176
     1
 90
       50
176
     1
290
     0
176
     1
 90
       50
176
     1
 62
   256
176
     0
 40
1.0
176
     0
 90
        2
176
     1
  1
strokes_ogs.tif
176
     1
290
     0
176
     1
 40
1.0
176
     1
 40
1.0
176
     1
  0
VISUALSTYLE
  5
9E
102
{ACAD_REACTORS
330
99
102
}
330
99
100
AcDbVisualStyle
  2
Basic
 70
     7
177
     3
291
     1
 70
    58
 90
        1
176
     1
 90
        0
176
     1
 90
        1
176
     1
 90
        0
176
     1
 40
-0.6
176
     1
 40
-30.0
176
     1
 62
     7
420
 16777215
176
     1
 90
        0
176
     1
 90
        4
176
     1
 62
     7
176
     1
 62
   257
176
     1
 90
        1
176
     1
 90
        1
176
     1
 40
1.0
176
     1
 90
        8
176
     1
 62
     7
176
     1
 40
1.0
176
     1
 90
        1
176
     1
 90
        6
176
     1
 90
        2
176
     1
 62
     7
176
     1
 90
        5
176
     1
 90
        0
176
     1
 90
        0
176
     1
290
     0
176
     1
 90
        1
176
     1
 40
0.0
176
     1
 90
        0
176
     1
290
     0
176
     1
290
     1
176
     1
290
     1
176
     1
290
     0
176
     1
290
     0
176
     1
290
     0
176
     1
290
     0
176
     1
290
     0
176
     1
290
     0
176
     1
 90
       50
176
     1
 40
0.0
176
     1
 40
1.0
176
     1
 90
        0
176
     1
 62
    18
420
        0
176
     1
 90
       50
176
     1
 90
        3
176
     1
 62
     5
420
      255
176
     1
290
     0
176
     1
 90
       50
176
     1
 90
       50
176
     1
 90
       50
176
     1
290
     0
176
     1
 90
       50
176
     1
 62
   256
176
     0
 40
1.0
176
     0
 90
        2
176
     1
  1
strokes_ogs.tif
176
     1
290
     0
176
     1
 40
1.0
176
     1
 40
1.0
176
     1
  0
VISUALSTYLE
  5
A5
102
{ACAD_REACTORS
330
99
102
}
330
99
100
AcDbVisualStyle
  2
Brighten
 70
    12
177
     3
291
     1
 70
    58
 90
        2
176
     1
 90
        2
176
     1
 90
        1
176
     1
 90
        0
176
     1
 40
-0.6
176
     1
 40
-30.0
176
     1
 62
     7
420
 16777215
176
     1
 90
        1
176
     1
 90
        4
176
     1
 62
     7
176
     1
 62
   257
176
     1
 90
        1
176
     1
 90
        1
176
     1
 40
1.0
176
     1
 90
        8
176
     1
 62
     7
176
     1
 40
1.0
176
     1
 90
        1
176
     1
 90
        6
176
     1
 90
        2
176
     1
 62
     7
176
     1
 90
        5
176
     1
 90
        0
176
     1
 90
        0
176
     1
290
     0
176
     1
 90
        1
176
     1
 40
50.0
176
     1
 90
        0
176
     1
290
     0
176
     1
290
     1
176
     1
290
     1
176
     1
290
     0
176
     1
290
     0
176
     1
290
     0
176
     1
290
     0
176
     1
290
     0
176
     1
290
     0
176
     1
 90
       50
176
     1
 40
0.0
176
     1
 40
1.0
176
     1
 90
        0
176
     1
 62
    18
420
        0
176
     1
 90
       50
176
     1
 90
        3
176
     1
 62
     5
420
      255
176
     1
290
     0
176
     1
 90
       50
176
     1
 90
       50
176
     1
 90
       50
176
     1
290
     0
176
     1
 90
       50
176
     1
 62
   256
176
     0
 40
1.0
176
     0
 90
        2
176
     1
  1
strokes_ogs.tif
176
     1
290
     0
176
     1
 40
1.0
176
     1
 40
1.0
176
     1
  0
VISUALSTYLE
  5
A9
102
{ACAD_REACTORS
330
99
102
}
330
99
100
AcDbVisualStyle
  2
ColorChange
 70
    16
177
     3
291
     1
 70
    58
 90
        2
176
     1
 90
        2
176
     1
 90
        3
176
     1
 90
        0
176
     1
 40
-0.6
176
     1
 40
-30.0
176
     1
 62
     8
420
  8421504
176
     1
 90
        1
176
     1
 90
        4
176
     1
 62
     7
176
     1
 62
   257
176
     1
 90
        1
176
     1
 90
        1
176
     1
 40
1.0
176
     1
 90
        8
176
     1
 62
     8
420
  8421504
176
     1
 40
1.0
176
     1
 90
        1
176
     1
 90
        6
176
     1
 90
        2
176
     1
 62
     7
176
     1
 90
        5
176
     1
 90
        0
176
     1
 90
        0
176
     1
290
     0
176
     1
 90
        1
176
     1
 40
0.0
176
     1
 90
        0
176
     1
290
     0
176
     1
290
     1
176
     1
290
     1
176
     1
290
     0
176
     1
290
     0
176
     1
290
     0
176
     1
290
     0
176
     1
290
     0
176
     1
290
     0
176
     1
 90
       50
176
     1
 40
0.0
176
     1
 40
1.0
176
     1
 90
        0
176
     1
 62
    18
420
        0
176
     1
 90
       50
176
     1
 90
        3
176
     1
 62
     5
420
      255
176
     1
290
     0
176
     1
 90
       50
176
     1
 90
       50
176
     1
 90
       50
176
     1
290
     0
176
     1
 90
       50
176
     1
 62
   256
176
     0
 40
1.0
176
     0
 90
        2
176
     1
  1
strokes_ogs.tif
176
     1
290
     0
176
     1
 40
1.0
176
     1
 40
1.0
176
     1
  0
VISUALSTYLE
  5
A2
102
{ACAD_REACTORS
330
99
102
}
330
99
100
AcDbVisualStyle
  2
Conceptual
 70
     9
177
     3
291
     0
 70
    58
 90
        3
176
     1
 90
        2
176
     1
 90
        1
176
     1
 90
        0
176
     1
 40
-0.6
176
     1
 40
-30.0
176
     1
 62
     7
420
 16777215
176
     1
 90
        2
176
     1
 90
        2
176
     1
 62
     7
176
     1
 62
   257
176
     1
 90
        1
176
     1
 90
        1
176
     1
 40
40.0
176
     1
 90
        8
176
     1
 62
     7
176
     1
 40
1.0
176
     1
 90
        1
176
     1
 90
        6
176
     1
 90
        2
176
     1
 62
     7
176
     1
 90
        3
176
     1
 90
        0
176
     1
 90
        0
176
     1
290
     0
176
     1
 90
        1
176
     1
 40
0.0
176
     1
 90
        0
176
     1
290
     0
176
     1
290
     1
176
     1
290
     1
176
     1
290
     0
176
     1
290
     0
176
     1
290
     0
176
     1
290
     0
176
     1
290
     0
176
     1
290
     0
176
     1
 90
       50
176
     1
 40
0.0
176
     1
 40
1.0
176
     1
 90
        0
176
     1
 62
    18
420
        0
176
     1
 90
       50
176
     1
 90
        3
176
     1
 62
     5
420
      255
176
     1
290
     0
176
     1
 90
       50
176
     1
 90
       50
176
     1
 90
       50
176
     1
290
     0
176
     1
 90
       50
176
     1
 62
   256
176
     0
 40
1.0
176
     0
 90
        2
176
     1
  1
strokes_ogs.tif
176
     1
290
     0
176
     1
 40
1.0
176
     1
 40
1.0
176
     1
  0
VISUALSTYLE
  5
A4
102
{ACAD_REACTORS
330
99
102
}
330
99
100
AcDbVisualStyle
  2
Dim
 70
    11
177
     3
291
     1
 70
    58
 90
        2
176
     1
 90
        2
176
     1
 90
        1
176
     1
 90
        0
176
     1
 40
-0.6
176
     1
 40
-30.0
176
     1
 62
     7
420
 16777215
176
     1
 90
        1
176
     1
 90
        4
176
     1
 62
     7
176
     1
 62
   257
176
     1
 90
        1
176
     1
 90
        1
176
     1
 40
1.0
176
     1
 90
        8
176
     1
 62
     7
176
     1
 40
1.0
176
     1
 90
        1
176
     1
 90
        6
176
     1
 90
        2
176
     1
 62
     7
176
     1
 90
        5
176
     1
 90
        0
176
     1
 90
        0
176
     1
290
     0
176
     1
 90
        1
176
     1
 40
-50.0
176
     1
 90
        0
176
     1
290
     0
176
     1
290
     1
176
     1
290
     1
176
     1
290
     0
176
     1
290
     0
176
     1
290
     0
176
     1
290
     0
176
     1
290
     0
176
     1
290
     0
176
     1
 90
       50
176
     1
 40
0.0
176
     1
 40
1.0
176
     1
 90
        0
176
     1
 62
    18
420
        0
176
     1
 90
       50
176
     1
 90
        3
176
     1
 62
     5
420
      255
176
     1
290
     0
176
     1
 90
       50
176
     1
 90
       50
176
     1
 90
       50
176
     1
290
     0
176
     1
 90
       50
176
     1
 62
   256
176
     0
 40
1.0
176
     0
 90
        2
176
     1
  1
strokes_ogs.tif
176
     1
290
     0
176
     1
 40
1.0
176
     1
 40
1.0
176
     1
  0
VISUALSTYLE
  5
E7
102
{ACAD_REACTORS
330
99
102
}
330
99
100
AcDbVisualStyle
  2
EdgeColorOff
 70
    22
177
     3
291
     1
 70
    58
 90
        2
176
     0
 90
        2
176
     0
 90
        0
176
     0
 90
        0
176
     0
 40
0.6
176
     0
 40
30.0
176
     0
 62
     7
420
 16777215
176
     0
 90
        1
176
     0
 90
        4
176
     0
 62
     7
176
     0
 62
   257
176
     0
 90
        1
176
     0
 90
        1
176
     0
 40
1.0
176
     0
 90
        8
176
     2
 62
     7
176
     0
 40
1.0
176
     0
 90
        1
176
     0
 90
        6
176
     0
 90
        2
176
     0
 62
     7
176
     0
 90
        5
176
     0
 90
        0
176
     0
 90
        0
176
     0
290
     0
176
     0
 90
        1
176
     0
 40
0.0
176
     0
 90
        0
176
     0
290
     0
176
     0
290
     1
176
     0
290
     1
176
     0
290
     0
176
     0
290
     0
176
     0
290
     0
176
     0
290
     0
176
     0
290
     0
176
     0
290
     0
176
     0
 90
       50
176
     0
 40
0.0
176
     0
 40
1.0
176
     0
 90
        0
176
     0
 62
    18
420
        0
176
     0
 90
       50
176
     0
 90
        3
176
     0
 62
     5
420
      255
176
     0
290
     0
176
     0
 90
       50
176
     0
 90
       50
176
     0
 90
       50
176
     0
290
     0
176
     0
 90
       50
176
     0
 62
   256
176
     0
 40
1.0
176
     0
 90
        2
176
     0
  1
strokes_ogs.tif
176
     0
290
     0
176
     0
 40
1.0
176
     0
 40
1.0
176
     0
  0
VISUALSTYLE
  5
A8
102
{ACAD_REACTORS
330
99
102
}
330
99
100
AcDbVisualStyle
  2
Facepattern
 70
    15
177
     3
291
     1
 70
    58
 90
        2
176
     1
 90
        2
176
     1
 90
        1
176
     1
 90
        0
176
     1
 40
-0.6
176
     1
 40
-30.0
176
     1
 62
     7
420
 16777215
176
     1
 90
        1
176
     1
 90
        4
176
     1
 62
     7
176
     1
 62
   257
176
     1
 90
        1
176
     1
 90
        1
176
     1
 40
1.0
176
     1
 90
        8
176
     1
 62
     7
176
     1
 40
1.0
176
     1
 90
        1
176
     1
 90
        6
176
     1
 90
        2
176
     1
 62
     7
176
     1
 90
        5
176
     1
 90
        0
176
     1
 90
        0
176
     1
290
     0
176
     1
 90
        1
176
     1
 40
0.0
176
     1
 90
        0
176
     1
290
     0
176
     1
290
     1
176
     1
290
     1
176
     1
290
     0
176
     1
290
     0
176
     1
290
     0
176
     1
290
     0
176
     1
290
     0
176
     1
290
     0
176
     1
 90
       50
176
     1
 40
0.0
176
     1
 40
1.0
176
     1
 90
        0
176
     1
 62
    18
420
        0
176
     1
 90
       50
176
     1
 90
        3
176
     1
 62
     5
420
      255
176
     1
290
     0
176
     1
 90
       50
176
     1
 90
       50
176
     1
 90
       50
176
     1
290
     0
176
     1
 90
       50
176
     1
 62
   256
176
     0
 40
1.0
176
     0
 90
        2
176
     1
  1
strokes_ogs.tif
176
     1
290
     0
176
     1
 40
1.0
176
     1
 40
1.0
176
     1
  0
VISUALSTYLE
  5
9A
102
{ACAD_REACTORS
330
99
102
}
330
99
100
AcDbVisualStyle
  2
Flat
 70
     0
177
     3
291
     1
 70
    58
 90
        2
176
     1
 90
        1
176
     1
 90
        1
176
     1
 90
        2
176
     1
 40
-0.6
176
     1
 40
30.0
176
     1
 62
     7
420
 16777215
176
     1
 90
        0
176
     1
 90
        4
176
     1
 62
     7
176
     1
 62
   257
176
     1
 90
        1
176
     1
 90
        1
176
     1
 40
1.0
176
     1
 90
        8
176
     1
 62
     7
176
     1
 40
1.0
176
     1
 90
        1
176
     1
 90
        6
176
     1
 90
        2
176
     1
 62
     7
176
     1
 90
        5
176
     1
 90
        0
176
     1
 90
        0
176
     1
290
     0
176
     1
 90
        1
176
     1
 40
0.0
176
     1
 90
        0
176
     1
290
     0
176
     1
290
     1
176
     1
290
     1
176
     1
290
     0
176
     1
290
     0
176
     1
290
     0
176
     1
290
     0
176
     1
290
     0
176
     1
290
     0
176
     1
 90
       50
176
     1
 40
0.0
176
     1
 40
1.0
176
     1
 90
        0
176
     1
 62
    18
420
        0
176
     1
 90
       50
176
     1
 90
        3
176
     1
 62
     5
420
      255
176
     1
290
     0
176
     1
 90
       50
176
     1
 90
       50
176
     1
 90
       50
176
     1
290
     0
176
     1
 90
       50
176
     1
 62
   256
176
     0
 40
1.0
176
     0
 90
        2
176
     1
  1
strokes_ogs.tif
176
     1
290
     0
176
     1
 40
1.0
176
     1
 40
1.0
176
     1
  0
VISUALSTYLE
  5
9B
102
{ACAD_REACTORS
330
99
102
}
330
99
100
AcDbVisualStyle
  2
FlatWithEdges
 70
     1
177
     3
291
     1
 70
    58
 90
        2
176
     1
 90
        1
176
     1
 90
        1
176
     1
 90
        2
176
     1
 40
-0.6
176
     1
 40
30.0
176
     1
 62
     7
420
 16777215
176
     1
 90
        1
176
     1
 90
        4
176
     1
 62
     7
176
     1
 62
   257
176
     1
 90
        1
176
     1
 90
        1
176
     1
 40
1.0
176
     1
 90
        0
176
     1
 62
   257
176
     1
 40
1.0
176
     1
 90
        1
176
     1
 90
        6
176
     1
 90
        2
176
     1
 62
     7
176
     1
 90
        5
176
     1
 90
        0
176
     1
 90
        0
176
     1
290
     0
176
     1
 90
        1
176
     1
 40
0.0
176
     1
 90
        0
176
     1
290
     0
176
     1
290
     1
176
     1
290
     1
176
     1
290
     0
176
     1
290
     0
176
     1
290
     0
176
     1
290
     0
176
     1
290
     0
176
     1
290
     0
176
     1
 90
       50
176
     1
 40
0.0
176
     1
 40
1.0
176
     1
 90
        0
176
     1
 62
    18
420
        0
176
     1
 90
       50
176
     1
 90
        3
176
     1
 62
     5
420
      255
176
     1
290
     0
176
     1
 90
       50
176
     1
 90
       50
176
     1
 90
       50
176
     1
290
     0
176
     1
 90
       50
176
     1
 62
   256
176
     0
 40
1.0
176
     0
 90
        2
176
     1
  1
strokes_ogs.tif
176
     1
290
     0
176
     1
 40
1.0
176
     1
 40
1.0
176
     1
  0
VISUALSTYLE
  5
9C
102
{ACAD_REACTORS
330
99
102
}
330
99
100
AcDbVisualStyle
  2
Gouraud
 70
     2
177
     3
291
     1
 70
    58
 90
        2
176
     1
 90
        2
176
     1
 90
        1
176
     1
 90
        2
176
     1
 40
-0.6
176
     1
 40
30.0
176
     1
 62
     7
420
 16777215
176
     1
 90
        0
176
     1
 90
        4
176
     1
 62
     7
176
     1
 62
   257
176
     1
 90
        1
176
     1
 90
        1
176
     1
 40
1.0
176
     1
 90
        0
176
     1
 62
     7
176
     1
 40
1.0
176
     1
 90
        1
176
     1
 90
        6
176
     1
 90
        2
176
     1
 62
     7
176
     1
 90
        5
176
     1
 90
        0
176
     1
 90
        0
176
     1
290
     0
176
     1
 90
        1
176
     1
 40
0.0
176
     1
 90
        0
176
     1
290
     0
176
     1
290
     1
176
     1
290
     1
176
     1
290
     0
176
     1
290
     0
176
     1
290
     0
176
     1
290
     0
176
     1
290
     0
176
     1
290
     0
176
     1
 90
       50
176
     1
 40
0.0
176
     1
 40
1.0
176
     1
 90
        0
176
     1
 62
    18
420
        0
176
     1
 90
       50
176
     1
 90
        3
176
     1
 62
     5
420
      255
176
     1
290
     0
176
     1
 90
       50
176
     1
 90
       50
176
     1
 90
       50
176
     1
290
     0
176
     1
 90
       50
176
     1
 62
   256
176
     0
 40
1.0
176
     0
 90
        2
176
     1
  1
strokes_ogs.tif
176
     1
290
     0
176
     1
 40
1.0
176
     1
 40
1.0
176
     1
  0
VISUALSTYLE
  5
9D
102
{ACAD_REACTORS
330
99
102
}
330
99
100
AcDbVisualStyle
  2
GouraudWithEdges
 70
     3
177
     3
291
     1
 70
    58
 90
        2
176
     1
 90
        2
176
     1
 90
        1
176
     1
 90
        2
176
     1
 40
-0.6
176
     1
 40
30.0
176
     1
 62
     7
420
 16777215
176
     1
 90
        1
176
     1
 90
        4
176
     1
 62
     7
176
     1
 62
   257
176
     1
 90
        1
176
     1
 90
        1
176
     1
 40
1.0
176
     1
 90
        0
176
     1
 62
   257
176
     1
 40
1.0
176
     1
 90
        1
176
     1
 90
        6
176
     1
 90
        2
176
     1
 62
     7
176
     1
 90
        5
176
     1
 90
        0
176
     1
 90
        0
176
     1
290
     0
176
     1
 90
        1
176
     1
 40
0.0
176
     1
 90
        0
176
     1
290
     0
176
     1
290
     1
176
     1
290
     1
176
     1
290
     0
176
     1
290
     0
176
     1
290
     0
176
     1
290
     0
176
     1
290
     0
176
     1
290
     0
176
     1
 90
       50
176
     1
 40
0.0
176
     1
 40
1.0
176
     1
 90
        0
176
     1
 62
    18
420
        0
176
     1
 90
       50
176
     1
 90
        3
176
     1
 62
     5
420
      255
176
     1
290
     0
176
     1
 90
       50
176
     1
 90
       50
176
     1
 90
       50
176
     1
290
     0
176
     1
 90
       50
176
     1
 62
   256
176
     0
 40
1.0
176
     0
 90
        2
176
     1
  1
strokes_ogs.tif
176
     1
290
     0
176
     1
 40
1.0
176
     1
 40
1.0
176
     1
  0
VISUALSTYLE
  5
E4
102
{ACAD_REACTORS
330
99
102
}
330
99
100
AcDbVisualStyle
  2
Hidden
 70
     6
177
     3
291
     0
 70
    58
 90
        1
176
     1
 90
        2
176
     1
 90
        2
176
     1
 90
        0
176
     1
 40
0.6
176
     1
 40
30.0
176
     1
 62
     7
420
 16777215
176
     1
 90
        2
176
     1
 90
        2
176
     1
 62
     7
176
     1
 62
   257
176
     1
 90
        2
176
     1
 90
        1
176
     1
 40
40.0
176
     1
 90
        0
176
     1
 62
   257
176
     1
 40
1.0
176
     1
 90
        1
176
     1
 90
        6
176
     1
 90
        2
176
     1
 62
     7
176
     1
 90
        3
176
     1
 90
        0
176
     1
 90
        0
176
     1
290
     0
176
     1
 90
        1
176
     1
 40
0.0
176
     1
 90
        0
176
     1
290
     0
176
     1
290
     1
176
     1
290
     1
176
     1
290
     0
176
     1
290
     0
176
     1
290
     0
176
     1
290
     0
176
     1
290
     0
176
     1
290
     0
176
     1
 90
       50
176
     1
 40
0.0
176
     1
 40
1.0
176
     1
 90
        0
176
     1
 62
    18
420
        0
176
     1
 90
       50
176
     1
 90
        3
176
     1
 62
     5
420
      255
176
     1
290
     0
176
     1
 90
       50
176
     1
 90
       50
176
     1
 90
       50
176
     1
290
     0
176
     1
 90
       50
176
     1
 62
   256
176
     0
 40
1.0
176
     0
 90
        2
176
     1
  1
strokes_ogs.tif
176
     1
290
     0
176
     1
 40
1.0
176
     1
 40
1.0
176
     1
  0
VISUALSTYLE
  5
E5
102
{ACAD_REACTORS
330
99
102
}
330
99
100
AcDbVisualStyle
  2
JitterOff
 70
    20
177
     3
291
     1
 70
    58
 90
        2
176
     0
 90
        2
176
     0
 90
        0
176
     0
 90
        0
176
     0
 40
0.6
176
     0
 40
30.0
176
     0
 62
     7
420
 16777215
176
     0
 90
        1
176
     0
 90
        4
176
     0
 62
     7
176
     0
 62
   257
176
     0
 90
        1
176
     0
 90
        1
176
     0
 40
1.0
176
     0
 90
       10
176
     2
 62
     7
176
     0
 40
1.0
176
     0
 90
        1
176
     0
 90
        6
176
     0
 90
        2
176
     0
 62
     7
176
     0
 90
        5
176
     0
 90
        0
176
     0
 90
        0
176
     0
290
     0
176
     0
 90
        1
176
     0
 40
0.0
176
     0
 90
        0
176
     0
290
     0
176
     0
290
     1
176
     0
290
     1
176
     0
290
     0
176
     0
290
     0
176
     0
290
     0
176
     0
290
     0
176
     0
290
     0
176
     0
290
     0
176
     0
 90
       50
176
     0
 40
0.0
176
     0
 40
1.0
176
     0
 90
        0
176
     0
 62
    18
420
        0
176
     0
 90
       50
176
     0
 90
        3
176
     0
 62
     5
420
      255
176
     0
290
     0
176
     0
 90
       50
176
     0
 90
       50
176
     0
 90
       50
176
     0
290
     0
176
     0
 90
       50
176
     0
 62
   256
176
     0
 40
1.0
176
     0
 90
        2
176
     0
  1
strokes_ogs.tif
176
     0
290
     0
176
     0
 40
1.0
176
     0
 40
1.0
176
     0
  0
VISUALSTYLE
  5
A7
102
{ACAD_REACTORS
330
99
102
}
330
99
100
AcDbVisualStyle
  2
Linepattern
 70
    14
177
     3
291
     1
 70
    58
 90
        2
176
     1
 90
        2
176
     1
 90
        1
176
     1
 90
        0
176
     1
 40
-0.6
176
     1
 40
-30.0
176
     1
 62
     7
420
 16777215
176
     1
 90
        1
176
     1
 90
        4
176
     1
 62
     7
176
     1
 62
   257
176
     1
 90
        7
176
     1
 90
        7
176
     1
 40
1.0
176
     1
 90
        8
176
     1
 62
     7
176
     1
 40
1.0
176
     1
 90
        1
176
     1
 90
        6
176
     1
 90
        2
176
     1
 62
     7
176
     1
 90
        5
176
     1
 90
        0
176
     1
 90
        0
176
     1
290
     0
176
     1
 90
        1
176
     1
 40
0.0
176
     1
 90
        0
176
     1
290
     0
176
     1
290
     1
176
     1
290
     1
176
     1
290
     0
176
     1
290
     0
176
     1
290
     0
176
     1
290
     0
176
     1
290
     0
176
     1
290
     0
176
     1
 90
       50
176
     1
 40
0.0
176
     1
 40
1.0
176
     1
 90
        0
176
     1
 62
    18
420
        0
176
     1
 90
       50
176
     1
 90
        3
176
     1
 62
     5
420
      255
176
     1
290
     0
176
     1
 90
       50
176
     1
 90
       50
176
     1
 90
       50
176
     1
290
     0
176
     1
 90
       50
176
     1
 62
   256
176
     0
 40
1.0
176
     0
 90
        2
176
     1
  1
strokes_ogs.tif
176
     1
290
     0
176
     1
 40
1.0
176
     1
 40
1.0
176
     1
  0
VISUALSTYLE
  5
E6
102
{ACAD_REACTORS
330
99
102
}
330
99
100
AcDbVisualStyle
  2
OverhangOff
 70
    21
177
     3
291
     1
 70
    58
 90
        2
176
     0
 90
        2
176
     0
 90
        0
176
     0
 90
        0
176
     0
 40
0.6
176
     0
 40
30.0
176
     0
 62
     7
420
 16777215
176
     0
 90
        1
176
     0
 90
        4
176
     0
 62
     7
176
     0
 62
   257
176
     0
 90
        1
176
     0
 90
        1
176
     0
 40
1.0
176
     0
 90
        9
176
     2
 62
     7
176
     0
 40
1.0
176
     0
 90
        1
176
     0
 90
        6
176
     0
 90
        2
176
     0
 62
     7
176
     0
 90
        5
176
     0
 90
        0
176
     0
 90
        0
176
     0
290
     0
176
     0
 90
        1
176
     0
 40
0.0
176
     0
 90
        0
176
     0
290
     0
176
     0
290
     1
176
     0
290
     1
176
     0
290
     0
176
     0
290
     0
176
     0
290
     0
176
     0
290
     0
176
     0
290
     0
176
     0
290
     0
176
     0
 90
       50
176
     0
 40
0.0
176
     0
 40
1.0
176
     0
 90
        0
176
     0
 62
    18
420
        0
176
     0
 90
       50
176
     0
 90
        3
176
     0
 62
     5
420
      255
176
     0
290
     0
176
     0
 90
       50
176
     0
 90
       50
176
     0
 90
       50
176
     0
290
     0
176
     0
 90
       50
176
     0
 62
   256
176
     0
 40
1.0
176
     0
 90
        2
176
     0
  1
strokes_ogs.tif
176
     0
290
     0
176
     0
 40
1.0
176
     0
 40
1.0
176
     0
  0
VISUALSTYLE
  5
A3
102
{ACAD_REACTORS
330
99
102
}
330
99
100
AcDbVisualStyle
  2
Realistic
 70
     8
177
     3
291
     0
 70
    58
 90
        2
176
     1
 90
        2
176
     1
 90
        1
176
     1
 90
        0
176
     1
 40
-0.6
176
     1
 40
-30.0
176
     1
 62
     7
420
 16777215
176
     1
 90
        1
176
     1
 90
        0
176
     1
 62
     7
176
     1
 62
   257
176
     1
 90
        1
176
     1
 90
        1
176
     1
 40
1.0
176
     1
 90
        8
176
     1
 62
     8
420
  7895160
176
     1
 40
1.0
176
     1
 90
        1
176
     1
 90
        6
176
     1
 90
        2
176
     1
 62
     7
176
     1
 90
        5
176
     1
 90
        0
176
     1
 90
        0
176
     1
290
     0
176
     1
 90
       13
176
     1
 40
0.0
176
     1
 90
        0
176
     1
290
     0
176
     1
290
     1
176
     1
290
     1
176
     1
290
     0
176
     1
290
     0
176
     1
290
     0
176
     1
290
     0
176
     1
290
     0
176
     1
290
     0
176
     1
 90
       50
176
     1
 40
0.0
176
     1
 40
1.0
176
     1
 90
        0
176
     1
 62
    18
420
        0
176
     1
 90
       50
176
     1
 90
        3
176
     1
 62
     5
420
      255
176
     1
290
     0
176
     1
 90
       50
176
     1
 90
       50
176
     1
 90
       50
176
     1
290
     0
176
     1
 90
       50
176
     1
 62
   256
176
     0
 40
1.0
176
     0
 90
        2
176
     1
  1
strokes_ogs.tif
176
     1
290
     0
176
     1
 40
1.0
176
     1
 40
1.0
176
     1
  0
VISUALSTYLE
  5
EC
102
{ACAD_REACTORS
330
99
102
}
330
99
100
AcDbVisualStyle
  2
Shaded
 70
    27
177
     3
291
     0
 70
    58
 90
        2
176
     1
 90
        2
176
     1
 90
        1
176
     1
 90
        2
176
     1
 40
0.6
176
     1
 40
30.0
176
     1
 62
     7
420
 16777215
176
     1
 90
        0
176
     1
 90
        4
176
     1
 62
     7
176
     1
 62
   257
176
     1
 90
        1
176
     1
 90
        1
176
     1
 40
1.0
176
     1
 90
        8
176
     1
 62
   257
176
     1
 40
1.0
176
     1
 90
        1
176
     1
 90
        6
176
     1
 90
        2
176
     1
 62
     8
420
  7895160
176
     1
 90
        3
176
     1
 90
        0
176
     1
 90
        0
176
     1
290
     0
176
     1
 90
        5
176
     1
 40
0.0
176
     1
 90
        0
176
     1
290
     0
176
     1
290
     1
176
     1
290
     1
176
     1
290
     0
176
     1
290
     0
176
     1
290
     0
176
     1
290
     0
176
     1
290
     0
176
     1
290
     0
176
     1
 90
       50
176
     1
 40
0.0
176
     1
 40
1.0
176
     1
 90
        0
176
     1
 62
    18
420
        0
176
     1
 90
       50
176
     1
 90
        3
176
     1
 62
     5
420
      255
176
     1
290
     0
176
     1
 90
       50
176
     1
 90
       50
176
     1
 90
       50
176
     1
290
     0
176
     1
 90
       50
176
     1
 62
   256
176
     0
 40
1.0
176
     0
 90
        2
176
     1
  1
strokes_ogs.tif
176
     1
290
     0
176
     1
 40
1.0
176
     1
 40
1.0
176
     1
  0
VISUALSTYLE
  5
EB
102
{ACAD_REACTORS
330
99
102
}
330
99
100
AcDbVisualStyle
  2
Shaded with edges
 70
    26
177
     3
291
     0
 70
    58
 90
        2
176
     1
 90
        2
176
     1
 90
        1
176
     1
 90
        2
176
     1
 40
0.6
176
     1
 40
30.0
176
     1
 62
     7
420
 16777215
176
     1
 90
        1
176
     1
 90
       10
176
     1
 62
     7
176
     1
 62
   257
176
     1
 90
        2
176
     1
 90
        1
176
     1
 40
1.0
176
     1
 90
        8
176
     1
 62
   257
176
     1
 40
1.0
176
     1
 90
        1
176
     1
 90
        6
176
     1
 90
        2
176
     1
 62
     7
176
     1
 90
        3
176
     1
 90
        0
176
     1
 90
        0
176
     1
290
     0
176
     1
 90
        5
176
     1
 40
0.0
176
     1
 90
        0
176
     1
290
     0
176
     1
290
     1
176
     1
290
     1
176
     1
290
     0
176
     1
290
     0
176
     1
290
     0
176
     1
290
     0
176
     1
290
     0
176
     1
290
     0
176
     1
 90
       50
176
     1
 40
0.0
176
     1
 40
1.0
176
     1
 90
        0
176
     1
 62
    18
420
        0
176
     1
 90
       50
176
     1
 90
        3
176
     1
 62
     5
420
      255
176
     1
290
     0
176
     1
 90
       50
176
     1
 90
       50
176
     1
 90
       50
176
     1
290
     0
176
     1
 90
       50
176
     1
 62
   256
176
     0
 40
1.0
176
     0
 90
        2
176
     1
  1
strokes_ogs.tif
176
     1
290
     0
176
     1
 40
1.0
176
     1
 40
1.0
176
     1
  0
VISUALSTYLE
  5
E8
102
{ACAD_REACTORS
330
99
102
}
330
99
100
AcDbVisualStyle
  2
Shades of Gray
 70
    23
177
     3
291
     0
 70
    58
 90
        2
176
     1
 90
        2
176
     1
 90
        3
176
     1
 90
        0
176
     1
 40
0.6
176
     1
 40
30.0
176
     1
 62
     7
420
 16777215
176
     1
 90
        2
176
     1
 90
        2
176
     1
 62
     7
176
     1
 62
     7
176
     1
 90
        1
176
     1
 90
        1
176
     1
 40
40.0
176
     1
 90
        8
176
     1
 62
     7
176
     1
 40
1.0
176
     1
 90
        1
176
     1
 90
        6
176
     1
 90
        2
176
     1
 62
     7
176
     1
 90
        3
176
     1
 90
        0
176
     1
 90
        0
176
     1
290
     0
176
     1
 90
        1
176
     1
 40
0.0
176
     1
 90
        0
176
     1
290
     0
176
     1
290
     1
176
     1
290
     1
176
     1
290
     0
176
     1
290
     0
176
     1
290
     0
176
     1
290
     0
176
     1
290
     0
176
     1
290
     0
176
     1
 90
       50
176
     1
 40
0.0
176
     1
 40
1.0
176
     1
 90
        0
176
     1
 62
    18
420
        0
176
     1
 90
       50
176
     1
 90
        3
176
     1
 62
     5
420
      255
176
     1
290
     0
176
     1
 90
       50
176
     1
 90
       50
176
     1
 90
       50
176
     1
290
     0
176
     1
 90
       50
176
     1
 62
   256
176
     0
 40
1.0
176
     0
 90
        2
176
     1
  1
strokes_ogs.tif
176
     1
290
     0
176
     1
 40
1.0
176
     1
 40
1.0
176
     1
  0
VISUALSTYLE
  5
E9
102
{ACAD_REACTORS
330
99
102
}
330
99
100
AcDbVisualStyle
  2
Sketchy
 70
    24
177
     3
291
     0
 70
    58
 90
        1
176
     1
 90
        2
176
     1
 90
        2
176
     1
 90
        0
176
     1
 40
0.6
176
     1
 40
30.0
176
     1
 62
     7
420
 16777215
176
     1
 90
        2
176
     1
 90
        2
176
     1
 62
     7
176
     1
 62
     7
176
     1
 90
        1
176
     1
 90
        1
176
     1
 40
40.0
176
     1
 90
       11
176
     1
 62
     7
176
     1
 40
1.0
176
     1
 90
        1
176
     1
 90
        6
176
     1
 90
        2
176
     1
 62
     7
176
     1
 90
        6
176
     1
 90
        0
176
     1
 90
        0
176
     1
290
     0
176
     1
 90
        1
176
     1
 40
0.0
176
     1
 90
        0
176
     1
290
     0
176
     1
290
     1
176
     1
290
     1
176
     1
290
     0
176
     1
290
     0
176
     1
290
     0
176
     1
290
     0
176
     1
290
     0
176
     1
290
     0
176
     1
 90
       50
176
     1
 40
0.0
176
     1
 40
1.0
176
     1
 90
        0
176
     1
 62
    18
420
        0
176
     1
 90
       50
176
     1
 90
        3
176
     1
 62
     5
420
      255
176
     1
290
     0
176
     1
 90
       50
176
     1
 90
       50
176
     1
 90
       50
176
     1
290
     0
176
     1
 90
       50
176
     1
 62
   256
176
     0
 40
1.0
176
     0
 90
        2
176
     1
  1
strokes_ogs.tif
176
     1
290
     0
176
     1
 40
1.0
176
     1
 40
1.0
176
     1
  0
VISUALSTYLE
  5
A6
102
{ACAD_REACTORS
330
99
102
}
330
99
100
AcDbVisualStyle
  2
Thicken
 70
    13
177
     3
291
     1
 70
    58
 90
        2
176
     1
 90
        2
176
     1
 90
        1
176
     1
 90
        0
176
     1
 40
-0.6
176
     1
 40
-30.0
176
     1
 62
     7
420
 16777215
176
     1
 90
        1
176
     1
 90
        4
176
     1
 62
     7
176
     1
 62
   257
176
     1
 90
        1
176
     1
 90
        1
176
     1
 40
1.0
176
     1
 90
       12
176
     1
 62
     7
176
     1
 40
1.0
176
     1
 90
        1
176
     1
 90
        6
176
     1
 90
        2
176
     1
 62
     7
176
     1
 90
        5
176
     1
 90
        0
176
     1
 90
        0
176
     1
290
     0
176
     1
 90
        1
176
     1
 40
0.0
176
     1
 90
        0
176
     1
290
     0
176
     1
290
     1
176
     1
290
     1
176
     1
290
     0
176
     1
290
     0
176
     1
290
     0
176
     1
290
     0
176
     1
290
     0
176
     1
290
     0
176
     1
 90
       50
176
     1
 40
0.0
176
     1
 40
1.0
176
     1
 90
        0
176
     1
 62
    18
420
        0
176
     1
 90
       50
176
     1
 90
        3
176
     1
 62
     5
420
      255
176
     1
290
     0
176
     1
 90
       50
176
     1
 90
       50
176
     1
 90
       50
176
     1
290
     0
176
     1
 90
       50
176
     1
 62
   256
176
     0
 40
1.0
176
     0
 90
        2
176
     1
  1
strokes_ogs.tif
176
     1
290
     0
176
     1
 40
1.0
176
     1
 40
1.0
176
     1
  0
VISUALSTYLE
  5
E3
102
{ACAD_REACTORS
330
99
102
}
330
99
100
AcDbVisualStyle
  2
Wireframe
 70
     5
177
     3
291
     0
 70
    58
 90
        0
176
     1
 90
        2
176
     1
 90
        0
176
     1
 90
        0
176
     1
 40
0.6
176
     1
 40
30.0
176
     1
 62
     7
420
 16777215
176
     1
 90
        1
176
     1
 90
        4
176
     1
 62
     7
176
     1
 62
   257
176
     1
 90
        1
176
     1
 90
        1
176
     1
 40
1.0
176
     1
 90
        0
176
     1
 62
   257
176
     1
 40
1.0
176
     1
 90
        1
176
     1
 90
        6
176
     1
 90
        2
176
     1
 62
     7
176
     1
 90
        3
176
     1
 90
        0
176
     1
 90
        0
176
     1
290
     0
176
     1
 90
        1
176
     1
 40
0.0
176
     1
 90
        0
176
     1
290
     0
176
     1
290
     1
176
     1
290
     1
176
     1
290
     0
176
     1
290
     0
176
     1
290
     0
176
     1
290
     0
176
     1
290
     0
176
     1
290
     0
176
     1
 90
       50
176
     1
 40
0.0
176
     1
 40
1.0
176
     1
 90
        0
176
     1
 62
    18
420
        0
176
     1
 90
       50
176
     1
 90
        3
176
     1
 62
     5
420
      255
176
     1
290
     0
176
     1
 90
       50
176
     1
 90
       50
176
     1
 90
       50
176
     1
290
     0
176
     1
 90
       50
176
     1
 62
   256
176
     0
 40
1.0
176
     0
 90
        2
176
     1
  1
strokes_ogs.tif
176
     1
290
     0
176
     1
 40
1.0
176
     1
 40
1.0
176
     1
  0
VISUALSTYLE
  5
EA
102
{ACAD_REACTORS
330
99
102
}
330
99
100
AcDbVisualStyle
  2
X-Ray
 70
    25
177
     3
291
     0
 70
    58
 90
        2
176
     1
 90
        2
176
     1
 90
        1
176
     1
 90
        1
176
     1
 40
0.5
176
     1
 40
30.0
176
     1
 62
     7
420
 16777215
176
     1
 90
        1
176
     1
 90
        0
176
     1
 62
     7
176
     1
 62
   257
176
     1
 90
        1
176
     1
 90
        1
176
     1
 40
1.0
176
     1
 90
        8
176
     1
 62
     7
176
     1
 40
1.0
176
     1
 90
        1
176
     1
 90
        6
176
     1
 90
        2
176
     1
 62
     7
176
     1
 90
        3
176
     1
 90
        0
176
     1
 90
        0
176
     1
290
     0
176
     1
 90
       13
176
     1
 40
0.0
176
     1
 90
        0
176
     1
290
     0
176
     1
290
     1
176
     1
290
     1
176
     1
290
     0
176
     1
290
     0
176
     1
290
     0
176
     1
290
     0
176
     1
290
     0
176
     1
290
     0
176
     1
 90
       50
176
     1
 40
0.0
176
     1
 40
1.0
176
     1
 90
        0
176
     1
 62
    18
420
        0
176
     1
 90
       50
176
     1
 90
        3
176
     1
 62
     5
420
      255
176
     1
290
     0
176
     1
 90
       50
176
     1
 90
       50
176
     1
 90
       50
176
     1
290
     0
176
     1
 90
       50
176
     1
 62
   256
176
     0
 40
1.0
176
     0
 90
        2
176
     1
  1
strokes_ogs.tif
176
     1
290
     0
176
     1
 40
1.0
176
     1
 40
1.0
176
     1
  0
DICTIONARYVAR
  5
D8
102
{ACAD_REACTORS
330
66
102
}
330
66
100
DictionaryVariables
280
     0
  1
1:1
  0
DICTIONARYVAR
  5
4A3
102
{ACAD_REACTORS
330
66
102
}
330
66
100
DictionaryVariables
280
     0
  1
Standard
  0
DICTIONARYVAR
  5
89
102
{ACAD_REACTORS
330
66
102
}
330
66
100
DictionaryVariables
280
     0
  1
Standard
  0
DICTIONARYVAR
  5
67
102
{ACAD_REACTORS
330
66
102
}
330
66
100
DictionaryVariables
280
     0
  1
2
  0
DICTIONARYVAR
  5
6B
102
{ACAD_REACTORS
330
66
102
}
330
66
100
DictionaryVariables
280
     0
  1
1
  0
DICTIONARYVAR
  5
DF
102
{ACAD_REACTORS
330
66
102
}
330
66
100
DictionaryVariables
280
     0
  1
0
  0
DICTIONARYVAR
  5
E0
102
{ACAD_REACTORS
330
66
102
}
330
66
100
DictionaryVariables
280
     0
  1
0
  0
XRECORD
  5
4A9
102
{ACAD_REACTORS
330
2F5
102
}
330
2F5
100
AcDbXrecord
280
     1
 91
     1023
301

290
     0
302
0
330
10
 90
        8
 62
     7
370
    -3
331
16
  1
Color_7
330
126
 90
        8
 62
     5
370
    30
331
16
  1
Color_5
330
4A6
 90
        8
 62
     7
370
    -3
331
16
  1
Color_7
  0
DICTIONARY
  5
503
330
87
100
AcDbDictionary
280
     1
281
     1
  3
ACAD_ROUNDTRIP_2008_TABLESTYLE_CELLSTYLEMAP
360
504
  0
CELLSTYLEMAP
  5
504
102
{ACAD_REACTORS
330
503
102
}
330
503
100
AcDbCellStyleMap
 90
        3
300
CELLSTYLE
  1
TABLEFORMAT_BEGIN
 90
        5
170
     1
 91
        0
 92
    32768
 62
   257
 93
        1
300
CONTENTFORMAT
  1
CONTENTFORMAT_BEGIN
 90
        0
 91
        0
 92
      512
 93
        0
300

 40
0.0
140
1.0
 94
        5
 62
     0
340
11
144
0.25
309
CONTENTFORMAT_END
171
     0
 94
        6
 95
        1
302
GRIDFORMAT
  1
GRIDFORMAT_BEGIN
 90
        0
 91
        1
 62
     0
 92
       -2
340
0
 93
        0
 40
0.045
309
GRIDFORMAT_END
 95
        2
302
GRIDFORMAT
  1
GRIDFORMAT_BEGIN
 90
        0
 91
        1
 62
     0
 92
       -2
340
0
 93
        0
 40
0.045
309
GRIDFORMAT_END
 95
        4
302
GRIDFORMAT
  1
GRIDFORMAT_BEGIN
 90
        0
 91
        1
 62
     0
 92
       -2
340
0
 93
        0
 40
0.045
309
GRIDFORMAT_END
 95
        8
302
GRIDFORMAT
  1
GRIDFORMAT_BEGIN
 90
        0
 91
        1
 62
     0
 92
       -2
340
0
 93
        0
 40
0.045
309
GRIDFORMAT_END
 95
       16
302
GRIDFORMAT
  1
GRIDFORMAT_BEGIN
 90
        0
 91
        1
 62
     0
 92
       -2
340
0
 93
        0
 40
0.045
309
GRIDFORMAT_END
 95
       32
302
GRIDFORMAT
  1
GRIDFORMAT_BEGIN
 90
        0
 91
        1
 62
     0
 92
       -2
340
0
 93
        0
 40
0.045
309
GRIDFORMAT_END
309
TABLEFORMAT_END
  1
CELLSTYLE_BEGIN
 90
        1
 91
        1
300
_TITLE
309
CELLSTYLE_END
300
CELLSTYLE
  1
TABLEFORMAT_BEGIN
 90
        5
170
     1
 91
        0
 92
        0
 62
   257
 93
        1
300
CONTENTFORMAT
  1
CONTENTFORMAT_BEGIN
 90
        0
 91
        0
 92
      512
 93
        0
300

 40
0.0
140
1.0
 94
        5
 62
     0
340
11
144
0.18
309
CONTENTFORMAT_END
171
     0
 94
        6
 95
        1
302
GRIDFORMAT
  1
GRIDFORMAT_BEGIN
 90
        0
 91
        1
 62
     0
 92
       -2
340
0
 93
        0
 40
0.045
309
GRIDFORMAT_END
 95
        2
302
GRIDFORMAT
  1
GRIDFORMAT_BEGIN
 90
        0
 91
        1
 62
     0
 92
       -2
340
0
 93
        0
 40
0.045
309
GRIDFORMAT_END
 95
        4
302
GRIDFORMAT
  1
GRIDFORMAT_BEGIN
 90
        0
 91
        1
 62
     0
 92
       -2
340
0
 93
        0
 40
0.045
309
GRIDFORMAT_END
 95
        8
302
GRIDFORMAT
  1
GRIDFORMAT_BEGIN
 90
        0
 91
        1
 62
     0
 92
       -2
340
0
 93
        0
 40
0.045
309
GRIDFORMAT_END
 95
       16
302
GRIDFORMAT
  1
GRIDFORMAT_BEGIN
 90
        0
 91
        1
 62
     0
 92
       -2
340
0
 93
        0
 40
0.045
309
GRIDFORMAT_END
 95
       32
302
GRIDFORMAT
  1
GRIDFORMAT_BEGIN
 90
        0
 91
        1
 62
     0
 92
       -2
340
0
 93
        0
 40
0.045
309
GRIDFORMAT_END
309
TABLEFORMAT_END
  1
CELLSTYLE_BEGIN
 90
        2
 91
        1
300
_HEADER
309
CELLSTYLE_END
300
CELLSTYLE
  1
TABLEFORMAT_BEGIN
 90
        5
170
     1
 91
        0
 92
        0
 62
   257
 93
        1
300
CONTENTFORMAT
  1
CONTENTFORMAT_BEGIN
 90
        0
 91
        0
 92
      512
 93
        0
300

 40
0.0
140
1.0
 94
        2
 62
     0
340
11
144
0.18
309
CONTENTFORMAT_END
171
     0
 94
        6
 95
        1
302
GRIDFORMAT
  1
GRIDFORMAT_BEGIN
 90
        0
 91
        1
 62
     0
 92
       -2
340
0
 93
        0
 40
0.045
309
GRIDFORMAT_END
 95
        2
302
GRIDFORMAT
  1
GRIDFORMAT_BEGIN
 90
        0
 91
        1
 62
     0
 92
       -2
340
0
 93
        0
 40
0.045
309
GRIDFORMAT_END
 95
        4
302
GRIDFORMAT
  1
GRIDFORMAT_BEGIN
 90
        0
 91
        1
 62
     0
 92
       -2
340
0
 93
        0
 40
0.045
309
GRIDFORMAT_END
 95
        8
302
GRIDFORMAT
  1
GRIDFORMAT_BEGIN
 90
        0
 91
        1
 62
     0
 92
       -2
340
0
 93
        0
 40
0.045
309
GRIDFORMAT_END
 95
       16
302
GRIDFORMAT
  1
GRIDFORMAT_BEGIN
 90
        0
 91
        1
 62
     0
 92
       -2
340
0
 93
        0
 40
0.045
309
GRIDFORMAT_END
 95
       32
302
GRIDFORMAT
  1
GRIDFORMAT_BEGIN
 90
        0
 91
        1
 62
     0
 92
       -2
340
0
 93
        0
 40
0.045
309
GRIDFORMAT_END
309
TABLEFORMAT_END
  1
CELLSTYLE_BEGIN
 90
        3
 91
        2
300
_DATA
309
CELLSTYLE_END
  0
ENDSEC
  0
EOF
