  0
SECTION
  2
HEADER
  9
$ACADVER
  1
AC1014
  9
$ACADMAINTVER
 70
     9
  9
$DWGCODEPAGE
  3
ANSI_1250
  9
$INSBASE
 10
0.0
 20
0.0
 30
0.0
  9
$EXTMIN
 10
60.45269406617773
 20
23.44190782171145
 30
0.0
  9
$EXTMAX
 10
137.5543260447166
 20
179.5759298354487
 30
0.0
  9
$LIMMIN
 10
0.0
 20
0.0
  9
$LIMMAX
 10
12.0
 20
9.0
  9
$ORTHOMODE
 70
     0
  9
$REGENMODE
 70
     1
  9
$FILLMODE
 70
     1
  9
$QTEXTMODE
 70
     0
  9
$MIRRTEXT
 70
     0
  9
$DRAGMODE
 70
     2
  9
$LTSCALE
 40
1.0
  9
$OSMODE
 70
 15359
  9
$ATTMODE
 70
     1
  9
$TEXTSIZE
 40
0.2
  9
$TRACEWID
 40
0.05
  9
$TEXTSTYLE
  7
STANDARD
  9
$CLAYER
  8
KOTY
  9
$CELTYPE
  6
BYLAYER
  9
$CECOLOR
 62
   256
  9
$CELTSCALE
 40
1.0
  9
$DELOBJ
 70
     1
  9
$DISPSILH
 70
     0
  9
$DIMSCALE
 40
1.0
  9
$DIMASZ
 40
0.18
  9
$DIMEXO
 40
0.0625
  9
$DIMDLI
 40
0.38
  9
$DIMRND
 40
0.0
  9
$DIMDLE
 40
0.0
  9
$DIMEXE
 40
0.18
  9
$DIMTP
 40
0.0
  9
$DIMTM
 40
0.0
  9
$DIMTXT
 40
0.18
  9
$DIMCEN
 40
0.09
  9
$DIMTSZ
 40
0.0
  9
$DIMTOL
 70
     0
  9
$DIMLIM
 70
     0
  9
$DIMTIH
 70
     1
  9
$DIMTOH
 70
     1
  9
$DIMSE1
 70
     0
  9
$DIMSE2
 70
     0
  9
$DIMTAD
 70
     0
  9
$DIMZIN
 70
     0
  9
$DIMBLK
  1

  9
$DIMASO
 70
     1
  9
$DIMSHO
 70
     1
  9
$DIMPOST
  1

  9
$DIMAPOST
  1

  9
$DIMALT
 70
     0
  9
$DIMALTD
 70
     2
  9
$DIMALTF
 40
25.4
  9
$DIMLFAC
 40
1.0
  9
$DIMTOFL
 70
     0
  9
$DIMTVP
 40
0.0
  9
$DIMTIX
 70
     0
  9
$DIMSOXD
 70
     0
  9
$DIMSAH
 70
     0
  9
$DIMBLK1
  1

  9
$DIMBLK2
  1

  9
$DIMSTYLE
  2
STANDARD
  9
$DIMCLRD
 70
     0
  9
$DIMCLRE
 70
     0
  9
$DIMCLRT
 70
     0
  9
$DIMTFAC
 40
1.0
  9
$DIMGAP
 40
0.09
  9
$DIMJUST
 70
     0
  9
$DIMSD1
 70
     0
  9
$DIMSD2
 70
     0
  9
$DIMTOLJ
 70
     1
  9
$DIMTZIN
 70
     0
  9
$DIMALTZ
 70
     0
  9
$DIMALTTZ
 70
     0
  9
$DIMFIT
 70
     3
  9
$DIMUPT
 70
     0
  9
$DIMUNIT
 70
     2
  9
$DIMDEC
 70
     4
  9
$DIMTDEC
 70
     4
  9
$DIMALTU
 70
     2
  9
$DIMALTTD
 70
     2
  9
$DIMTXSTY
  7
STANDARD
  9
$DIMAUNIT
 70
     0
  9
$LUNITS
 70
     2
  9
$LUPREC
 70
     4
  9
$SKETCHINC
 40
0.1
  9
$FILLETRAD
 40
0.0
  9
$AUNITS
 70
     0
  9
$AUPREC
 70
     0
  9
$MENU
  1
.
  9
$ELEVATION
 40
0.0
  9
$PELEVATION
 40
0.0
  9
$THICKNESS
 40
0.0
  9
$LIMCHECK
 70
     0
  9
$CHAMFERA
 40
0.0
  9
$CHAMFERB
 40
0.0
  9
$CHAMFERC
 40
0.0
  9
$CHAMFERD
 40
0.0
  9
$SKPOLY
 70
     0
  9
$TDCREATE
 40
2452643.105050937
  9
$TDUPDATE
 40
2456727.611106863
  9
$TDINDWG
 40
0.0194623148
  9
$TDUSRTIMER
 40
2456727.559273032
  9
$USRTIMER
 70
     1
  9
$ANGBASE
 50
0.0
  9
$ANGDIR
 70
     0
  9
$PDMODE
 70
     0
  9
$PDSIZE
 40
0.0
  9
$PLINEWID
 40
0.0
  9
$COORDS
 70
     2
  9
$SPLFRAME
 70
     0
  9
$SPLINETYPE
 70
     6
  9
$SPLINESEGS
 70
     8
  9
$ATTDIA
 70
     0
  9
$ATTREQ
 70
     1
  9
$HANDLING
 70
     1
  9
$HANDSEED
  5
224
  9
$SURFTAB1
 70
     6
  9
$SURFTAB2
 70
     6
  9
$SURFTYPE
 70
     6
  9
$SURFU
 70
     6
  9
$SURFV
 70
     6
  9
$UCSNAME
  2

  9
$UCSORG
 10
0.0
 20
0.0
 30
0.0
  9
$UCSXDIR
 10
1.0
 20
0.0
 30
0.0
  9
$UCSYDIR
 10
0.0
 20
1.0
 30
0.0
  9
$PUCSNAME
  2

  9
$PUCSORG
 10
0.0
 20
0.0
 30
0.0
  9
$PUCSXDIR
 10
1.0
 20
0.0
 30
0.0
  9
$PUCSYDIR
 10
0.0
 20
1.0
 30
0.0
  9
$USERI1
 70
     0
  9
$USERI2
 70
     0
  9
$USERI3
 70
     0
  9
$USERI4
 70
     0
  9
$USERI5
 70
     0
  9
$USERR1
 40
0.0
  9
$USERR2
 40
0.0
  9
$USERR3
 40
0.0
  9
$USERR4
 40
0.0
  9
$USERR5
 40
0.0
  9
$WORLDVIEW
 70
     1
  9
$SHADEDGE
 70
     3
  9
$SHADEDIF
 70
    70
  9
$TILEMODE
 70
     0
  9
$MAXACTVP
 70
    64
  9
$PINSBASE
 10
0.0
 20
0.0
 30
0.0
  9
$PLIMCHECK
 70
     0
  9
$PEXTMIN
 10
0.0
 20
0.0
 30
0.0
  9
$PEXTMAX
 10
0.0
 20
0.0
 30
0.0
  9
$PLIMMIN
 10
-0.25
 20
-0.25
  9
$PLIMMAX
 10
10.75
 20
8.25
  9
$UNITMODE
 70
     0
  9
$VISRETAIN
 70
     1
  9
$PLINEGEN
 70
     0
  9
$PSLTSCALE
 70
     1
  9
$TREEDEPTH
 70
  3020
  9
$PICKSTYLE
 70
     0
  9
$CMLSTYLE
  2
STANDARD
  9
$CMLJUST
 70
     0
  9
$CMLSCALE
 40
1.0
  9
$PROXYGRAPHICS
 70
     1
  9
$MEASUREMENT
 70
     0
  0
ENDSEC
  0
SECTION
  2
CLASSES
  0
CLASS
  1
ACDBDICTIONARYWDFLT
  2
AcDbDictionaryWithDefault
  3
ObjectDBX Classes
 90
        0
280
     0
281
     0
  0
CLASS
  1
ACDBPLACEHOLDER
  2
AcDbPlaceHolder
  3
ObjectDBX Classes
 90
        0
280
     0
281
     0
  0
CLASS
  1
LAYOUT
  2
AcDbLayout
  3
ObjectDBX Classes
 90
        0
280
     0
281
     0
  0
CLASS
  1
DICTIONARYVAR
  2
AcDbDictionaryVar
  3
ObjectDBX Classes
 90
        0
280
     0
281
     0
  0
CLASS
  1
TABLESTYLE
  2
AcDbTableStyle
  3
ObjectDBX Classes
 90
     4095
280
     0
281
     0
  0
CLASS
  1
MATERIAL
  2
AcDbMaterial
  3
ObjectDBX Classes
 90
     1153
280
     0
281
     0
  0
CLASS
  1
VISUALSTYLE
  2
AcDbVisualStyle
  3
ObjectDBX Classes
 90
     4095
280
     0
281
     0
  0
CLASS
  1
SCALE
  2
AcDbScale
  3
ObjectDBX Classes
 90
     1153
280
     0
281
     0
  0
CLASS
  1
CELLSTYLEMAP
  2
AcDbCellStyleMap
  3
ObjectDBX Classes
 90
     1152
280
     0
281
     0
  0
CLASS
  1
RASTERVARIABLES
  2
AcDbRasterVariables
  3
ISM
 90
        0
280
     0
281
     0
  0
CLASS
  1
SUN
  2
AcDbSun
  3
SCENEOE
 90
     1153
280
     0
281
     0
  0
CLASS
  1
DIMASSOC
  2
AcDbDimAssoc
  3
"AcDbDimAssoc|Product Desc:     AcDim ARX App For Dimension|Company:          Autodesk, Inc.|WEB Address:      www.autodesk.com"
 90
        0
280
     0
281
     0
  0
CLASS
  1
XRECORD
  2
AcDbXrecord
  3
ObjectDBX Classes
 90
        0
280
     0
281
     0
  0
CLASS
  1
LWPOLYLINE
  2
AcDbPolyline
  3
ObjectDBX Classes
 90
        0
280
     0
281
     1
  0
CLASS
  1
HATCH
  2
AcDbHatch
  3
ObjectDBX Classes
 90
        0
280
     0
281
     1
  0
ENDSEC
  0
SECTION
  2
TABLES
  0
TABLE
  2
VPORT
  5
8
330
0
100
AcDbSymbolTable
 70
     1
  0
VPORT
  5
94
330
8
100
AcDbSymbolTableRecord
100
AcDbViewportTableRecord
  2
*ACTIVE
 70
     0
 10
0.0
 20
0.0
 11
1.0
 21
1.0
 12
215.9993582893783
 22
120.1625613533881
 13
0.0
 23
0.0
 14
0.5
 24
0.5
 15
0.5
 25
0.5
 16
0.0
 26
0.0
 36
1.0
 17
-27.6695935659798
 27
-19.53870295786209
 37
0.0
 40
200.1927766416749
 41
1.697885196374622
 42
50.0
 43
0.0
 44
0.0
 50
0.0
 51
0.0
 71
    16
 72
  1000
 73
     1
 74
     3
 75
     0
 76
     0
 77
     0
 78
     0
  0
ENDTAB
  0
TABLE
  2
LTYPE
  5
5
330
0
100
AcDbSymbolTable
 70
     1
  0
LTYPE
  5
14
330
5
100
AcDbSymbolTableRecord
100
AcDbLinetypeTableRecord
  2
BYBLOCK
 70
     0
  3

 72
    65
 73
     0
 40
0.0
  0
LTYPE
  5
15
330
5
100
AcDbSymbolTableRecord
100
AcDbLinetypeTableRecord
  2
BYLAYER
 70
     0
  3
Solid line
 72
    65
 73
     0
 40
0.0
  0
LTYPE
  5
16
330
5
100
AcDbSymbolTableRecord
100
AcDbLinetypeTableRecord
  2
CONTINUOUS
 70
     0
  3
Solid line
 72
    65
 73
     0
 40
0.0
  0
ENDTAB
  0
TABLE
  2
LAYER
  5
2
102
{ACAD_XDICTIONARY
360
1C3
102
}
330
0
100
AcDbSymbolTable
 70
     4
  0
LAYER
  5
10
330
2
100
AcDbSymbolTableRecord
100
AcDbLayerTableRecord
  2
0
 70
     0
 62
     7
  6
CONTINUOUS
  0
LAYER
  5
125
102
{ACAD_XDICTIONARY
360
126
102
}
330
2
100
AcDbSymbolTableRecord
100
AcDbLayerTableRecord
  2
OBRYS
 70
     0
 62
     5
  6
CONTINUOUS
  0
LAYER
  5
1C6
330
2
100
AcDbSymbolTableRecord
100
AcDbLayerTableRecord
  2
KOTY
 70
     0
 62
     1
  6
CONTINUOUS
1001
ACAECLAYERSTANDARD
1000

1000

  0
LAYER
  5
1CF
330
2
100
AcDbSymbolTableRecord
100
AcDbLayerTableRecord
  2
DEFPOINTS
 70
     0
 62
     7
  6
CONTINUOUS
  0
ENDTAB
  0
TABLE
  2
STYLE
  5
3
330
0
100
AcDbSymbolTable
 70
     1
  0
STYLE
  5
11
330
3
100
AcDbSymbolTableRecord
100
AcDbTextStyleTableRecord
  2
STANDARD
 70
     0
 40
0.0
 41
1.0
 50
0.0
 71
     0
 42
0.2
  3
arial.ttf
  4

1001
ACAD
1000
Arial
1071
        0
  0
ENDTAB
  0
TABLE
  2
VIEW
  5
6
330
0
100
AcDbSymbolTable
 70
     0
  0
ENDTAB
  0
TABLE
  2
UCS
  5
7
330
0
100
AcDbSymbolTable
 70
     0
  0
ENDTAB
  0
TABLE
  2
APPID
  5
9
330
0
100
AcDbSymbolTable
 70
     2
  0
APPID
  5
12
330
9
100
AcDbSymbolTableRecord
100
AcDbRegAppTableRecord
  2
ACAD
 70
     0
  0
APPID
  5
1C7
330
9
100
AcDbSymbolTableRecord
100
AcDbRegAppTableRecord
  2
ACAECLAYERSTANDARD
 70
     0
  0
ENDTAB
  0
TABLE
  2
DIMSTYLE
  5
A
330
0
100
AcDbSymbolTable
 70
     1
  0
DIMSTYLE
105
27
102
{ACAD_REACTORS
330
1D0
330
1E0
330
1F0
330
200
330
210
102
}
330
A
100
AcDbSymbolTableRecord
100
AcDbDimStyleTableRecord
  2
STANDARD
 70
     0
  3

  4

  5

  6

  7

 40
1.0
 41
0.18
 42
0.0625
 43
0.38
 44
0.18
 45
0.0
 46
0.0
 47
0.0
 48
0.0
140
0.18
141
0.09
142
0.0
143
25.4
144
1.0
145
0.0
146
1.0
147
0.09
 71
     0
 72
     0
 73
     1
 74
     1
 75
     0
 76
     0
 77
     0
 78
     0
170
     0
171
     2
172
     0
173
     0
174
     0
175
     0
176
     0
177
     0
178
     0
270
     2
271
     4
272
     4
273
     2
274
     2
340
11
275
     0
280
     0
281
     0
282
     0
283
     1
284
     0
285
     0
286
     0
287
     3
288
     0
  0
ENDTAB
  0
TABLE
  2
BLOCK_RECORD
  5
1
330
0
100
AcDbSymbolTable
 70
     7
  0
BLOCK_RECORD
  5
1F
330
1
100
AcDbSymbolTableRecord
100
AcDbBlockTableRecord
  2
*MODEL_SPACE
  0
BLOCK_RECORD
  5
58
330
1
100
AcDbSymbolTableRecord
100
AcDbBlockTableRecord
  2
*PAPER_SPACE
  0
BLOCK_RECORD
  5
5D
330
1
100
AcDbSymbolTableRecord
100
AcDbBlockTableRecord
  2
*PAPER_SPACE0
  0
BLOCK_RECORD
  5
1D3
330
1
100
AcDbSymbolTableRecord
100
AcDbBlockTableRecord
  2
*D2
  0
BLOCK_RECORD
  5
1E3
330
1
100
AcDbSymbolTableRecord
100
AcDbBlockTableRecord
  2
*D3
  0
BLOCK_RECORD
  5
1F3
330
1
100
AcDbSymbolTableRecord
100
AcDbBlockTableRecord
  2
*D4
  0
BLOCK_RECORD
  5
203
330
1
100
AcDbSymbolTableRecord
100
AcDbBlockTableRecord
  2
*D5
  0
BLOCK_RECORD
  5
213
330
1
100
AcDbSymbolTableRecord
100
AcDbBlockTableRecord
  2
*D6
  0
ENDTAB
  0
ENDSEC
  0
SECTION
  2
BLOCKS
  0
BLOCK
  5
20
330
1F
100
AcDbEntity
  8
0
100
AcDbBlockBegin
  2
*MODEL_SPACE
 70
     0
 10
0.0
 20
0.0
 30
0.0
  3
*MODEL_SPACE
  1

  0
ENDBLK
  5
21
330
1F
100
AcDbEntity
  8
0
100
AcDbBlockEnd
  0
BLOCK
  5
5A
330
58
100
AcDbEntity
 67
     1
  8
0
100
AcDbBlockBegin
  2
*PAPER_SPACE
 70
     0
 10
0.0
 20
0.0
 30
0.0
  3
*PAPER_SPACE
  1

  0
ENDBLK
  5
5B
330
58
100
AcDbEntity
 67
     1
  8
0
100
AcDbBlockEnd
  0
BLOCK
  5
5F
330
5D
100
AcDbEntity
  8
0
100
AcDbBlockBegin
  2
*PAPER_SPACE0
 70
     0
 10
0.0
 20
0.0
 30
0.0
  3
*PAPER_SPACE0
  1
*PAPER_SPACE0
  0
ENDBLK
  5
60
330
5D
100
AcDbEntity
  8
0
100
AcDbBlockEnd
  0
BLOCK
  5
1D4
330
1D3
100
AcDbEntity
  8
0
100
AcDbBlockBegin
  2
*D2
 70
     1
 10
0.0
 20
0.0
 30
0.0
  3
*D2
  1
*D2
  0
LINE
  5
1D6
330
1D3
100
AcDbEntity
  8
KOTY
 62
     0
100
AcDbLine
 10
106.0608134115311
 20
167.5044037167011
 30
0.0
 11
106.0608134115311
 21
174.5199298354487
 31
0.0
  0
LINE
  5
1D7
330
1D3
100
AcDbEntity
  8
KOTY
 62
     0
100
AcDbLine
 10
114.0541239564078
 20
167.5044037167011
 30
0.0
 11
114.0541239564078
 21
174.5199298354487
 31
0.0
  0
LINE
  5
1D8
330
1D3
100
AcDbEntity
  8
KOTY
 62
     0
100
AcDbLine
 10
102.0608134115311
 20
174.3399298354487
 30
0.0
 11
98.06081341153113
 21
174.3399298354487
 31
0.0
  0
LINE
  5
1D9
330
1D3
100
AcDbEntity
  8
KOTY
 62
     0
100
AcDbLine
 10
118.0541239564078
 20
174.3399298354487
 30
0.0
 11
122.0541239564078
 21
174.3399298354487
 31
0.0
  0
SOLID
  5
1DA
330
1D3
100
AcDbEntity
  8
KOTY
 62
     0
100
AcDbTrace
 10
102.0608134115311
 20
173.673263168782
 30
0.0
 11
102.0608134115311
 21
175.0065965021153
 31
0.0
 12
106.0608134115311
 22
174.3399298354487
 32
0.0
 13
106.0608134115311
 23
174.3399298354487
 33
0.0
  0
SOLID
  5
1DB
330
1D3
100
AcDbEntity
  8
KOTY
 62
     0
100
AcDbTrace
 10
118.0541239564078
 20
175.0065965021153
 30
0.0
 11
118.0541239564078
 21
173.673263168782
 31
0.0
 12
114.0541239564078
 22
174.3399298354487
 32
0.0
 13
114.0541239564078
 23
174.3399298354487
 33
0.0
  0
MTEXT
  5
1DC
330
1D3
100
AcDbEntity
  8
KOTY
 62
     0
100
AcDbMText
 10
110.0543680980327
 20
177.4539298354487
 30
0.0
 40
4.0
 41
0.0
 71
     5
 72
     1
  1
\A1;\U+00F8 8
  0
POINT
  5
1DD
330
1D3
100
AcDbEntity
  8
DEFPOINTS
 62
     0
100
AcDbPoint
 10
106.0608134115311
 20
167.4419037167011
 30
0.0
  0
POINT
  5
1DE
330
1D3
100
AcDbEntity
  8
DEFPOINTS
 62
     0
100
AcDbPoint
 10
114.0541239564078
 20
167.4419037167011
 30
0.0
  0
POINT
  5
1DF
330
1D3
100
AcDbEntity
  8
DEFPOINTS
 62
     0
100
AcDbPoint
 10
114.0541239564078
 20
174.3399298354487
 30
0.0
  0
ENDBLK
  5
1D5
330
1D3
100
AcDbEntity
  8
0
100
AcDbBlockEnd
  0
BLOCK
  5
1E4
330
1E3
100
AcDbEntity
  8
0
100
AcDbBlockBegin
  2
*D3
 70
     1
 10
0.0
 20
0.0
 30
0.0
  3
*D3
  1
*D3
  0
LINE
  5
1E6
330
1E3
100
AcDbEntity
  8
KOTY
 62
     0
100
AcDbLine
 10
106.9918789494772
 20
168.4420149360691
 30
0.0
 11
81.0693007229994
 21
168.4420149360691
 31
0.0
  0
LINE
  5
1E7
330
1E3
100
AcDbEntity
  8
KOTY
 62
     0
100
AcDbLine
 10
105.9917677301091
 20
129.4419837500725
 30
0.0
 11
81.0693007229994
 21
129.4419837500725
 31
0.0
  0
LINE
  5
1E8
330
1E3
100
AcDbEntity
  8
KOTY
 62
     0
100
AcDbLine
 10
81.24930072299941
 20
164.4420149360691
 30
0.0
 11
81.24930072299941
 21
133.4419837500725
 31
0.0
  0
SOLID
  5
1E9
330
1E3
100
AcDbEntity
  8
KOTY
 62
     0
100
AcDbTrace
 10
81.91596738966608
 20
164.4420149360691
 30
0.0
 11
80.58263405633274
 21
164.4420149360691
 31
0.0
 12
81.24930072299941
 22
168.4420149360691
 32
0.0
 13
81.24930072299941
 23
168.4420149360691
 33
0.0
  0
SOLID
  5
1EA
330
1E3
100
AcDbEntity
  8
KOTY
 62
     0
100
AcDbTrace
 10
80.58263405633274
 20
133.4419837500725
 30
0.0
 11
81.91596738966608
 21
133.4419837500725
 31
0.0
 12
81.24930072299941
 22
129.4419837500725
 32
0.0
 13
81.24930072299941
 23
129.4419837500725
 33
0.0
  0
MTEXT
  5
1EB
330
1E3
100
AcDbEntity
  8
KOTY
 62
     0
100
AcDbMText
 10
78.2073007229994
 20
148.9419993430708
 30
0.0
 40
4.0
 41
0.0
 71
     5
 72
     1
  1
\A1;39
 11
0.0
 21
1.0
 31
0.0
  0
POINT
  5
1EC
330
1E3
100
AcDbEntity
  8
DEFPOINTS
 62
     0
100
AcDbPoint
 10
107.0543789494772
 20
168.4420149360691
 30
0.0
  0
POINT
  5
1ED
330
1E3
100
AcDbEntity
  8
DEFPOINTS
 62
     0
100
AcDbPoint
 10
106.0542677301091
 20
129.4419837500725
 30
0.0
  0
POINT
  5
1EE
330
1E3
100
AcDbEntity
  8
DEFPOINTS
 62
     0
100
AcDbPoint
 10
81.24930072299941
 20
129.4419837500725
 30
0.0
  0
ENDBLK
  5
1E5
330
1E3
100
AcDbEntity
  8
0
100
AcDbBlockEnd
  0
BLOCK
  5
1F4
330
1F3
100
AcDbEntity
  8
0
100
AcDbBlockBegin
  2
*D4
 70
     1
 10
0.0
 20
0.0
 30
0.0
  3
*D4
  1
*D4
  0
LINE
  5
1F6
330
1F3
100
AcDbEntity
  8
KOTY
 62
     0
100
AcDbLine
 10
106.9918789494772
 20
23.44190782171145
 30
0.0
 11
81.24930072299941
 21
23.44190782171145
 31
0.0
  0
LINE
  5
1F7
330
1F3
100
AcDbEntity
  8
KOTY
 62
     0
100
AcDbLine
 10
105.9917677301091
 20
57.44189967519066
 30
0.0
 11
81.24930072299941
 21
57.44189967519066
 31
0.0
  0
LINE
  5
1F8
330
1F3
100
AcDbEntity
  8
KOTY
 62
     0
100
AcDbLine
 10
81.42930072299941
 20
27.44190782171145
 30
0.0
 11
81.42930072299941
 21
53.44189967519066
 31
0.0
  0
SOLID
  5
1F9
330
1F3
100
AcDbEntity
  8
KOTY
 62
     0
100
AcDbTrace
 10
80.76263405633274
 20
27.44190782171145
 30
0.0
 11
82.09596738966609
 21
27.44190782171145
 31
0.0
 12
81.42930072299941
 22
23.44190782171145
 32
0.0
 13
81.42930072299941
 23
23.44190782171145
 33
0.0
  0
SOLID
  5
1FA
330
1F3
100
AcDbEntity
  8
KOTY
 62
     0
100
AcDbTrace
 10
82.09596738966609
 20
53.44189967519066
 30
0.0
 11
80.76263405633274
 21
53.44189967519066
 31
0.0
 12
81.42930072299941
 22
57.44189967519066
 32
0.0
 13
81.42930072299941
 23
57.44189967519066
 33
0.0
  0
MTEXT
  5
1FB
330
1F3
100
AcDbEntity
  8
KOTY
 62
     0
100
AcDbMText
 10
78.38730072299941
 20
40.44190374845105
 30
0.0
 40
4.0
 41
0.0
 71
     5
 72
     1
  1
\A1;34
 11
0.0
 21
1.0
 31
0.0
  0
POINT
  5
1FC
330
1F3
100
AcDbEntity
  8
DEFPOINTS
 62
     0
100
AcDbPoint
 10
107.0543789494772
 20
23.44190782171145
 30
0.0
  0
POINT
  5
1FD
330
1F3
100
AcDbEntity
  8
DEFPOINTS
 62
     0
100
AcDbPoint
 10
106.0542677301091
 20
57.44189967519066
 30
0.0
  0
POINT
  5
1FE
330
1F3
100
AcDbEntity
  8
DEFPOINTS
 62
     0
100
AcDbPoint
 10
81.42930072299941
 20
57.44189967519066
 30
0.0
  0
ENDBLK
  5
1F5
330
1F3
100
AcDbEntity
  8
0
100
AcDbBlockEnd
  0
BLOCK
  5
204
330
203
100
AcDbEntity
  8
0
100
AcDbBlockBegin
  2
*D5
 70
     1
 10
0.0
 20
0.0
 30
0.0
  3
*D5
  1
*D5
  0
LINE
  5
206
330
203
100
AcDbEntity
  8
KOTY
 62
     0
100
AcDbLine
 10
82.55423789657445
 20
82.50425182822894
 30
0.0
 11
82.55423789657445
 21
103.567382988617
 31
0.0
  0
LINE
  5
207
330
203
100
AcDbEntity
  8
KOTY
 62
     0
100
AcDbLine
 10
137.5540143172533
 20
82.50425182822889
 30
0.0
 11
137.5540143172533
 21
103.567382988617
 31
0.0
  0
LINE
  5
208
330
203
100
AcDbEntity
  8
KOTY
 62
     0
100
AcDbLine
 10
86.55423789657445
 20
103.387382988617
 30
0.0
 11
133.5540143172533
 21
103.387382988617
 31
0.0
  0
SOLID
  5
209
330
203
100
AcDbEntity
  8
KOTY
 62
     0
100
AcDbTrace
 10
86.55423789657445
 20
104.0540496552837
 30
0.0
 11
86.55423789657445
 21
102.7207163219504
 31
0.0
 12
82.55423789657445
 22
103.387382988617
 32
0.0
 13
82.55423789657445
 23
103.387382988617
 33
0.0
  0
SOLID
  5
20A
330
203
100
AcDbEntity
  8
KOTY
 62
     0
100
AcDbTrace
 10
133.5540143172533
 20
102.7207163219504
 30
0.0
 11
133.5540143172533
 21
104.0540496552837
 31
0.0
 12
137.5540143172533
 22
103.387382988617
 32
0.0
 13
137.5540143172533
 23
103.387382988617
 33
0.0
  0
MTEXT
  5
20B
330
203
100
AcDbEntity
  8
KOTY
 62
     0
100
AcDbMText
 10
110.0541261069139
 20
106.493382988617
 30
0.0
 40
4.0
 41
0.0
 71
     5
 72
     1
  1
\A1;\U+00F8 55
  0
POINT
  5
20C
330
203
100
AcDbEntity
  8
DEFPOINTS
 62
     0
100
AcDbPoint
 10
82.55423789657445
 20
82.44175182822894
 30
0.0
  0
POINT
  5
20D
330
203
100
AcDbEntity
  8
DEFPOINTS
 62
     0
100
AcDbPoint
 10
137.5540143172533
 20
82.44175182822889
 30
0.0
  0
POINT
  5
20E
330
203
100
AcDbEntity
  8
DEFPOINTS
 62
     0
100
AcDbPoint
 10
137.5540143172533
 20
103.387382988617
 30
0.0
  0
ENDBLK
  5
205
330
203
100
AcDbEntity
  8
0
100
AcDbBlockEnd
  0
BLOCK
  5
214
330
213
100
AcDbEntity
  8
0
100
AcDbBlockBegin
  2
*D6
 70
     1
 10
0.0
 20
0.0
 30
0.0
  3
*D6
  1
*D6
  0
LINE
  5
216
330
213
100
AcDbEntity
  8
KOTY
 62
     0
100
AcDbLine
 10
106.9293789494772
 20
23.44190782171145
 30
0.0
 11
65.36469406617772
 21
23.44190782171145
 31
0.0
  0
LINE
  5
217
330
213
100
AcDbEntity
  8
KOTY
 62
     0
100
AcDbLine
 10
106.9293789494772
 20
168.4420149360691
 30
0.0
 11
65.36469406617773
 21
168.4420149360691
 31
0.0
  0
LINE
  5
218
330
213
100
AcDbEntity
  8
KOTY
 62
     0
100
AcDbLine
 10
65.54469406617773
 20
27.44190782171145
 30
0.0
 11
65.54469406617774
 21
164.4420149360691
 31
0.0
  0
SOLID
  5
219
330
213
100
AcDbEntity
  8
KOTY
 62
     0
100
AcDbTrace
 10
64.87802739951105
 20
27.44190782171145
 30
0.0
 11
66.2113607328444
 21
27.44190782171145
 31
0.0
 12
65.54469406617773
 22
23.44190782171145
 32
0.0
 13
65.54469406617773
 23
23.44190782171145
 33
0.0
  0
SOLID
  5
21A
330
213
100
AcDbEntity
  8
KOTY
 62
     0
100
AcDbTrace
 10
66.21136073284441
 20
164.4420149360691
 30
0.0
 11
64.87802739951107
 21
164.4420149360691
 31
0.0
 12
65.54469406617774
 22
168.4420149360691
 32
0.0
 13
65.54469406617774
 23
168.4420149360691
 33
0.0
  0
MTEXT
  5
21B
330
213
100
AcDbEntity
  8
KOTY
 62
     0
100
AcDbMText
 10
62.50269406617772
 20
95.94196137889028
 30
0.0
 40
4.0
 41
0.0
 71
     5
 72
     1
  1
\A1;145
 11
9.800582218876768E-17
 21
1.0
 31
0.0
  0
POINT
  5
21C
330
213
100
AcDbEntity
  8
DEFPOINTS
 62
     0
100
AcDbPoint
 10
106.9918789494772
 20
23.44190782171145
 30
0.0
  0
POINT
  5
21D
330
213
100
AcDbEntity
  8
DEFPOINTS
 62
     0
100
AcDbPoint
 10
106.9918789494772
 20
168.4420149360691
 30
0.0
  0
POINT
  5
21E
330
213
100
AcDbEntity
  8
DEFPOINTS
 62
     0
100
AcDbPoint
 10
65.54469406617774
 20
168.4420149360691
 30
0.0
  0
ENDBLK
  5
215
330
213
100
AcDbEntity
  8
0
100
AcDbBlockEnd
  0
ENDSEC
  0
SECTION
  2
ENTITIES
  0
LINE
  5
187
102
{ACAD_REACTORS
102
}
330
1F
100
AcDbEntity
  8
OBRYS
100
AcDbLine
 10
107.0543789494772
 20
23.44190782171145
 30
0.0
 11
113.0543572465883
 21
23.44190782171145
 31
0.0
  0
LINE
  5
188
330
1F
100
AcDbEntity
  8
OBRYS
100
AcDbLine
 10
107.0543789494772
 20
23.44190782171145
 30
0.0
 11
106.0542677301091
 21
24.44201904107955
 31
0.0
  0
LINE
  5
189
330
1F
100
AcDbEntity
  8
OBRYS
100
AcDbLine
 10
106.0542677301091
 20
24.44201904107955
 30
0.0
 11
114.0541239564078
 21
24.44201904107955
 31
0.0
  0
LINE
  5
18A
330
1F
100
AcDbEntity
  8
OBRYS
100
AcDbLine
 10
114.0541239564078
 20
24.44201904107955
 30
0.0
 11
113.0543572465883
 21
23.44190782171145
 31
0.0
  0
LINE
  5
18B
330
1F
100
AcDbEntity
  8
OBRYS
100
AcDbLine
 10
106.0542677301091
 20
24.44201904107955
 30
0.0
 11
106.0542677301091
 21
57.44189967519066
 31
0.0
  0
LINE
  5
18C
330
1F
100
AcDbEntity
  8
OBRYS
100
AcDbLine
 10
106.0542677301091
 20
57.44189967519066
 30
0.0
 11
114.0541239564078
 21
57.44189967519066
 31
0.0
  0
LINE
  5
18D
330
1F
100
AcDbEntity
  8
OBRYS
100
AcDbLine
 10
114.0541239564078
 20
57.44189967519066
 30
0.0
 11
114.0541239564078
 21
24.44201904107955
 31
0.0
  0
LINE
  5
18E
102
{ACAD_REACTORS
102
}
330
1F
100
AcDbEntity
  8
OBRYS
100
AcDbLine
 10
106.0542677301091
 20
57.44189967519066
 30
0.0
 11
104.0542175461473
 21
59.94200546883645
 31
0.0
  0
LINE
  5
18F
330
1F
100
AcDbEntity
  8
OBRYS
100
AcDbLine
 10
104.0542175461473
 20
59.94200546883645
 30
0.0
 11
116.0543463951438
 21
59.94200546883645
 31
0.0
  0
LINE
  5
190
330
1F
100
AcDbEntity
  8
OBRYS
100
AcDbLine
 10
116.0543463951438
 20
59.94200546883645
 30
0.0
 11
114.0541239564078
 21
57.44189967519066
 31
0.0
  0
LINE
  5
191
330
1F
100
AcDbEntity
  8
OBRYS
100
AcDbLine
 10
104.0542175461473
 20
59.94200546883645
 30
0.0
 11
104.0542175461473
 21
75.94189017620803
 31
0.0
  0
LINE
  5
192
330
1F
100
AcDbEntity
  8
OBRYS
100
AcDbLine
 10
116.0543463951438
 20
59.94200546883645
 30
0.0
 11
116.0543463951438
 21
75.94189017620803
 31
0.0
  0
LINE
  5
193
330
1F
100
AcDbEntity
  8
OBRYS
100
AcDbLine
 10
98.55411717822375
 20
80.94175725395115
 30
0.0
 11
121.5541022535189
 21
80.94175725395115
 31
0.0
  0
LINE
  5
194
330
1F
100
AcDbEntity
  8
OBRYS
100
AcDbLine
 10
87.55409954859527
 20
83.94174640250668
 30
0.0
 11
132.5541198831473
 21
83.94174640250668
 31
0.0
  0
ARC
  5
195
102
{ACAD_REACTORS
102
}
330
1F
100
AcDbEntity
  8
OBRYS
100
AcDbCircle
 10
84.05423247085218
 20
82.44175182822894
 30
0.0
 40
1.499994574277736
100
AcDbArc
 50
89.99999999999947
 51
269.9999999999994
  0
ARC
  5
196
102
{ACAD_REACTORS
102
}
330
1F
100
AcDbEntity
  8
OBRYS
100
AcDbCircle
 10
136.0540197105774
 20
82.44175182822889
 30
0.0
 40
1.499994606675923
100
AcDbArc
 50
270.0119083924284
 51
89.98809160755205
  0
LINE
  5
197
330
1F
100
AcDbEntity
  8
OBRYS
100
AcDbLine
 10
89.05409954859527
 20
116.4419105107602
 30
0.0
 11
89.05409954859527
 21
85.44174640250668
 31
0.0
  0
ARC
  5
198
330
1F
100
AcDbEntity
  8
OBRYS
100
AcDbCircle
 10
87.55409954859527
 20
85.44174640250668
 30
0.0
 40
1.5
100
AcDbArc
 50
270.0
 51
0.0
  0
LINE
  5
199
330
1F
100
AcDbEntity
  8
OBRYS
100
AcDbLine
 10
87.55409954859527
 20
83.94174640250668
 30
0.0
 11
84.0542324708522
 21
83.94174640250668
 31
0.0
  0
LINE
  5
19A
330
1F
100
AcDbEntity
  8
OBRYS
100
AcDbLine
 10
84.0542324708522
 20
80.94175725395115
 30
0.0
 11
98.55411717822375
 21
80.94175725395115
 31
0.0
  0
ARC
  5
19B
330
1F
100
AcDbEntity
  8
OBRYS
100
AcDbCircle
 10
98.55411717822375
 20
79.44175725395115
 30
0.0
 40
1.5
100
AcDbArc
 50
0.0
 51
90.0
  0
LINE
  5
19C
330
1F
100
AcDbEntity
  8
OBRYS
100
AcDbLine
 10
100.0541171782237
 20
79.44175725395115
 30
0.0
 11
100.0541171782237
 21
77.44189017620803
 31
0.0
  0
ARC
  5
19D
330
1F
100
AcDbEntity
  8
OBRYS
100
AcDbCircle
 10
101.5541171782237
 20
77.44189017620803
 30
0.0
 40
1.5
100
AcDbArc
 50
180.0
 51
270.0
  0
LINE
  5
19E
330
1F
100
AcDbEntity
  8
OBRYS
100
AcDbLine
 10
101.5541171782237
 20
75.94189017620803
 30
0.0
 11
118.5541022535187
 21
75.94189017620798
 31
0.0
  0
ARC
  5
19F
330
1F
100
AcDbEntity
  8
OBRYS
100
AcDbCircle
 10
118.5541022535189
 20
77.44189017620798
 30
0.0
 40
1.5
100
AcDbArc
 50
269.9999999999897
 51
0.0
  0
LINE
  5
1A0
330
1F
100
AcDbEntity
  8
OBRYS
100
AcDbLine
 10
120.0541022535189
 20
77.44189017620798
 30
0.0
 11
120.0541022535189
 21
79.44175725395115
 31
0.0
  0
ARC
  5
1A1
330
1F
100
AcDbEntity
  8
OBRYS
100
AcDbCircle
 10
121.5541022535189
 20
79.44175725395115
 30
0.0
 40
1.5
100
AcDbArc
 50
90.0
 51
180.0
  0
LINE
  5
1A2
330
1F
100
AcDbEntity
  8
OBRYS
100
AcDbLine
 10
121.5541022535189
 20
80.94175725395115
 30
0.0
 11
136.0543314704389
 21
80.94175725395115
 31
0.0
  0
LINE
  5
1A3
330
1F
100
AcDbEntity
  8
OBRYS
100
AcDbLine
 10
136.0543314704389
 20
83.94174640250668
 30
0.0
 11
132.5541198831473
 21
83.94174640250668
 31
0.0
  0
ARC
  5
1A4
330
1F
100
AcDbEntity
  8
OBRYS
100
AcDbCircle
 10
132.5541198831473
 20
85.44174640250668
 30
0.0
 40
1.5
100
AcDbArc
 50
180.0
 51
270.0
  0
LINE
  5
1A5
330
1F
100
AcDbEntity
  8
OBRYS
100
AcDbLine
 10
131.0541198831473
 20
85.44174640250668
 30
0.0
 11
131.0541198831473
 21
116.4419105107602
 31
0.0
  0
LINE
  5
1A6
330
1F
100
AcDbEntity
  8
OBRYS
100
AcDbLine
 10
84.0542324708522
 20
117.9419105107602
 30
0.0
 11
87.55409954859527
 21
117.9419105107602
 31
0.0
  0
LINE
  5
1A7
330
1F
100
AcDbEntity
  8
OBRYS
100
AcDbLine
 10
132.5541198831473
 20
117.9419105107602
 30
0.0
 11
136.0543314704389
 21
117.9419105107602
 31
0.0
  0
ARC
  5
1A8
330
1F
100
AcDbEntity
  8
OBRYS
100
AcDbCircle
 10
132.5541198831473
 20
116.4419105107602
 30
0.0
 40
1.500000000000001
100
AcDbArc
 50
90.0
 51
180.0
  0
ARC
  5
1A9
330
1F
100
AcDbEntity
  8
OBRYS
100
AcDbCircle
 10
87.55409954859527
 20
116.4419105107602
 30
0.0
 40
1.500000000000001
100
AcDbArc
 50
0.0
 51
90.0
  0
LINE
  5
1AA
330
1F
100
AcDbEntity
  8
OBRYS
100
AcDbLine
 10
87.55409954859527
 20
117.9419105107602
 30
0.0
 11
132.5541198831473
 21
117.9419105107602
 31
0.0
  0
ARC
  5
1AB
330
1F
100
AcDbEntity
  8
OBRYS
100
AcDbCircle
 10
136.0543314704389
 20
119.4419050850379
 30
0.0
 40
1.499994574277736
100
AcDbArc
 50
270.0
 51
90.0
  0
ARC
  5
1AC
330
1F
100
AcDbEntity
  8
OBRYS
100
AcDbCircle
 10
84.0542324708522
 20
119.4419050850379
 30
0.0
 40
1.499994574277736
100
AcDbArc
 50
90.0
 51
270.0
  0
LINE
  5
1AD
330
1F
100
AcDbEntity
  8
OBRYS
100
AcDbLine
 10
98.55411717822375
 20
120.9418996593156
 30
0.0
 11
121.5541022535189
 21
120.9418996593156
 31
0.0
  0
LINE
  5
1AE
330
1F
100
AcDbEntity
  8
OBRYS
100
AcDbLine
 10
136.0543314704389
 20
120.9418996593156
 30
0.0
 11
121.5541022535189
 21
120.9418996593156
 31
0.0
  0
ARC
  5
1AF
330
1F
100
AcDbEntity
  8
OBRYS
100
AcDbCircle
 10
121.5541022535189
 20
122.4418996593156
 30
0.0
 40
1.5
100
AcDbArc
 50
180.0
 51
270.0
  0
LINE
  5
1B0
330
1F
100
AcDbEntity
  8
OBRYS
100
AcDbLine
 10
120.0541022535189
 20
122.4418996593156
 30
0.0
 11
120.0541022535189
 21
124.4417667370588
 31
0.0
  0
ARC
  5
1B1
330
1F
100
AcDbEntity
  8
OBRYS
100
AcDbCircle
 10
118.5541022535189
 20
124.4417667370587
 30
0.0
 40
1.499999999999993
100
AcDbArc
 50
0.0000000000010856
 51
90.00000000000054
  0
LINE
  5
1B2
330
1F
100
AcDbEntity
  8
OBRYS
100
AcDbLine
 10
118.5541022535189
 20
125.9417667370587
 30
0.0
 11
101.5541171782237
 21
125.9417667370587
 31
0.0
  0
ARC
  5
1B3
330
1F
100
AcDbEntity
  8
OBRYS
100
AcDbCircle
 10
101.5541171782237
 20
124.4417667370587
 30
0.0
 40
1.5
100
AcDbArc
 50
90.0
 51
180.0
  0
LINE
  5
1B4
330
1F
100
AcDbEntity
  8
OBRYS
100
AcDbLine
 10
100.0541171782237
 20
124.4417667370587
 30
0.0
 11
100.0541171782237
 21
122.4418996593156
 31
0.0
  0
ARC
  5
1B5
330
1F
100
AcDbEntity
  8
OBRYS
100
AcDbCircle
 10
98.55411717822375
 20
122.4418996593156
 30
0.0
 40
1.5
100
AcDbArc
 50
270.0
 51
0.0
  0
LINE
  5
1B6
330
1F
100
AcDbEntity
  8
OBRYS
100
AcDbLine
 10
98.55411717822375
 20
120.9418996593156
 30
0.0
 11
84.0542324708522
 21
120.9418996593156
 31
0.0
  0
LINE
  5
1B7
330
1F
100
AcDbEntity
  8
OBRYS
100
AcDbLine
 10
116.0543463951438
 20
125.9417667370587
 30
0.0
 11
116.0543463951438
 21
126.9418779564267
 31
0.0
  0
LINE
  5
1B8
330
1F
100
AcDbEntity
  8
OBRYS
100
AcDbLine
 10
104.0542175461473
 20
126.9418779564267
 30
0.0
 11
104.0542175461473
 21
125.9417667370587
 31
0.0
  0
LINE
  5
1B9
330
1F
100
AcDbEntity
  8
OBRYS
100
AcDbLine
 10
104.0542175461473
 20
126.9418779564267
 30
0.0
 11
116.0543463951438
 21
126.9418779564267
 31
0.0
  0
LINE
  5
1BA
102
{ACAD_REACTORS
102
}
330
1F
100
AcDbEntity
  8
OBRYS
100
AcDbLine
 10
106.0542677301091
 20
129.4419837500725
 30
0.0
 11
104.0542175461473
 21
126.9418779564267
 31
0.0
  0
LINE
  5
1BB
330
1F
100
AcDbEntity
  8
OBRYS
100
AcDbLine
 10
116.0543463951438
 20
126.9418779564267
 30
0.0
 11
114.0541239564078
 21
129.4419837500725
 31
0.0
  0
LINE
  5
1BC
330
1F
100
AcDbEntity
  8
OBRYS
100
AcDbLine
 10
106.0542677301091
 20
129.4419837500725
 30
0.0
 11
114.0541239564078
 21
129.4419837500725
 31
0.0
  0
LINE
  5
1BD
102
{ACAD_REACTORS
102
}
330
1F
100
AcDbEntity
  8
OBRYS
100
AcDbLine
 10
106.0542677301091
 20
129.4419837500725
 30
0.0
 11
106.0608134115311
 21
167.4419037167011
 31
0.0
  0
LINE
  5
1BE
102
{ACAD_REACTORS
102
}
330
1F
100
AcDbEntity
  8
OBRYS
100
AcDbLine
 10
114.0541239564078
 20
167.4419037167011
 30
0.0
 11
114.0541239564078
 21
129.4419837500725
 31
0.0
  0
LINE
  5
1BF
330
1F
100
AcDbEntity
  8
OBRYS
100
AcDbLine
 10
106.0542677301091
 20
167.4419037167011
 30
0.0
 11
114.0541239564078
 21
167.4419037167011
 31
0.0
  0
LINE
  5
1C0
330
1F
100
AcDbEntity
  8
OBRYS
100
AcDbLine
 10
114.0541239564078
 20
167.4419037167011
 30
0.0
 11
113.0543572465883
 21
168.4420149360691
 31
0.0
  0
LINE
  5
1C1
102
{ACAD_REACTORS
102
}
330
1F
100
AcDbEntity
  8
OBRYS
100
AcDbLine
 10
107.0543789494772
 20
168.4420149360691
 30
0.0
 11
106.0542677301091
 21
167.4419037167011
 31
0.0
  0
LINE
  5
1C2
330
1F
100
AcDbEntity
  8
OBRYS
100
AcDbLine
 10
107.0543789494772
 20
168.4420149360691
 30
0.0
 11
113.0543572465883
 21
168.4420149360691
 31
0.0
  0
DIMENSION
  5
1D0
102
{ACAD_REACTORS
102
}
102
{ACAD_XDICTIONARY
360
1D1
102
}
330
1F
100
AcDbEntity
  8
KOTY
100
AcDbDimension
  2
*D2
 10
114.0541239564078
 20
174.3399298354487
 30
0.0
 11
110.0543680980327
 21
174.3399298354487
 31
0.0
 70
   160
  1
\U+00F8 8
  3
STANDARD
100
AcDbAlignedDimension
 13
106.0608134115311
 23
167.4419037167011
 33
0.0
 14
114.0541239564078
 24
167.4419037167011
 34
0.0
100
AcDbRotatedDimension
1001
ACAD
1000
DSTYLE
1002
{
1070
    74
1070
     0
1070
   271
1070
     0
1070
   278
1070
    44
1070
   140
1040
4.0
1070
    73
1070
     0
1070
    77
1070
     1
1070
   147
1040
1.0
1070
    41
1040
4.0
1002
}
  0
DIMENSION
  5
1E0
102
{ACAD_REACTORS
102
}
102
{ACAD_XDICTIONARY
360
1E1
102
}
330
1F
100
AcDbEntity
  8
KOTY
100
AcDbDimension
  2
*D3
 10
81.24930072299941
 20
129.4419837500725
 30
0.0
 11
78.2073007229994
 21
148.9419993430708
 31
0.0
 70
    32
  3
STANDARD
100
AcDbAlignedDimension
 13
107.0543789494772
 23
168.4420149360691
 33
0.0
 14
106.0542677301091
 24
129.4419837500725
 34
0.0
 50
90.0
100
AcDbRotatedDimension
1001
ACAD
1000
DSTYLE
1002
{
1070
   271
1070
     0
1070
   278
1070
    44
1070
   140
1040
4.0
1070
    73
1070
     0
1070
    77
1070
     1
1070
   147
1040
1.0
1070
    41
1040
4.0
1002
}
  0
DIMENSION
  5
1F0
102
{ACAD_REACTORS
102
}
102
{ACAD_XDICTIONARY
360
1F1
102
}
330
1F
100
AcDbEntity
  8
KOTY
100
AcDbDimension
  2
*D4
 10
81.42930072299941
 20
57.44189967519066
 30
0.0
 11
78.38730072299941
 21
40.44190374845105
 31
0.0
 70
    32
  3
STANDARD
100
AcDbAlignedDimension
 13
107.0543789494772
 23
23.44190782171145
 33
0.0
 14
106.0542677301091
 24
57.44189967519066
 34
0.0
 50
90.0
100
AcDbRotatedDimension
1001
ACAD
1000
DSTYLE
1002
{
1070
   271
1070
     0
1070
   278
1070
    44
1070
   140
1040
4.0
1070
    73
1070
     0
1070
    77
1070
     1
1070
   147
1040
1.0
1070
    41
1040
4.0
1002
}
  0
DIMENSION
  5
200
102
{ACAD_REACTORS
102
}
102
{ACAD_XDICTIONARY
360
201
102
}
330
1F
100
AcDbEntity
  8
KOTY
100
AcDbDimension
  2
*D5
 10
137.5540143172533
 20
103.387382988617
 30
0.0
 11
110.0541261069139
 21
106.493382988617
 31
0.0
 70
    32
  1
\U+00F8 55
  3
STANDARD
100
AcDbAlignedDimension
 13
82.55423789657445
 23
82.44175182822894
 33
0.0
 14
137.5540143172533
 24
82.44175182822889
 34
0.0
100
AcDbRotatedDimension
1001
ACAD
1000
DSTYLE
1002
{
1070
   271
1070
     0
1070
   278
1070
    44
1070
   140
1040
4.0
1070
    73
1070
     0
1070
    77
1070
     1
1070
   147
1040
1.0
1070
    41
1040
4.0
1002
}
  0
DIMENSION
  5
210
102
{ACAD_XDICTIONARY
360
211
102
}
330
1F
100
AcDbEntity
  8
KOTY
100
AcDbDimension
  2
*D6
 10
65.54469406617774
 20
168.4420149360691
 30
0.0
 11
62.50269406617772
 21
95.94196137889028
 31
0.0
 70
    32
  3
STANDARD
100
AcDbAlignedDimension
 13
106.9918789494772
 23
23.44190782171145
 33
0.0
 14
106.9918789494772
 24
168.4420149360691
 34
0.0
 50
90.0
100
AcDbRotatedDimension
1001
ACAD
1000
DSTYLE
1002
{
1070
   271
1070
     0
1070
   278
1070
    44
1070
   140
1040
4.0
1070
    73
1070
     0
1070
    77
1070
     1
1070
   147
1040
1.0
1070
    41
1040
4.0
1002
}
  0
VIEWPORT
  5
220
330
58
100
AcDbEntity
 67
     1
  8
0
100
AcDbViewport
 10
5.25
 20
4.0
 30
0.0
 40
12.6
 41
9.6
 68
     1
 69
     1
1001
ACAD
1000
MVIEW
1002
{
1070
    16
1010
0.0
1020
0.0
1030
0.0
1010
0.0
1020
0.0
1030
1.0
1040
0.0
1040
9.6
1040
5.25
1040
4.0
1040
50.0
1040
0.0
1040
0.0
1070
     0
1070
   100
1070
     0
1070
     3
1070
     0
1070
     0
1070
     0
1070
     0
1040
0.0
1040
0.0
1040
0.0
1040
0.5
1040
0.5
1040
0.0
1040
0.0
1070
     0
1002
{
1002
}
1002
}
  0
VIEWPORT
  5
221
330
58
100
AcDbEntity
 67
     1
  8
0
100
AcDbViewport
 10
5.25
 20
4.0
 30
0.0
 40
8.4
 41
6.4
 68
     2
 69
     2
1001
ACAD
1000
MVIEW
1002
{
1070
    16
1010
0.0
1020
0.0
1030
0.0
1010
0.0
1020
0.0
1030
1.0
1040
0.0
1040
159.256702454012
1040
99.00351005544718
1040
101.5089188285801
1040
50.0
1040
0.0
1040
0.0
1070
     0
1070
   100
1070
     0
1070
     3
1070
     0
1070
     0
1070
     0
1070
     0
1040
0.0
1040
0.0
1040
0.0
1040
0.5
1040
0.5
1040
0.0
1040
0.0
1070
     0
1002
{
1002
}
1002
}
  0
ENDSEC
  0
SECTION
  2
OBJECTS
  0
DICTIONARY
  5
C
330
0
100
AcDbDictionary
  3
ACAD_DETAILVIEWSTYLE
350
122
  3
ACAD_GROUP
350
D
  3
ACAD_IMAGE_VARS
350
DC
  3
ACAD_MLINESTYLE
350
17
  3
ACAD_SCALELIST
350
B6
  3
ACAD_SECTIONVIEWSTYLE
350
123
  3
ACDBVARIABLEDICTIONARY
350
66
  3
APPDATA
350
E1
  3
DWGPROPS
350
223
  0
DICTIONARY
  5
1C3
330
2
100
AcDbDictionary
280
     1
  3
ACAD_LAYERSTATES
360
1C4
  3
ACLYDICTIONARY
360
1CE
  0
DICTIONARY
  5
126
330
125
100
AcDbDictionary
280
     1
  0
DICTIONARY
  5
1D1
330
1D0
100
AcDbDictionary
280
     1
  0
DICTIONARY
  5
1E1
330
1E0
100
AcDbDictionary
280
     1
  0
DICTIONARY
  5
1F1
330
1F0
100
AcDbDictionary
280
     1
  0
DICTIONARY
  5
201
330
200
100
AcDbDictionary
280
     1
  0
DICTIONARY
  5
211
330
210
100
AcDbDictionary
280
     1
  0
DICTIONARY
  5
122
102
{ACAD_REACTORS
330
C
102
}
330
C
100
AcDbDictionary
  0
DICTIONARY
  5
D
102
{ACAD_REACTORS
330
C
102
}
330
C
100
AcDbDictionary
  0
RASTERVARIABLES
  5
DC
102
{ACAD_REACTORS
330
C
102
}
330
C
100
AcDbRasterVariables
 90
        0
 70
     1
 71
     1
 72
     5
  0
DICTIONARY
  5
17
102
{ACAD_REACTORS
330
C
102
}
330
C
100
AcDbDictionary
  3
STANDARD
350
18
  0
DICTIONARY
  5
B6
102
{ACAD_REACTORS
330
C
102
}
330
C
100
AcDbDictionary
  0
DICTIONARY
  5
123
102
{ACAD_REACTORS
330
C
102
}
330
C
100
AcDbDictionary
  0
DICTIONARY
  5
66
102
{ACAD_REACTORS
330
C
102
}
330
C
100
AcDbDictionary
  3
DIMASSOC
350
67
  3
HIDETEXT
350
6B
  0
DICTIONARY
  5
E1
102
{ACAD_REACTORS
330
C
102
}
330
C
100
AcDbDictionary
  0
XRECORD
  5
223
102
{ACAD_REACTORS
330
C
102
}
330
C
100
AcDbXrecord
  1
DWGPROPS COOKIE
  2

  3

  4

  6

  7

  8
jaromir.podrabsky
  9

300
=
301
=
302
=
303
=
304
=
305
=
306
=
307
=
308
=
309
=
 40
0.0
 41
2452643.063384271
 42
2456727.569440197
  1

 90
        0
  0
DICTIONARY
  5
1C4
102
{ACAD_REACTORS
330
1C3
102
}
330
1C3
100
AcDbDictionary
  0
DICTIONARY
  5
1CE
102
{ACAD_REACTORS
330
1C3
102
}
330
1C3
100
AcDbDictionary
1001
ACAD
1000
<All
  0
MLINESTYLE
  5
18
102
{ACAD_REACTORS
330
17
102
}
330
17
100
AcDbMlineStyle
  2
STANDARD
 70
     0
  3

 62
   256
 51
90.0
 52
90.0
 71
     2
 49
0.5
 62
   256
  6
BYLAYER
 49
-0.5
 62
   256
  6
BYLAYER
  0
DICTIONARYVAR
  5
67
102
{ACAD_REACTORS
330
66
102
}
330
66
100
DictionaryVariables
280
     0
  1
2
  0
DICTIONARYVAR
  5
6B
102
{ACAD_REACTORS
330
66
102
}
330
66
100
DictionaryVariables
280
     0
  1
1
  0
ENDSEC
  0
EOF
