  0
SECTION
  2
HEADER
  9
$ACADVER
  1
AC1014
  9
$ACADMAINTVER
 70
     9
  9
$DWGCODEPAGE
  3
ANSI_1250
  9
$INSBASE
 10
0.0
 20
0.0
 30
0.0
  9
$EXTMIN
 10
1.252828781201719
 20
18.75630110704511
 30
-0.0020290229193113
  9
$EXTMAX
 10
184.1773477075544
 20
153.0095673700593
 30
0.0000000000114755
  9
$LIMMIN
 10
0.0
 20
0.0
  9
$LIMMAX
 10
12.0
 20
9.0
  9
$ORTHOMODE
 70
     0
  9
$REGENMODE
 70
     1
  9
$FILLMODE
 70
     1
  9
$QTEXTMODE
 70
     0
  9
$MIRRTEXT
 70
     0
  9
$DRAGMODE
 70
     2
  9
$LTSCALE
 40
1.0
  9
$OSMODE
 70
 15359
  9
$ATTMODE
 70
     1
  9
$TEXTSIZE
 40
0.2
  9
$TRACEWID
 40
0.05
  9
$TEXTSTYLE
  7
STANDARD
  9
$CLAYER
  8
KOTY
  9
$CELTYPE
  6
BYLAYER
  9
$CECOLOR
 62
   256
  9
$CELTSCALE
 40
1.0
  9
$DELOBJ
 70
     1
  9
$DISPSILH
 70
     0
  9
$DIMSCALE
 40
1.0
  9
$DIMASZ
 40
0.18
  9
$DIMEXO
 40
0.0625
  9
$DIMDLI
 40
0.38
  9
$DIMRND
 40
0.0
  9
$DIMDLE
 40
0.0
  9
$DIMEXE
 40
0.18
  9
$DIMTP
 40
0.0
  9
$DIMTM
 40
0.0
  9
$DIMTXT
 40
0.18
  9
$DIMCEN
 40
0.09
  9
$DIMTSZ
 40
0.0
  9
$DIMTOL
 70
     0
  9
$DIMLIM
 70
     0
  9
$DIMTIH
 70
     1
  9
$DIMTOH
 70
     1
  9
$DIMSE1
 70
     0
  9
$DIMSE2
 70
     0
  9
$DIMTAD
 70
     0
  9
$DIMZIN
 70
     0
  9
$DIMBLK
  1

  9
$DIMASO
 70
     1
  9
$DIMSHO
 70
     1
  9
$DIMPOST
  1

  9
$DIMAPOST
  1

  9
$DIMALT
 70
     0
  9
$DIMALTD
 70
     2
  9
$DIMALTF
 40
25.4
  9
$DIMLFAC
 40
1.0
  9
$DIMTOFL
 70
     0
  9
$DIMTVP
 40
0.0
  9
$DIMTIX
 70
     0
  9
$DIMSOXD
 70
     0
  9
$DIMSAH
 70
     0
  9
$DIMBLK1
  1

  9
$DIMBLK2
  1

  9
$DIMSTYLE
  2
STANDARD
  9
$DIMCLRD
 70
     0
  9
$DIMCLRE
 70
     0
  9
$DIMCLRT
 70
     0
  9
$DIMTFAC
 40
1.0
  9
$DIMGAP
 40
0.09
  9
$DIMJUST
 70
     0
  9
$DIMSD1
 70
     0
  9
$DIMSD2
 70
     0
  9
$DIMTOLJ
 70
     1
  9
$DIMTZIN
 70
     0
  9
$DIMALTZ
 70
     0
  9
$DIMALTTZ
 70
     0
  9
$DIMFIT
 70
     5
  9
$DIMUPT
 70
     0
  9
$DIMUNIT
 70
     2
  9
$DIMDEC
 70
     4
  9
$DIMTDEC
 70
     4
  9
$DIMALTU
 70
     2
  9
$DIMALTTD
 70
     2
  9
$DIMTXSTY
  7
STANDARD
  9
$DIMAUNIT
 70
     0
  9
$LUNITS
 70
     2
  9
$LUPREC
 70
     4
  9
$SKETCHINC
 40
0.1
  9
$FILLETRAD
 40
0.0
  9
$AUNITS
 70
     0
  9
$AUPREC
 70
     0
  9
$MENU
  1
.
  9
$ELEVATION
 40
0.0
  9
$PELEVATION
 40
0.0
  9
$THICKNESS
 40
0.0
  9
$LIMCHECK
 70
     0
  9
$CHAMFERA
 40
0.0
  9
$CHAMFERB
 40
0.0
  9
$CHAMFERC
 40
0.0
  9
$CHAMFERD
 40
0.0
  9
$SKPOLY
 70
     0
  9
$TDCREATE
 40
2452643.105050903
  9
$TDUPDATE
 40
2457087.355331887
  9
$TDINDWG
 40
0.0989624074
  9
$TDUSRTIMER
 40
2457087.307503357
  9
$USRTIMER
 70
     1
  9
$ANGBASE
 50
0.0
  9
$ANGDIR
 70
     0
  9
$PDMODE
 70
     0
  9
$PDSIZE
 40
0.0
  9
$PLINEWID
 40
0.0
  9
$COORDS
 70
     2
  9
$SPLFRAME
 70
     0
  9
$SPLINETYPE
 70
     6
  9
$SPLINESEGS
 70
     8
  9
$ATTDIA
 70
     0
  9
$ATTREQ
 70
     1
  9
$HANDLING
 70
     1
  9
$HANDSEED
  5
109E
  9
$SURFTAB1
 70
     6
  9
$SURFTAB2
 70
     6
  9
$SURFTYPE
 70
     6
  9
$SURFU
 70
     6
  9
$SURFV
 70
     6
  9
$UCSNAME
  2

  9
$UCSORG
 10
0.0
 20
0.0
 30
0.0
  9
$UCSXDIR
 10
1.0
 20
0.0
 30
0.0
  9
$UCSYDIR
 10
0.0
 20
1.0
 30
0.0
  9
$PUCSNAME
  2

  9
$PUCSORG
 10
0.0
 20
0.0
 30
0.0
  9
$PUCSXDIR
 10
1.0
 20
0.0
 30
0.0
  9
$PUCSYDIR
 10
0.0
 20
1.0
 30
0.0
  9
$USERI1
 70
     0
  9
$USERI2
 70
     0
  9
$USERI3
 70
     0
  9
$USERI4
 70
     0
  9
$USERI5
 70
     0
  9
$USERR1
 40
0.0
  9
$USERR2
 40
0.0
  9
$USERR3
 40
0.0
  9
$USERR4
 40
0.0
  9
$USERR5
 40
0.0
  9
$WORLDVIEW
 70
     1
  9
$SHADEDGE
 70
     3
  9
$SHADEDIF
 70
    70
  9
$TILEMODE
 70
     0
  9
$MAXACTVP
 70
    64
  9
$PINSBASE
 10
0.0
 20
0.0
 30
0.0
  9
$PLIMCHECK
 70
     0
  9
$PEXTMIN
 10
1.05
 20
0.7999999999999998
 30
0.0
  9
$PEXTMAX
 10
9.45
 20
7.2
 30
0.0
  9
$PLIMMIN
 10
0.8500000000000006
 20
0.5999999999999998
  9
$PLIMMAX
 10
9.650000000000002
 20
7.4
  9
$UNITMODE
 70
     0
  9
$VISRETAIN
 70
     1
  9
$PLINEGEN
 70
     0
  9
$PSLTSCALE
 70
     1
  9
$TREEDEPTH
 70
  3020
  9
$PICKSTYLE
 70
     0
  9
$CMLSTYLE
  2
STANDARD
  9
$CMLJUST
 70
     0
  9
$CMLSCALE
 40
1.0
  9
$PROXYGRAPHICS
 70
     1
  9
$MEASUREMENT
 70
     0
  0
ENDSEC
  0
SECTION
  2
CLASSES
  0
CLASS
  1
ACDBDICTIONARYWDFLT
  2
AcDbDictionaryWithDefault
  3
ObjectDBX Classes
 90
        0
280
     0
281
     0
  0
CLASS
  1
ACDBPLACEHOLDER
  2
AcDbPlaceHolder
  3
ObjectDBX Classes
 90
        0
280
     0
281
     0
  0
CLASS
  1
LAYOUT
  2
AcDbLayout
  3
ObjectDBX Classes
 90
        0
280
     0
281
     0
  0
CLASS
  1
DICTIONARYVAR
  2
AcDbDictionaryVar
  3
ObjectDBX Classes
 90
        0
280
     0
281
     0
  0
CLASS
  1
TABLESTYLE
  2
AcDbTableStyle
  3
ObjectDBX Classes
 90
     4095
280
     0
281
     0
  0
CLASS
  1
MATERIAL
  2
AcDbMaterial
  3
ObjectDBX Classes
 90
     1153
280
     0
281
     0
  0
CLASS
  1
VISUALSTYLE
  2
AcDbVisualStyle
  3
ObjectDBX Classes
 90
     4095
280
     0
281
     0
  0
CLASS
  1
SCALE
  2
AcDbScale
  3
ObjectDBX Classes
 90
     1153
280
     0
281
     0
  0
CLASS
  1
CELLSTYLEMAP
  2
AcDbCellStyleMap
  3
ObjectDBX Classes
 90
     1152
280
     0
281
     0
  0
CLASS
  1
RASTERVARIABLES
  2
AcDbRasterVariables
  3
ISM
 90
        0
280
     0
281
     0
  0
CLASS
  1
SUN
  2
AcDbSun
  3
SCENEOE
 90
     1153
280
     0
281
     0
  0
CLASS
  1
DIMASSOC
  2
AcDbDimAssoc
  3
"AcDbDimAssoc|Product Desc:     AcDim ARX App For Dimension|Company:          Autodesk, Inc.|WEB Address:      www.autodesk.com"
 90
        0
280
     0
281
     0
  0
CLASS
  1
XRECORD
  2
AcDbXrecord
  3
ObjectDBX Classes
 90
        0
280
     0
281
     0
  0
CLASS
  1
LWPOLYLINE
  2
AcDbPolyline
  3
ObjectDBX Classes
 90
        0
280
     0
281
     1
  0
CLASS
  1
HATCH
  2
AcDbHatch
  3
ObjectDBX Classes
 90
        0
280
     0
281
     1
  0
ENDSEC
  0
SECTION
  2
TABLES
  0
TABLE
  2
VPORT
  5
8
330
0
100
AcDbSymbolTable
 70
     1
  0
VPORT
  5
94
330
8
100
AcDbSymbolTableRecord
100
AcDbViewportTableRecord
  2
*ACTIVE
 70
     0
 10
0.0
 20
0.0
 11
1.0
 21
1.0
 12
123.7669648330318
 22
108.2587158408828
 13
0.0
 23
0.0
 14
0.5
 24
0.5
 15
0.5
 25
0.5
 16
0.0
 26
0.0
 36
1.0
 17
-27.66959356598036
 27
-19.53870295786186
 37
0.0
 40
189.0224784394962
 41
1.145985401459854
 42
50.0
 43
0.0
 44
0.0
 50
0.0
 51
0.0
 71
    16
 72
  1000
 73
     1
 74
     3
 75
     0
 76
     0
 77
     0
 78
     0
  0
ENDTAB
  0
TABLE
  2
LTYPE
  5
5
330
0
100
AcDbSymbolTable
 70
     2
  0
LTYPE
  5
14
330
5
100
AcDbSymbolTableRecord
100
AcDbLinetypeTableRecord
  2
BYBLOCK
 70
     0
  3

 72
    65
 73
     0
 40
0.0
  0
LTYPE
  5
15
330
5
100
AcDbSymbolTableRecord
100
AcDbLinetypeTableRecord
  2
BYLAYER
 70
     0
  3
Solid line
 72
    65
 73
     0
 40
0.0
  0
LTYPE
  5
16
330
5
100
AcDbSymbolTableRecord
100
AcDbLinetypeTableRecord
  2
CONTINUOUS
 70
     0
  3
Solid line
 72
    65
 73
     0
 40
0.0
  0
LTYPE
  5
893
330
5
100
AcDbSymbolTableRecord
100
AcDbLinetypeTableRecord
  2
HIDDEN
 70
     0
  3
 Hidden _ _ _ _ _ _ _ _ _ _ _ _ _ _ _ _ _ _ _ _
 72
    65
 73
     2
 40
0.375
 49
0.25
 74
     0
 49
-0.125
 74
     0
  0
ENDTAB
  0
TABLE
  2
LAYER
  5
2
102
{ACAD_XDICTIONARY
360
5CF
102
}
330
0
100
AcDbSymbolTable
 70
     4
  0
LAYER
  5
10
330
2
100
AcDbSymbolTableRecord
100
AcDbLayerTableRecord
  2
0
 70
     0
 62
     7
  6
CONTINUOUS
  0
LAYER
  5
5D2
330
2
100
AcDbSymbolTableRecord
100
AcDbLayerTableRecord
  2
OBRYS
 70
     0
 62
     5
  6
CONTINUOUS
1001
ACAECLAYERSTANDARD
1000

1000

  0
LAYER
  5
5D4
330
2
100
AcDbSymbolTableRecord
100
AcDbLayerTableRecord
  2
KOTY
 70
     0
 62
     1
  6
CONTINUOUS
1001
ACAECLAYERSTANDARD
1000

1000

  0
LAYER
  5
737
330
2
100
AcDbSymbolTableRecord
100
AcDbLayerTableRecord
  2
DEFPOINTS
 70
     0
 62
     7
  6
CONTINUOUS
  0
ENDTAB
  0
TABLE
  2
STYLE
  5
3
330
0
100
AcDbSymbolTable
 70
     1
  0
STYLE
  5
11
330
3
100
AcDbSymbolTableRecord
100
AcDbTextStyleTableRecord
  2
STANDARD
 70
     0
 40
0.0
 41
1.0
 50
0.0
 71
     0
 42
0.2
  3
arial.ttf
  4

1001
ACAD
1000
Arial
1071
        0
  0
ENDTAB
  0
TABLE
  2
VIEW
  5
6
330
0
100
AcDbSymbolTable
 70
     0
  0
ENDTAB
  0
TABLE
  2
UCS
  5
7
330
0
100
AcDbSymbolTable
 70
     0
  0
ENDTAB
  0
TABLE
  2
APPID
  5
9
330
0
100
AcDbSymbolTable
 70
     2
  0
APPID
  5
12
330
9
100
AcDbSymbolTableRecord
100
AcDbRegAppTableRecord
  2
ACAD
 70
     0
  0
APPID
  5
5D3
330
9
100
AcDbSymbolTableRecord
100
AcDbRegAppTableRecord
  2
ACAECLAYERSTANDARD
 70
     0
  0
ENDTAB
  0
TABLE
  2
DIMSTYLE
  5
A
330
0
100
AcDbSymbolTable
 70
     2
  0
DIMSTYLE
105
27
102
{ACAD_REACTORS
330
738
330
748
330
758
330
768
330
CF4
330
D28
330
D38
330
D4A
102
}
330
A
100
AcDbSymbolTableRecord
100
AcDbDimStyleTableRecord
  2
STANDARD
 70
     0
  3

  4

  5

  6

  7

 40
1.0
 41
0.18
 42
0.0625
 43
0.38
 44
0.18
 45
0.0
 46
0.0
 47
0.0
 48
0.0
140
0.18
141
0.09
142
0.0
143
25.4
144
1.0
145
0.0
146
1.0
147
0.09
 71
     0
 72
     0
 73
     1
 74
     1
 75
     0
 76
     0
 77
     0
 78
     0
170
     0
171
     2
172
     0
173
     0
174
     0
175
     0
176
     0
177
     0
178
     0
270
     2
271
     4
272
     4
273
     2
274
     2
340
11
275
     0
280
     0
281
     0
282
     0
283
     1
284
     0
285
     0
286
     0
287
     3
288
     0
  0
DIMSTYLE
105
5DD
330
A
100
AcDbSymbolTableRecord
100
AcDbDimStyleTableRecord
  2
ISO-25
 70
     0
  3

  4

  5

  6

  7

 40
1.0
 41
6.0
 42
0.0
 43
3.75
 44
1.25
 45
0.0
 46
0.0
 47
0.0
 48
0.0
140
3.0
141
2.5
142
0.0
143
0.03937007874016
144
1.0
145
0.0
146
1.0
147
0.625
 71
     0
 72
     0
 73
     0
 74
     1
 75
     0
 76
     0
 77
     1
 78
     8
170
     0
171
     3
172
     1
173
     0
174
     0
175
     0
176
     5
177
     5
178
     5
270
     2
271
     4
272
     4
273
     2
274
     2
340
11
275
     0
280
     0
281
     0
282
     0
283
     1
284
     0
285
     0
286
     0
287
     3
288
     0
  0
ENDTAB
  0
TABLE
  2
BLOCK_RECORD
  5
1
330
0
100
AcDbSymbolTable
 70
    21
  0
BLOCK_RECORD
  5
1F
330
1
100
AcDbSymbolTableRecord
100
AcDbBlockTableRecord
  2
*MODEL_SPACE
  0
BLOCK_RECORD
  5
FEE
330
1
100
AcDbSymbolTableRecord
100
AcDbBlockTableRecord
  2
*PAPER_SPACE
  0
BLOCK_RECORD
  5
73B
330
1
100
AcDbSymbolTableRecord
100
AcDbBlockTableRecord
  2
*D0
  0
BLOCK_RECORD
  5
74B
330
1
100
AcDbSymbolTableRecord
100
AcDbBlockTableRecord
  2
*D1
  0
BLOCK_RECORD
  5
75B
330
1
100
AcDbSymbolTableRecord
100
AcDbBlockTableRecord
  2
*D2
  0
BLOCK_RECORD
  5
76B
330
1
100
AcDbSymbolTableRecord
100
AcDbBlockTableRecord
  2
*D3
  0
BLOCK_RECORD
  5
77C
330
1
100
AcDbSymbolTableRecord
100
AcDbBlockTableRecord
  2
*D4
  0
BLOCK_RECORD
  5
78C
330
1
100
AcDbSymbolTableRecord
100
AcDbBlockTableRecord
  2
*D5
  0
BLOCK_RECORD
  5
CF8
330
1
100
AcDbSymbolTableRecord
100
AcDbBlockTableRecord
  2
*D6
  0
BLOCK_RECORD
  5
D1A
330
1
100
AcDbSymbolTableRecord
100
AcDbBlockTableRecord
  2
*D7
  0
BLOCK_RECORD
  5
D2B
330
1
100
AcDbSymbolTableRecord
100
AcDbBlockTableRecord
  2
*D8
  0
BLOCK_RECORD
  5
D3B
330
1
100
AcDbSymbolTableRecord
100
AcDbBlockTableRecord
  2
*D9
  0
BLOCK_RECORD
  5
D4D
330
1
100
AcDbSymbolTableRecord
100
AcDbBlockTableRecord
  2
*D10
  0
BLOCK_RECORD
  5
EAF
330
1
100
AcDbSymbolTableRecord
100
AcDbBlockTableRecord
  2
*D11
  0
BLOCK_RECORD
  5
EBB
330
1
100
AcDbSymbolTableRecord
100
AcDbBlockTableRecord
  2
*D12
  0
BLOCK_RECORD
  5
ECA
330
1
100
AcDbSymbolTableRecord
100
AcDbBlockTableRecord
  2
*D13
  0
BLOCK_RECORD
  5
F29
330
1
100
AcDbSymbolTableRecord
100
AcDbBlockTableRecord
  2
*D14
  0
BLOCK_RECORD
  5
F36
330
1
100
AcDbSymbolTableRecord
100
AcDbBlockTableRecord
  2
*D15
  0
BLOCK_RECORD
  5
F42
330
1
100
AcDbSymbolTableRecord
100
AcDbBlockTableRecord
  2
*D16
  0
BLOCK_RECORD
  5
FC9
330
1
100
AcDbSymbolTableRecord
100
AcDbBlockTableRecord
  2
*D17
  0
BLOCK_RECORD
  5
FE0
330
1
100
AcDbSymbolTableRecord
100
AcDbBlockTableRecord
  2
*D18
  0
BLOCK_RECORD
  5
1090
330
1
100
AcDbSymbolTableRecord
100
AcDbBlockTableRecord
  2
*D20
  0
ENDTAB
  0
ENDSEC
  0
SECTION
  2
BLOCKS
  0
BLOCK
  5
20
330
1F
100
AcDbEntity
  8
0
100
AcDbBlockBegin
  2
*MODEL_SPACE
 70
     0
 10
0.0
 20
0.0
 30
0.0
  3
*MODEL_SPACE
  1

  0
ENDBLK
  5
21
330
1F
100
AcDbEntity
  8
0
100
AcDbBlockEnd
  0
BLOCK
  5
FF0
330
FEE
100
AcDbEntity
 67
     1
  8
0
100
AcDbBlockBegin
  2
*PAPER_SPACE
 70
     0
 10
0.0
 20
0.0
 30
0.0
  3
*PAPER_SPACE
  1

  0
ENDBLK
  5
FF1
330
FEE
100
AcDbEntity
 67
     1
  8
0
100
AcDbBlockEnd
  0
BLOCK
  5
73C
330
73B
100
AcDbEntity
  8
0
100
AcDbBlockBegin
  2
*D0
 70
     1
 10
0.0
 20
0.0
 30
0.0
  3
*D0
  1
*D8
  0
LINE
  5
73E
330
73B
100
AcDbEntity
  8
KOTY
 62
     0
100
AcDbLine
 10
148.1773477075545
 20
44.44827348032101
 30
0.0
 11
148.1773477075545
 21
30.57041825161284
 31
0.0
  0
LINE
  5
73F
330
73B
100
AcDbEntity
  8
KOTY
 62
     0
100
AcDbLine
 10
184.1773477075544
 20
44.44827348032101
 30
0.0
 11
184.1773477075544
 21
30.57041825161284
 31
0.0
  0
LINE
  5
740
330
73B
100
AcDbEntity
  8
KOTY
 62
     0
100
AcDbLine
 10
152.1773477075545
 20
30.75041825161284
 30
0.0
 11
180.1773477075544
 21
30.75041825161284
 31
0.0
  0
SOLID
  5
741
330
73B
100
AcDbEntity
  8
KOTY
 62
     0
100
AcDbTrace
 10
152.1773477075545
 20
31.41708491827951
 30
0.0
 11
152.1773477075545
 21
30.08375158494617
 31
0.0
 12
148.1773477075545
 22
30.75041825161284
 32
0.0
 13
148.1773477075545
 23
30.75041825161284
 33
0.0
  0
SOLID
  5
742
330
73B
100
AcDbEntity
  8
KOTY
 62
     0
100
AcDbTrace
 10
180.1773477075544
 20
30.08375158494617
 30
0.0
 11
180.1773477075544
 21
31.41708491827951
 31
0.0
 12
184.1773477075544
 22
30.75041825161284
 32
0.0
 13
184.1773477075544
 23
30.75041825161284
 33
0.0
  0
MTEXT
  5
743
330
73B
100
AcDbEntity
  8
KOTY
 62
     0
100
AcDbMText
 10
166.1773477075544
 20
33.79241825161284
 30
0.0
 40
4.0
 41
0.0
 71
     5
 72
     1
  1
\A1;36
  0
POINT
  5
744
330
73B
100
AcDbEntity
  8
DEFPOINTS
 62
     0
100
AcDbPoint
 10
148.1773477075545
 20
44.51077348032101
 30
0.0
  0
POINT
  5
745
330
73B
100
AcDbEntity
  8
DEFPOINTS
 62
     0
100
AcDbPoint
 10
184.1773477075544
 20
44.51077348032101
 30
0.0
  0
POINT
  5
746
330
73B
100
AcDbEntity
  8
DEFPOINTS
 62
     0
100
AcDbPoint
 10
184.1773477075544
 20
30.75041825161284
 30
0.0
  0
ENDBLK
  5
73D
330
73B
100
AcDbEntity
  8
0
100
AcDbBlockEnd
  0
BLOCK
  5
74C
330
74B
100
AcDbEntity
  8
0
100
AcDbBlockBegin
  2
*D1
 70
     1
 10
0.0
 20
0.0
 30
0.0
  3
*D1
  1
*D9
  0
LINE
  5
74E
330
74B
100
AcDbEntity
  8
KOTY
 62
     0
100
AcDbLine
 10
33.77335544347697
 20
68.79149048032102
 30
0.0
 11
33.77335544347697
 21
19.24296777371178
 31
0.0
  0
LINE
  5
74F
330
74B
100
AcDbEntity
  8
KOTY
 62
     0
100
AcDbLine
 10
99.77337470755442
 20
70.85699948032101
 30
0.0
 11
99.77337470755442
 21
19.24296777371178
 31
0.0
  0
LINE
  5
750
330
74B
100
AcDbEntity
  8
KOTY
 62
     0
100
AcDbLine
 10
37.77335544347697
 20
19.42296777371178
 30
0.0
 11
95.77337470755442
 21
19.42296777371178
 31
0.0
  0
SOLID
  5
751
330
74B
100
AcDbEntity
  8
KOTY
 62
     0
100
AcDbTrace
 10
37.77335544347697
 20
20.08963444037845
 30
0.0
 11
37.77335544347697
 21
18.75630110704511
 31
0.0
 12
33.77335544347697
 22
19.42296777371178
 32
0.0
 13
33.77335544347697
 23
19.42296777371178
 33
0.0
  0
SOLID
  5
752
330
74B
100
AcDbEntity
  8
KOTY
 62
     0
100
AcDbTrace
 10
95.77337470755442
 20
18.75630110704511
 30
0.0
 11
95.77337470755442
 21
20.08963444037845
 31
0.0
 12
99.77337470755442
 22
19.42296777371178
 32
0.0
 13
99.77337470755442
 23
19.42296777371178
 33
0.0
  0
MTEXT
  5
753
330
74B
100
AcDbEntity
  8
KOTY
 62
     0
100
AcDbMText
 10
66.7733650755157
 20
22.46496777371178
 30
0.0
 40
4.0
 41
0.0
 71
     5
 72
     1
  1
\A1;66
  0
POINT
  5
754
330
74B
100
AcDbEntity
  8
DEFPOINTS
 62
     0
100
AcDbPoint
 10
33.77335544347697
 20
68.85399048032102
 30
0.0
  0
POINT
  5
755
330
74B
100
AcDbEntity
  8
DEFPOINTS
 62
     0
100
AcDbPoint
 10
99.77337470755442
 20
70.91949948032101
 30
0.0
  0
POINT
  5
756
330
74B
100
AcDbEntity
  8
DEFPOINTS
 62
     0
100
AcDbPoint
 10
99.77337470755442
 20
19.42296777371178
 30
0.0
  0
ENDBLK
  5
74D
330
74B
100
AcDbEntity
  8
0
100
AcDbBlockEnd
  0
BLOCK
  5
75C
330
75B
100
AcDbEntity
  8
0
100
AcDbBlockBegin
  2
*D2
 70
     1
 10
0.0
 20
0.0
 30
0.0
  3
*D2
  1
*D10
  0
LINE
  5
75E
330
75B
100
AcDbEntity
  8
KOTY
 62
     0
100
AcDbLine
 10
35.71085666110306
 20
111.7675904803204
 30
0.0
 11
23.13636680434028
 21
111.7675904803204
 31
0.0
  0
LINE
  5
75F
330
75B
100
AcDbEntity
  8
KOTY
 62
     0
100
AcDbLine
 10
35.71085529856877
 20
66.85399048032102
 30
0.0
 11
23.13636680434028
 21
66.85399048032102
 31
0.0
  0
LINE
  5
760
330
75B
100
AcDbEntity
  8
KOTY
 62
     0
100
AcDbLine
 10
23.31636680434028
 20
107.7675904803204
 30
0.0
 11
23.31636680434028
 21
70.85399048032102
 31
0.0
  0
SOLID
  5
761
330
75B
100
AcDbEntity
  8
KOTY
 62
     0
100
AcDbTrace
 10
23.98303347100695
 20
107.7675904803204
 30
0.0
 11
22.64970013767361
 21
107.7675904803204
 31
0.0
 12
23.31636680434028
 22
111.7675904803204
 32
0.0
 13
23.31636680434028
 23
111.7675904803204
 33
0.0
  0
SOLID
  5
762
330
75B
100
AcDbEntity
  8
KOTY
 62
     0
100
AcDbTrace
 10
22.64970013767361
 20
70.85399048032102
 30
0.0
 11
23.98303347100694
 21
70.85399048032102
 31
0.0
 12
23.31636680434028
 22
66.85399048032102
 32
0.0
 13
23.31636680434028
 23
66.85399048032102
 33
0.0
  0
MTEXT
  5
763
330
75B
100
AcDbEntity
  8
KOTY
 62
     0
100
AcDbMText
 10
20.28236680434027
 20
89.31079048032072
 30
0.0
 40
4.0
 41
0.0
 71
     5
 72
     1
  1
\A1;45
 11
7.910106691070294E-17
 21
1.0
 31
0.0
  0
POINT
  5
764
330
75B
100
AcDbEntity
  8
DEFPOINTS
 62
     0
100
AcDbPoint
 10
35.77335666110306
 20
111.7675904803204
 30
0.0
  0
POINT
  5
765
330
75B
100
AcDbEntity
  8
DEFPOINTS
 62
     0
100
AcDbPoint
 10
35.77335529856877
 20
66.85399048032102
 30
0.0
  0
POINT
  5
766
330
75B
100
AcDbEntity
  8
DEFPOINTS
 62
     0
100
AcDbPoint
 10
23.31636680434028
 20
66.85399048032102
 30
0.0
  0
ENDBLK
  5
75D
330
75B
100
AcDbEntity
  8
0
100
AcDbBlockEnd
  0
BLOCK
  5
76C
330
76B
100
AcDbEntity
  8
0
100
AcDbBlockBegin
  2
*D3
 70
     1
 10
0.0
 20
0.0
 30
0.0
  3
*D3
  1
*D11
  0
LINE
  5
76E
330
76B
100
AcDbEntity
  8
KOTY
 62
     0
100
AcDbLine
 10
62.03475670755441
 20
44.310773480321
 30
0.0
 11
6.16482878120171
 21
44.310773480321
 31
0.0
  0
LINE
  5
76F
330
76B
100
AcDbEntity
  8
KOTY
 62
     0
100
AcDbLine
 10
62.05445279405897
 20
134.310773480321
 30
0.0
 11
6.164828781201716
 21
134.310773480321
 31
0.0
  0
LINE
  5
770
330
76B
100
AcDbEntity
  8
KOTY
 62
     0
100
AcDbLine
 10
6.34482878120171
 20
48.310773480321
 30
0.0
 11
6.344828781201715
 21
130.310773480321
 31
0.0
  0
SOLID
  5
771
330
76B
100
AcDbEntity
  8
KOTY
 62
     0
100
AcDbTrace
 10
5.678162114535043
 20
48.310773480321
 30
0.0
 11
7.011495447868377
 21
48.310773480321
 31
0.0
 12
6.34482878120171
 22
44.310773480321
 32
0.0
 13
6.34482878120171
 23
44.310773480321
 33
0.0
  0
SOLID
  5
772
330
76B
100
AcDbEntity
  8
KOTY
 62
     0
100
AcDbTrace
 10
7.011495447868382
 20
130.310773480321
 30
0.0
 11
5.678162114535048
 21
130.310773480321
 31
0.0
 12
6.344828781201715
 22
134.310773480321
 32
0.0
 13
6.344828781201715
 23
134.310773480321
 33
0.0
  0
MTEXT
  5
773
330
76B
100
AcDbEntity
  8
KOTY
 62
     0
100
AcDbMText
 10
3.302828781201711
 20
89.31077348032099
 30
0.0
 40
4.0
 41
0.0
 71
     5
 72
     1
  1
\A1;90
 11
5.921189464667503E-17
 21
1.0
 31
0.0
  0
POINT
  5
774
330
76B
100
AcDbEntity
  8
DEFPOINTS
 62
     0
100
AcDbPoint
 10
62.09725670755441
 20
44.310773480321
 30
0.0
  0
POINT
  5
775
330
76B
100
AcDbEntity
  8
DEFPOINTS
 62
     0
100
AcDbPoint
 10
62.11695279405897
 20
134.310773480321
 30
0.0
  0
POINT
  5
776
330
76B
100
AcDbEntity
  8
DEFPOINTS
 62
     0
100
AcDbPoint
 10
6.344828781201715
 20
134.310773480321
 30
0.0
  0
ENDBLK
  5
76D
330
76B
100
AcDbEntity
  8
0
100
AcDbBlockEnd
  0
BLOCK
  5
77D
330
77C
100
AcDbEntity
  8
0
100
AcDbBlockBegin
  2
*D4
 70
     1
 10
0.0
 20
0.0
 30
0.0
  3
*D4
  1
*D12
  0
LINE
  5
77F
330
77C
100
AcDbEntity
  8
KOTY
 62
     0
100
AcDbLine
 10
99.80911970755444
 20
165.310773480321
 30
0.0
 11
90.60715800673736
 21
165.310773480321
 31
0.0
  0
LINE
  5
780
330
77C
100
AcDbEntity
  8
KOTY
 62
     0
100
AcDbLine
 10
97.56087770755443
 20
156.310773480321
 30
0.0
 11
90.60715800673736
 21
156.310773480321
 31
0.0
  0
SOLID
  5
781
330
77C
100
AcDbEntity
  8
KOTY
 62
     0
100
AcDbTrace
 10
91.45382467340404
 20
161.310773480321
 30
0.0
 11
90.1204913400707
 21
161.310773480321
 31
0.0
 12
90.78715800673737
 22
165.310773480321
 32
0.0
 13
90.78715800673737
 23
165.310773480321
 33
0.0
  0
SOLID
  5
782
330
77C
100
AcDbEntity
  8
KOTY
 62
     0
100
AcDbTrace
 10
90.1204913400707
 20
160.310773480321
 30
0.0
 11
91.45382467340404
 21
160.310773480321
 31
0.0
 12
90.78715800673737
 22
156.310773480321
 32
0.0
 13
90.78715800673737
 23
156.310773480321
 33
0.0
  0
MTEXT
  5
783
330
77C
100
AcDbEntity
  8
KOTY
 62
     0
100
AcDbMText
 10
87.74515800673737
 20
160.810773480321
 30
0.0
 40
4.0
 41
0.0
 71
     5
 72
     1
  1
\A1;9
 11
0.0
 21
1.0
 31
0.0
  0
POINT
  5
784
330
77C
100
AcDbEntity
  8
DEFPOINTS
 62
     0
100
AcDbPoint
 10
99.87161970755444
 20
165.310773480321
 30
0.0
  0
POINT
  5
785
330
77C
100
AcDbEntity
  8
DEFPOINTS
 62
     0
100
AcDbPoint
 10
97.62337770755443
 20
156.310773480321
 30
0.0
  0
POINT
  5
786
330
77C
100
AcDbEntity
  8
DEFPOINTS
 62
     0
100
AcDbPoint
 10
90.78715800673737
 20
156.310773480321
 30
0.0
  0
ENDBLK
  5
77E
330
77C
100
AcDbEntity
  8
0
100
AcDbBlockEnd
  0
BLOCK
  5
78D
330
78C
100
AcDbEntity
  8
0
100
AcDbBlockBegin
  2
*D5
 70
     1
 10
0.0
 20
0.0
 30
0.0
  3
*D5
  1
*D13
  0
LINE
  5
78F
330
78C
100
AcDbEntity
  8
KOTY
 62
     0
100
AcDbLine
 10
158.6773477075544
 20
165.273273480321
 30
0.0
 11
158.6773477075544
 21
169.8034663674589
 31
0.0
  0
LINE
  5
790
330
78C
100
AcDbEntity
  8
KOTY
 62
     0
100
AcDbLine
 10
173.6773477075544
 20
165.273273480321
 30
0.0
 11
173.6773477075544
 21
169.8034663674589
 31
0.0
  0
LINE
  5
791
330
78C
100
AcDbEntity
  8
KOTY
 62
     0
100
AcDbLine
 10
162.6773477075544
 20
169.6234663674589
 30
0.0
 11
169.6773477075544
 21
169.6234663674589
 31
0.0
  0
SOLID
  5
792
330
78C
100
AcDbEntity
  8
KOTY
 62
     0
100
AcDbTrace
 10
162.6773477075544
 20
170.2901330341255
 30
0.0
 11
162.6773477075544
 21
168.9567997007922
 31
0.0
 12
158.6773477075544
 22
169.6234663674589
 32
0.0
 13
158.6773477075544
 23
169.6234663674589
 33
0.0
  0
SOLID
  5
793
330
78C
100
AcDbEntity
  8
KOTY
 62
     0
100
AcDbTrace
 10
169.6773477075544
 20
168.9567997007922
 30
0.0
 11
169.6773477075544
 21
170.2901330341255
 31
0.0
 12
173.6773477075544
 22
169.6234663674589
 32
0.0
 13
173.6773477075544
 23
169.6234663674589
 33
0.0
  0
MTEXT
  5
794
330
78C
100
AcDbEntity
  8
KOTY
 62
     0
100
AcDbMText
 10
166.1773477075544
 20
172.6654663674589
 30
0.0
 40
4.0
 41
0.0
 71
     5
 72
     1
  1
\A1;15
  0
POINT
  5
795
330
78C
100
AcDbEntity
  8
DEFPOINTS
 62
     0
100
AcDbPoint
 10
158.6773477075544
 20
165.210773480321
 30
0.0
  0
POINT
  5
796
330
78C
100
AcDbEntity
  8
DEFPOINTS
 62
     0
100
AcDbPoint
 10
173.6773477075544
 20
165.210773480321
 30
0.0
  0
POINT
  5
797
330
78C
100
AcDbEntity
  8
DEFPOINTS
 62
     0
100
AcDbPoint
 10
173.6773477075544
 20
169.6234663674589
 30
0.0
  0
ENDBLK
  5
78E
330
78C
100
AcDbEntity
  8
0
100
AcDbBlockEnd
  0
BLOCK
  5
CF9
330
CF8
100
AcDbEntity
  8
0
100
AcDbBlockBegin
  2
*D6
 70
     1
 10
0.0
 20
0.0
 30
0.0
  3
*D6
  1
*D14
  0
LINE
  5
CFB
330
CF8
100
AcDbEntity
  8
KOTY
 62
     0
100
AcDbLine
 10
67.77337470755441
 20
134.373273480321
 30
0.0
 11
67.77337470755441
 21
140.1335588922868
 31
0.0
  0
LINE
  5
CFC
330
CF8
100
AcDbEntity
  8
KOTY
 62
     0
100
AcDbLine
 10
99.77092908357609
 20
106.9819781377467
 30
0.0
 11
99.77092908357609
 21
140.1335588922868
 31
0.0
  0
LINE
  5
CFD
330
CF8
100
AcDbEntity
  8
KOTY
 62
     0
100
AcDbLine
 10
71.77337470755441
 20
139.9535588922868
 30
0.0
 11
95.77092908357609
 21
139.9535588922868
 31
0.0
  0
SOLID
  5
CFE
330
CF8
100
AcDbEntity
  8
KOTY
 62
     0
100
AcDbTrace
 10
71.77337470755441
 20
140.6202255589535
 30
0.0
 11
71.77337470755441
 21
139.2868922256201
 31
0.0
 12
67.77337470755441
 22
139.9535588922868
 32
0.0
 13
67.77337470755441
 23
139.9535588922868
 33
0.0
  0
SOLID
  5
CFF
330
CF8
100
AcDbEntity
  8
KOTY
 62
     0
100
AcDbTrace
 10
95.77092908357609
 20
139.2868922256201
 30
0.0
 11
95.77092908357609
 21
140.6202255589535
 31
0.0
 12
99.77092908357609
 22
139.9535588922868
 32
0.0
 13
99.77092908357609
 23
139.9535588922868
 33
0.0
  0
MTEXT
  5
D00
330
CF8
100
AcDbEntity
  8
KOTY
 62
     0
100
AcDbMText
 10
83.0233747075544
 20
142.9955588922868
 30
0.0
 40
4.0
 41
0.0
 71
     5
 72
     1
  1
\A1;32
  0
POINT
  5
D01
330
CF8
100
AcDbEntity
  8
DEFPOINTS
 62
     0
100
AcDbPoint
 10
67.77337470755441
 20
134.310773480321
 30
0.0
  0
POINT
  5
D02
330
CF8
100
AcDbEntity
  8
DEFPOINTS
 62
     0
100
AcDbPoint
 10
99.77092908357609
 20
106.9194781377467
 30
0.0
  0
POINT
  5
D03
330
CF8
100
AcDbEntity
  8
DEFPOINTS
 62
     0
100
AcDbPoint
 10
99.77092908357609
 20
139.9535588922868
 30
0.0
  0
ENDBLK
  5
CFA
330
CF8
100
AcDbEntity
  8
0
100
AcDbBlockEnd
  0
BLOCK
  5
D1B
330
D1A
100
AcDbEntity
  8
0
100
AcDbBlockBegin
  2
*D7
 70
     1
 10
0.0
 20
0.0
 30
0.0
  3
*D7
  1
*D16
  0
LINE
  5
D1D
330
D1A
100
AcDbEntity
  8
KOTY
 62
     0
100
AcDbLine
 10
67.77332958568161
 20
44.24827348032099
 30
0.0
 11
67.77332958568161
 21
30.39041825161284
 31
0.0
  0
LINE
  5
D1E
330
D1A
100
AcDbEntity
  8
KOTY
 62
     0
100
AcDbLine
 10
99.77337470755442
 20
70.85699948032101
 30
0.0
 11
99.77337470755442
 21
30.39041825161284
 31
0.0
  0
LINE
  5
D1F
330
D1A
100
AcDbEntity
  8
KOTY
 62
     0
100
AcDbLine
 10
71.77332958568161
 20
30.57041825161284
 30
0.0
 11
95.77337470755442
 21
30.57041825161284
 31
0.0
  0
SOLID
  5
D20
330
D1A
100
AcDbEntity
  8
KOTY
 62
     0
100
AcDbTrace
 10
71.77332958568161
 20
31.23708491827951
 30
0.0
 11
71.77332958568161
 21
29.90375158494617
 31
0.0
 12
67.77332958568161
 22
30.57041825161284
 32
0.0
 13
67.77332958568161
 23
30.57041825161284
 33
0.0
  0
SOLID
  5
D21
330
D1A
100
AcDbEntity
  8
KOTY
 62
     0
100
AcDbTrace
 10
95.77337470755442
 20
29.90375158494617
 30
0.0
 11
95.77337470755442
 21
31.23708491827951
 31
0.0
 12
99.77337470755442
 22
30.57041825161284
 32
0.0
 13
99.77337470755442
 23
30.57041825161284
 33
0.0
  0
MTEXT
  5
D22
330
D1A
100
AcDbEntity
  8
KOTY
 62
     0
100
AcDbMText
 10
83.77335214661801
 20
33.61241825161284
 30
0.0
 40
4.0
 41
0.0
 71
     5
 72
     1
  1
\A1;32
  0
POINT
  5
D23
330
D1A
100
AcDbEntity
  8
DEFPOINTS
 62
     0
100
AcDbPoint
 10
67.77332958568161
 20
44.31077348032099
 30
0.0
  0
POINT
  5
D24
330
D1A
100
AcDbEntity
  8
DEFPOINTS
 62
     0
100
AcDbPoint
 10
99.77337470755442
 20
70.91949948032101
 30
0.0
  0
POINT
  5
D25
330
D1A
100
AcDbEntity
  8
DEFPOINTS
 62
     0
100
AcDbPoint
 10
99.77337470755442
 20
30.57041825161284
 30
0.0
  0
ENDBLK
  5
D1C
330
D1A
100
AcDbEntity
  8
0
100
AcDbBlockEnd
  0
BLOCK
  5
D2C
330
D2B
100
AcDbEntity
  8
0
100
AcDbBlockBegin
  2
*D8
 70
     1
 10
0.0
 20
0.0
 30
0.0
  3
*D8
  1
*D17
  0
LINE
  5
D2E
330
D2B
100
AcDbEntity
  8
KOTY
 62
     0
100
AcDbLine
 10
55.96637470755443
 20
47.872469480321
 30
0.0
 11
55.96637470755443
 21
30.57041825161284
 31
0.0
  0
LINE
  5
D2F
330
D2B
100
AcDbEntity
  8
KOTY
 62
     0
100
AcDbLine
 10
99.77337470755442
 20
70.85699948032101
 30
0.0
 11
99.77337470755442
 21
30.57041825161284
 31
0.0
  0
LINE
  5
D30
330
D2B
100
AcDbEntity
  8
KOTY
 62
     0
100
AcDbLine
 10
59.96637470755443
 20
30.75041825161284
 30
0.0
 11
95.77337470755442
 21
30.75041825161284
 31
0.0
  0
SOLID
  5
D31
330
D2B
100
AcDbEntity
  8
KOTY
 62
     0
100
AcDbTrace
 10
59.96637470755443
 20
31.41708491827951
 30
0.0
 11
59.96637470755443
 21
30.08375158494617
 31
0.0
 12
55.96637470755443
 22
30.75041825161284
 32
0.0
 13
55.96637470755443
 23
30.75041825161284
 33
0.0
  0
SOLID
  5
D32
330
D2B
100
AcDbEntity
  8
KOTY
 62
     0
100
AcDbTrace
 10
95.77337470755442
 20
30.08375158494617
 30
0.0
 11
95.77337470755442
 21
31.41708491827951
 31
0.0
 12
99.77337470755442
 22
30.75041825161284
 32
0.0
 13
99.77337470755442
 23
30.75041825161284
 33
0.0
  0
MTEXT
  5
D33
330
D2B
100
AcDbEntity
  8
KOTY
 62
     0
100
AcDbMText
 10
77.86987470755443
 20
33.75041825161284
 30
0.0
 40
4.0
 41
0.0
 71
     5
 72
     1
  1
\A1;44
  0
POINT
  5
D34
330
D2B
100
AcDbEntity
  8
DEFPOINTS
 62
     0
100
AcDbPoint
 10
55.96637470755443
 20
47.934969480321
 30
0.0
  0
POINT
  5
D35
330
D2B
100
AcDbEntity
  8
DEFPOINTS
 62
     0
100
AcDbPoint
 10
99.77337470755442
 20
70.91949948032101
 30
0.0
  0
POINT
  5
D36
330
D2B
100
AcDbEntity
  8
DEFPOINTS
 62
     0
100
AcDbPoint
 10
99.77337470755442
 20
30.75041825161284
 30
0.0
  0
ENDBLK
  5
D2D
330
D2B
100
AcDbEntity
  8
0
100
AcDbBlockEnd
  0
BLOCK
  5
D3C
330
D3B
100
AcDbEntity
  8
0
100
AcDbBlockBegin
  2
*D9
 70
     1
 10
0.0
 20
0.0
 30
0.0
  3
*D9
  1
*D18
  0
LINE
  5
D3E
330
D3B
100
AcDbEntity
  8
KOTY
 62
     0
100
AcDbLine
 10
33.77335544347697
 20
109.8300904803208
 30
0.0
 11
33.77335544347697
 21
148.1655673700593
 31
0.0
  0
LINE
  5
D3F
330
D3B
100
AcDbEntity
  8
KOTY
 62
     0
100
AcDbLine
 10
105.4733747075544
 20
134.173273480321
 30
0.0
 11
105.4733747075544
 21
148.1655673700593
 31
0.0
  0
LINE
  5
D40
330
D3B
100
AcDbEntity
  8
KOTY
 62
     0
100
AcDbLine
 10
37.77335544347697
 20
147.9855673700593
 30
0.0
 11
101.4733747075544
 21
147.9855673700593
 31
0.0
  0
SOLID
  5
D41
330
D3B
100
AcDbEntity
  8
KOTY
 62
     0
100
AcDbTrace
 10
37.77335544347697
 20
148.652234036726
 30
0.0
 11
37.77335544347697
 21
147.3189007033926
 31
0.0
 12
33.77335544347697
 22
147.9855673700593
 32
0.0
 13
33.77335544347697
 23
147.9855673700593
 33
0.0
  0
SOLID
  5
D42
330
D3B
100
AcDbEntity
  8
KOTY
 62
     0
100
AcDbTrace
 10
101.4733747075544
 20
147.3189007033926
 30
0.0
 11
101.4733747075544
 21
148.652234036726
 31
0.0
 12
105.4733747075544
 22
147.9855673700593
 32
0.0
 13
105.4733747075544
 23
147.9855673700593
 33
0.0
  0
MTEXT
  5
D43
330
D3B
100
AcDbEntity
  8
KOTY
 62
     0
100
AcDbMText
 10
69.6233650755157
 20
150.9935673700593
 30
0.0
 40
4.0
 41
0.0
 71
     5
 72
     1
  1
\A1;72
  0
POINT
  5
D44
330
D3B
100
AcDbEntity
  8
DEFPOINTS
 62
     0
100
AcDbPoint
 10
33.77335544347697
 20
109.7675904803208
 30
0.0
  0
POINT
  5
D45
330
D3B
100
AcDbEntity
  8
DEFPOINTS
 62
     0
100
AcDbPoint
 10
105.4733747075544
 20
134.110773480321
 30
0.0
  0
POINT
  5
D46
330
D3B
100
AcDbEntity
  8
DEFPOINTS
 62
     0
100
AcDbPoint
 10
105.4733747075544
 20
147.9855673700593
 30
0.0
  0
ENDBLK
  5
D3D
330
D3B
100
AcDbEntity
  8
0
100
AcDbBlockEnd
  0
BLOCK
  5
D4E
330
D4D
100
AcDbEntity
  8
0
100
AcDbBlockBegin
  2
*D10
 70
     1
 10
0.0
 20
0.0
 30
0.0
  3
*D10
  1
*D19
  0
LINE
  5
D50
330
D4D
100
AcDbEntity
  8
KOTY
 62
     0
100
AcDbLine
 10
105.3358747075544
 20
134.310773480321
 30
0.0
 11
117.5313000312554
 21
134.310773480321
 31
0.0
  0
LINE
  5
D51
330
D4D
100
AcDbEntity
  8
KOTY
 62
     0
100
AcDbLine
 10
104.8858298009352
 20
40.25882048032102
 30
0.0
 11
117.5313000312554
 21
40.25882048032102
 31
0.0
  0
LINE
  5
D52
330
D4D
100
AcDbEntity
  8
KOTY
 62
     0
100
AcDbLine
 10
117.3513000312554
 20
130.310773480321
 30
0.0
 11
117.3513000312554
 21
44.25882048032102
 31
0.0
  0
SOLID
  5
D53
330
D4D
100
AcDbEntity
  8
KOTY
 62
     0
100
AcDbTrace
 10
118.0179666979221
 20
130.310773480321
 30
0.0
 11
116.6846333645887
 21
130.310773480321
 31
0.0
 12
117.3513000312554
 22
134.310773480321
 32
0.0
 13
117.3513000312554
 23
134.310773480321
 33
0.0
  0
SOLID
  5
D54
330
D4D
100
AcDbEntity
  8
KOTY
 62
     0
100
AcDbTrace
 10
116.6846333645887
 20
44.25882048032102
 30
0.0
 11
118.0179666979221
 21
44.25882048032102
 31
0.0
 12
117.3513000312554
 22
40.25882048032102
 32
0.0
 13
117.3513000312554
 23
40.25882048032102
 33
0.0
  0
MTEXT
  5
D55
330
D4D
100
AcDbEntity
  8
KOTY
 62
     0
100
AcDbMText
 10
114.3093000312554
 20
87.284796980321
 30
0.0
 40
4.0
 41
0.0
 71
     5
 72
     1
  1
\A1;94
 11
0.0
 21
1.0
 31
0.0
  0
POINT
  5
D56
330
D4D
100
AcDbEntity
  8
DEFPOINTS
 62
     0
100
AcDbPoint
 10
105.2733747075544
 20
134.310773480321
 30
0.0
  0
POINT
  5
D57
330
D4D
100
AcDbEntity
  8
DEFPOINTS
 62
     0
100
AcDbPoint
 10
104.8233298009352
 20
40.25882048032102
 30
0.0
  0
POINT
  5
D58
330
D4D
100
AcDbEntity
  8
DEFPOINTS
 62
     0
100
AcDbPoint
 10
117.3513000312554
 20
40.25882048032102
 30
0.0
  0
ENDBLK
  5
D4F
330
D4D
100
AcDbEntity
  8
0
100
AcDbBlockEnd
  0
BLOCK
  5
EB0
330
EAF
100
AcDbEntity
  8
0
100
AcDbBlockBegin
  2
*D11
 70
     1
 10
0.0
 20
0.0
 30
0.0
  3
*D11
  1
*D12
  0
LINE
  5
EB1
330
EAF
100
AcDbEntity
  8
KOTY
 62
     0
100
AcDbLine
 10
14.1139617008171
 20
31.19999999999999
 30
0.0
 11
4.912000000000028
 21
31.19999999999999
 31
0.0
  0
LINE
  5
EB2
330
EAF
100
AcDbEntity
  8
KOTY
 62
     0
100
AcDbLine
 10
11.86571970081708
 20
22.19999999999999
 30
0.0
 11
4.912000000000027
 21
22.19999999999999
 31
0.0
  0
LINE
  5
EB3
330
EAF
100
AcDbEntity
  8
KOTY
 62
     0
100
AcDbLine
 10
5.092000000000028
 20
35.19999999999999
 30
0.0
 11
5.092000000000028
 21
39.19999999999999
 31
0.0
  0
LINE
  5
EB4
330
EAF
100
AcDbEntity
  8
KOTY
 62
     0
100
AcDbLine
 10
5.092000000000027
 20
18.19999999999999
 30
0.0
 11
5.092000000000027
 21
14.19999999999999
 31
0.0
  0
SOLID
  5
EB5
330
EAF
100
AcDbEntity
  8
KOTY
 62
     0
100
AcDbTrace
 10
4.425333333333361
 20
35.19999999999999
 30
0.0
 11
5.758666666666695
 21
35.19999999999999
 31
0.0
 12
5.092000000000028
 22
31.19999999999999
 32
0.0
 13
5.092000000000028
 23
31.19999999999999
 33
0.0
  0
SOLID
  5
EB6
330
EAF
100
AcDbEntity
  8
KOTY
 62
     0
100
AcDbTrace
 10
5.758666666666694
 20
18.19999999999999
 30
0.0
 11
4.42533333333336
 21
18.19999999999999
 31
0.0
 12
5.092000000000027
 22
22.19999999999999
 32
0.0
 13
5.092000000000027
 23
22.19999999999999
 33
0.0
  0
MTEXT
  5
EB7
330
EAF
100
AcDbEntity
  8
KOTY
 62
     0
100
AcDbMText
 10
2.050000000000026
 20
26.69999999999999
 30
0.0
 40
4.0
 41
0.0
 71
     5
 72
     1
  1
\A1;9
 11
9.868649107779169E-17
 21
1.0
 31
0.0
  0
POINT
  5
EB8
330
EAF
100
AcDbEntity
  8
DEFPOINTS
 62
     0
100
AcDbPoint
 10
14.1764617008171
 20
31.19999999999999
 30
0.0
  0
POINT
  5
ED9
330
EAF
100
AcDbEntity
  8
DEFPOINTS
 62
     0
100
AcDbPoint
 10
11.92821970081708
 20
22.19999999999999
 30
0.0
  0
POINT
  5
EDA
330
EAF
100
AcDbEntity
  8
DEFPOINTS
 62
     0
100
AcDbPoint
 10
5.092000000000027
 20
22.19999999999999
 30
0.0
  0
ENDBLK
  5
EB9
330
EAF
100
AcDbEntity
  8
0
100
AcDbBlockEnd
  0
BLOCK
  5
EBC
330
EBB
100
AcDbEntity
  8
0
100
AcDbBlockBegin
  2
*D12
 70
     1
 10
0.0
 20
0.0
 30
0.0
  3
*D12
  1
*D13
  0
LINE
  5
EBD
330
EBB
100
AcDbEntity
  8
KOTY
 62
     0
100
AcDbLine
 10
72.98218970081705
 20
31.16249999999999
 30
0.0
 11
72.98218970081705
 21
35.69269288713789
 31
0.0
  0
LINE
  5
EBE
330
EBB
100
AcDbEntity
  8
KOTY
 62
     0
100
AcDbLine
 10
87.98218970081705
 20
31.16249999999999
 30
0.0
 11
87.98218970081705
 21
35.69269288713789
 31
0.0
  0
LINE
  5
EBF
330
EBB
100
AcDbEntity
  8
KOTY
 62
     0
100
AcDbLine
 10
76.98218970081705
 20
35.51269288713789
 30
0.0
 11
83.98218970081705
 21
35.51269288713789
 31
0.0
  0
SOLID
  5
EC0
330
EBB
100
AcDbEntity
  8
KOTY
 62
     0
100
AcDbTrace
 10
76.98218970081705
 20
36.17935955380455
 30
0.0
 11
76.98218970081705
 21
34.84602622047122
 31
0.0
 12
72.98218970081705
 22
35.51269288713789
 32
0.0
 13
72.98218970081705
 23
35.51269288713789
 33
0.0
  0
SOLID
  5
EC1
330
EBB
100
AcDbEntity
  8
KOTY
 62
     0
100
AcDbTrace
 10
83.98218970081705
 20
34.84602622047122
 30
0.0
 11
83.98218970081705
 21
36.17935955380455
 31
0.0
 12
87.98218970081705
 22
35.51269288713789
 32
0.0
 13
87.98218970081705
 23
35.51269288713789
 33
0.0
  0
MTEXT
  5
EC2
330
EBB
100
AcDbEntity
  8
KOTY
 62
     0
100
AcDbMText
 10
80.48218970081705
 20
38.55469288713789
 30
0.0
 40
4.0
 41
0.0
 71
     5
 72
     1
  1
\A1;15
  0
POINT
  5
EC3
330
EBB
100
AcDbEntity
  8
DEFPOINTS
 62
     0
100
AcDbPoint
 10
72.98218970081705
 20
31.09999999999999
 30
0.0
  0
POINT
  5
EC4
330
EBB
100
AcDbEntity
  8
DEFPOINTS
 62
     0
100
AcDbPoint
 10
87.98218970081705
 20
31.09999999999999
 30
0.0
  0
POINT
  5
EC5
330
EBB
100
AcDbEntity
  8
DEFPOINTS
 62
     0
100
AcDbPoint
 10
87.98218970081705
 20
35.51269288713789
 30
0.0
  0
ENDBLK
  5
EC6
330
EBB
100
AcDbEntity
  8
0
100
AcDbBlockEnd
  0
BLOCK
  5
ECB
330
ECA
100
AcDbEntity
  8
0
100
AcDbBlockBegin
  2
*D13
 70
     1
 10
0.0
 20
0.0
 30
0.0
  3
*D13
  1
*D14
  0
LINE
  5
ECC
330
ECA
100
AcDbEntity
  8
KOTY
 62
     0
100
AcDbLine
 10
62.48218970081716
 20
0.0625
 30
0.0
 11
62.48218970081716
 21
12.63953878620568
 31
0.0
  0
LINE
  5
ECD
330
ECA
100
AcDbEntity
  8
KOTY
 62
     0
100
AcDbLine
 10
73.55218670081705
 20
15.53749999999999
 30
0.0
 11
73.55218670081705
 21
12.27953878620568
 31
0.0
  0
LINE
  5
ECE
330
ECA
100
AcDbEntity
  8
KOTY
 62
     0
100
AcDbLine
 10
62.66218970081716
 20
12.45953878620568
 30
0.0
 11
67.4929382008171
 21
12.45953878620568
 31
0.0
  0
LINE
  5
ECF
330
ECA
100
AcDbEntity
  8
KOTY
 62
     0
100
AcDbLine
 10
73.37218670081704
 20
12.45953878620568
 30
0.0
 11
68.54143820081711
 21
12.45953878620568
 31
0.0
  0
SOLID
  5
ED0
330
ECA
100
AcDbEntity
  8
KOTY
 62
     0
100
AcDbTrace
 10
62.66218970081716
 20
12.48953878620568
 30
0.0
 11
62.66218970081716
 21
12.42953878620568
 31
0.0
 12
62.48218970081716
 22
12.45953878620568
 32
0.0
 13
62.48218970081716
 23
12.45953878620568
 33
0.0
  0
SOLID
  5
ED1
330
ECA
100
AcDbEntity
  8
KOTY
 62
     0
100
AcDbTrace
 10
73.37218670081704
 20
12.42953878620568
 30
0.0
 11
73.37218670081704
 21
12.48953878620568
 31
0.0
 12
73.55218670081705
 22
12.45953878620568
 32
0.0
 13
73.55218670081705
 23
12.45953878620568
 33
0.0
  0
MTEXT
  5
ED2
330
ECA
100
AcDbEntity
  8
KOTY
 62
     0
100
AcDbMText
 10
68.0171882008171
 20
12.45953878620568
 30
0.0
 40
0.18
 41
0.0
 71
     5
 72
     1
  1
\A1;11.0700
  0
POINT
  5
ED3
330
ECA
100
AcDbEntity
  8
DEFPOINTS
 62
     0
100
AcDbPoint
 10
62.48218970081716
 20
0.0
 30
0.0
  0
POINT
  5
ED4
330
ECA
100
AcDbEntity
  8
DEFPOINTS
 62
     0
100
AcDbPoint
 10
73.55218670081705
 20
15.59999999999999
 30
0.0
  0
POINT
  5
ED5
330
ECA
100
AcDbEntity
  8
DEFPOINTS
 62
     0
100
AcDbPoint
 10
73.55218670081705
 20
12.45953878620568
 30
0.0
  0
ENDBLK
  5
ED6
330
ECA
100
AcDbEntity
  8
0
100
AcDbBlockEnd
  0
BLOCK
  5
F2A
330
F29
100
AcDbEntity
  8
0
100
AcDbBlockBegin
  2
*D14
 70
     1
 10
0.0
 20
0.0
 30
0.0
  3
*D14
  1
*D15
  0
LINE
  5
F2C
330
F29
100
AcDbEntity
  8
KOTY
 62
     0
100
AcDbLine
 10
99.80911970755443
 20
165.310773480321
 30
0.0
 11
90.60715800673736
 21
165.310773480321
 31
0.0
  0
LINE
  5
F2D
330
F29
100
AcDbEntity
  8
KOTY
 62
     0
100
AcDbLine
 10
97.5608777075544
 20
156.310773480321
 30
0.0
 11
90.60715800673736
 21
156.310773480321
 31
0.0
  0
SOLID
  5
F2E
330
F29
100
AcDbEntity
  8
KOTY
 62
     0
100
AcDbTrace
 10
91.45382467340404
 20
161.310773480321
 30
0.0
 11
90.1204913400707
 21
161.310773480321
 31
0.0
 12
90.78715800673737
 22
165.310773480321
 32
0.0
 13
90.78715800673737
 23
165.310773480321
 33
0.0
  0
SOLID
  5
F2F
330
F29
100
AcDbEntity
  8
KOTY
 62
     0
100
AcDbTrace
 10
90.1204913400707
 20
160.310773480321
 30
0.0
 11
91.45382467340404
 21
160.310773480321
 31
0.0
 12
90.78715800673737
 22
156.310773480321
 32
0.0
 13
90.78715800673737
 23
156.310773480321
 33
0.0
  0
MTEXT
  5
F30
330
F29
100
AcDbEntity
  8
KOTY
 62
     0
100
AcDbMText
 10
87.74515800673737
 20
160.810773480321
 30
0.0
 40
4.0
 41
0.0
 71
     5
 72
     1
  1
\A1;9
 11
0.0
 21
1.0
 31
0.0
  0
POINT
  5
F31
330
F29
100
AcDbEntity
  8
DEFPOINTS
 62
     0
100
AcDbPoint
 10
99.87161970755443
 20
165.310773480321
 30
0.0
  0
POINT
  5
F32
330
F29
100
AcDbEntity
  8
DEFPOINTS
 62
     0
100
AcDbPoint
 10
97.6233777075544
 20
156.310773480321
 30
0.0
  0
POINT
  5
F33
330
F29
100
AcDbEntity
  8
DEFPOINTS
 62
     0
100
AcDbPoint
 10
90.78715800673737
 20
156.310773480321
 30
0.0
  0
ENDBLK
  5
F2B
330
F29
100
AcDbEntity
  8
0
100
AcDbBlockEnd
  0
BLOCK
  5
F37
330
F36
100
AcDbEntity
  8
0
100
AcDbBlockBegin
  2
*D15
 70
     1
 10
0.0
 20
0.0
 30
0.0
  3
*D15
  1
*D16
  0
LINE
  5
F39
330
F36
100
AcDbEntity
  8
KOTY
 62
     0
100
AcDbLine
 10
158.6773477075544
 20
165.273273480321
 30
0.0
 11
158.6773477075544
 21
169.8034663674589
 31
0.0
  0
LINE
  5
F3A
330
F36
100
AcDbEntity
  8
KOTY
 62
     0
100
AcDbLine
 10
173.6773477075544
 20
165.273273480321
 30
0.0
 11
173.6773477075544
 21
169.8034663674589
 31
0.0
  0
LINE
  5
F3B
330
F36
100
AcDbEntity
  8
KOTY
 62
     0
100
AcDbLine
 10
162.6773477075544
 20
169.6234663674589
 30
0.0
 11
169.6773477075544
 21
169.6234663674589
 31
0.0
  0
SOLID
  5
F3C
330
F36
100
AcDbEntity
  8
KOTY
 62
     0
100
AcDbTrace
 10
162.6773477075544
 20
170.2901330341255
 30
0.0
 11
162.6773477075544
 21
168.9567997007922
 31
0.0
 12
158.6773477075544
 22
169.6234663674589
 32
0.0
 13
158.6773477075544
 23
169.6234663674589
 33
0.0
  0
SOLID
  5
F3D
330
F36
100
AcDbEntity
  8
KOTY
 62
     0
100
AcDbTrace
 10
169.6773477075544
 20
168.9567997007922
 30
0.0
 11
169.6773477075544
 21
170.2901330341255
 31
0.0
 12
173.6773477075544
 22
169.6234663674589
 32
0.0
 13
173.6773477075544
 23
169.6234663674589
 33
0.0
  0
MTEXT
  5
F3E
330
F36
100
AcDbEntity
  8
KOTY
 62
     0
100
AcDbMText
 10
166.1773477075544
 20
172.6654663674589
 30
0.0
 40
4.0
 41
0.0
 71
     5
 72
     1
  1
\A1;15
  0
POINT
  5
F3F
330
F36
100
AcDbEntity
  8
DEFPOINTS
 62
     0
100
AcDbPoint
 10
158.6773477075544
 20
165.210773480321
 30
0.0
  0
POINT
  5
F40
330
F36
100
AcDbEntity
  8
DEFPOINTS
 62
     0
100
AcDbPoint
 10
173.6773477075544
 20
165.210773480321
 30
0.0
  0
POINT
  5
F41
330
F36
100
AcDbEntity
  8
DEFPOINTS
 62
     0
100
AcDbPoint
 10
173.6773477075544
 20
169.6234663674589
 30
0.0
  0
ENDBLK
  5
F38
330
F36
100
AcDbEntity
  8
0
100
AcDbBlockEnd
  0
BLOCK
  5
F43
330
F42
100
AcDbEntity
  8
0
100
AcDbBlockBegin
  2
*D16
 70
     1
 10
0.0
 20
0.0
 30
0.0
  3
*D16
  1
*D17
  0
LINE
  5
F45
330
F42
100
AcDbEntity
  8
KOTY
 62
     0
100
AcDbLine
 10
148.1773477075545
 20
134.173273480321
 30
0.0
 11
148.1773477075545
 21
146.7503122665267
 31
0.0
  0
LINE
  5
F46
330
F42
100
AcDbEntity
  8
KOTY
 62
     0
100
AcDbLine
 10
159.2473447075544
 20
149.648273480321
 30
0.0
 11
159.2473447075544
 21
146.3903122665267
 31
0.0
  0
LINE
  5
F47
330
F42
100
AcDbEntity
  8
KOTY
 62
     0
100
AcDbLine
 10
148.3573477075545
 20
146.5703122665267
 30
0.0
 11
153.1880962075545
 21
146.5703122665267
 31
0.0
  0
LINE
  5
F48
330
F42
100
AcDbEntity
  8
KOTY
 62
     0
100
AcDbLine
 10
159.0673447075544
 20
146.5703122665267
 30
0.0
 11
154.2365962075544
 21
146.5703122665267
 31
0.0
  0
SOLID
  5
F49
330
F42
100
AcDbEntity
  8
KOTY
 62
     0
100
AcDbTrace
 10
148.3573477075545
 20
146.6003122665267
 30
0.0
 11
148.3573477075545
 21
146.5403122665267
 31
0.0
 12
148.1773477075545
 22
146.5703122665267
 32
0.0
 13
148.1773477075545
 23
146.5703122665267
 33
0.0
  0
SOLID
  5
F4A
330
F42
100
AcDbEntity
  8
KOTY
 62
     0
100
AcDbTrace
 10
159.0673447075544
 20
146.5403122665267
 30
0.0
 11
159.0673447075544
 21
146.6003122665267
 31
0.0
 12
159.2473447075544
 22
146.5703122665267
 32
0.0
 13
159.2473447075544
 23
146.5703122665267
 33
0.0
  0
MTEXT
  5
F4B
330
F42
100
AcDbEntity
  8
KOTY
 62
     0
100
AcDbMText
 10
153.7123462075544
 20
146.5703122665267
 30
0.0
 40
0.18
 41
0.0
 71
     5
 72
     1
  1
\A1;11.0700
  0
POINT
  5
F4C
330
F42
100
AcDbEntity
  8
DEFPOINTS
 62
     0
100
AcDbPoint
 10
148.1773477075545
 20
134.110773480321
 30
0.0
  0
POINT
  5
F4D
330
F42
100
AcDbEntity
  8
DEFPOINTS
 62
     0
100
AcDbPoint
 10
159.2473447075544
 20
149.710773480321
 30
0.0
  0
POINT
  5
F4E
330
F42
100
AcDbEntity
  8
DEFPOINTS
 62
     0
100
AcDbPoint
 10
159.2473447075544
 20
146.5703122665267
 30
0.0
  0
ENDBLK
  5
F44
330
F42
100
AcDbEntity
  8
0
100
AcDbBlockEnd
  0
BLOCK
  5
FCA
330
FC9
100
AcDbEntity
  8
0
100
AcDbBlockBegin
  2
*D17
 70
     1
 10
0.0
 20
0.0
 30
0.0
  3
*D17
  1
*D18
  0
LINE
  5
FCB
330
FC9
100
AcDbEntity
  8
KOTY
 62
     0
100
AcDbLine
 10
20.81480821558472
 20
4.25
 30
0.0
 11
0.2493000000000095
 21
4.25
 31
0.0
  0
LINE
  5
FCC
330
FC9
100
AcDbEntity
  8
KOTY
 62
     0
100
AcDbLine
 10
4.949718215584824
 20
46.01508999999999
 30
0.0
 11
0.249300000000012
 21
46.01508999999999
 31
0.0
  0
LINE
  5
FCD
330
FC9
100
AcDbEntity
  8
KOTY
 62
     0
100
AcDbLine
 10
0.4293000000000095
 20
4.43
 30
0.0
 11
0.4293000000000107
 21
24.95065499999999
 31
0.0
  0
LINE
  5
FCE
330
FC9
100
AcDbEntity
  8
KOTY
 62
     0
100
AcDbLine
 10
0.429300000000012
 20
45.83508999999999
 30
0.0
 11
0.4293000000000107
 21
25.31443499999999
 31
0.0
  0
SOLID
  5
FCF
330
FC9
100
AcDbEntity
  8
KOTY
 62
     0
100
AcDbTrace
 10
0.3993000000000094
 20
4.43
 30
0.0
 11
0.4593000000000095
 21
4.43
 31
0.0
 12
0.4293000000000095
 22
4.25
 32
0.0
 13
0.4293000000000095
 23
4.25
 33
0.0
  0
SOLID
  5
FD0
330
FC9
100
AcDbEntity
  8
KOTY
 62
     0
100
AcDbTrace
 10
0.459300000000012
 20
45.83508999999999
 30
0.0
 11
0.399300000000012
 21
45.83508999999999
 31
0.0
 12
0.429300000000012
 22
46.01508999999999
 32
0.0
 13
0.429300000000012
 23
46.01508999999999
 33
0.0
  0
MTEXT
  5
FD1
330
FC9
100
AcDbEntity
  8
KOTY
 62
     0
100
AcDbMText
 10
0.4293000000000107
 20
25.13254499999999
 30
0.0
 40
0.18
 41
0.0
 71
     5
 72
     1
  1
\A1;41.7651
  0
POINT
  5
FD2
330
FC9
100
AcDbEntity
  8
DEFPOINTS
 62
     0
100
AcDbPoint
 10
20.87730821558472
 20
4.25
 30
0.0
  0
POINT
  5
FD3
330
FC9
100
AcDbEntity
  8
DEFPOINTS
 62
     0
100
AcDbPoint
 10
5.012218215584824
 20
46.01508999999999
 30
0.0
  0
POINT
  5
FD4
330
FC9
100
AcDbEntity
  8
DEFPOINTS
 62
     0
100
AcDbPoint
 10
0.429300000000012
 20
46.01508999999999
 30
0.0
  0
ENDBLK
  5
FD5
330
FC9
100
AcDbEntity
  8
0
100
AcDbBlockEnd
  0
BLOCK
  5
FE1
330
FE0
100
AcDbEntity
  8
0
100
AcDbBlockBegin
  2
*D18
 70
     1
 10
0.0
 20
0.0
 30
0.0
  3
*D18
  1
*D19
  0
LINE
  5
FE3
330
FE0
100
AcDbEntity
  8
KOTY
 62
     0
100
AcDbLine
 10
164.0424463257423
 20
92.34754014423763
 30
0.0
 11
143.4769381101576
 21
92.34754014423763
 31
0.0
  0
LINE
  5
FE4
330
FE0
100
AcDbEntity
  8
KOTY
 62
     0
100
AcDbLine
 10
148.1773563257424
 20
134.1126301442376
 30
0.0
 11
143.4769381101576
 21
134.1126301442376
 31
0.0
  0
LINE
  5
FE5
330
FE0
100
AcDbEntity
  8
KOTY
 62
     0
100
AcDbLine
 10
143.6569381101576
 20
92.52754014423763
 30
0.0
 11
143.6569381101576
 21
113.0481951442376
 31
0.0
  0
LINE
  5
FE6
330
FE0
100
AcDbEntity
  8
KOTY
 62
     0
100
AcDbLine
 10
143.6569381101576
 20
133.9326301442376
 30
0.0
 11
143.6569381101576
 21
113.4119751442376
 31
0.0
  0
SOLID
  5
FE7
330
FE0
100
AcDbEntity
  8
KOTY
 62
     0
100
AcDbTrace
 10
143.6269381101576
 20
92.52754014423763
 30
0.0
 11
143.6869381101576
 21
92.52754014423763
 31
0.0
 12
143.6569381101576
 22
92.34754014423763
 32
0.0
 13
143.6569381101576
 23
92.34754014423763
 33
0.0
  0
SOLID
  5
FE8
330
FE0
100
AcDbEntity
  8
KOTY
 62
     0
100
AcDbTrace
 10
143.6869381101576
 20
133.9326301442376
 30
0.0
 11
143.6269381101576
 21
133.9326301442376
 31
0.0
 12
143.6569381101576
 22
134.1126301442376
 32
0.0
 13
143.6569381101576
 23
134.1126301442376
 33
0.0
  0
MTEXT
  5
FE9
330
FE0
100
AcDbEntity
  8
KOTY
 62
     0
100
AcDbMText
 10
143.6569381101576
 20
113.2300851442376
 30
0.0
 40
0.18
 41
0.0
 71
     5
 72
     1
  1
\A1;41.7651
  0
POINT
  5
FEA
330
FE0
100
AcDbEntity
  8
DEFPOINTS
 62
     0
100
AcDbPoint
 10
164.1049463257423
 20
92.34754014423763
 30
0.0
  0
POINT
  5
FEB
330
FE0
100
AcDbEntity
  8
DEFPOINTS
 62
     0
100
AcDbPoint
 10
148.2398563257424
 20
134.1126301442376
 30
0.0
  0
POINT
  5
FEC
330
FE0
100
AcDbEntity
  8
DEFPOINTS
 62
     0
100
AcDbPoint
 10
143.6569381101576
 20
134.1126301442376
 30
0.0
  0
ENDBLK
  5
FE2
330
FE0
100
AcDbEntity
  8
0
100
AcDbBlockEnd
  0
BLOCK
  5
1091
330
1090
100
AcDbEntity
  8
0
100
AcDbBlockBegin
  2
*D20
 70
     1
 10
0.0
 20
0.0
 30
0.0
  3
*D20
  1
*D20
  0
LINE
  5
1093
330
1090
100
AcDbEntity
  8
KOTY
 62
     0
100
AcDbLine
 10
98.28988270755441
 20
60.51080978292821
 30
0.0
 11
97.24178385294292
 21
60.51080978292821
 31
0.0
  0
LINE
  5
1094
330
1090
100
AcDbEntity
  8
KOTY
 62
     0
100
AcDbLine
 10
98.28988270755441
 20
44.94587348032099
 30
0.0
 11
97.24178385294292
 21
44.94587348032099
 31
0.0
  0
LINE
  5
1095
330
1090
100
AcDbEntity
  8
KOTY
 62
     0
100
AcDbLine
 10
97.42178385294292
 20
60.33080978292821
 30
0.0
 11
97.42178385294292
 21
52.9102316316246
 31
0.0
  0
LINE
  5
1096
330
1090
100
AcDbEntity
  8
KOTY
 62
     0
100
AcDbLine
 10
97.42178385294292
 20
45.12587348032099
 30
0.0
 11
97.42178385294292
 21
52.5464516316246
 31
0.0
  0
SOLID
  5
1097
330
1090
100
AcDbEntity
  8
KOTY
 62
     0
100
AcDbTrace
 10
97.45178385294292
 20
60.33080978292821
 30
0.0
 11
97.39178385294292
 21
60.33080978292821
 31
0.0
 12
97.42178385294292
 22
60.51080978292821
 32
0.0
 13
97.42178385294292
 23
60.51080978292821
 33
0.0
  0
SOLID
  5
1098
330
1090
100
AcDbEntity
  8
KOTY
 62
     0
100
AcDbTrace
 10
97.39178385294292
 20
45.12587348032099
 30
0.0
 11
97.45178385294292
 21
45.12587348032099
 31
0.0
 12
97.42178385294292
 22
44.94587348032099
 32
0.0
 13
97.42178385294292
 23
44.94587348032099
 33
0.0
  0
MTEXT
  5
1099
330
1090
100
AcDbEntity
  8
KOTY
 62
     0
100
AcDbMText
 10
97.42178385294292
 20
52.7283416316246
 30
0.0
 40
0.18
 41
0.0
 71
     5
 72
     1
  1
\A1;15.5649
  0
POINT
  5
109A
330
1090
100
AcDbEntity
  8
DEFPOINTS
 62
     0
100
AcDbPoint
 10
98.35238270755441
 20
60.51080978292821
 30
0.0
  0
POINT
  5
109B
330
1090
100
AcDbEntity
  8
DEFPOINTS
 62
     0
100
AcDbPoint
 10
98.35238270755441
 20
44.94587348032099
 30
0.0
  0
POINT
  5
109C
330
1090
100
AcDbEntity
  8
DEFPOINTS
 62
     0
100
AcDbPoint
 10
97.42178385294292
 20
44.94587348032099
 30
0.0
  0
ENDBLK
  5
1092
330
1090
100
AcDbEntity
  8
0
100
AcDbBlockEnd
  0
ENDSEC
  0
SECTION
  2
ENTITIES
  0
LINE
  5
38D
330
1F
100
AcDbEntity
  8
OBRYS
100
AcDbLine
 10
62.06702770755442
 20
134.310773480321
 30
0.0000000000003897
 11
105.2733747075544
 21
134.310773480321
 31
0.0000000000003897
  0
LINE
  5
390
330
1F
100
AcDbEntity
  8
OBRYS
100
AcDbLine
 10
99.77337470755442
 20
106.919499480321
 30
0.0000000000003897
 11
99.77337470755442
 21
70.91949948032101
 31
0.0000000000003897
  0
LINE
  5
391
330
1F
100
AcDbEntity
  8
OBRYS
100
AcDbLine
 10
104.7733747075544
 20
44.31077348032099
 30
0.0000000000003897
 11
62.09725670755441
 21
44.31077348032099
 31
0.0000000000003897
  0
LINE
  5
392
330
1F
100
AcDbEntity
  8
OBRYS
100
AcDbLine
 10
56.84002170755442
 20
131.198080480321
 30
0.0000000000003897
 11
57.01330770755442
 21
130.826468480321
 31
0.0000000000003897
  0
LINE
  5
393
330
1F
100
AcDbEntity
  8
OBRYS
100
AcDbLine
 10
61.25379170755443
 20
133.746371480321
 30
0.0000000000003897
 11
61.48897370755441
 21
133.410496480321
 31
0.0000000000003897
  0
LINE
  5
394
330
1F
100
AcDbEntity
  8
OBRYS
100
AcDbLine
 10
61.75280470755443
 20
133.352006480321
 30
0.0000000000003897
 11
61.85389870755443
 21
133.410373480321
 31
0.0000000000003897
  0
LINE
  5
395
330
1F
100
AcDbEntity
  8
OBRYS
100
AcDbLine
 10
61.64168670755441
 20
132.364092480321
 30
0.0000000000003897
 11
62.25389870755443
 21
132.717552480321
 31
0.0000000000003897
  0
LINE
  5
396
330
1F
100
AcDbEntity
  8
OBRYS
100
AcDbLine
 10
60.94412370755443
 20
132.761944480321
 30
0.0000000000003897
 11
61.09881970755442
 21
132.504487480321
 31
0.0000000000003897
  0
LINE
  5
397
330
1F
100
AcDbEntity
  8
OBRYS
100
AcDbLine
 10
57.84316270755443
 20
130.071013480321
 30
0.0000000000003897
 11
57.23095170755443
 21
129.717552480321
 31
0.0000000000003897
  0
LINE
  5
398
330
1F
100
AcDbEntity
  8
OBRYS
100
AcDbLine
 10
56.93204570755443
 20
130.568739480321
 30
0.0000000000003897
 11
56.83095170755441
 21
130.510373480321
 31
0.0000000000003897
  0
LINE
  5
399
330
1F
100
AcDbEntity
  8
OBRYS
100
AcDbLine
 10
57.84739370755443
 20
130.974046480321
 30
0.0000000000003897
 11
57.99301070755441
 21
130.711347480321
 31
0.0000000000003897
  0
LINE
  5
3B1
330
1F
100
AcDbEntity
  8
OBRYS
100
AcDbLine
 10
93.06861170755442
 20
74.961280480321
 30
0.0000000000003897
 11
95.72274670755442
 21
74.961401480321
 31
0.0000000000003897
  0
LINE
  5
3B2
330
1F
100
AcDbEntity
  8
OBRYS
100
AcDbLine
 10
93.06861170755442
 20
89.81026648032099
 30
0.0000000000003897
 11
93.06861170755442
 21
88.011280480321
 31
0.0000000000003897
  0
LINE
  5
3B3
330
1F
100
AcDbEntity
  8
OBRYS
100
AcDbLine
 10
94.92337499884428
 20
102.8601819230704
 30
0.0000000000003897
 11
94.92337499888987
 21
101.0613650375716
 31
0.0000000000003897
  0
LINE
  5
3B4
330
1F
100
AcDbEntity
  8
OBRYS
100
AcDbLine
 10
95.72274670755442
 20
101.061401480321
 30
0.0000000000003897
 11
93.06861170755442
 21
101.061280480321
 31
0.0000000000003897
  0
LINE
  5
3B5
330
1F
100
AcDbEntity
  8
OBRYS
100
AcDbLine
 10
95.72274670755442
 20
88.01140148032098
 30
0.0000000000003897
 11
95.72274670755442
 21
89.81014548032098
 31
0.0000000000003897
  0
LINE
  5
3B6
330
1F
100
AcDbEntity
  8
OBRYS
100
AcDbLine
 10
95.72274670755442
 20
74.961401480321
 30
0.0000000000003897
 11
95.72274670755442
 21
76.760145480321
 31
0.0000000000003897
  0
LINE
  5
3B7
330
1F
100
AcDbEntity
  8
OBRYS
100
AcDbLine
 10
94.92337470755444
 20
88.017755480321
 30
0.0000000000003897
 11
94.92337470755444
 21
89.803792480321
 31
0.0000000000003897
  0
LINE
  5
3B8
330
1F
100
AcDbEntity
  8
OBRYS
100
AcDbLine
 10
94.92337470755444
 20
74.96775548032099
 30
0.0000000000003897
 11
94.92337470755444
 21
76.75379248032101
 31
0.0000000000003897
  0
LINE
  5
3B9
330
1F
100
AcDbEntity
  8
OBRYS
100
AcDbLine
 10
93.06861170755442
 20
102.860266480321
 30
0.0000000000003897
 11
95.72274670755442
 21
102.860145480321
 31
0.0000000000003897
  0
LINE
  5
3BA
330
1F
100
AcDbEntity
  8
OBRYS
100
AcDbLine
 10
95.72274670755442
 20
76.760145480321
 30
0.0000000000003897
 11
93.06861170755442
 21
76.76026648032101
 31
0.0000000000003897
  0
LINE
  5
3BB
330
1F
100
AcDbEntity
  8
OBRYS
100
AcDbLine
 10
95.72274670755442
 20
102.860145480321
 30
0.0000000000003897
 11
95.72274670755442
 21
101.061401480321
 31
0.0000000000003897
  0
LINE
  5
3BC
330
1F
100
AcDbEntity
  8
OBRYS
100
AcDbLine
 10
93.06861170755442
 20
101.061280480321
 30
0.0000000000003897
 11
93.06861170755442
 21
102.860266480321
 31
0.0000000000003897
  0
LINE
  5
3BD
330
1F
100
AcDbEntity
  8
OBRYS
100
AcDbLine
 10
93.06861170755442
 20
88.011280480321
 30
0.0000000000003897
 11
95.72274670755442
 21
88.01140148032098
 31
0.0000000000003897
  0
LINE
  5
3BE
330
1F
100
AcDbEntity
  8
OBRYS
100
AcDbLine
 10
93.06861170755442
 20
76.76026648032101
 30
0.0000000000003897
 11
93.06861170755442
 21
74.961280480321
 31
0.0000000000003897
  0
LINE
  5
3BF
330
1F
100
AcDbEntity
  8
OBRYS
100
AcDbLine
 10
101.4224857075544
 20
116.909884480321
 30
0.0000000000003897
 11
98.84421570755443
 21
116.910002480321
 31
0.0000000000003897
  0
LINE
  5
3C0
330
1F
100
AcDbEntity
  8
OBRYS
100
AcDbLine
 10
98.84421570755443
 20
116.910002480321
 30
0.0000000000003897
 11
98.84421570755443
 21
115.111544480321
 31
0.0000000000003897
  0
LINE
  5
3C1
330
1F
100
AcDbEntity
  8
OBRYS
100
AcDbLine
 10
100.6233749880873
 20
115.1116259073225
 30
0.0000000000003897
 11
100.6233749880416
 21
116.9099210533195
 31
0.0000000000003897
  0
LINE
  5
3C2
330
1F
100
AcDbEntity
  8
OBRYS
100
AcDbLine
 10
101.4224857075544
 20
115.111662480321
 30
0.0000000000003897
 11
101.4224857075544
 21
116.909884480321
 31
0.0000000000003897
  0
LINE
  5
3C3
330
1F
100
AcDbEntity
  8
OBRYS
100
AcDbLine
 10
95.72274670755442
 20
89.81014548032098
 30
0.0000000000003897
 11
93.06861170755442
 21
89.81026648032099
 31
0.0000000000003897
  0
LINE
  5
3C4
330
1F
100
AcDbEntity
  8
OBRYS
100
AcDbLine
 10
98.84421570755443
 20
115.111544480321
 30
0.0000000000003897
 11
101.4224857075544
 21
115.111662480321
 31
0.0000000000003897
  0
LINE
  5
3C5
330
1F
100
AcDbEntity
  8
OBRYS
100
AcDbLine
 10
102.0234737075544
 20
105.060945480321
 30
0.0000000000003897
 11
105.4733747075544
 21
105.061207480321
 31
0.0000000000003897
  0
LINE
  5
3C6
330
1F
100
AcDbEntity
  8
OBRYS
100
AcDbLine
 10
100.9442964312522
 20
106.9297179293213
 30
0.0000000000003897
 11
102.0234737075544
 21
105.060945480321
 31
0.0000000000003897
  0
LINE
  5
3C7
330
1F
100
AcDbEntity
  8
OBRYS
100
AcDbLine
 10
104.9465317075544
 20
44.41077348032098
 30
0.0000000000003897
 11
104.9733747075544
 21
44.41077348032098
 31
0.0000000000003897
  0
LINE
  5
3C8
330
1F
100
AcDbEntity
  8
OBRYS
100
AcDbLine
 10
104.9733747075544
 20
44.41077348032098
 30
0.0000000000003897
 11
104.9733747075544
 21
44.51078948032099
 31
0.0000000000003897
  0
LINE
  5
3C9
330
1F
100
AcDbEntity
  8
OBRYS
100
AcDbLine
 10
59.46635270755443
 20
112.013074480321
 30
0.0000000000003897
 11
56.14824770755441
 21
112.315045480321
 31
0.0000000000003897
  0
LINE
  5
3CA
330
1F
100
AcDbEntity
  8
OBRYS
100
AcDbLine
 10
56.14824770755441
 20
66.32395448032099
 30
0.0000000000003897
 11
59.46635270755443
 21
66.625925480321
 31
0.0000000000003897
  0
LINE
  5
3CB
330
1F
100
AcDbEntity
  8
OBRYS
100
AcDbLine
 10
56.06637470755442
 20
130.877234480321
 30
0.0000000000003897
 11
56.70219370755443
 21
131.244325480321
 31
0.0000000000003897
  0
LINE
  5
3CC
330
1F
100
AcDbEntity
  8
OBRYS
100
AcDbLine
 10
55.96637470755443
 20
112.514222480321
 30
0.0000000000003897
 11
55.96637470755443
 21
130.704029480321
 31
0.0000000000003897
  0
LINE
  5
3CD
330
1F
100
AcDbEntity
  8
OBRYS
100
AcDbLine
 10
56.99448370755443
 20
129.638763480321
 30
0.0000000000003897
 11
56.64448370755442
 21
130.344980480321
 31
0.0000000000003897
  0
LINE
  5
3CE
330
1F
100
AcDbEntity
  8
OBRYS
100
AcDbLine
 10
56.69938670755441
 20
130.549884480321
 30
0.0000000000003897
 11
57.00249570755442
 21
130.724884480321
 31
0.0000000000003897
  0
LINE
  5
3CF
330
1F
100
AcDbEntity
  8
OBRYS
100
AcDbLine
 10
59.46635270755443
 20
66.625925480321
 30
0.0000000000003897
 11
85.78210070755443
 21
66.717760480321
 31
0.0000000000003897
  0
LINE
  5
3D0
330
1F
100
AcDbEntity
  8
OBRYS
100
AcDbLine
 10
58.71493170755442
 20
130.558859480321
 30
0.0000000000003897
 11
57.1993867075544
 21
129.583859480321
 31
0.0000000000003897
  0
LINE
  5
3D1
330
1F
100
AcDbEntity
  8
OBRYS
100
AcDbLine
 10
62.39553970755442
 20
132.683859480321
 30
0.0000000000003897
 11
60.87999470755442
 21
131.808859480321
 31
0.0000000000003897
  0
LINE
  5
3D2
330
1F
100
AcDbEntity
  8
OBRYS
100
AcDbLine
 10
62.10044370755444
 20
133.494980480321
 30
0.0000000000003897
 11
62.45044370755443
 21
132.888763480321
 31
0.0000000000003897
  0
LINE
  5
3D3
330
1F
100
AcDbEntity
  8
OBRYS
100
AcDbLine
 10
61.59243070755443
 20
133.374884480321
 30
0.0000000000003897
 11
61.89553970755441
 21
133.549884480321
 31
0.0000000000003897
  0
LINE
  5
3D4
330
1F
100
AcDbEntity
  8
OBRYS
100
AcDbLine
 10
61.29243054223792
 20
133.8945000252733
 30
0.0000000000003897
 11
61.59243070755443
 21
133.374884480321
 31
0.0000000000003897
  0
LINE
  5
3D5
330
1F
100
AcDbEntity
  8
OBRYS
100
AcDbLine
 10
98.25239770755441
 20
117.290476480321
 30
0.0000000000003897
 11
101.6943507075544
 21
117.290476480321
 31
0.0000000000003897
  0
LINE
  5
3D6
330
1F
100
AcDbEntity
  8
OBRYS
100
AcDbLine
 10
98.25239770755441
 20
114.748523480321
 30
0.0000000000003897
 11
98.25239770755441
 21
117.290476480321
 31
0.0000000000003897
  0
LINE
  5
3D7
330
1F
100
AcDbEntity
  8
OBRYS
100
AcDbLine
 10
101.6943507075544
 20
114.748523480321
 30
0.0000000000003897
 11
98.25239770755441
 21
114.748523480321
 31
0.0000000000003897
  0
LINE
  5
3D8
330
1F
100
AcDbEntity
  8
OBRYS
100
AcDbLine
 10
101.6943507075544
 20
117.290476480321
 30
0.0000000000003897
 11
101.6943507075544
 21
114.748523480321
 31
0.0000000000003897
  0
LINE
  5
3D9
330
1F
100
AcDbEntity
  8
OBRYS
100
AcDbLine
 10
92.55239770755443
 20
103.240476480321
 30
0.0000000000003897
 11
95.99435070755442
 21
103.240476480321
 31
0.0000000000003897
  0
LINE
  5
3DA
330
1F
100
AcDbEntity
  8
OBRYS
100
AcDbLine
 10
92.55239770755443
 20
100.698523480321
 30
0.0000000000003897
 11
92.55239770755443
 21
103.240476480321
 31
0.0000000000003897
  0
LINE
  5
3DB
330
1F
100
AcDbEntity
  8
OBRYS
100
AcDbLine
 10
95.99435070755442
 20
100.698523480321
 30
0.0000000000003897
 11
92.55239770755443
 21
100.698523480321
 31
0.0000000000003897
  0
LINE
  5
3DC
330
1F
100
AcDbEntity
  8
OBRYS
100
AcDbLine
 10
95.99435070755442
 20
103.240476480321
 30
0.0000000000003897
 11
95.99435070755442
 21
100.698523480321
 31
0.0000000000003897
  0
LINE
  5
3DD
330
1F
100
AcDbEntity
  8
OBRYS
100
AcDbLine
 10
92.55239770755443
 20
90.190476480321
 30
0.0000000000003897
 11
95.99435070755442
 21
90.190476480321
 31
0.0000000000003897
  0
LINE
  5
3DE
330
1F
100
AcDbEntity
  8
OBRYS
100
AcDbLine
 10
92.55239770755443
 20
87.64852348032099
 30
0.0000000000003897
 11
92.55239770755443
 21
90.190476480321
 31
0.0000000000003897
  0
LINE
  5
3DF
330
1F
100
AcDbEntity
  8
OBRYS
100
AcDbLine
 10
95.99435070755442
 20
87.64852348032099
 30
0.0000000000003897
 11
92.55239770755443
 21
87.64852348032099
 31
0.0000000000003897
  0
LINE
  5
3E0
330
1F
100
AcDbEntity
  8
OBRYS
100
AcDbLine
 10
95.99435070755442
 20
90.190476480321
 30
0.0000000000003897
 11
95.99435070755442
 21
87.64852348032099
 31
0.0000000000003897
  0
LINE
  5
3E1
330
1F
100
AcDbEntity
  8
OBRYS
100
AcDbLine
 10
95.97337470755443
 20
77.14047648032098
 30
0.0000000000003897
 11
95.97337470755443
 21
74.598523480321
 31
0.0000000000003897
  0
LINE
  5
3E2
330
1F
100
AcDbEntity
  8
OBRYS
100
AcDbLine
 10
92.55239770755443
 20
77.14047648032098
 30
0.0000000000003897
 11
95.97337470755443
 21
77.14047648032098
 31
0.0000000000003897
  0
LINE
  5
3E3
330
1F
100
AcDbEntity
  8
OBRYS
100
AcDbLine
 10
92.55239770755443
 20
74.598523480321
 30
0.0000000000003897
 11
92.55239770755443
 21
77.14047648032098
 31
0.0000000000003897
  0
LINE
  5
3E4
330
1F
100
AcDbEntity
  8
OBRYS
100
AcDbLine
 10
95.97337470755443
 20
74.598523480321
 30
0.0000000000003897
 11
92.55239770755443
 21
74.598523480321
 31
0.0000000000003897
  0
LINE
  5
3E5
330
1F
100
AcDbEntity
  8
OBRYS
100
AcDbLine
 10
55.96637470755443
 20
47.934969480321
 30
0.0000000000003897
 11
55.96637470755443
 21
66.124777480321
 31
0.0000000000003897
  0
LINE
  5
3E6
330
1F
100
AcDbEntity
  8
OBRYS
100
AcDbLine
 10
85.78210070755443
 20
111.921239480321
 30
0.0000000000003897
 11
59.46635270755443
 21
112.013074480321
 31
0.0000000000003897
  0
LINE
  5
3E7
330
1F
100
AcDbEntity
  8
OBRYS
100
AcDbLine
 10
61.99725670755442
 20
44.33756848032101
 30
0.0000000000003897
 11
56.06637470755442
 21
47.76176448032101
 31
0.0000000000003897
  0
LINE
  5
3E8
330
1F
100
AcDbEntity
  8
OBRYS
100
AcDbLine
 10
61.29273270755442
 20
133.894674480321
 30
0.0000000000003897
 11
61.96702770755444
 21
134.283978480321
 31
0.0000000000003897
  0
LINE
  5
3E9
330
1F
100
AcDbEntity
  8
OBRYS
100
AcDbLine
 10
95.79438170755441
 20
89.99050648032099
 30
0.0000000000003897
 11
92.75236770755444
 21
89.99050648032099
 31
0.0000000000003897
  0
LINE
  5
3EA
330
1F
100
AcDbEntity
  8
OBRYS
100
AcDbLine
 10
92.75236770755444
 20
87.848492480321
 30
0.0000000000003897
 11
92.55239770755443
 21
87.64852348032099
 31
0.0000000000003897
  0
LINE
  5
3EB
330
1F
100
AcDbEntity
  8
OBRYS
100
AcDbLine
 10
92.75236770755444
 20
76.940506480321
 30
0.0000000000003897
 11
92.75236770755444
 21
74.79849248032099
 31
0.0000000000003897
  0
LINE
  5
3EC
330
1F
100
AcDbEntity
  8
OBRYS
100
AcDbLine
 10
95.99435070755442
 20
90.190476480321
 30
0.0000000000003897
 11
95.79438170755441
 21
89.99050648032099
 31
0.0000000000003897
  0
LINE
  5
3ED
330
1F
100
AcDbEntity
  8
OBRYS
100
AcDbLine
 10
92.55239770755443
 20
74.598523480321
 30
0.0000000000003897
 11
92.75236770755444
 21
74.79849248032099
 31
0.0000000000003897
  0
LINE
  5
3EE
330
1F
100
AcDbEntity
  8
OBRYS
100
AcDbLine
 10
95.77340470755442
 20
76.940506480321
 30
0.0000000000003897
 11
92.75236770755444
 21
76.940506480321
 31
0.0000000000003897
  0
LINE
  5
3EF
330
1F
100
AcDbEntity
  8
OBRYS
100
AcDbLine
 10
92.75236770755444
 20
89.99050648032099
 30
0.0000000000003897
 11
92.55239770755443
 21
90.190476480321
 31
0.0000000000003897
  0
LINE
  5
3F0
330
1F
100
AcDbEntity
  8
OBRYS
100
AcDbLine
 10
101.4943817075544
 20
117.090506480321
 30
0.0000000000003897
 11
98.45236770755444
 21
117.090506480321
 31
0.0000000000003897
  0
LINE
  5
3F1
330
1F
100
AcDbEntity
  8
OBRYS
100
AcDbLine
 10
98.45236770755444
 20
114.948492480321
 30
0.0000000000003897
 11
98.25239770755441
 21
114.748523480321
 31
0.0000000000003897
  0
LINE
  5
3F2
330
1F
100
AcDbEntity
  8
OBRYS
100
AcDbLine
 10
95.99435070755442
 20
87.64852348032099
 30
0.0000000000003897
 11
95.79438170755441
 21
87.848492480321
 31
0.0000000000003897
  0
LINE
  5
3F3
330
1F
100
AcDbEntity
  8
OBRYS
100
AcDbLine
 10
92.75236770755444
 20
74.79849248032099
 30
0.0000000000003897
 11
95.77340470755442
 21
74.79849248032099
 31
0.0000000000003897
  0
LINE
  5
3F4
330
1F
100
AcDbEntity
  8
OBRYS
100
AcDbLine
 10
95.77340470755442
 20
76.940506480321
 30
0.0000000000003897
 11
95.97337470755443
 21
77.14047648032098
 31
0.0000000000003897
  0
LINE
  5
3F5
330
1F
100
AcDbEntity
  8
OBRYS
100
AcDbLine
 10
92.75236770755444
 20
76.940506480321
 30
0.0000000000003897
 11
92.55239770755443
 21
77.14047648032098
 31
0.0000000000003897
  0
LINE
  5
3F6
330
1F
100
AcDbEntity
  8
OBRYS
100
AcDbLine
 10
95.77340470755442
 20
74.79849248032099
 30
0.0000000000003897
 11
95.77340470755442
 21
76.940506480321
 31
0.0000000000003897
  0
LINE
  5
3F7
330
1F
100
AcDbEntity
  8
OBRYS
100
AcDbLine
 10
98.45236770755444
 20
117.090506480321
 30
0.0000000000003897
 11
98.45236770755444
 21
114.948492480321
 31
0.0000000000003897
  0
LINE
  5
3F8
330
1F
100
AcDbEntity
  8
OBRYS
100
AcDbLine
 10
86.28035570755446
 20
67.21775748032098
 30
0.0000000000003897
 11
86.28035570755446
 21
111.421242480321
 31
0.0000000000003897
  0
LINE
  5
3F9
330
1F
100
AcDbEntity
  8
OBRYS
100
AcDbLine
 10
92.75236770755444
 20
100.898492480321
 30
0.0000000000003897
 11
92.55239770755443
 21
100.698523480321
 31
0.0000000000003897
  0
LINE
  5
3FA
330
1F
100
AcDbEntity
  8
OBRYS
100
AcDbLine
 10
95.79438170755441
 20
100.898492480321
 30
0.0000000000003897
 11
95.79438170755441
 21
103.040506480321
 31
0.0000000000003897
  0
LINE
  5
3FB
330
1F
100
AcDbEntity
  8
OBRYS
100
AcDbLine
 10
92.75236770755444
 20
103.040506480321
 30
0.0000000000003897
 11
92.55239770755443
 21
103.240476480321
 31
0.0000000000003897
  0
LINE
  5
3FC
330
1F
100
AcDbEntity
  8
OBRYS
100
AcDbLine
 10
92.75236770755444
 20
103.040506480321
 30
0.0000000000003897
 11
92.75236770755444
 21
100.898492480321
 31
0.0000000000003897
  0
LINE
  5
3FD
330
1F
100
AcDbEntity
  8
OBRYS
100
AcDbLine
 10
95.99435070755442
 20
103.240476480321
 30
0.0000000000003897
 11
95.79438170755441
 21
103.040506480321
 31
0.0000000000003897
  0
LINE
  5
3FE
330
1F
100
AcDbEntity
  8
OBRYS
100
AcDbLine
 10
101.6943507075544
 20
117.290476480321
 30
0.0000000000003897
 11
101.4943817075544
 21
117.090506480321
 31
0.0000000000003897
  0
LINE
  5
3FF
330
1F
100
AcDbEntity
  8
OBRYS
100
AcDbLine
 10
92.75236770755444
 20
89.99050648032099
 30
0.0000000000003897
 11
92.75236770755444
 21
87.848492480321
 31
0.0000000000003897
  0
LINE
  5
400
330
1F
100
AcDbEntity
  8
OBRYS
100
AcDbLine
 10
98.45236770755444
 20
117.090506480321
 30
0.0000000000003897
 11
98.25239770755441
 21
117.290476480321
 31
0.0000000000003897
  0
LINE
  5
401
330
1F
100
AcDbEntity
  8
OBRYS
100
AcDbLine
 10
92.75236770755444
 20
100.898492480321
 30
0.0000000000003897
 11
95.79438170755441
 21
100.898492480321
 31
0.0000000000003897
  0
LINE
  5
402
330
1F
100
AcDbEntity
  8
OBRYS
100
AcDbLine
 10
98.45236770755444
 20
114.948492480321
 30
0.0000000000003897
 11
101.4943817075544
 21
114.948492480321
 31
0.0000000000003897
  0
LINE
  5
403
330
1F
100
AcDbEntity
  8
OBRYS
100
AcDbLine
 10
95.99435070755442
 20
100.698523480321
 30
0.0000000000003897
 11
95.79438170755441
 21
100.898492480321
 31
0.0000000000003897
  0
LINE
  5
404
330
1F
100
AcDbEntity
  8
OBRYS
100
AcDbLine
 10
95.97337470755443
 20
74.598523480321
 30
0.0000000000003897
 11
95.77340470755442
 21
74.79849248032099
 31
0.0000000000003897
  0
LINE
  5
405
330
1F
100
AcDbEntity
  8
OBRYS
100
AcDbLine
 10
95.79438170755441
 20
87.848492480321
 30
0.0000000000003897
 11
95.79438170755441
 21
89.99050648032099
 31
0.0000000000003897
  0
LINE
  5
406
330
1F
100
AcDbEntity
  8
OBRYS
100
AcDbLine
 10
95.79438170755441
 20
103.040506480321
 30
0.0000000000003897
 11
92.75236770755444
 21
103.040506480321
 31
0.0000000000003897
  0
LINE
  5
407
330
1F
100
AcDbEntity
  8
OBRYS
100
AcDbLine
 10
92.75236770755444
 20
87.848492480321
 30
0.0000000000003897
 11
95.79438170755441
 21
87.848492480321
 31
0.0000000000003897
  0
LINE
  5
408
330
1F
100
AcDbEntity
  8
OBRYS
100
AcDbLine
 10
105.4733747075544
 20
134.110773480321
 30
0.0000000000003897
 11
105.473519611761
 21
105.0612074913256
 31
0.0000000000003897
  0
LINE
  5
409
330
1F
100
AcDbEntity
  8
OBRYS
100
AcDbLine
 10
101.6943507075544
 20
114.748523480321
 30
0.0000000000003897
 11
101.4943817075544
 21
114.948492480321
 31
0.0000000000003897
  0
LINE
  5
40A
330
1F
100
AcDbEntity
  8
OBRYS
100
AcDbLine
 10
101.4943817075544
 20
114.948492480321
 30
0.0000000000003897
 11
101.4943817075544
 21
117.090506480321
 31
0.0000000000003897
  0
LINE
  5
40B
330
1F
100
AcDbEntity
  8
OBRYS
100
AcDbLine
 10
104.9733747075544
 20
70.87412048032101
 30
0.0000000000003897
 11
104.9733747075544
 21
44.51077348032101
 31
0.0000000000003897
  0
LINE
  5
40C
330
1F
100
AcDbEntity
  8
OBRYS
100
AcDbLine
 10
99.77337470755442
 20
70.91949948032101
 30
0.0000000000003897
 11
104.9733747075544
 21
70.87412048032101
 31
0.0000000000003897
  0
LINE
  5
40D
330
1F
100
AcDbEntity
  8
OBRYS
100
AcDbLine
 10
100.9442964312522
 20
106.9297179293213
 30
0.0000000000003897
 11
99.77337470755442
 21
106.919499480321
 31
0.0000000000003897
  0
LINE
  5
40E
330
1F
100
AcDbEntity
  8
OBRYS
100
AcDbLine
 10
84.88035570755446
 20
66.83259048032099
 30
0.0000000000003897
 11
84.88035570755446
 21
66.83339948032099
 31
0.0000000000003897
  0
LINE
  5
40F
330
1F
100
AcDbEntity
  8
OBRYS
100
AcDbLine
 10
76.44431870755446
 20
66.81077348032099
 30
0.0000000000003897
 11
76.44435170755446
 21
66.81457848032099
 31
0.0000000000003897
  0
LINE
  5
411
330
1F
100
AcDbEntity
  8
OBRYS
100
AcDbLine
 10
160.8737667075545
 20
55.52865048032101
 30
0.0000000000003897
 11
157.6193477075544
 21
55.52865048032101
 31
0.0000000000003897
  0
LINE
  5
412
330
1F
100
AcDbEntity
  8
OBRYS
100
AcDbLine
 10
157.6193477075544
 20
54.49289648032101
 30
0.0000000000003897
 11
160.8737667075545
 21
54.49289648032101
 31
0.0000000000003897
  0
LINE
  5
413
330
1F
100
AcDbEntity
  8
OBRYS
100
AcDbLine
 10
157.6193477075544
 20
57.38338648032101
 30
0.0000000000003897
 11
157.6193477075544
 21
55.45277348032099
 31
0.0000000000003897
  0
LINE
  5
414
330
1F
100
AcDbEntity
  8
OBRYS
100
AcDbLine
 10
156.7353477075544
 20
55.45277348032099
 30
0.0000000000003897
 11
156.7353477075544
 21
57.38462148032099
 31
0.0000000000003897
  0
LINE
  5
415
330
1F
100
AcDbEntity
  8
OBRYS
100
AcDbLine
 10
156.7353477075544
 20
52.636925480321
 30
0.0000000000003897
 11
156.7353477075544
 21
54.568773480321
 31
0.0000000000003897
  0
LINE
  5
416
330
1F
100
AcDbEntity
  8
OBRYS
100
AcDbLine
 10
157.6193477075544
 20
54.568773480321
 30
0.0000000000003897
 11
157.6193477075544
 21
52.63816048032101
 31
0.0000000000003897
  0
LINE
  5
417
330
1F
100
AcDbEntity
  8
OBRYS
100
AcDbLine
 10
157.6193477075544
 20
55.45277348032099
 30
0.0000000000003897
 11
158.9245707075544
 21
55.45277348032099
 31
0.0000000000003897
  0
LINE
  5
418
330
1F
100
AcDbEntity
  8
OBRYS
100
AcDbLine
 10
158.9245707075544
 20
54.568773480321
 30
0.0000000000003897
 11
157.6193477075544
 21
54.568773480321
 31
0.0000000000003897
  0
LINE
  5
419
330
1F
100
AcDbEntity
  8
OBRYS
100
AcDbLine
 10
158.1051447075544
 20
55.79392348032098
 30
0.0000000000003897
 11
157.9305157075544
 21
55.76394148032099
 31
0.0000000000003897
  0
LINE
  5
41A
330
1F
100
AcDbEntity
  8
OBRYS
100
AcDbLine
 10
157.9305157075544
 20
55.76394148032099
 30
0.0000000000003897
 11
157.7441467075544
 21
55.80001648032101
 31
0.0000000000003897
  0
LINE
  5
41B
330
1F
100
AcDbEntity
  8
OBRYS
100
AcDbLine
 10
157.7441467075544
 20
54.22153048032101
 30
0.0000000000003897
 11
157.9305157075544
 21
54.25760448032099
 31
0.0000000000003897
  0
LINE
  5
41C
330
1F
100
AcDbEntity
  8
OBRYS
100
AcDbLine
 10
157.9305157075544
 20
54.25760448032099
 30
0.0000000000003897
 11
158.1051447075544
 21
54.227623480321
 31
0.0000000000003897
  0
LINE
  5
425
330
1F
100
AcDbEntity
  8
OBRYS
100
AcDbLine
 10
156.7353477075544
 20
54.568773480321
 30
0.0000000000003897
 11
155.4301237075545
 21
54.568773480321
 31
0.0000000000003897
  0
LINE
  5
426
330
1F
100
AcDbEntity
  8
OBRYS
100
AcDbLine
 10
155.4301287075544
 20
55.45277348032099
 30
0.0000000000003897
 11
156.7353477075544
 21
55.45277348032099
 31
0.0000000000003897
  0
LINE
  5
427
330
1F
100
AcDbEntity
  8
OBRYS
100
AcDbLine
 10
156.7353477075544
 20
55.52865048032101
 30
0.0000000000003897
 11
153.4809427075544
 21
55.52865048032101
 31
0.0000000000003897
  0
LINE
  5
428
330
1F
100
AcDbEntity
  8
OBRYS
100
AcDbLine
 10
153.4809427075544
 20
54.49289648032101
 30
0.0000000000003897
 11
156.7353477075544
 21
54.49289648032101
 31
0.0000000000003897
  0
LINE
  5
429
330
1F
100
AcDbEntity
  8
OBRYS
100
AcDbLine
 10
156.6138597075544
 20
55.80065748032101
 30
0.0000000000003897
 11
156.4241787075545
 21
55.76394148032099
 31
0.0000000000003897
  0
LINE
  5
42A
330
1F
100
AcDbEntity
  8
OBRYS
100
AcDbLine
 10
156.4241787075545
 20
54.25760448032099
 30
0.0000000000003897
 11
156.6138597075544
 21
54.22088948032101
 31
0.0000000000003897
  0
LINE
  5
42B
330
1F
100
AcDbEntity
  8
OBRYS
100
AcDbLine
 10
156.4241787075545
 20
55.76394148032099
 30
0.0000000000003897
 11
156.2443847075544
 21
55.79481048032099
 31
0.0000000000003897
  0
LINE
  5
42C
330
1F
100
AcDbEntity
  8
OBRYS
100
AcDbLine
 10
156.2443847075544
 20
54.22673648032099
 30
0.0000000000003897
 11
156.4241787075545
 21
54.25760448032099
 31
0.0000000000003897
  0
LINE
  5
42D
330
1F
100
AcDbEntity
  8
OBRYS
100
AcDbLine
 10
160.8737517075544
 20
124.128650480321
 30
0.0000000000003897
 11
157.6193477075544
 21
124.128650480321
 31
0.0000000000003897
  0
LINE
  5
42E
330
1F
100
AcDbEntity
  8
OBRYS
100
AcDbLine
 10
157.6193477075544
 20
123.092896480321
 30
0.0000000000003897
 11
160.8737517075544
 21
123.092896480321
 31
0.0000000000003897
  0
LINE
  5
42F
330
1F
100
AcDbEntity
  8
OBRYS
100
AcDbLine
 10
156.7353477075544
 20
121.238160480321
 30
0.0000000000003897
 11
156.7353477075544
 21
123.168773480321
 31
0.0000000000003897
  0
LINE
  5
430
330
1F
100
AcDbEntity
  8
OBRYS
100
AcDbLine
 10
157.6193477075544
 20
123.168773480321
 30
0.0000000000003897
 11
157.6193477075544
 21
121.236925480321
 31
0.0000000000003897
  0
LINE
  5
431
330
1F
100
AcDbEntity
  8
OBRYS
100
AcDbLine
 10
157.6193477075544
 20
125.984622480321
 30
0.0000000000003897
 11
157.6193477075544
 21
124.052773480321
 31
0.0000000000003897
  0
LINE
  5
432
330
1F
100
AcDbEntity
  8
OBRYS
100
AcDbLine
 10
156.7353477075544
 20
124.052773480321
 30
0.0000000000003897
 11
156.7353477075544
 21
125.983386480321
 31
0.0000000000003897
  0
LINE
  5
433
330
1F
100
AcDbEntity
  8
OBRYS
100
AcDbLine
 10
157.6193477075544
 20
124.052773480321
 30
0.0000000000003897
 11
158.9245707075544
 21
124.052773480321
 31
0.0000000000003897
  0
LINE
  5
434
330
1F
100
AcDbEntity
  8
OBRYS
100
AcDbLine
 10
158.9245657075545
 20
123.168773480321
 30
0.0000000000003897
 11
157.6193477075544
 21
123.168773480321
 31
0.0000000000003897
  0
LINE
  5
435
330
1F
100
AcDbEntity
  8
OBRYS
100
AcDbLine
 10
158.1103107075544
 20
124.394810480321
 30
0.0000000000003897
 11
157.9305157075544
 21
124.363942480321
 31
0.0000000000003897
  0
LINE
  5
436
330
1F
100
AcDbEntity
  8
OBRYS
100
AcDbLine
 10
157.9305157075544
 20
124.363942480321
 30
0.0000000000003897
 11
157.7408357075544
 21
124.400658480321
 31
0.0000000000003897
  0
LINE
  5
437
330
1F
100
AcDbEntity
  8
OBRYS
100
AcDbLine
 10
157.7408347075544
 20
122.820889480321
 30
0.0000000000003897
 11
157.9305157075544
 21
122.857605480321
 31
0.0000000000003897
  0
LINE
  5
438
330
1F
100
AcDbEntity
  8
OBRYS
100
AcDbLine
 10
157.9305157075544
 20
122.857605480321
 30
0.0000000000003897
 11
158.1103107075544
 21
122.826737480321
 31
0.0000000000003897
  0
LINE
  5
441
330
1F
100
AcDbEntity
  8
OBRYS
100
AcDbLine
 10
156.7353477075544
 20
123.168773480321
 30
0.0000000000003897
 11
155.4301237075545
 21
123.168773480321
 31
0.0000000000003897
  0
LINE
  5
442
330
1F
100
AcDbEntity
  8
OBRYS
100
AcDbLine
 10
155.4301237075545
 20
124.052773480321
 30
0.0000000000003897
 11
156.7353477075544
 21
124.052773480321
 31
0.0000000000003897
  0
LINE
  5
443
330
1F
100
AcDbEntity
  8
OBRYS
100
AcDbLine
 10
153.4809287075544
 20
123.092896480321
 30
0.0000000000003897
 11
156.7353477075544
 21
123.092896480321
 31
0.0000000000003897
  0
LINE
  5
444
330
1F
100
AcDbEntity
  8
OBRYS
100
AcDbLine
 10
156.7353477075544
 20
124.128650480321
 30
0.0000000000003897
 11
153.4809287075544
 21
124.128650480321
 31
0.0000000000003897
  0
LINE
  5
445
330
1F
100
AcDbEntity
  8
OBRYS
100
AcDbLine
 10
156.4241787075545
 20
122.857605480321
 30
0.0000000000003897
 11
156.6105487075544
 21
122.821530480321
 31
0.0000000000003897
  0
LINE
  5
446
330
1F
100
AcDbEntity
  8
OBRYS
100
AcDbLine
 10
156.6105477075544
 20
124.400017480321
 30
0.0000000000003897
 11
156.4241787075545
 21
124.363942480321
 31
0.0000000000003897
  0
LINE
  5
447
330
1F
100
AcDbEntity
  8
OBRYS
100
AcDbLine
 10
156.2495507075544
 20
122.827624480321
 30
0.0000000000003897
 11
156.4241787075545
 21
122.857605480321
 31
0.0000000000003897
  0
LINE
  5
448
330
1F
100
AcDbEntity
  8
OBRYS
100
AcDbLine
 10
156.4241787075545
 20
124.363942480321
 30
0.0000000000003897
 11
156.2495507075544
 21
124.393923480321
 31
0.0000000000003897
  0
LINE
  5
480
330
1F
100
AcDbEntity
  8
OBRYS
100
AcDbLine
 10
178.8737517075544
 20
124.128650480321
 30
0.0000000000003897
 11
175.6193477075544
 21
124.128650480321
 31
0.0000000000003897
  0
LINE
  5
481
330
1F
100
AcDbEntity
  8
OBRYS
100
AcDbLine
 10
175.6193477075544
 20
123.092896480321
 30
0.0000000000003897
 11
178.8737517075544
 21
123.092896480321
 31
0.0000000000003897
  0
LINE
  5
482
330
1F
100
AcDbEntity
  8
OBRYS
100
AcDbLine
 10
174.7353477075544
 20
121.238160480321
 30
0.0000000000003897
 11
174.7353477075544
 21
123.168773480321
 31
0.0000000000003897
  0
LINE
  5
483
330
1F
100
AcDbEntity
  8
OBRYS
100
AcDbLine
 10
175.6193477075544
 20
123.168773480321
 30
0.0000000000003897
 11
175.6193477075544
 21
121.236925480321
 31
0.0000000000003897
  0
LINE
  5
484
330
1F
100
AcDbEntity
  8
OBRYS
100
AcDbLine
 10
175.6193477075544
 20
125.984622480321
 30
0.0000000000003897
 11
175.6193477075544
 21
124.052773480321
 31
0.0000000000003897
  0
LINE
  5
485
330
1F
100
AcDbEntity
  8
OBRYS
100
AcDbLine
 10
174.7353477075544
 20
124.052773480321
 30
0.0000000000003897
 11
174.7353477075544
 21
125.983386480321
 31
0.0000000000003897
  0
LINE
  5
486
330
1F
100
AcDbEntity
  8
OBRYS
100
AcDbLine
 10
175.6193477075544
 20
124.052773480321
 30
0.0000000000003897
 11
176.9245707075544
 21
124.052773480321
 31
0.0000000000003897
  0
LINE
  5
487
330
1F
100
AcDbEntity
  8
OBRYS
100
AcDbLine
 10
176.9245657075545
 20
123.168773480321
 30
0.0000000000003897
 11
175.6193477075544
 21
123.168773480321
 31
0.0000000000003897
  0
LINE
  5
488
330
1F
100
AcDbEntity
  8
OBRYS
100
AcDbLine
 10
176.1103107075544
 20
124.394810480321
 30
0.0000000000003897
 11
175.9305157075544
 21
124.363942480321
 31
0.0000000000003897
  0
LINE
  5
489
330
1F
100
AcDbEntity
  8
OBRYS
100
AcDbLine
 10
175.9305157075544
 20
124.363942480321
 30
0.0000000000003897
 11
175.7408357075544
 21
124.400658480321
 31
0.0000000000003897
  0
LINE
  5
48A
330
1F
100
AcDbEntity
  8
OBRYS
100
AcDbLine
 10
175.9305157075544
 20
122.857605480321
 30
0.0000000000003897
 11
176.1103107075544
 21
122.826737480321
 31
0.0000000000003897
  0
LINE
  5
48B
330
1F
100
AcDbEntity
  8
OBRYS
100
AcDbLine
 10
175.7408347075544
 20
122.820889480321
 30
0.0000000000003897
 11
175.9305157075544
 21
122.857605480321
 31
0.0000000000003897
  0
LINE
  5
494
330
1F
100
AcDbEntity
  8
OBRYS
100
AcDbLine
 10
174.7353477075544
 20
123.168773480321
 30
0.0000000000003897
 11
173.4301237075545
 21
123.168773480321
 31
0.0000000000003897
  0
LINE
  5
495
330
1F
100
AcDbEntity
  8
OBRYS
100
AcDbLine
 10
173.4301237075545
 20
124.052773480321
 30
0.0000000000003897
 11
174.7353477075544
 21
124.052773480321
 31
0.0000000000003897
  0
LINE
  5
496
330
1F
100
AcDbEntity
  8
OBRYS
100
AcDbLine
 10
174.7353477075544
 20
124.128650480321
 30
0.0000000000003897
 11
171.4809287075544
 21
124.128650480321
 31
0.0000000000003897
  0
LINE
  5
497
330
1F
100
AcDbEntity
  8
OBRYS
100
AcDbLine
 10
171.4809287075544
 20
123.092896480321
 30
0.0000000000003897
 11
174.7353477075544
 21
123.092896480321
 31
0.0000000000003897
  0
LINE
  5
498
330
1F
100
AcDbEntity
  8
OBRYS
100
AcDbLine
 10
174.4241787075545
 20
122.857605480321
 30
0.0000000000003897
 11
174.6105487075544
 21
122.821530480321
 31
0.0000000000003897
  0
LINE
  5
499
330
1F
100
AcDbEntity
  8
OBRYS
100
AcDbLine
 10
174.6105477075544
 20
124.400017480321
 30
0.0000000000003897
 11
174.4241787075545
 21
124.363942480321
 31
0.0000000000003897
  0
LINE
  5
49A
330
1F
100
AcDbEntity
  8
OBRYS
100
AcDbLine
 10
174.2495507075544
 20
122.827624480321
 30
0.0000000000003897
 11
174.4241787075545
 21
122.857605480321
 31
0.0000000000003897
  0
LINE
  5
49B
330
1F
100
AcDbEntity
  8
OBRYS
100
AcDbLine
 10
174.4241787075545
 20
124.363942480321
 30
0.0000000000003897
 11
174.2495507075544
 21
124.393923480321
 31
0.0000000000003897
  0
LINE
  5
49C
330
1F
100
AcDbEntity
  8
OBRYS
100
AcDbLine
 10
184.1773477075544
 20
47.76176448032101
 30
0.0000000000003897
 11
148.1773477075544
 21
47.76176448032101
 31
0.0000000000003897
  0
LINE
  5
49D
330
1F
100
AcDbEntity
  8
OBRYS
100
AcDbLine
 10
184.1773477075544
 20
131.244325480321
 30
0.0000000000003897
 11
148.1773477075544
 21
131.198080480321
 31
0.0000000000003897
  0
LINE
  5
49E
330
1F
100
AcDbEntity
  8
OBRYS
100
AcDbLine
 10
148.1773477075544
 20
130.877234480321
 30
0.0000000000003897
 11
184.1773477075544
 21
130.877234480321
 31
0.0000000000003897
  0
LINE
  5
49F
330
1F
100
AcDbEntity
  8
OBRYS
100
AcDbLine
 10
184.1773477075544
 20
133.894674480321
 30
0.0000000000003897
 11
148.1773477075544
 21
133.925566480321
 31
0.0000000000003897
  0
LINE
  5
4A0
330
1F
100
AcDbEntity
  8
OBRYS
100
AcDbLine
 10
184.1773477075544
 20
112.315045480321
 30
0.0
 11
179.1324557075544
 21
112.315045480321
 31
0.0000000000003897
  0
LINE
  5
4A1
330
1F
100
AcDbEntity
  8
OBRYS
100
AcDbLine
 10
148.3773477075545
 20
134.310773480321
 30
0.0000000000003897
 11
183.9773477075544
 21
134.310773480321
 31
0.0000000000003897
  0
LINE
  5
4A2
330
1F
100
AcDbEntity
  8
OBRYS
100
AcDbLine
 10
179.1324557075544
 20
66.32395448032099
 30
0.0000000000003897
 11
184.1773477075544
 21
66.32395448032099
 31
0.0
  0
LINE
  5
4A3
330
1F
100
AcDbEntity
  8
OBRYS
100
AcDbLine
 10
183.9773477075544
 20
44.31077348032099
 30
0.0000000000003897
 11
148.3773477075545
 21
44.31077348032099
 31
0.0000000000003897
  0
LINE
  5
4A4
330
1F
100
AcDbEntity
  8
OBRYS
100
AcDbLine
 10
179.0324557075544
 20
65.014379480321
 30
0.0000000000003897
 11
179.0324557075544
 21
66.223954480321
 31
0.0000000000003969
  0
LINE
  5
4A5
330
1F
100
AcDbEntity
  8
OBRYS
100
AcDbLine
 10
179.0324557075544
 20
112.415045480321
 30
0.0000000000003897
 11
179.0324557075544
 21
113.624620480321
 31
0.0000000000003897
  0
LINE
  5
4A6
330
1F
100
AcDbEntity
  8
OBRYS
100
AcDbLine
 10
172.7873007075544
 20
65.014379480321
 30
0.0000000000003897
 11
179.0324557075544
 21
65.014379480321
 31
0.0000000000003897
  0
LINE
  5
4A7
330
1F
100
AcDbEntity
  8
OBRYS
100
AcDbLine
 10
179.0324557075544
 20
113.624620480321
 30
0.0000000000003897
 11
172.7873007075544
 21
113.624620480321
 31
0.0000000000003897
  0
LINE
  5
4A9
330
1F
100
AcDbEntity
  8
OBRYS
100
AcDbLine
 10
175.1773477075544
 20
50.16651648032101
 30
0.0000000000003897
 11
157.1773477075544
 21
50.16651648032101
 31
0.0000000000003897
  0
LINE
  5
4AA
330
1F
100
AcDbEntity
  8
OBRYS
100
AcDbLine
 10
157.1773477075544
 20
128.455030480321
 30
0.0000000000003897
 11
175.1773477075544
 21
128.455030480321
 31
0.0000000000003897
  0
LINE
  5
4AC
330
1F
100
AcDbEntity
  8
OBRYS
100
AcDbLine
 10
157.1773477075544
 20
129.655030480321
 30
0.0000000000003897
 11
175.1773477075544
 21
129.655030480321
 31
0.0000000000003897
  0
LINE
  5
4AE
330
1F
100
AcDbEntity
  8
OBRYS
100
AcDbLine
 10
175.1773477075544
 20
48.96651648032099
 30
0.0000000000003897
 11
157.1773477075544
 21
48.96651648032099
 31
0.0000000000003897
  0
LINE
  5
4B0
330
1F
100
AcDbEntity
  8
OBRYS
100
AcDbLine
 10
172.6873007075544
 20
63.434588480321
 30
0.0000000000003897
 11
172.6873007075544
 21
64.914379480321
 31
0.0000000000003897
  0
LINE
  5
4B1
330
1F
100
AcDbEntity
  8
OBRYS
100
AcDbLine
 10
159.6673937075544
 20
115.186958480321
 30
0.0000000000003897
 11
172.6873007075544
 21
115.186958480321
 31
0.0000000000003897
  0
LINE
  5
4B2
330
1F
100
AcDbEntity
  8
OBRYS
100
AcDbLine
 10
172.6873007075544
 20
113.724620480321
 30
0.0000000000003897
 11
172.6873007075544
 21
115.186958480321
 31
0.0000000000003897
  0
LINE
  5
4B3
330
1F
100
AcDbEntity
  8
OBRYS
100
AcDbLine
 10
172.6873007075544
 20
63.434588480321
 30
0.0000000000003897
 11
159.6673937075544
 21
63.434588480321
 31
0.0000000000003897
  0
LINE
  5
4B4
330
1F
100
AcDbEntity
  8
OBRYS
100
AcDbLine
 10
169.6771929287341
 20
64.11027982131205
 30
0.0000000000003897
 11
172.6873007075544
 21
64.11022748032099
 31
0.0000000000003897
  0
LINE
  5
4B5
330
1F
100
AcDbEntity
  8
OBRYS
100
AcDbLine
 10
172.6873007075544
 20
114.511319480321
 30
0.0000000000003897
 11
169.677192828953
 21
114.5113186830746
 31
0.0000000000003897
  0
LINE
  5
4B6
330
1F
100
AcDbEntity
  8
OBRYS
100
AcDbLine
 10
169.6778707075296
 20
64.92450390356163
 30
0.0000000000003897
 11
169.6778578691747
 21
64.11027980974978
 31
0.0000000000003897
  0
LINE
  5
4B7
330
1F
100
AcDbEntity
  8
OBRYS
100
AcDbLine
 10
169.6778705119897
 20
114.511318683254
 30
0.0000000000003897
 11
169.6778707075542
 21
113.714494504864
 31
0.0000000000003897
  0
LINE
  5
4B8
330
1F
100
AcDbEntity
  8
OBRYS
100
AcDbLine
 10
169.5778707075542
 20
113.614494480321
 30
0.0000000000003897
 11
167.7768247075545
 21
113.614494480321
 31
0.0000000000003897
  0
LINE
  5
4B9
330
1F
100
AcDbEntity
  8
OBRYS
100
AcDbLine
 10
167.7768247075617
 20
65.02450548032101
 30
0.0000000000003897
 11
169.577870707542
 21
65.02450548032101
 31
0.0000000000003897
  0
LINE
  5
4BA
330
1F
100
AcDbEntity
  8
OBRYS
100
AcDbLine
 10
167.6768247075544
 20
113.7144944803142
 30
0.0000000000003897
 11
167.6768247075004
 21
114.5111040145161
 31
0.0000000000003897
  0
LINE
  5
4BB
330
1F
100
AcDbEntity
  8
OBRYS
100
AcDbLine
 10
167.6768345055884
 20
64.11027997405637
 30
0.0000000000003897
 11
167.6768247075689
 21
64.92450427696471
 31
0.0000000000003897
  0
LINE
  5
4BC
330
1F
100
AcDbEntity
  8
OBRYS
100
AcDbLine
 10
164.6768418504448
 20
64.11024016252267
 30
0.0000000000003897
 11
167.6775024860287
 21
64.11027998292084
 31
0.0000000000003897
  0
LINE
  5
4BD
330
1F
100
AcDbEntity
  8
OBRYS
100
AcDbLine
 10
167.6775021624115
 20
114.5111040145161
 30
0.0000000000003897
 11
164.676842252672
 21
114.5111040142964
 31
0.0000000000003897
  0
LINE
  5
4BE
330
1F
100
AcDbEntity
  8
OBRYS
100
AcDbLine
 10
164.67751970754
 20
64.92450668368338
 30
0.0000000000003897
 11
164.6775295061166
 21
64.11024017164823
 31
0.0000000000003897
  0
LINE
  5
4BF
330
1F
100
AcDbEntity
  8
OBRYS
100
AcDbLine
 10
162.7768247075545
 20
65.02450548032101
 30
0.0000000000003897
 11
164.5775197075472
 21
65.02450548032101
 31
0.0000000000003897
  0
LINE
  5
4C0
330
1F
100
AcDbEntity
  8
OBRYS
100
AcDbLine
 10
164.5775200704865
 20
113.614494480321
 30
0.0000000000003897
 11
162.7768243446222
 21
113.614494480321
 31
0.0000000000003897
  0
LINE
  5
4C1
330
1F
100
AcDbEntity
  8
OBRYS
100
AcDbLine
 10
162.6768776913909
 20
64.11044349407697
 30
0.0000000000003897
 11
162.6768247075544
 21
64.92450548032102
 31
0.0000000000003897
  0
LINE
  5
4C2
330
1F
100
AcDbEntity
  8
OBRYS
100
AcDbLine
 10
159.6673937075544
 20
64.11022748032099
 30
0.0000000000003897
 11
162.6775021632272
 21
64.11044353890011
 31
0.0000000000003897
  0
LINE
  5
4C3
330
1F
100
AcDbEntity
  8
OBRYS
100
AcDbLine
 10
162.6775021624276
 20
114.5111040144508
 30
0.0000000000003897
 11
159.6673937075544
 21
114.511319480321
 31
0.0000000000003897
  0
LINE
  5
4C4
330
1F
100
AcDbEntity
  8
OBRYS
100
AcDbLine
 10
159.6673937075544
 20
115.186958480321
 30
0.0000000000003897
 11
159.6673937075544
 21
113.724620480321
 31
0.0000000000003897
  0
LINE
  5
4C5
330
1F
100
AcDbEntity
  8
OBRYS
100
AcDbLine
 10
159.5673937075545
 20
113.624620480321
 30
0.0000000000003897
 11
153.3222387075544
 21
113.624620480321
 31
0.0000000000003897
  0
LINE
  5
4C6
330
1F
100
AcDbEntity
  8
OBRYS
100
AcDbLine
 10
153.3222387075544
 20
65.014379480321
 30
0.0000000000003897
 11
159.5673937075545
 21
65.014379480321
 31
0.0000000000003897
  0
LINE
  5
4C7
330
1F
100
AcDbEntity
  8
OBRYS
100
AcDbLine
 10
153.3222387075544
 20
66.223954480321
 30
0.0000000000003955
 11
153.3222387075544
 21
65.014379480321
 31
0.0000000000003897
  0
LINE
  5
4C8
330
1F
100
AcDbEntity
  8
OBRYS
100
AcDbLine
 10
153.4308017075545
 20
112.919499480321
 30
0.0000000000003897
 11
153.4290557075544
 21
112.923863480321
 31
0.0000000000003897
  0
LINE
  5
4C9
330
1F
100
AcDbEntity
  8
OBRYS
100
AcDbLine
 10
153.3222387075544
 20
113.624620480321
 30
0.0000000000003897
 11
153.3222387075544
 21
112.415045480321
 31
0.0000000000003897
  0
LINE
  5
4CA
330
1F
100
AcDbEntity
  8
OBRYS
100
AcDbLine
 10
148.1773477075545
 20
66.32395448032099
 30
0.0000000000000752
 11
153.2222387075544
 21
66.32395448032099
 31
0.0000000000003897
  0
LINE
  5
4CB
330
1F
100
AcDbEntity
  8
OBRYS
100
AcDbLine
 10
153.2222387075544
 20
112.315045480321
 30
0.0000000000003897
 11
148.1773477075544
 21
112.315045480321
 31
0.0000000000003897
  0
LINE
  5
4CC
330
1F
100
AcDbEntity
  8
OBRYS
100
AcDbLine
 10
178.8737667075545
 20
55.52865048032101
 30
0.0000000000003897
 11
175.6193477075544
 21
55.52865048032101
 31
0.0000000000003897
  0
LINE
  5
4CD
330
1F
100
AcDbEntity
  8
OBRYS
100
AcDbLine
 10
175.6193477075544
 20
54.49289648032101
 30
0.0000000000003897
 11
178.8737667075545
 21
54.49289648032101
 31
0.0000000000003897
  0
LINE
  5
4CE
330
1F
100
AcDbEntity
  8
OBRYS
100
AcDbLine
 10
175.6193477075544
 20
57.38338648032101
 30
0.0000000000003897
 11
175.6193477075544
 21
55.45277348032099
 31
0.0000000000003897
  0
LINE
  5
4CF
330
1F
100
AcDbEntity
  8
OBRYS
100
AcDbLine
 10
174.7353477075544
 20
55.45277348032099
 30
0.0000000000003897
 11
174.7353477075544
 21
57.38462148032099
 31
0.0000000000003897
  0
LINE
  5
4D0
330
1F
100
AcDbEntity
  8
OBRYS
100
AcDbLine
 10
174.7353477075544
 20
52.636925480321
 30
0.0000000000003897
 11
174.7353477075544
 21
54.568773480321
 31
0.0000000000003897
  0
LINE
  5
4D1
330
1F
100
AcDbEntity
  8
OBRYS
100
AcDbLine
 10
175.6193477075544
 20
54.568773480321
 30
0.0000000000003897
 11
175.6193477075544
 21
52.63816048032101
 31
0.0000000000003897
  0
LINE
  5
4D2
330
1F
100
AcDbEntity
  8
OBRYS
100
AcDbLine
 10
175.6193477075544
 20
55.45277348032099
 30
0.0000000000003897
 11
176.9245707075544
 21
55.45277348032099
 31
0.0000000000003897
  0
LINE
  5
4D3
330
1F
100
AcDbEntity
  8
OBRYS
100
AcDbLine
 10
176.9245707075544
 20
54.568773480321
 30
0.0000000000003897
 11
175.6193477075544
 21
54.568773480321
 31
0.0000000000003897
  0
LINE
  5
4D4
330
1F
100
AcDbEntity
  8
OBRYS
100
AcDbLine
 10
175.9305157075544
 20
55.76394148032099
 30
0.0000000000003897
 11
175.7441467075544
 21
55.80001648032101
 31
0.0000000000003897
  0
LINE
  5
4D5
330
1F
100
AcDbEntity
  8
OBRYS
100
AcDbLine
 10
176.1051447075544
 20
55.79392348032098
 30
0.0000000000003897
 11
175.9305157075544
 21
55.76394148032099
 31
0.0000000000003897
  0
LINE
  5
4D6
330
1F
100
AcDbEntity
  8
OBRYS
100
AcDbLine
 10
175.7441467075544
 20
54.22153048032101
 30
0.0000000000003897
 11
175.9305157075544
 21
54.25760448032099
 31
0.0000000000003897
  0
LINE
  5
4D7
330
1F
100
AcDbEntity
  8
OBRYS
100
AcDbLine
 10
175.9305157075544
 20
54.25760448032099
 30
0.0000000000003897
 11
176.1051447075544
 21
54.227623480321
 31
0.0000000000003897
  0
LINE
  5
4E0
330
1F
100
AcDbEntity
  8
OBRYS
100
AcDbLine
 10
174.7353477075544
 20
54.568773480321
 30
0.0000000000003897
 11
173.4301237075545
 21
54.568773480321
 31
0.0000000000003897
  0
LINE
  5
4E1
330
1F
100
AcDbEntity
  8
OBRYS
100
AcDbLine
 10
173.4301237075545
 20
55.45277348032099
 30
0.0000000000003897
 11
174.7353477075544
 21
55.45277348032099
 31
0.0000000000003897
  0
LINE
  5
4E2
330
1F
100
AcDbEntity
  8
OBRYS
100
AcDbLine
 10
174.7353477075544
 20
55.52865048032101
 30
0.0000000000003897
 11
171.4809427075544
 21
55.52865048032101
 31
0.0000000000003897
  0
LINE
  5
4E3
330
1F
100
AcDbEntity
  8
OBRYS
100
AcDbLine
 10
171.4809427075544
 20
54.49289648032101
 30
0.0000000000003897
 11
174.7353477075544
 21
54.49289648032101
 31
0.0000000000003897
  0
LINE
  5
4E4
330
1F
100
AcDbEntity
  8
OBRYS
100
AcDbLine
 10
174.6138597075544
 20
55.80065748032101
 30
0.0000000000003897
 11
174.4241787075545
 21
55.76394148032099
 31
0.0000000000003897
  0
LINE
  5
4E5
330
1F
100
AcDbEntity
  8
OBRYS
100
AcDbLine
 10
174.4241787075545
 20
54.25760448032099
 30
0.0000000000003897
 11
174.6138597075544
 21
54.22088948032101
 31
0.0000000000003897
  0
LINE
  5
4E6
330
1F
100
AcDbEntity
  8
OBRYS
100
AcDbLine
 10
174.4241787075545
 20
55.76394148032099
 30
0.0000000000003897
 11
174.2443847075544
 21
55.79481048032099
 31
0.0000000000003897
  0
LINE
  5
4E7
330
1F
100
AcDbEntity
  8
OBRYS
100
AcDbLine
 10
174.2443847075544
 20
54.22673648032099
 30
0.0000000000003897
 11
174.4241787075545
 21
54.25760448032099
 31
0.0000000000003897
  0
LINE
  5
4E8
330
1F
100
AcDbEntity
  8
OBRYS
100
AcDbLine
 10
184.0122577075545
 20
68.37586348032099
 30
0.0000000000003897
 11
184.0122577075545
 21
110.245683480321
 31
0.0000000000003897
  0
LINE
  5
4E9
330
1F
100
AcDbEntity
  8
OBRYS
100
AcDbLine
 10
149.8424377075544
 20
66.87586348032099
 30
0.0000000000003897
 11
182.5122577075545
 21
66.87586348032099
 31
0.0000000000003897
  0
LINE
  5
4EA
330
1F
100
AcDbEntity
  8
OBRYS
100
AcDbLine
 10
182.5122577075545
 20
111.745683480321
 30
0.0000000000003897
 11
149.8424377075544
 21
111.745683480321
 31
0.0000000000003897
  0
LINE
  5
4EB
330
1F
100
AcDbEntity
  8
OBRYS
100
AcDbLine
 10
153.5273477075544
 20
65.210773480321
 30
0.0000000000003897
 11
178.8273477075545
 21
65.210773480321
 31
0.0000000000003897
  0
LINE
  5
4EC
330
1F
100
AcDbEntity
  8
OBRYS
100
AcDbLine
 10
178.8273477075545
 20
113.410773480321
 30
0.0000000000003897
 11
153.5273477075544
 21
113.410773480321
 31
0.0000000000003897
  0
LINE
  5
4ED
330
1F
100
AcDbEntity
  8
OBRYS
100
AcDbLine
 10
172.5693037075544
 20
114.310583480321
 30
0.0000000000003897
 11
172.5772257075544
 21
113.410773480321
 31
0.0000000000003897
  0
LINE
  5
4EE
330
1F
100
AcDbEntity
  8
OBRYS
100
AcDbLine
 10
172.5693037075544
 20
64.31096448032099
 30
0.0000000000003897
 11
172.5772257075544
 21
65.210773480321
 31
0.0000000000003897
  0
LINE
  5
4EF
330
1F
100
AcDbEntity
  8
OBRYS
100
AcDbLine
 10
172.5693037075544
 20
114.310583480321
 30
0.0000000000003897
 11
169.7853907075544
 21
114.310583480321
 31
0.0000000000003897
  0
LINE
  5
4F0
330
1F
100
AcDbEntity
  8
OBRYS
100
AcDbLine
 10
172.5693037075544
 20
64.31096448032099
 30
0.0000000000003897
 11
169.7853907075544
 21
64.31096448032099
 31
0.0000000000003897
  0
LINE
  5
4F1
330
1F
100
AcDbEntity
  8
OBRYS
100
AcDbLine
 10
169.7853907075544
 20
64.31096448032099
 30
0.0000000000003897
 11
169.7774697075544
 21
65.210773480321
 31
0.0000000000003897
  0
LINE
  5
4F2
330
1F
100
AcDbEntity
  8
OBRYS
100
AcDbLine
 10
169.7853907075544
 20
114.310583480321
 30
0.0000000000003897
 11
169.7774697075544
 21
113.410773480321
 31
0.0000000000003897
  0
LINE
  5
4F3
330
1F
100
AcDbEntity
  8
OBRYS
100
AcDbLine
 10
167.5693037075544
 20
114.310583480321
 30
0.0000000000003897
 11
167.5772257075544
 21
113.410773480321
 31
0.0000000000003897
  0
LINE
  5
4F4
330
1F
100
AcDbEntity
  8
OBRYS
100
AcDbLine
 10
167.5693037075544
 20
64.31096448032099
 30
0.0000000000003897
 11
167.5772257075544
 21
65.210773480321
 31
0.0000000000003897
  0
LINE
  5
4F5
330
1F
100
AcDbEntity
  8
OBRYS
100
AcDbLine
 10
167.5693037075544
 20
114.310583480321
 30
0.0000000000003897
 11
164.7853907075544
 21
114.310583480321
 31
0.0000000000003897
  0
LINE
  5
4F6
330
1F
100
AcDbEntity
  8
OBRYS
100
AcDbLine
 10
167.5693037075544
 20
64.31096448032099
 30
0.0000000000003897
 11
164.7853907075544
 21
64.31096448032099
 31
0.0000000000003897
  0
LINE
  5
4F7
330
1F
100
AcDbEntity
  8
OBRYS
100
AcDbLine
 10
164.7853907075544
 20
64.31096448032099
 30
0.0000000000003897
 11
164.7774697075544
 21
65.210773480321
 31
0.0000000000003897
  0
LINE
  5
4F8
330
1F
100
AcDbEntity
  8
OBRYS
100
AcDbLine
 10
164.7853907075544
 20
114.310583480321
 30
0.0000000000003897
 11
164.7774697075544
 21
113.410773480321
 31
0.0000000000003897
  0
LINE
  5
4F9
330
1F
100
AcDbEntity
  8
OBRYS
100
AcDbLine
 10
162.5693037075544
 20
114.310583480321
 30
0.0000000000003897
 11
162.5772257075544
 21
113.410773480321
 31
0.0000000000003897
  0
LINE
  5
4FA
330
1F
100
AcDbEntity
  8
OBRYS
100
AcDbLine
 10
162.5693037075544
 20
64.31096448032099
 30
0.0000000000003897
 11
162.5772257075544
 21
65.210773480321
 31
0.0000000000003897
  0
LINE
  5
4FB
330
1F
100
AcDbEntity
  8
OBRYS
100
AcDbLine
 10
159.7853907075544
 20
64.31096448032099
 30
0.0000000000003897
 11
162.5693037075544
 21
64.31096448032099
 31
0.0000000000003897
  0
LINE
  5
4FC
330
1F
100
AcDbEntity
  8
OBRYS
100
AcDbLine
 10
162.5693037075544
 20
114.310583480321
 30
0.0000000000003897
 11
159.7853907075544
 21
114.310583480321
 31
0.0000000000003897
  0
LINE
  5
4FD
330
1F
100
AcDbEntity
  8
OBRYS
100
AcDbLine
 10
159.7853907075544
 20
114.310583480321
 30
0.0000000000003897
 11
159.7774697075544
 21
113.410773480321
 31
0.0000000000003897
  0
LINE
  5
4FE
330
1F
100
AcDbEntity
  8
OBRYS
100
AcDbLine
 10
159.7853907075544
 20
64.31096448032099
 30
0.0000000000003897
 11
159.7774697075544
 21
65.210773480321
 31
0.0000000000003897
  0
LINE
  5
4FF
330
1F
100
AcDbEntity
  8
OBRYS
100
AcDbLine
 10
153.5273477075544
 20
113.410773480321
 30
0.0000000000003897
 11
153.5273477075544
 21
111.745683480321
 31
0.0000000000003897
  0
LINE
  5
500
330
1F
100
AcDbEntity
  8
OBRYS
100
AcDbLine
 10
153.5273477075544
 20
65.210773480321
 30
0.0000000000003897
 11
153.5273477075544
 21
66.87586348032099
 31
0.0000000000003897
  0
LINE
  5
501
330
1F
100
AcDbEntity
  8
OBRYS
100
AcDbLine
 10
148.3424377075544
 20
110.245683480321
 30
0.0000000000003897
 11
148.3424377075544
 21
68.37586348032099
 31
0.0000000000003897
  0
LINE
  5
50C
330
1F
100
AcDbEntity
  8
OBRYS
100
AcDbLine
 10
178.8273477075545
 20
65.210773480321
 30
0.0000000000003897
 11
178.8273477075545
 21
66.87586348032099
 31
0.0000000000003897
  0
LINE
  5
50D
330
1F
100
AcDbEntity
  8
OBRYS
100
AcDbLine
 10
178.8273477075545
 20
113.410773480321
 30
0.0000000000003897
 11
178.8273477075545
 21
111.745683480321
 31
0.0000000000003897
  0
ARC
  5
50E
330
1F
100
AcDbEntity
  8
OBRYS
100
AcDbCircle
 10
65.09242470755441
 20
122.001080480321
 30
0.0000000000003897
 40
12.5
100
AcDbArc
 50
108.990028
 51
131.0099719999999
  0
ARC
  5
50F
330
1F
100
AcDbEntity
  8
OBRYS
100
AcDbCircle
 10
-65.09242470755441
 20
122.001080480321
 30
-0.0000000000003866
 40
11.7
210
-2.100000000000000E-15
220
0.0
230
-1.0
100
AcDbArc
 50
52.06319900000005
 51
67.9368010000001
  0
ARC
  5
510
330
1F
100
AcDbEntity
  8
OBRYS
100
AcDbCircle
 10
57.02128370755442
 20
131.282604480321
 30
0.0000000000003897
 40
0.2
100
AcDbArc
 50
131.0099720000017
 51
204.9999999999995
  0
ARC
  5
511
330
1F
100
AcDbEntity
  8
OBRYS
100
AcDbCircle
 10
61.08996070755443
 20
133.631656480321
 30
0.0000000000003897
 40
0.2
100
AcDbArc
 50
34.99999999999807
 51
108.9900279999988
  0
ARC
  5
512
330
1F
100
AcDbEntity
  8
OBRYS
100
AcDbCircle
 10
-61.65280470755444
 20
133.525211480321
 30
-0.0000000000003866
 40
0.2
210
-2.100000000000000E-15
220
0.0
230
-1.0
100
AcDbArc
 50
239.9999999999992
 51
325.0000000000032
  0
ARC
  5
513
330
1F
100
AcDbEntity
  8
OBRYS
100
AcDbCircle
 10
62.05389870755434
 20
133.0639624803211
 30
0.0000000000003897
 40
0.400000000000081
100
AcDbArc
 50
300.0000000000043
 51
339.7579965451836
  0
ARC
  5
514
330
1F
100
AcDbEntity
  8
OBRYS
100
AcDbCircle
 10
61.44168670755443
 20
132.710502480321
 30
0.0000000000003897
 40
0.4
100
AcDbArc
 50
210.9999999999983
 51
300.0000000000005
  0
ARC
  5
515
330
1F
100
AcDbEntity
  8
OBRYS
100
AcDbCircle
 10
57.51500697332109
 20
130.4855070891971
 30
0.0000000000003897
 40
0.5286693405166166
100
AcDbArc
 50
308.3687457588292
 51
25.28912051865666
  0
ARC
  5
516
330
1F
100
AcDbEntity
  8
OBRYS
100
AcDbCircle
 10
-56.83204570755442
 20
130.741945480321
 30
-0.0000000000003866
 40
0.2
210
-2.100000000000000E-15
220
0.0
230
-1.0
100
AcDbArc
 50
155.0000000000005
 51
240.0000000000033
  0
ARC
  5
517
330
1F
100
AcDbEntity
  8
OBRYS
100
AcDbCircle
 10
-60.77269070755443
 20
132.658936480321
 30
-0.0000000000003866
 40
0.2
210
-2.100000000000000E-15
220
0.0
230
-1.0
100
AcDbArc
 50
67.9368009999989
 51
149.0000000000012
  0
ARC
  5
518
330
1F
100
AcDbEntity
  8
OBRYS
100
AcDbCircle
 10
57.07240128215904
 20
130.1348749485821
 30
0.0000000000003897
 40
0.4464262701889549
100
AcDbArc
 50
122.7415095575936
 51
156.8940974139053
  0
ARC
  5
519
330
1F
100
AcDbEntity
  8
OBRYS
100
AcDbCircle
 10
-58.02231770755442
 20
131.071008480321
 30
-0.0000000000003866
 40
0.2
210
-2.100000000000000E-15
220
0.0
230
-1.0
100
AcDbArc
 50
331.0000000000043
 51
52.06319899999946
  0
ARC
  5
51C
330
1F
100
AcDbEntity
  8
OBRYS
100
AcDbCircle
 10
-56.16637470755443
 20
66.124777480321
 30
-0.0000000000003866
 40
0.2
210
-2.100000000000000E-15
220
0.0
230
-1.0
100
AcDbArc
 50
0.0
 51
84.79999999999944
  0
ARC
  5
51D
330
1F
100
AcDbEntity
  8
OBRYS
100
AcDbCircle
 10
-56.77438670755444
 20
130.419980480321
 30
-0.0000000000003897
 40
0.15
210
0.0
220
0.0
230
-1.0
100
AcDbArc
 50
330.0000000000043
 51
59.99999999999959
  0
ARC
  5
51E
330
1F
100
AcDbEntity
  8
OBRYS
100
AcDbCircle
 10
-57.12438670755443
 20
129.713763480321
 30
-0.0000000000003897
 40
0.15
210
0.0
220
0.0
230
-1.0
100
AcDbArc
 50
240.000000000002
 51
330.0000000000057
  0
ARC
  5
51F
330
1F
100
AcDbEntity
  8
OBRYS
100
AcDbCircle
 10
60.29850470755443
 20
130.316029480321
 30
0.0000000000003897
 40
1.602083333333346
100
AcDbArc
 50
68.7179879999999
 51
171.2820119999999
  0
ARC
  5
520
330
1F
100
AcDbEntity
  8
OBRYS
100
AcDbCircle
 10
-62.32053970755444
 20
132.813763480321
 30
-0.0000000000003897
 40
0.15
210
0.0
220
0.0
230
-1.0
100
AcDbArc
 50
150.0000000000057
 51
240.000000000002
  0
ARC
  5
521
330
1F
100
AcDbEntity
  8
OBRYS
100
AcDbCircle
 10
-61.97053970755444
 20
133.419980480321
 30
-0.0000000000003897
 40
0.15
210
0.0
220
0.0
230
-1.0
100
AcDbArc
 50
60.00000000000195
 51
150.0000000000057
  0
ARC
  5
522
330
1F
100
AcDbEntity
  8
OBRYS
100
AcDbCircle
 10
56.16637470755443
 20
47.934969480321
 30
0.0000000000003897
 40
0.2
100
AcDbArc
 50
180.0
 51
240.0000000000013
  0
ARC
  5
523
330
1F
100
AcDbEntity
  8
OBRYS
100
AcDbCircle
 10
-56.16637470755443
 20
130.704029480321
 30
-0.0000000000003897
 40
0.2
210
0.0
220
0.0
230
-1.0
100
AcDbArc
 50
0.0
 51
60.0000000000033
  0
ARC
  5
524
330
1F
100
AcDbEntity
  8
OBRYS
100
AcDbCircle
 10
-56.16637470755443
 20
112.514222480321
 30
-0.0000000000003866
 40
0.2
210
-2.100000000000000E-15
220
0.0
230
-1.0
100
AcDbArc
 50
275.2000000000006
 51
0.0
  0
ARC
  5
525
330
1F
100
AcDbEntity
  8
OBRYS
100
AcDbCircle
 10
62.06702770755442
 20
134.110773480321
 30
0.0000000000003897
 40
0.2
100
AcDbArc
 50
90.0
 51
119.9999999999967
  0
ARC
  5
526
330
1F
100
AcDbEntity
  8
OBRYS
100
AcDbCircle
 10
85.78035570755446
 20
111.421242480321
 30
0.0000000000003897
 40
0.5
100
AcDbArc
 50
0.0
 51
89.79999999999941
  0
ARC
  5
527
330
1F
100
AcDbEntity
  8
OBRYS
100
AcDbCircle
 10
85.78035570755446
 20
67.21775748032098
 30
0.0000000000003897
 40
0.5
100
AcDbArc
 50
270.2000000000006
 51
0.0
  0
ARC
  5
528
330
1F
100
AcDbEntity
  8
OBRYS
100
AcDbCircle
 10
62.09725670755441
 20
44.51077348032101
 30
0.0000000000003897
 40
0.2
100
AcDbArc
 50
240.0000000000023
 51
270.0
  0
ARC
  5
529
330
1F
100
AcDbEntity
  8
OBRYS
100
AcDbCircle
 10
-104.7733747075544
 20
44.51077348032101
 30
-0.0000000000003866
 40
0.2
210
-2.100000000000000E-15
220
0.0
230
-1.0
100
AcDbArc
 50
180.0
 51
270.0
  0
ARC
  5
52A
330
1F
100
AcDbEntity
  8
OBRYS
100
AcDbCircle
 10
105.2733747075544
 20
134.110773480321
 30
0.0000000000003897
 40
0.2
100
AcDbArc
 50
0.0
 51
90.0
  0
ARC
  5
52B
330
1F
100
AcDbEntity
  8
OBRYS
100
AcDbCircle
 10
-157.1773477075544
 20
55.01077348032101
 30
-0.0000000000003866
 40
0.9709101023624203
210
-2.100000000000000E-15
220
0.0
230
-1.0
100
AcDbArc
 50
62.91943099999943
 51
117.0805690000006
  0
ARC
  5
52C
330
1F
100
AcDbEntity
  8
OBRYS
100
AcDbCircle
 10
-157.1773477075544
 20
55.01077348032101
 30
-0.0000000000003866
 40
0.9709101023624203
210
-2.100000000000000E-15
220
0.0
230
-1.0
100
AcDbArc
 50
242.9194309999994
 51
297.0805689999991
  0
ARC
  5
52D
330
1F
100
AcDbEntity
  8
OBRYS
100
AcDbCircle
 10
-157.1773477075544
 20
55.01077348032101
 30
-0.0000000000003866
 40
0.9709101023624203
210
-2.100000000000000E-15
220
0.0
230
-1.0
100
AcDbArc
 50
332.9194309999994
 51
0.0
  0
ARC
  5
52E
330
1F
100
AcDbEntity
  8
OBRYS
100
AcDbCircle
 10
-157.1773477075544
 20
55.01077348032101
 30
-0.0000000000003866
 40
0.9709101023624203
210
-2.100000000000000E-15
220
0.0
230
-1.0
100
AcDbArc
 50
0.0
 51
27.08056900000059
  0
ARC
  5
52F
330
1F
100
AcDbEntity
  8
OBRYS
100
AcDbCircle
 10
-157.1773477075544
 20
55.01077348032101
 30
-0.0000000000003866
 40
0.9709101023624203
210
-2.100000000000000E-15
220
0.0
230
-1.0
100
AcDbArc
 50
152.9194310000002
 51
207.0805689999998
  0
ARC
  5
530
330
1F
100
AcDbEntity
  8
OBRYS
100
AcDbCircle
 10
-157.1773477075544
 20
123.610773480321
 30
-0.0000000000003897
 40
0.9709101023624203
210
0.0
220
0.0
230
-1.0
100
AcDbArc
 50
242.9194309999994
 51
297.0805689999991
  0
ARC
  5
531
330
1F
100
AcDbEntity
  8
OBRYS
100
AcDbCircle
 10
-157.1773477075544
 20
123.610773480321
 30
-0.0000000000003897
 40
0.9709101023624203
210
0.0
220
0.0
230
-1.0
100
AcDbArc
 50
62.91943099999943
 51
117.0805690000006
  0
ARC
  5
532
330
1F
100
AcDbEntity
  8
OBRYS
100
AcDbCircle
 10
-157.1773477075544
 20
123.610773480321
 30
-0.0000000000003897
 40
0.9709101023624203
210
0.0
220
0.0
230
-1.0
100
AcDbArc
 50
332.9194309999991
 51
27.08056900000096
  0
ARC
  5
533
330
1F
100
AcDbEntity
  8
OBRYS
100
AcDbCircle
 10
-157.1773477075544
 20
123.610773480321
 30
-0.0000000000003897
 40
0.9709101023624203
210
0.0
220
0.0
230
-1.0
100
AcDbArc
 50
180.0
 51
207.0805689999995
  0
ARC
  5
534
330
1F
100
AcDbEntity
  8
OBRYS
100
AcDbCircle
 10
-157.1773477075544
 20
123.610773480321
 30
-0.0000000000003897
 40
0.9709101023624203
210
0.0
220
0.0
230
-1.0
100
AcDbArc
 50
152.9194309999998
 51
180.0
  0
ARC
  5
538
330
1F
100
AcDbEntity
  8
OBRYS
100
AcDbCircle
 10
-175.1773477075544
 20
123.610773480321
 30
-0.0000000000003897
 40
0.9709101023624203
210
0.0
220
0.0
230
-1.0
100
AcDbArc
 50
242.9194309999994
 51
297.0805690000006
  0
ARC
  5
539
330
1F
100
AcDbEntity
  8
OBRYS
100
AcDbCircle
 10
-175.1773477075544
 20
123.610773480321
 30
-0.0000000000003897
 40
0.9709101023624203
210
0.0
220
0.0
230
-1.0
100
AcDbArc
 50
62.91943099999943
 51
117.0805690000006
  0
ARC
  5
53A
330
1F
100
AcDbEntity
  8
OBRYS
100
AcDbCircle
 10
-175.1773477075544
 20
123.610773480321
 30
-0.0000000000003897
 40
0.9709101023624203
210
0.0
220
0.0
230
-1.0
100
AcDbArc
 50
332.9194309999991
 51
27.08056900000096
  0
ARC
  5
53B
330
1F
100
AcDbEntity
  8
OBRYS
100
AcDbCircle
 10
-175.1773477075544
 20
123.610773480321
 30
-0.0000000000003897
 40
0.9709101023624203
210
0.0
220
0.0
230
-1.0
100
AcDbArc
 50
180.0
 51
207.0805689999987
  0
ARC
  5
53C
330
1F
100
AcDbEntity
  8
OBRYS
100
AcDbCircle
 10
-175.1773477075544
 20
123.610773480321
 30
-0.0000000000003897
 40
0.9709101023624203
210
0.0
220
0.0
230
-1.0
100
AcDbArc
 50
152.9194310000006
 51
180.0
  0
ARC
  5
53D
330
1F
100
AcDbEntity
  8
OBRYS
100
AcDbCircle
 10
-175.1773477075544
 20
123.610773480321
 30
-0.0000000000003866
 40
6.044257350612379
210
-2.100000000000000E-15
220
0.0
230
-1.0
100
AcDbArc
 50
90.0
 51
180.0
  0
ARC
  5
53F
330
1F
100
AcDbEntity
  8
OBRYS
100
AcDbCircle
 10
-175.1773477075544
 20
123.610773480321
 30
-0.0000000000003897
 40
4.844257350612378
210
0.0
220
0.0
230
-1.0
100
AcDbArc
 50
90.0
 51
180.0
  0
CIRCLE
  5
541
330
1F
100
AcDbEntity
  8
OBRYS
100
AcDbCircle
 10
-175.1773477075544
 20
123.610773480321
 30
-0.0000000000003866
 40
4.33560598217022
210
-2.100000000000000E-15
220
0.0
230
-1.0
  0
CIRCLE
  5
542
330
1F
100
AcDbEntity
  8
OBRYS
100
AcDbCircle
 10
-175.1773477075544
 20
55.01077348032101
 30
-0.0000000000003866
 40
4.335605982170218
210
-2.100000000000000E-15
220
0.0
230
-1.0
  0
CIRCLE
  5
543
330
1F
100
AcDbEntity
  8
OBRYS
100
AcDbCircle
 10
175.1773477075544
 20
55.01077348032101
 30
0.0000000000003897
 40
3.732544935071781
  0
CIRCLE
  5
544
330
1F
100
AcDbEntity
  8
OBRYS
100
AcDbCircle
 10
175.1773477075544
 20
123.610773480321
 30
0.0000000000003897
 40
3.732544935071782
  0
CIRCLE
  5
545
330
1F
100
AcDbEntity
  8
OBRYS
100
AcDbCircle
 10
-157.1773477075544
 20
123.610773480321
 30
-0.0000000000003866
 40
4.335605982170251
210
-2.100000000000000E-15
220
0.0
230
-1.0
  0
CIRCLE
  5
546
330
1F
100
AcDbEntity
  8
OBRYS
100
AcDbCircle
 10
-157.1773477075544
 20
55.01077348032101
 30
-0.0000000000003866
 40
4.335605982170248
210
-2.100000000000000E-15
220
0.0
230
-1.0
  0
CIRCLE
  5
547
330
1F
100
AcDbEntity
  8
OBRYS
100
AcDbCircle
 10
157.1773477075544
 20
123.610773480321
 30
0.0000000000003897
 40
3.73254493507181
  0
CIRCLE
  5
548
330
1F
100
AcDbEntity
  8
OBRYS
100
AcDbCircle
 10
157.1773477075544
 20
55.01077348032101
 30
0.0000000000003897
 40
3.73254493507181
  0
ARC
  5
549
330
1F
100
AcDbEntity
  8
OBRYS
100
AcDbCircle
 10
-157.1773477075544
 20
55.01077348032101
 30
-0.0000000000003866
 40
6.044257350612402
210
-2.100000000000000E-15
220
0.0
230
-1.0
100
AcDbArc
 50
270.0
 51
0.0
  0
ARC
  5
54B
330
1F
100
AcDbEntity
  8
OBRYS
100
AcDbCircle
 10
-157.1773477075544
 20
55.01077348032101
 30
-0.0000000000003897
 40
4.844257350612402
210
0.0
220
0.0
230
-1.0
100
AcDbArc
 50
270.0
 51
0.0
  0
ARC
  5
54D
330
1F
100
AcDbEntity
  8
OBRYS
100
AcDbCircle
 10
-148.3773477075545
 20
134.110773480321
 30
-0.0000000000003864
 40
0.2
210
-2.100000000000000E-15
220
0.0
230
-1.0
100
AcDbArc
 50
0.0
 51
90.0
  0
ARC
  5
54E
330
1F
100
AcDbEntity
  8
OBRYS
100
AcDbCircle
 10
-148.3773477075545
 20
44.51077348032101
 30
-0.0000000000003864
 40
0.2
210
-2.100000000000000E-15
220
0.0
230
-1.0
100
AcDbArc
 50
270.0
 51
0.0
  0
ARC
  5
54F
330
1F
100
AcDbEntity
  8
OBRYS
100
AcDbCircle
 10
-175.1773477075544
 20
55.01077348032101
 30
-0.0000000000003866
 40
0.9709101023624203
210
-2.100000000000000E-15
220
0.0
230
-1.0
100
AcDbArc
 50
62.91943099999943
 51
117.0805690000006
  0
ARC
  5
550
330
1F
100
AcDbEntity
  8
OBRYS
100
AcDbCircle
 10
-175.1773477075544
 20
55.01077348032101
 30
-0.0000000000003866
 40
0.9709101023624203
210
-2.100000000000000E-15
220
0.0
230
-1.0
100
AcDbArc
 50
242.9194309999994
 51
297.0805690000006
  0
ARC
  5
551
330
1F
100
AcDbEntity
  8
OBRYS
100
AcDbCircle
 10
-175.1773477075544
 20
55.01077348032101
 30
-0.0000000000003866
 40
0.9709101023624203
210
-2.100000000000000E-15
220
0.0
230
-1.0
100
AcDbArc
 50
332.9194309999994
 51
0.0
  0
ARC
  5
552
330
1F
100
AcDbEntity
  8
OBRYS
100
AcDbCircle
 10
-175.1773477075544
 20
55.01077348032101
 30
-0.0000000000003866
 40
0.9709101023624203
210
-2.100000000000000E-15
220
0.0
230
-1.0
100
AcDbArc
 50
0.0
 51
27.08056900000059
  0
ARC
  5
553
330
1F
100
AcDbEntity
  8
OBRYS
100
AcDbCircle
 10
-175.1773477075544
 20
55.01077348032101
 30
-0.0000000000003866
 40
0.9709101023624203
210
-2.100000000000000E-15
220
0.0
230
-1.0
100
AcDbArc
 50
152.9194310000009
 51
207.0805689999991
  0
ARC
  5
554
330
1F
100
AcDbEntity
  8
OBRYS
100
AcDbCircle
 10
-183.9773477075544
 20
134.110773480321
 30
-0.0000000000003868
 40
0.2
210
-2.100000000000000E-15
220
0.0
230
-1.0
100
AcDbArc
 50
90.0
 51
180.0
  0
ARC
  5
555
330
1F
100
AcDbEntity
  8
OBRYS
100
AcDbCircle
 10
-183.9773477075544
 20
44.51077348032101
 30
-0.0000000000003868
 40
0.2
210
-2.100000000000000E-15
220
0.0
230
-1.0
100
AcDbArc
 50
180.0
 51
270.0
  0
LINE
  5
556
330
1F
100
AcDbEntity
  8
OBRYS
100
AcDbLine
 10
57.00249570755442
 20
130.724884480321
 30
0.0000000000003897
 11
56.70249520957756
 21
131.244499552941
 31
0.0000000000003897
  0
ARC
  5
557
330
1F
100
AcDbEntity
  8
OBRYS
100
AcDbCircle
 10
62.0538987075544
 20
133.063962480321
 30
0.0000000000003897
 40
0.4
100
AcDbArc
 50
80.24206751557165
 51
120.0000000000005
  0
ARC
  5
558
330
1F
100
AcDbEntity
  8
OBRYS
100
AcDbCircle
 10
57.07240128215923
 20
130.1348749485819
 30
0.0000000000003897
 40
0.4464262701892023
100
AcDbArc
 50
255.8317839779164
 51
290.8029310071372
  0
LINE
  5
55F
330
1F
100
AcDbEntity
  8
OBRYS
100
AcDbLine
 10
33.77335544347697
 20
68.85399048032102
 30
0.0000000000004002
 11
33.77335544347697
 21
109.7675904803208
 31
0.0000000000004002
  0
LINE
  5
560
330
1F
100
AcDbEntity
  8
OBRYS
100
AcDbLine
 10
85.68035588871055
 20
111.7675600962883
 30
0.0000000000003897
 11
35.77335666110306
 21
111.7675904803204
 31
0.0000000000003998
  0
ARC
  5
561
330
1F
100
AcDbEntity
  8
OBRYS
100
AcDbCircle
 10
35.77335544347697
 20
109.7675904803208
 30
0.0000000000003998
 40
1.999999999999999
100
AcDbArc
 50
89.99996511758215
 51
179.9999999999996
  0
LINE
  5
562
330
1F
100
AcDbEntity
  8
OBRYS
100
AcDbLine
 10
85.68035547995012
 20
66.85398686435386
 30
0.0000000000003897
 11
35.77335529856876
 21
66.85399048032102
 31
0.0000000000003998
  0
ARC
  5
563
330
1F
100
AcDbEntity
  8
OBRYS
100
AcDbCircle
 10
35.77335544347697
 20
68.85399048032102
 30
0.0000000000003998
 40
2.0
100
AcDbArc
 50
179.9999999999998
 51
269.9999958486854
  0
LINE
  5
564
330
1F
100
AcDbEntity
  8
OBRYS
100
AcDbLine
 10
148.1773477075545
 20
44.51077348032101
 30
0.0000000000000752
 11
148.1773477075545
 21
134.110773480321
 31
0.0000000000000752
  0
LINE
  5
565
330
1F
100
AcDbEntity
  8
OBRYS
100
AcDbLine
 10
184.1773477075544
 20
134.110773480321
 30
0.0
 11
184.1773477075544
 21
44.51077348032101
 31
0.0
  0
ARC
  5
566
330
1F
100
AcDbEntity
  8
OBRYS
100
AcDbCircle
 10
179.1324557075544
 20
112.415045480321
 30
0.0000000000003897
 40
0.1000000000000001
100
AcDbArc
 50
180.0
 51
270.0
  0
ARC
  5
567
330
1F
100
AcDbEntity
  8
OBRYS
100
AcDbCircle
 10
153.2222387075544
 20
112.415045480321
 30
0.0000000000003897
 40
0.1000000000000001
100
AcDbArc
 50
270.0
 51
0.0
  0
ARC
  5
568
330
1F
100
AcDbEntity
  8
OBRYS
100
AcDbCircle
 10
153.2222387075544
 20
66.223954480321
 30
0.0000000000003892
 40
0.1000000000000001
100
AcDbArc
 50
0.0000000021011517
 51
90.0
  0
ARC
  5
569
330
1F
100
AcDbEntity
  8
OBRYS
100
AcDbCircle
 10
179.1324557075544
 20
66.223954480321
 30
0.0000000000003891
 40
0.1000000000000001
100
AcDbArc
 50
90.0
 51
179.9999999982582
  0
ARC
  5
56A
330
1F
100
AcDbEntity
  8
OBRYS
100
AcDbCircle
 10
175.1773638664916
 20
55.01077150384157
 30
0.0000000000061991
 40
1.802247899892943
100
AcDbArc
 50
345.8034911368061
 51
14.19663069496313
  0
ARC
  5
56B
330
1F
100
AcDbEntity
  8
OBRYS
100
AcDbCircle
 10
175.1773477075546
 20
55.01077348032098
 30
0.0000000000061692
 40
1.802264050070539
100
AcDbArc
 50
165.8035640043577
 51
194.1964359956414
  0
ARC
  5
56C
330
1F
100
AcDbEntity
  8
OBRYS
100
AcDbCircle
 10
157.1773640178843
 20
55.01077150384171
 30
0.0000000000056576
 40
1.802247753123796
100
AcDbArc
 50
345.8034899564294
 51
14.196631875341
  0
ARC
  5
56D
330
1F
100
AcDbEntity
  8
OBRYS
100
AcDbCircle
 10
157.1773477075544
 20
55.01077348032098
 30
0.0000000000055682
 40
1.802264050070261
100
AcDbArc
 50
165.803525020999
 51
194.1964359956436
  0
ARC
  5
56E
330
1F
100
AcDbEntity
  8
OBRYS
100
AcDbCircle
 10
175.1773477075545
 20
55.01077348032311
 30
0.0000000000114755
 40
2.414646625718543
100
AcDbArc
 50
79.44719447135438
 51
100.5474386333815
  0
ARC
  5
56F
330
1F
100
AcDbEntity
  8
OBRYS
100
AcDbCircle
 10
175.1740833049291
 20
54.97416801740209
 30
0.0000000000110297
 40
2.378064675643826
100
AcDbArc
 50
259.3684422501626
 51
280.7916487943237
  0
ARC
  5
570
330
1F
100
AcDbEntity
  8
OBRYS
100
AcDbCircle
 10
157.1773477075542
 20
123.610773480321
 30
0.0000000000003897
 40
1.802264050070098
100
AcDbArc
 50
165.8035640043542
 51
194.1964359956458
  0
ARC
  5
571
330
1F
100
AcDbEntity
  8
OBRYS
100
AcDbCircle
 10
157.1773641257702
 20
123.610771503839
 30
0.0000000000003897
 40
1.802247648533385
100
AcDbArc
 50
345.8034501315975
 51
14.19663271659416
  0
ARC
  5
572
330
1F
100
AcDbEntity
  8
OBRYS
100
AcDbCircle
 10
157.1773477075544
 20
123.6107734803212
 30
0.0000000000003897
 40
2.413432503255105
100
AcDbArc
 50
79.44719447136194
 51
100.5528055286381
  0
ARC
  5
573
330
1F
100
AcDbEntity
  8
OBRYS
100
AcDbCircle
 10
157.180715091939
 20
123.6478812766073
 30
0.0000000000003897
 40
2.450531865356576
100
AcDbArc
 50
259.5286900539018
 51
280.3112189016111
  0
ARC
  5
574
330
1F
100
AcDbEntity
  8
OBRYS
100
AcDbCircle
 10
175.1773477075541
 20
123.610773480321
 30
0.0000000000003897
 40
1.80226405007007
100
AcDbArc
 50
165.8035640043537
 51
194.1964359956463
  0
ARC
  5
575
330
1F
100
AcDbEntity
  8
OBRYS
100
AcDbCircle
 10
175.1773641471945
 20
123.610771503839
 30
0.0000000000003897
 40
1.802247627763395
100
AcDbArc
 50
345.8034499645572
 51
14.19663288363561
  0
ARC
  5
576
330
1F
100
AcDbEntity
  8
OBRYS
100
AcDbCircle
 10
175.1773477075544
 20
123.6107734803215
 30
0.0000000000003897
 40
2.41343250325477
100
AcDbArc
 50
79.44719447136045
 51
100.5528055286396
  0
ARC
  5
577
330
1F
100
AcDbEntity
  8
OBRYS
100
AcDbCircle
 10
175.1773477075544
 20
123.6107734803215
 30
0.0000000000003897
 40
2.41343250325572
100
AcDbArc
 50
259.4471944713646
 51
280.5528055286354
  0
LINE
  5
578
330
1F
100
AcDbEntity
  8
OBRYS
100
AcDbLine
 10
162.6775021624276
 20
114.5111040144508
 30
0.0000000000003897
 11
162.6768243808257
 21
113.7145795726698
 31
0.0000000000003897
  0
LINE
  5
579
330
1F
100
AcDbEntity
  8
OBRYS
100
AcDbLine
 10
164.676842252672
 20
114.5111040142964
 30
0.0000000000003897
 11
164.677520034283
 21
113.714579572671
 31
0.0000000000003897
  0
ARC
  5
57A
330
1F
100
AcDbEntity
  8
OBRYS
100
AcDbCircle
 10
182.5122577075545
 20
110.245683480321
 30
0.0000000000003897
 40
1.500000000000001
100
AcDbArc
 50
0.0
 51
90.0
  0
ARC
  5
57B
330
1F
100
AcDbEntity
  8
OBRYS
100
AcDbCircle
 10
149.8424377075544
 20
110.245683480321
 30
0.0000000000003897
 40
1.500000000000001
100
AcDbArc
 50
90.0
 51
180.0
  0
ARC
  5
57C
330
1F
100
AcDbEntity
  8
OBRYS
100
AcDbCircle
 10
162.7768243446222
 20
113.714494480321
 30
0.0000000000003897
 40
0.1
100
AcDbArc
 50
179.9512456695507
 51
270.0
  0
ARC
  5
57D
330
1F
100
AcDbEntity
  8
OBRYS
100
AcDbCircle
 10
164.5775200704865
 20
113.714494480321
 30
0.0000000000003897
 40
0.1
100
AcDbArc
 50
270.0
 51
0.0487543311170024
  0
ARC
  5
57E
330
1F
100
AcDbEntity
  8
OBRYS
100
AcDbCircle
 10
167.7768247075545
 20
113.714494480321
 30
0.0000000000003897
 40
0.1
100
AcDbArc
 50
180.000000003892
 51
270.0
  0
ARC
  5
57F
330
1F
100
AcDbEntity
  8
OBRYS
100
AcDbCircle
 10
169.5778707075542
 20
113.714494480321
 30
0.0000000000003897
 40
0.1
100
AcDbArc
 50
270.0
 51
0.0000140621024465
  0
ARC
  5
580
330
1F
100
AcDbEntity
  8
OBRYS
100
AcDbCircle
 10
172.7873007075544
 20
113.724620480321
 30
0.0000000000003897
 40
0.1000000000000001
100
AcDbArc
 50
180.0
 51
270.0
  0
ARC
  5
581
330
1F
100
AcDbEntity
  8
OBRYS
100
AcDbCircle
 10
159.5673937075545
 20
113.724620480321
 30
0.0000000000003897
 40
0.1000000000000001
100
AcDbArc
 50
270.0
 51
0.0
  0
LINE
  5
582
330
1F
100
AcDbEntity
  8
OBRYS
100
AcDbLine
 10
153.4992125076734
 20
124.2455891123932
 30
0.0000000000003976
 11
156.2495506217776
 21
124.393922313532
 31
0.0000000000003917
  0
LINE
  5
583
330
1F
100
AcDbEntity
  8
OBRYS
100
AcDbLine
 10
153.4992126281809
 20
122.9759588421433
 30
0.0000000000003897
 11
156.2495507427238
 21
122.8276256489204
 31
0.0000000000003897
  0
LINE
  5
584
330
1F
100
AcDbEntity
  8
OBRYS
100
AcDbLine
 10
160.8547332370738
 20
122.9715011288072
 30
0.0000000000003897
 11
158.110307673873
 21
122.8267358170544
 31
0.0000000000003897
  0
LINE
  5
585
330
1F
100
AcDbEntity
  8
OBRYS
100
AcDbLine
 10
160.8547334404949
 20
124.2500468184808
 30
0.0000000000003819
 11
158.1103078780346
 21
124.3948124676754
 31
0.0000000000003897
  0
LINE
  5
586
330
1F
100
AcDbEntity
  8
OBRYS
100
AcDbLine
 10
158.1103107075544
 20
124.394810480321
 30
0.0000000000003897
 11
158.3365970236813
 21
124.7700186509625
 31
0.0000000000003897
  0
LINE
  5
587
330
1F
100
AcDbEntity
  8
OBRYS
100
AcDbLine
 10
158.3365970236813
 20
124.7700186509625
 30
0.0000000000003897
 11
157.7408357075544
 21
124.400658480321
 31
0.0000000000003897
  0
LINE
  5
588
330
1F
100
AcDbEntity
  8
OBRYS
100
AcDbLine
 10
158.3365970236813
 20
122.4515283096795
 30
0.0000000000003897
 11
158.110307673873
 21
122.8267358170544
 31
0.0000000000003897
  0
LINE
  5
589
330
1F
100
AcDbEntity
  8
OBRYS
100
AcDbLine
 10
158.3365970236813
 20
122.4515283096795
 30
0.0000000000003897
 11
157.7408347075544
 21
122.820889480321
 31
0.0000000000003897
  0
LINE
  5
58A
330
1F
100
AcDbEntity
  8
OBRYS
100
AcDbLine
 10
156.0313832231996
 20
122.4648133280383
 30
0.0000000000003897
 11
156.2495507075544
 21
122.827624480321
 31
0.0000000000003897
  0
LINE
  5
58B
330
1F
100
AcDbEntity
  8
OBRYS
100
AcDbLine
 10
156.6105485142253
 20
122.8215319942882
 30
0.0000000000003897
 11
156.0313832231996
 21
122.4648133280383
 31
0.0000000000003897
  0
LINE
  5
58C
330
1F
100
AcDbEntity
  8
OBRYS
100
AcDbLine
 10
156.0313878066149
 20
124.7567379775228
 30
0.0000000000003897
 11
156.6105477075544
 21
124.400017480321
 31
0.0000000000003897
  0
LINE
  5
58D
330
1F
100
AcDbEntity
  8
OBRYS
100
AcDbLine
 10
156.0313878066149
 20
124.7567379775228
 30
0.0000000000003897
 11
156.2495506217776
 21
124.393922313532
 31
0.0000000000003917
  0
LINE
  5
58E
330
1F
100
AcDbEntity
  8
OBRYS
100
AcDbLine
 10
156.6105477075544
 20
124.400017480321
 30
0.0000000000003897
 11
156.7353477075544
 21
124.400017480321
 31
0.0000000000003897
  0
LINE
  5
58F
330
1F
100
AcDbEntity
  8
OBRYS
100
AcDbLine
 10
157.7408357075544
 20
124.400658480321
 30
0.0000000000003897
 11
157.6193477075544
 21
124.400658480321
 31
0.0000000000003897
  0
LINE
  5
590
330
1F
100
AcDbEntity
  8
OBRYS
100
AcDbLine
 10
156.6105485142253
 20
122.8215319942882
 30
0.0000000000003897
 11
156.7353477075544
 21
122.8215319942882
 31
0.0000000000003897
  0
LINE
  5
591
330
1F
100
AcDbEntity
  8
OBRYS
100
AcDbLine
 10
157.7408347075544
 20
122.820889480321
 30
0.0000000000003897
 11
157.6193477075544
 21
122.819621480321
 31
0.0000000000003897
  0
LINE
  5
592
330
1F
100
AcDbEntity
  8
OBRYS
100
AcDbLine
 10
171.4992125076733
 20
124.2455891123932
 30
0.0000000000003976
 11
174.2495530918296
 21
124.393925560498
 31
0.0000000000003897
  0
LINE
  5
593
330
1F
100
AcDbEntity
  8
OBRYS
100
AcDbLine
 10
171.4992126281809
 20
122.9759588421433
 30
0.0000000000003897
 11
174.2495523700147
 21
122.8276219486849
 31
0.0000000000003897
  0
LINE
  5
594
330
1F
100
AcDbEntity
  8
OBRYS
100
AcDbLine
 10
178.8547332370738
 20
122.9715011288072
 30
0.0000000000003897
 11
176.110307673873
 21
122.8267358170544
 31
0.0000000000003897
  0
LINE
  5
595
330
1F
100
AcDbEntity
  8
OBRYS
100
AcDbLine
 10
178.8547334404949
 20
124.2500468184808
 30
0.0000000000003819
 11
176.1103107075544
 21
124.394810480321
 31
0.0000000000003897
  0
LINE
  5
596
330
1F
100
AcDbEntity
  8
OBRYS
100
AcDbLine
 10
174.6105433305792
 20
124.4000166330804
 30
0.0000000000003897
 11
174.7353477075544
 21
124.401456480321
 31
0.0000000000003897
  0
LINE
  5
597
330
1F
100
AcDbEntity
  8
OBRYS
100
AcDbLine
 10
175.7408397870354
 20
124.4006576906636
 30
0.0000000000003897
 11
175.6193477075544
 21
124.4006576906636
 31
0.0000000000003897
  0
LINE
  5
598
330
1F
100
AcDbEntity
  8
OBRYS
100
AcDbLine
 10
174.6105487075544
 20
122.821530480321
 30
0.0000000000003897
 11
174.7353477075544
 21
122.820090480321
 31
0.0000000000003897
  0
LINE
  5
599
330
1F
100
AcDbEntity
  8
OBRYS
100
AcDbLine
 10
175.7408347075544
 20
122.820889480321
 30
0.0000000000003897
 11
175.6193477075544
 21
122.819621480321
 31
0.0000000000003897
  0
LINE
  5
59A
330
1F
100
AcDbEntity
  8
OBRYS
100
AcDbLine
 10
174.0313878066149
 20
124.7567379775228
 30
0.0000000000003897
 11
174.6105433305792
 21
124.4000166330804
 31
0.0000000000003897
  0
LINE
  5
59B
330
1F
100
AcDbEntity
  8
OBRYS
100
AcDbLine
 10
174.0313878066149
 20
124.7567379775228
 30
0.0000000000003897
 11
174.2495507075544
 21
124.393923480321
 31
0.0000000000003897
  0
LINE
  5
59C
330
1F
100
AcDbEntity
  8
OBRYS
100
AcDbLine
 10
176.3365922129085
 20
124.7700230818463
 30
0.0000000000003897
 11
175.7408397870354
 21
124.4006576906636
 31
0.0000000000003897
  0
LINE
  5
59D
330
1F
100
AcDbEntity
  8
OBRYS
100
AcDbLine
 10
176.3365922129085
 20
124.7700230818463
 30
0.0000000000003897
 11
176.1103107075544
 21
124.394810480321
 31
0.0000000000003897
  0
LINE
  5
59E
330
1F
100
AcDbEntity
  8
OBRYS
100
AcDbLine
 10
174.0313832231996
 20
122.4648133280383
 30
0.0000000000003897
 11
174.2495507075544
 21
122.827624480321
 31
0.0000000000003897
  0
LINE
  5
59F
330
1F
100
AcDbEntity
  8
OBRYS
100
AcDbLine
 10
174.0313832231996
 20
122.4648133280383
 30
0.0000000000003897
 11
174.6105487075544
 21
122.821530480321
 31
0.0000000000003897
  0
LINE
  5
5A0
330
1F
100
AcDbEntity
  8
OBRYS
100
AcDbLine
 10
176.3365922129085
 20
122.4515248787958
 30
0.0000000000003897
 11
175.7408347075544
 21
122.820889480321
 31
0.0000000000003897
  0
LINE
  5
5A1
330
1F
100
AcDbEntity
  8
OBRYS
100
AcDbLine
 10
176.3365922129085
 20
122.4515248787958
 30
0.0000000000003897
 11
176.110307673873
 21
122.8267358170544
 31
0.0000000000003897
  0
ARC
  5
5A2
330
1F
100
AcDbEntity
  8
OBRYS
100
AcDbCircle
 10
157.1773477075545
 20
55.01077348032251
 30
0.0000000000108864
 40
2.414646625719135
100
AcDbArc
 50
79.44719447135698
 51
100.5474386333789
  0
ARC
  5
5A3
330
1F
100
AcDbEntity
  8
OBRYS
100
AcDbCircle
 10
157.1740838998878
 20
54.97374215218372
 30
0.0000000000100569
 40
2.377646231961092
100
AcDbArc
 50
259.3665348271313
 51
280.7935562173557
  0
LINE
  5
5A4
330
1F
100
AcDbEntity
  8
OBRYS
100
AcDbLine
 10
153.4999621780351
 20
55.65004583183483
 30
0.0000000000003975
 11
156.2443849251129
 21
55.7948082577565
 31
0.0000000000003916
  0
LINE
  5
5A5
330
1F
100
AcDbEntity
  8
OBRYS
100
AcDbLine
 10
153.4999619746141
 20
54.37150114216118
 30
0.0000000000003897
 11
156.2443847209513
 21
54.22673870261769
 31
0.0000000000003897
  0
LINE
  5
5A6
330
1F
100
AcDbEntity
  8
OBRYS
100
AcDbLine
 10
156.2443847075544
 20
54.22673648032099
 30
0.0000000000003897
 11
156.0180983914276
 21
53.85152830967954
 31
0.0000000000003897
  0
LINE
  5
5A7
330
1F
100
AcDbEntity
  8
OBRYS
100
AcDbLine
 10
156.0180983914276
 20
53.85152830967954
 30
0.0000000000003897
 11
156.6138597075544
 21
54.22088948032101
 31
0.0000000000003897
  0
LINE
  5
5A8
330
1F
100
AcDbEntity
  8
OBRYS
100
AcDbLine
 10
156.6138597075544
 20
54.22088948032101
 30
0.0000000000003897
 11
156.7353477075544
 21
54.219621480321
 31
0.0000000000003897
  0
LINE
  5
5A9
330
1F
100
AcDbEntity
  8
OBRYS
100
AcDbLine
 10
156.0180983914277
 20
56.17001865096245
 30
0.0000000000003897
 11
156.2443847075544
 21
55.79481048032099
 31
0.0000000000003897
  0
LINE
  5
5AA
330
1F
100
AcDbEntity
  8
OBRYS
100
AcDbLine
 10
156.0180983914277
 20
56.17001865096245
 30
0.0000000000003897
 11
156.6138597075544
 21
55.80065748032101
 31
0.0000000000003897
  0
LINE
  5
5AB
330
1F
100
AcDbEntity
  8
OBRYS
100
AcDbLine
 10
156.6138597075544
 20
55.80065748032101
 30
0.0000000000003897
 11
156.7353477075544
 21
55.80192548032099
 31
0.0000000000003897
  0
LINE
  5
5AC
330
1F
100
AcDbEntity
  8
OBRYS
100
AcDbLine
 10
158.3233111919093
 20
56.1567336326037
 30
0.0000000000003897
 11
158.1051446723851
 21
55.79392131172162
 31
0.0000000000003877
  0
LINE
  5
5AD
330
1F
100
AcDbEntity
  8
OBRYS
100
AcDbLine
 10
158.3233111919093
 20
56.1567336326037
 30
0.0000000000003897
 11
157.7441467075544
 21
55.80001648032101
 31
0.0000000000003897
  0
LINE
  5
5AE
330
1F
100
AcDbEntity
  8
OBRYS
100
AcDbLine
 10
157.7441467075544
 20
55.80001648032101
 30
0.0000000000003897
 11
157.6193477075544
 21
55.80145648032089
 31
0.0000000000003897
  0
LINE
  5
5AF
330
1F
100
AcDbEntity
  8
OBRYS
100
AcDbLine
 10
160.855482786928
 20
55.64558811849869
 30
0.0000000000003818
 11
158.1051447075544
 21
55.79392348032098
 31
0.0000000000003897
  0
LINE
  5
5B0
330
1F
100
AcDbEntity
  8
OBRYS
100
AcDbLine
 10
158.1051447075544
 20
54.227623480321
 30
0.0000000000003897
 11
158.3233108931049
 21
53.86481341096635
 31
0.0000000000003897
  0
LINE
  5
5B1
330
1F
100
AcDbEntity
  8
OBRYS
100
AcDbLine
 10
158.3233108931049
 20
53.86481341096635
 30
0.0000000000003897
 11
157.7441467075544
 21
54.22153048032101
 31
0.0000000000003897
  0
LINE
  5
5B2
330
1F
100
AcDbEntity
  8
OBRYS
100
AcDbLine
 10
157.7441467075544
 20
54.22153048032101
 30
0.0000000000003897
 11
157.6193477075544
 21
54.22009048032101
 31
0.0000000000003897
  0
LINE
  5
5B3
330
1F
100
AcDbEntity
  8
OBRYS
100
AcDbLine
 10
158.1051447933313
 20
54.22762564710999
 30
0.0000000000003897
 11
160.8554829074355
 21
54.37595884824876
 31
0.0000000000003897
  0
LINE
  5
5B4
330
1F
100
AcDbEntity
  8
OBRYS
100
AcDbLine
 10
171.4999621780351
 20
55.65004583183483
 30
0.0000000000003975
 11
174.2443849251129
 21
55.7948082577565
 31
0.0000000000003916
  0
LINE
  5
5B5
330
1F
100
AcDbEntity
  8
OBRYS
100
AcDbLine
 10
174.2443847075544
 20
55.79481048032099
 30
0.0000000000003897
 11
174.0180983914276
 21
56.17001865096245
 31
0.0000000000003897
  0
LINE
  5
5B6
330
1F
100
AcDbEntity
  8
OBRYS
100
AcDbLine
 10
174.0180983914276
 20
56.17001865096245
 30
0.0000000000003897
 11
174.6138597075544
 21
55.80065748032101
 31
0.0000000000003897
  0
LINE
  5
5B7
330
1F
100
AcDbEntity
  8
OBRYS
100
AcDbLine
 10
174.6138597075544
 20
55.80065748032101
 30
0.0000000000003897
 11
174.7353477075544
 21
55.80192548032099
 31
0.0000000000003897
  0
LINE
  5
5B8
330
1F
100
AcDbEntity
  8
OBRYS
100
AcDbLine
 10
171.4999619746141
 20
54.37150114216118
 30
0.0000000000003897
 11
174.2443865370743
 21
54.22673549296661
 31
0.0000000000003897
  0
LINE
  5
5B9
330
1F
100
AcDbEntity
  8
OBRYS
100
AcDbLine
 10
174.2443865370743
 20
54.22673549296661
 30
0.0000000000003897
 11
174.0180983914275
 21
53.85152830967951
 31
0.0000000000003897
  0
LINE
  5
5BA
330
1F
100
AcDbEntity
  8
OBRYS
100
AcDbLine
 10
174.0180983914275
 20
53.85152830967951
 30
0.0000000000003897
 11
174.6138597075544
 21
54.22088948032101
 31
0.0000000000003897
  0
LINE
  5
5BB
330
1F
100
AcDbEntity
  8
OBRYS
100
AcDbLine
 10
174.6138597075544
 20
54.22088948032101
 30
0.0000000000003897
 11
174.7353477075544
 21
54.219621480321
 31
0.0000000000003897
  0
LINE
  5
5BC
330
1F
100
AcDbEntity
  8
OBRYS
100
AcDbLine
 10
176.3233075256247
 20
56.15673767938267
 30
0.0000000000003897
 11
175.7441467075544
 21
55.80001648032101
 31
0.0000000000003897
  0
LINE
  5
5BD
330
1F
100
AcDbEntity
  8
OBRYS
100
AcDbLine
 10
175.7441467075544
 20
55.80001648032101
 30
0.0000000000003897
 11
175.6193477075544
 21
55.80001648032101
 31
0.0000000000003897
  0
LINE
  5
5BE
330
1F
100
AcDbEntity
  8
OBRYS
100
AcDbLine
 10
176.3233075256247
 20
56.15673767938267
 30
0.0000000000003897
 11
176.1051447075544
 21
55.79392348032098
 31
0.0000000000003897
  0
LINE
  5
5BF
330
1F
100
AcDbEntity
  8
OBRYS
100
AcDbLine
 10
176.1051446723851
 20
55.79392131172162
 30
0.0000000000003877
 11
178.8554827869281
 21
55.64558811849869
 31
0.0000000000003818
  0
LINE
  5
5C0
330
1F
100
AcDbEntity
  8
OBRYS
100
AcDbLine
 10
176.1051447933313
 20
54.22762564710999
 30
0.0000000000003897
 11
178.8554829074355
 21
54.37595884824876
 31
0.0000000000003897
  0
LINE
  5
5C1
330
1F
100
AcDbEntity
  8
OBRYS
100
AcDbLine
 10
176.1051447933313
 20
54.22762564710999
 30
0.0000000000003897
 11
176.3233108931049
 21
53.86481341096638
 31
0.0000000000003897
  0
LINE
  5
5C2
330
1F
100
AcDbEntity
  8
OBRYS
100
AcDbLine
 10
176.3233108931049
 20
53.86481341096638
 30
0.0000000000003897
 11
175.7441467075544
 21
54.22153048032101
 31
0.0000000000003897
  0
LINE
  5
5C3
330
1F
100
AcDbEntity
  8
OBRYS
100
AcDbLine
 10
175.7441467075544
 20
54.22153048032101
 30
0.0000000000003897
 11
175.6193477075544
 21
54.22009048032101
 31
0.0000000000003897
  0
ARC
  5
5C4
330
1F
100
AcDbEntity
  8
OBRYS
100
AcDbCircle
 10
149.8424377075544
 20
68.37586348032099
 30
0.0000000000003897
 40
1.500000000000001
100
AcDbArc
 50
180.0
 51
270.0
  0
ARC
  5
5C5
330
1F
100
AcDbEntity
  8
OBRYS
100
AcDbCircle
 10
182.5122577075545
 20
68.37586348032099
 30
0.0000000000003897
 40
1.500000000000001
100
AcDbArc
 50
270.0
 51
0.0
  0
ARC
  5
5C6
330
1F
100
AcDbEntity
  8
OBRYS
100
AcDbCircle
 10
159.5673937075545
 20
64.914379480321
 30
0.0000000000003897
 40
0.1000000000000001
100
AcDbArc
 50
0.0
 51
90.0
  0
ARC
  5
5C7
330
1F
100
AcDbEntity
  8
OBRYS
100
AcDbCircle
 10
162.7768247075545
 20
64.92450548032102
 30
0.0000000000003897
 40
0.1000000000000001
100
AcDbArc
 50
90.0
 51
180.0
  0
ARC
  5
5C8
330
1F
100
AcDbEntity
  8
OBRYS
100
AcDbCircle
 10
164.5775197075472
 20
64.92450548032102
 30
0.0000000000003897
 40
0.1
100
AcDbArc
 50
0.0006894758440257
 51
90.0
  0
ARC
  5
5C9
330
1F
100
AcDbEntity
  8
OBRYS
100
AcDbCircle
 10
167.7768247075617
 20
64.92450548032102
 30
0.0000000000003897
 40
0.1
100
AcDbArc
 50
90.0
 51
180.0006894723754
  0
ARC
  5
5CA
330
1F
100
AcDbEntity
  8
OBRYS
100
AcDbCircle
 10
169.577870707542
 20
64.92450548032102
 30
0.0000000000003897
 40
0.1000000000000001
100
AcDbArc
 50
359.9990965834176
 51
90.0
  0
LINE
  5
5CB
330
1F
100
AcDbEntity
  8
OBRYS
100
AcDbLine
 10
159.6673937075544
 20
64.914379480321
 30
0.0000000000003897
 11
159.6673937075544
 21
63.434588480321
 31
0.0000000000003897
  0
ARC
  5
5CC
330
1F
100
AcDbEntity
  8
OBRYS
100
AcDbCircle
 10
172.7873007075544
 20
64.914379480321
 30
0.0000000000003897
 40
0.1000000000000001
100
AcDbArc
 50
90.0
 51
180.0
  0
ARC
  5
5CD
330
1F
100
AcDbEntity
  8
OBRYS
100
AcDbCircle
 10
85.68035552342258
 20
67.45398686435385
 30
0.0000000000003897
 40
0.6
100
AcDbArc
 50
269.9999958486864
 51
359.9999997600488
  0
ARC
  5
5CE
330
1F
100
AcDbEntity
  8
OBRYS
100
AcDbCircle
 10
85.68035552342272
 20
111.1675600962885
 30
0.0000000000003897
 40
0.6
100
AcDbArc
 50
0.0000002400462155
 51
89.99996511758154
  0
DIMENSION
  5
738
330
1F
100
AcDbEntity
  8
KOTY
100
AcDbDimension
  2
*D0
 10
184.1773477075544
 20
30.75041825161284
 30
0.0
 11
166.1773477075544
 21
33.79241825161284
 31
0.0
 70
    32
  3
STANDARD
100
AcDbAlignedDimension
 13
148.1773477075545
 23
44.51077348032101
 33
0.0000000000000752
 14
184.1773477075544
 24
44.51077348032101
 34
0.0
100
AcDbRotatedDimension
1001
ACAD
1000
DSTYLE
1002
{
1070
   271
1070
     0
1070
   278
1070
    44
1070
    73
1070
     0
1070
    77
1070
     1
1070
   140
1040
4.0
1070
   147
1040
1.0
1070
    41
1040
4.0
1002
}
  0
DIMENSION
  5
748
330
1F
100
AcDbEntity
  8
KOTY
100
AcDbDimension
  2
*D1
 10
99.77337470755442
 20
19.42296777371178
 30
0.0
 11
66.7733650755157
 21
22.46496777371178
 31
0.0
 70
    32
  3
STANDARD
100
AcDbAlignedDimension
 13
33.77335544347697
 23
68.85399048032102
 33
0.0000000000004002
 14
99.77337470755442
 24
70.91949948032101
 34
0.0000000000003897
100
AcDbRotatedDimension
1001
ACAD
1000
DSTYLE
1002
{
1070
   271
1070
     0
1070
   278
1070
    44
1070
    73
1070
     0
1070
    77
1070
     1
1070
   140
1040
4.0
1070
   147
1040
1.0
1070
    41
1040
4.0
1002
}
  0
DIMENSION
  5
758
330
1F
100
AcDbEntity
  8
KOTY
100
AcDbDimension
  2
*D2
 10
23.31636680434028
 20
66.85399048032102
 30
0.0
 11
20.28236680434027
 21
89.31079048032072
 31
0.0
 70
    32
  3
STANDARD
100
AcDbAlignedDimension
 13
35.77335666110306
 23
111.7675904803204
 33
0.0000000000003998
 14
35.77335529856877
 24
66.85399048032102
 34
0.0000000000003998
 50
90.0
100
AcDbRotatedDimension
1001
ACAD
1000
DSTYLE
1002
{
1070
   271
1070
     0
1070
   278
1070
    44
1070
    73
1070
     0
1070
    77
1070
     1
1070
   140
1040
4.0
1070
   147
1040
1.0
1070
    41
1040
4.0
1002
}
  0
DIMENSION
  5
768
330
1F
100
AcDbEntity
  8
KOTY
100
AcDbDimension
  2
*D3
 10
6.344828781201715
 20
134.310773480321
 30
0.0
 11
3.302828781201711
 21
89.31077348032099
 31
0.0
 70
    32
  3
STANDARD
100
AcDbAlignedDimension
 13
62.09725670755441
 23
44.310773480321
 33
0.0000000000003897
 14
62.11695279405897
 24
134.310773480321
 34
0.0000000000003897
 50
90.0
100
AcDbRotatedDimension
1001
ACAD
1000
DSTYLE
1002
{
1070
   271
1070
     0
1070
   278
1070
    44
1070
    73
1070
     0
1070
    77
1070
     1
1070
   140
1040
4.0
1070
   147
1040
1.0
1070
    41
1040
4.0
1002
}
  0
LINE
  5
778
330
1F
100
AcDbEntity
  8
OBRYS
100
AcDbLine
 10
35.71085666110306
 20
111.7675904803204
 30
0.0
 11
35.71085529856877
 21
66.85399048032102
 31
0.0
  0
ARC
  5
880
330
1F
100
AcDbEntity
  8
OBRYS
100
AcDbCircle
 10
-157.1773477075544
 20
123.610773480321
 30
-0.0000000000003866
 40
6.044257350612406
210
-2.100000000000000E-15
220
0.0
230
-1.0
100
AcDbArc
 50
0.0
 51
90.0
  0
ARC
  5
881
330
1F
100
AcDbEntity
  8
OBRYS
100
AcDbCircle
 10
-157.1773477075544
 20
123.610773480321
 30
-0.0000000000003897
 40
4.844257350612409
210
0.0
220
0.0
230
-1.0
100
AcDbArc
 50
0.0
 51
90.0
  0
LINE
  5
882
330
1F
100
AcDbEntity
  8
OBRYS
100
AcDbLine
 10
152.333090356942
 20
123.610773480321
 30
0.0000000000003897
 11
151.133090356942
 21
123.610773480321
 31
0.0000000000000692
  0
LINE
  5
886
330
1F
100
AcDbEntity
  8
OBRYS
100
AcDbLine
 10
181.2216050581668
 20
123.610773480321
 30
0.000000000000006
 11
180.0216050581668
 21
123.610773480321
 31
0.0000000000003897
  0
LINE
  5
889
330
1F
100
AcDbEntity
  8
OBRYS
100
AcDbLine
 10
152.333090356942
 20
55.01077348032101
 30
0.0000000000003897
 11
151.133090356942
 21
55.01077348032101
 31
0.0000000000000692
  0
ARC
  5
88A
330
1F
100
AcDbEntity
  8
OBRYS
100
AcDbCircle
 10
-175.1773477075544
 20
55.01077348032101
 30
-0.0000000000003897
 40
4.844257350612367
210
0.0
220
0.0
230
-1.0
100
AcDbArc
 50
180.0
 51
270.0
  0
ARC
  5
88B
330
1F
100
AcDbEntity
  8
OBRYS
100
AcDbCircle
 10
-175.1773477075544
 20
55.01077348032101
 30
-0.0000000000003866
 40
6.044257350612367
210
-2.100000000000000E-15
220
0.0
230
-1.0
100
AcDbArc
 50
180.0
 51
270.0
  0
LINE
  5
88C
330
1F
100
AcDbEntity
  8
OBRYS
100
AcDbLine
 10
181.2216050581667
 20
55.01077348032101
 30
0.000000000000006
 11
180.0216050581668
 21
55.01077348032101
 31
0.0000000000003897
  0
LINE
  5
A53
330
1F
100
AcDbEntity
  8
OBRYS
  6
CONTINUOUS
100
AcDbLine
 10
166.2408843792836
 20
60.16275520759153
 30
0.0
 11
168.3698653792836
 21
58.40953220759148
 31
0.0
  0
LINE
  5
A54
330
1F
100
AcDbEntity
  8
OBRYS
  6
CONTINUOUS
100
AcDbLine
 10
163.9847643792836
 20
58.40953220759148
 30
0.0
 11
166.1137453792836
 21
60.16275520759153
 31
0.0
  0
LINE
  5
A55
330
1F
100
AcDbEntity
  8
OBRYS
  6
CONTINUOUS
100
AcDbLine
 10
168.3698653792836
 20
55.23558320759149
 30
0.0
 11
166.2408843792836
 21
53.4823592075915
 31
0.0
  0
LINE
  5
A56
330
1F
100
AcDbEntity
  8
OBRYS
  6
CONTINUOUS
100
AcDbLine
 10
166.1137453792836
 20
53.4823592075915
 30
0.0
 11
163.9847643792836
 21
55.23558320759149
 31
0.0
  0
LINE
  5
A57
330
1F
100
AcDbEntity
  8
OBRYS
  6
CONTINUOUS
100
AcDbLine
 10
165.9230363792836
 20
60.39433720759148
 30
0.0
 11
163.7940553792836
 21
58.64111420759149
 31
0.0
  0
LINE
  5
A58
330
1F
100
AcDbEntity
  8
OBRYS
  6
CONTINUOUS
100
AcDbLine
 10
168.5605733792836
 20
58.64111420759149
 30
0.0
 11
166.4315923792836
 21
60.39433720759148
 31
0.0
  0
LINE
  5
A59
330
1F
100
AcDbEntity
  8
OBRYS
  6
CONTINUOUS
100
AcDbLine
 10
166.4315923792836
 20
53.2507772075915
 30
0.0
 11
168.5605733792836
 21
55.00400120759149
 31
0.0
  0
LINE
  5
A5A
330
1F
100
AcDbEntity
  8
OBRYS
  6
CONTINUOUS
100
AcDbLine
 10
163.7940553792836
 20
55.00400120759149
 30
0.0
 11
165.9230363792836
 21
53.2507772075915
 31
0.0
  0
LINE
  5
A5B
330
1F
100
AcDbEntity
  8
OBRYS
  6
CONTINUOUS
100
AcDbLine
 10
165.2337233792836
 20
52.24620020759151
 30
0.0
 11
165.2337233792836
 21
52.78265420759151
 31
0.0
  0
LINE
  5
A5C
330
1F
100
AcDbEntity
  8
OBRYS
  6
CONTINUOUS
100
AcDbLine
 10
165.2337233792836
 20
51.50948520759151
 30
0.0
 11
165.2337233792836
 21
52.06930020759147
 31
0.0
  0
LINE
  5
A5D
330
1F
100
AcDbEntity
  8
OBRYS
  6
CONTINUOUS
100
AcDbLine
 10
167.4651123792836
 20
52.19712920759149
 30
0.0
 11
167.4651123792836
 21
52.27301420759152
 31
0.0
  0
LINE
  5
A5E
330
1F
100
AcDbEntity
  8
OBRYS
  6
CONTINUOUS
100
AcDbLine
 10
169.5360553792836
 20
62.18556120759148
 30
0.0
 11
168.5514983792836
 21
62.18556120759148
 31
0.0
  0
LINE
  5
A5F
330
1F
100
AcDbEntity
  8
OBRYS
  6
CONTINUOUS
100
AcDbLine
 10
167.4151803792836
 20
52.32294520759147
 30
0.0
 11
166.6351043792836
 21
52.32294520759147
 31
0.0
  0
LINE
  5
A60
330
1F
100
AcDbEntity
  8
OBRYS
  6
CONTINUOUS
100
AcDbLine
 10
169.0100083792836
 20
51.50948520759151
 30
0.0
 11
169.0100083792836
 21
52.90962220759148
 31
0.0
  0
LINE
  5
A61
330
1F
100
AcDbEntity
  8
OBRYS
  6
CONTINUOUS
100
AcDbLine
 10
166.6351043792836
 20
52.78265420759151
 30
0.0
 11
167.4712053792836
 21
52.78265420759151
 31
0.0
  0
LINE
  5
A62
330
1F
100
AcDbEntity
  8
OBRYS
  6
CONTINUOUS
100
AcDbLine
 10
164.3462023792836
 20
60.68556120759148
 30
0.0
 11
165.1837913792836
 21
60.68556120759148
 31
0.0
  0
LINE
  5
A63
330
1F
100
AcDbEntity
  8
OBRYS
  6
CONTINUOUS
100
AcDbLine
 10
166.6351043792836
 20
52.14719720759147
 30
0.0
 11
167.4151803792836
 21
52.14719720759147
 31
0.0
  0
LINE
  5
A64
330
1F
100
AcDbEntity
  8
OBRYS
  6
CONTINUOUS
100
AcDbLine
 10
166.6351043792836
 20
52.32294520759147
 30
0.0
 11
166.6351043792836
 21
52.78265420759151
 31
0.0
  0
LINE
  5
A65
330
1F
100
AcDbEntity
  8
OBRYS
  6
CONTINUOUS
100
AcDbLine
 10
168.5015663792836
 20
62.13563020759152
 30
0.0
 11
168.5015663792836
 21
60.73549220759149
 31
0.0
  0
LINE
  5
A66
330
1F
100
AcDbEntity
  8
OBRYS
  6
CONTINUOUS
100
AcDbLine
 10
168.6999543792836
 20
60.86246020759152
 30
0.0
 11
168.6999543792836
 21
61.37320520759151
 31
0.0
  0
LINE
  5
A67
330
1F
100
AcDbEntity
  8
OBRYS
  6
CONTINUOUS
100
AcDbLine
 10
167.5560563792836
 20
51.50948520759151
 30
0.0
 11
167.5560563792836
 21
51.58652120759147
 31
0.0
  0
LINE
  5
A68
330
1F
100
AcDbEntity
  8
OBRYS
  6
CONTINUOUS
100
AcDbLine
 10
169.5709753792836
 20
60.86246020759152
 30
0.0
 11
168.6999543792836
 21
60.86246020759152
 31
0.0
  0
LINE
  5
A69
330
1F
100
AcDbEntity
  8
OBRYS
  6
CONTINUOUS
100
AcDbLine
 10
168.0184503792836
 20
52.63837120759148
 30
0.0
 11
168.7914203792836
 21
51.48174120759147
 31
0.0
  0
LINE
  5
A6A
330
1F
100
AcDbEntity
  8
OBRYS
  6
CONTINUOUS
100
AcDbLine
 10
165.1837913792836
 20
60.86246020759152
 30
0.0
 11
164.4946593792836
 21
60.86246020759152
 31
0.0
  0
LINE
  5
A6B
330
1F
100
AcDbEntity
  8
OBRYS
  6
CONTINUOUS
100
AcDbLine
 10
168.5514983792836
 20
60.68556120759148
 30
0.0
 11
169.5709753792836
 21
60.68556120759148
 31
0.0
  0
LINE
  5
A6C
330
1F
100
AcDbEntity
  8
OBRYS
  6
CONTINUOUS
100
AcDbLine
 10
168.8329343792836
 20
51.4595532075915
 30
0.0
 11
168.9600773792836
 21
51.4595532075915
 31
0.0
  0
LINE
  5
A6D
330
1F
100
AcDbEntity
  8
OBRYS
  6
CONTINUOUS
100
AcDbLine
 10
167.8780523792836
 20
51.4595532075915
 30
0.0
 11
167.9685193792835
 21
51.4595532075915
 31
0.0
  0
LINE
  5
A6E
330
1F
100
AcDbEntity
  8
OBRYS
  6
CONTINUOUS
100
AcDbLine
 10
167.8281203792836
 20
52.90962220759148
 30
0.0
 11
167.8281203792836
 21
51.50948520759151
 31
0.0
  0
LINE
  5
A6F
330
1F
100
AcDbEntity
  8
OBRYS
  6
CONTINUOUS
100
AcDbLine
 10
169.5859873792836
 20
62.0585932075915
 30
0.0
 11
169.5859873792836
 21
62.13563020759152
 31
0.0
  0
LINE
  5
A70
330
1F
100
AcDbEntity
  8
OBRYS
  6
CONTINUOUS
100
AcDbLine
 10
165.0848823792836
 20
51.4595532075915
 30
0.0
 11
165.1837913792836
 21
51.4595532075915
 31
0.0
  0
LINE
  5
A71
330
1F
100
AcDbEntity
  8
OBRYS
  6
CONTINUOUS
100
AcDbLine
 10
164.4946593792836
 20
60.86246020759152
 30
0.0
 11
164.4946593792836
 21
62.13563020759152
 31
0.0
  0
LINE
  5
A72
330
1F
100
AcDbEntity
  8
OBRYS
  6
CONTINUOUS
100
AcDbLine
 10
164.2962713792836
 20
62.13563020759152
 30
0.0
 11
164.2962713792836
 21
60.73549220759149
 31
0.0
  0
LINE
  5
A73
330
1F
100
AcDbEntity
  8
OBRYS
  6
CONTINUOUS
100
AcDbLine
 10
168.0369953792836
 20
61.75200120759148
 30
0.0
 11
168.1310313792836
 21
61.75920520759148
 31
0.0
  0
LINE
  5
A74
330
1F
100
AcDbEntity
  8
OBRYS
  6
CONTINUOUS
100
AcDbLine
 10
164.0099253792836
 20
61.1740232075915
 30
0.0
 11
163.9096813792836
 21
61.1993742075915
 31
0.0
  0
LINE
  5
A75
330
1F
100
AcDbEntity
  8
OBRYS
  6
CONTINUOUS
100
AcDbLine
 10
168.9600773792836
 20
52.9595532075915
 30
0.0
 11
168.8696103792836
 21
52.9595532075915
 31
0.0
  0
LINE
  5
A76
330
1F
100
AcDbEntity
  8
OBRYS
  6
CONTINUOUS
100
AcDbLine
 10
165.0349513792836
 20
52.9595532075915
 30
0.0
 11
165.0349513792836
 21
51.50948520759151
 31
0.0
  0
LINE
  5
A77
330
1F
100
AcDbEntity
  8
OBRYS
  6
CONTINUOUS
100
AcDbLine
 10
167.1728353792836
 20
61.17991220759153
 30
0.0
 11
167.0811093792836
 21
61.17183020759147
 31
0.0
  0
LINE
  5
A78
330
1F
100
AcDbEntity
  8
OBRYS
  6
CONTINUOUS
100
AcDbLine
 10
168.6999543792836
 20
62.00866220759148
 30
0.0
 11
169.5360553792836
 21
62.00866220759148
 31
0.0
  0
LINE
  5
A79
330
1F
100
AcDbEntity
  8
OBRYS
  6
CONTINUOUS
100
AcDbLine
 10
167.5061243792836
 20
51.63645320759149
 30
0.0
 11
166.6351043792836
 21
51.63645320759149
 31
0.0
  0
LINE
  5
A7A
330
1F
100
AcDbEntity
  8
OBRYS
  6
CONTINUOUS
100
AcDbLine
 10
168.0184503792836
 20
51.50948520759151
 30
0.0
 11
168.0184503792836
 21
52.63837120759148
 31
0.0
  0
LINE
  5
A7B
330
1F
100
AcDbEntity
  8
OBRYS
  6
CONTINUOUS
100
AcDbLine
 10
165.2337233792836
 20
60.73549220759149
 30
0.0
 11
165.2337233792836
 21
60.81252920759151
 31
0.0
  0
LINE
  5
A7C
330
1F
100
AcDbEntity
  8
OBRYS
  6
CONTINUOUS
100
AcDbLine
 10
168.6999543792836
 20
61.54895320759151
 30
0.0
 11
168.6999543792836
 21
62.00866220759148
 31
0.0
  0
LINE
  5
A7D
330
1F
100
AcDbEntity
  8
OBRYS
  6
CONTINUOUS
100
AcDbLine
 10
163.8825453792836
 20
61.73845320759152
 30
0.0
 11
163.9808363792836
 21
61.7616262075915
 31
0.0
  0
LINE
  5
A7E
330
1F
100
AcDbEntity
  8
OBRYS
  6
CONTINUOUS
100
AcDbLine
 10
164.4447273792836
 20
62.18556120759148
 30
0.0
 11
164.3462023792836
 21
62.18556120759148
 31
0.0
  0
LINE
  5
A7F
330
1F
100
AcDbEntity
  8
OBRYS
  6
CONTINUOUS
100
AcDbLine
 10
169.6209063792836
 20
60.73549220759149
 30
0.0
 11
169.6209063792836
 21
60.81252920759151
 31
0.0
  0
LINE
  5
A80
330
1F
100
AcDbEntity
  8
OBRYS
  6
CONTINUOUS
100
AcDbLine
 10
166.4866473792836
 20
51.4595532075915
 30
0.0
 11
167.5061243792836
 21
51.4595532075915
 31
0.0
  0
LINE
  5
A81
330
1F
100
AcDbEntity
  8
OBRYS
  6
CONTINUOUS
100
AcDbLine
 10
167.4712053792836
 20
52.9595532075915
 30
0.0
 11
166.4866473792836
 21
52.9595532075915
 31
0.0
  0
LINE
  5
A82
330
1F
100
AcDbEntity
  8
OBRYS
  6
CONTINUOUS
100
AcDbLine
 10
167.5211363792836
 20
52.83258520759146
 30
0.0
 11
167.5211363792836
 21
52.90962220759148
 31
0.0
  0
LINE
  5
A83
330
1F
100
AcDbEntity
  8
OBRYS
  6
CONTINUOUS
100
AcDbLine
 10
168.8196783792836
 20
52.90962220759148
 30
0.0
 11
168.8196783792836
 21
51.78188620759151
 31
0.0
  0
LINE
  5
A84
330
1F
100
AcDbEntity
  8
OBRYS
  6
CONTINUOUS
100
AcDbLine
 10
168.0052093792836
 20
52.9595532075915
 30
0.0
 11
167.8780523792836
 21
52.9595532075915
 31
0.0
  0
LINE
  5
A85
330
1F
100
AcDbEntity
  8
OBRYS
  6
CONTINUOUS
100
AcDbLine
 10
169.4800313792836
 20
61.54895320759151
 30
0.0
 11
168.6999543792836
 21
61.54895320759151
 31
0.0
  0
LINE
  5
A86
330
1F
100
AcDbEntity
  8
OBRYS
  6
CONTINUOUS
100
AcDbLine
 10
169.5299623792836
 20
61.42313620759147
 30
0.0
 11
169.5299623792836
 21
61.49902220759149
 31
0.0
  0
LINE
  5
A87
330
1F
100
AcDbEntity
  8
OBRYS
  6
CONTINUOUS
100
AcDbLine
 10
166.4367163792836
 20
52.90962220759148
 30
0.0
 11
166.4367163792836
 21
51.50948520759151
 31
0.0
  0
LINE
  5
A88
330
1F
100
AcDbEntity
  8
OBRYS
  6
CONTINUOUS
100
AcDbLine
 10
168.6999543792836
 20
61.37320520759151
 30
0.0
 11
169.4800313792836
 21
61.37320520759151
 31
0.0
  0
LINE
  5
A89
330
1F
100
AcDbEntity
  8
OBRYS
  6
CONTINUOUS
100
AcDbLine
 10
168.8196783792836
 20
51.78188620759151
 30
0.0
 11
168.0467113792836
 21
52.93738420759148
 31
0.0
  0
LINE
  5
A8A
330
1F
100
AcDbEntity
  8
OBRYS
  6
CONTINUOUS
100
AcDbLine
 10
164.0483333792836
 20
57.93233820759149
 30
0.0
 11
168.3062953792836
 21
57.93233820759149
 31
0.0
  0
LINE
  5
A8B
330
1F
100
AcDbEntity
  8
OBRYS
  6
CONTINUOUS
100
AcDbLine
 10
168.3062953792836
 20
55.71277720759149
 30
0.0
 11
164.0483333792836
 21
55.71277720759149
 31
0.0
  0
LINE
  5
A8C
330
1F
100
AcDbEntity
  8
OBRYS
  6
CONTINUOUS
100
AcDbLine
 10
168.3062953792836
 20
58.2323382075915
 30
0.0
 11
164.0483333792836
 21
58.2323382075915
 31
0.0
  0
LINE
  5
A8D
330
1F
100
AcDbEntity
  8
OBRYS
  6
CONTINUOUS
100
AcDbLine
 10
164.0483333792836
 20
55.41277720759147
 30
0.0
 11
168.3062953792836
 21
55.41277720759147
 31
0.0
  0
LINE
  5
A8E
330
1F
100
AcDbEntity
  8
OBRYS
  6
CONTINUOUS
100
AcDbLine
 10
166.6351043792836
 20
51.63645320759149
 30
0.0
 11
166.6351043792836
 21
52.14719720759147
 31
0.0
  0
LINE
  5
A8F
330
1F
100
AcDbEntity
  8
OBRYS
  6
CONTINUOUS
100
AcDbLine
 10
170.1773143792836
 20
63.2827932075915
 30
0.0
 11
170.1773143792836
 21
50.9595532075915
 31
0.0
  0
LINE
  5
A90
330
1F
100
AcDbEntity
  8
OBRYS
  6
CONTINUOUS
100
AcDbLine
 10
162.1773143792836
 20
50.9595532075915
 30
0.0
 11
162.1773143792836
 21
63.2827932075915
 31
0.0
  0
LINE
  5
A91
330
1F
100
AcDbEntity
  8
OBRYS
  6
CONTINUOUS
100
AcDbLine
 10
168.1773143792836
 20
57.12449720759149
 30
0.0
 11
168.1773143792836
 21
56.52061720759148
 31
0.0
  0
LINE
  5
A92
330
1F
100
AcDbEntity
  8
OBRYS
  6
CONTINUOUS
100
AcDbLine
 10
164.1773143792836
 20
56.52061720759148
 30
0.0
 11
164.1773143792836
 21
57.12449720759149
 31
0.0
  0
LINE
  5
A93
330
1F
100
AcDbEntity
  8
OBRYS
  6
CONTINUOUS
100
AcDbLine
 10
167.9766893792836
 20
56.32255720759149
 30
0.0
 11
164.3779403792836
 21
56.32255720759149
 31
0.0
  0
LINE
  5
A94
330
1F
100
AcDbEntity
  8
OBRYS
  6
CONTINUOUS
100
AcDbLine
 10
164.3779403792836
 20
57.32255720759149
 30
0.0
 11
167.9766893792836
 21
57.32255720759149
 31
0.0
  0
LINE
  5
A95
330
1F
100
AcDbEntity
  8
OBRYS
  6
CONTINUOUS
100
AcDbLine
 10
162.1773143792836
 20
51.19522520759146
 30
0.0
 11
162.1773143792836
 21
51.20145020759149
 31
0.0
  0
LINE
  5
A96
330
1F
100
AcDbEntity
  8
OBRYS
  6
CONTINUOUS
100
AcDbLine
 10
169.9773143792836
 20
50.99518720759151
 30
0.0
 11
168.0773143792836
 21
50.99489720759151
 31
0.0
  0
LINE
  5
A97
330
1F
100
AcDbEntity
  8
OBRYS
  6
CONTINUOUS
100
AcDbLine
 10
162.1773143792836
 20
50.9595532075915
 30
0.0
 11
170.1773143792836
 21
50.9595532075915
 31
0.0
  0
LINE
  5
A98
330
1F
100
AcDbEntity
  8
OBRYS
  6
CONTINUOUS
100
AcDbLine
 10
164.2773143792836
 20
50.99489720759151
 30
0.0
 11
162.3773143792836
 21
50.99518720759151
 31
0.0
  0
LINE
  5
A99
330
1F
100
AcDbEntity
  8
OBRYS
  6
CONTINUOUS
100
AcDbLine
 10
170.1773143792836
 20
51.20145020759149
 30
0.0
 11
170.1773143792836
 21
51.19522520759146
 31
0.0
  0
LINE
  5
A9A
330
1F
100
AcDbEntity
  8
OBRYS
  6
CONTINUOUS
100
AcDbLine
 10
162.1773143792836
 20
63.2827932075915
 30
0.0
 11
162.1773143792836
 21
63.30954620759148
 31
0.0
  0
LINE
  5
A9B
330
1F
100
AcDbEntity
  8
OBRYS
  6
CONTINUOUS
100
AcDbLine
 10
169.9773143792836
 20
63.50955320759151
 30
0.0
 11
167.3673143792836
 21
63.50955320759151
 31
0.0
  0
LINE
  5
A9C
330
1F
100
AcDbEntity
  8
OBRYS
  6
CONTINUOUS
100
AcDbLine
 10
162.3773143792836
 20
63.50955320759151
 30
0.0
 11
164.9873143792836
 21
63.50955320759151
 31
0.0
  0
LINE
  5
A9D
330
1F
100
AcDbEntity
  8
OBRYS
  6
CONTINUOUS
100
AcDbLine
 10
170.1773143792836
 20
63.30954620759148
 30
0.0
 11
170.1773143792836
 21
63.2827932075915
 31
0.0
  0
LINE
  5
A9E
330
1F
100
AcDbEntity
  8
OBRYS
  6
CONTINUOUS
100
AcDbLine
 10
167.0773143792836
 20
63.80955320759152
 30
0.0
 11
165.2773143792836
 21
63.80955320759152
 31
0.0
  0
ARC
  5
A9F
330
1F
100
AcDbEntity
  8
OBRYS
  6
CONTINUOUS
100
AcDbCircle
 10
-166.1773143792836
 20
60.08556120759151
 30
0.0
 40
0.0999999999999942
210
0.0
220
0.0
230
-1.0
100
AcDbArc
 50
50.52842199996432
 51
129.4715780000357
  0
ARC
  5
AA0
330
1F
100
AcDbEntity
  8
OBRYS
  6
CONTINUOUS
100
AcDbCircle
 10
166.1773143792836
 20
53.55955320759146
 30
0.0
 40
0.3999999999999954
100
AcDbArc
 50
230.5284219999993
 51
309.471578000005
  0
ARC
  5
AA1
330
1F
100
AcDbEntity
  8
OBRYS
  6
CONTINUOUS
100
AcDbCircle
 10
166.1773143792836
 20
60.08556120759151
 30
0.0
 40
0.3999999999999954
100
AcDbArc
 50
50.52842199999935
 51
129.4715780000006
  0
ARC
  5
AA2
330
1F
100
AcDbEntity
  8
OBRYS
  6
CONTINUOUS
100
AcDbCircle
 10
-166.1773143792836
 20
53.55955320759146
 30
0.0
 40
0.0999999999999956
210
0.0
220
0.0
230
-1.0
100
AcDbArc
 50
230.5284219999669
 51
309.4715779999898
  0
ARC
  5
AA3
330
1F
100
AcDbEntity
  8
OBRYS
  6
CONTINUOUS
100
AcDbCircle
 10
164.0483333792836
 20
55.31277720759151
 30
0.0
 40
0.4000000000000009
100
AcDbArc
 50
90.0
 51
230.5284220000057
  0
ARC
  5
AA4
330
1F
100
AcDbEntity
  8
OBRYS
  6
CONTINUOUS
100
AcDbCircle
 10
168.3062953792836
 20
58.33233820759146
 30
0.0
 40
0.4000000000000004
100
AcDbArc
 50
270.0
 51
50.52842199999557
  0
ARC
  5
AA5
330
1F
100
AcDbEntity
  8
OBRYS
  6
CONTINUOUS
100
AcDbCircle
 10
168.3062953792836
 20
55.31277720759151
 30
0.0
 40
0.4000000000000004
100
AcDbArc
 50
309.4715780000045
 51
90.0
  0
ARC
  5
AA6
330
1F
100
AcDbEntity
  8
OBRYS
  6
CONTINUOUS
100
AcDbCircle
 10
164.0483333792836
 20
58.33233820759146
 30
0.0
 40
0.4000000000000009
100
AcDbArc
 50
129.4715779999943
 51
270.0
  0
ARC
  5
AA7
330
1F
100
AcDbEntity
  8
OBRYS
  6
CONTINUOUS
100
AcDbCircle
 10
-164.0483333792836
 20
58.33233820759146
 30
0.0
 40
0.1000000000000025
210
0.0
220
0.0
230
-1.0
100
AcDbArc
 50
270.0
 51
50.52842200001017
  0
ARC
  5
AA8
330
1F
100
AcDbEntity
  8
OBRYS
  6
CONTINUOUS
100
AcDbCircle
 10
-168.3062953792836
 20
55.31277720759151
 30
0.0
 40
0.1000000000000014
210
0.0
220
0.0
230
-1.0
100
AcDbArc
 50
90.0
 51
230.5284220000102
  0
ARC
  5
AA9
330
1F
100
AcDbEntity
  8
OBRYS
  6
CONTINUOUS
100
AcDbCircle
 10
-164.0483333792836
 20
55.31277720759151
 30
0.0
 40
0.1000000000000039
210
0.0
220
0.0
230
-1.0
100
AcDbArc
 50
309.4715779999873
 51
90.0
  0
ARC
  5
AAA
330
1F
100
AcDbEntity
  8
OBRYS
  6
CONTINUOUS
100
AcDbCircle
 10
-168.3062953792836
 20
58.33233820759146
 30
0.0
 40
0.0999999999999997
210
0.0
220
0.0
230
-1.0
100
AcDbArc
 50
129.4715779999898
 51
270.0
  0
ARC
  5
AAB
330
1F
100
AcDbEntity
  8
OBRYS
  6
CONTINUOUS
100
AcDbCircle
 10
167.3674318809304
 20
63.79983345918343
 30
0.0
 40
0.2902802753735161
100
AcDbArc
 50
178.0811487182644
 51
269.9768074195734
  0
ARC
  5
AAC
330
1F
100
AcDbEntity
  8
OBRYS
  6
CONTINUOUS
100
AcDbCircle
 10
164.9871801645559
 20
63.79987332132701
 30
0.0
 40
0.2903201447592048
100
AcDbArc
 50
270.0264877854952
 51
1.871915172462666
  0
ELLIPSE
  5
AAD
330
1F
100
AcDbEntity
  8
OBRYS
  6
CONTINUOUS
100
AcDbEllipse
 10
168.9599393792836
 20
51.50962220759151
 30
0.0
 11
0.03545231217175333
 21
-0.03545231217175334
 31
0.0
210
0.0
220
0.0
230
-1.0
 40
0.997265
 41
5.499156671652522
 42
7.067213942706581
  0
ELLIPSE
  5
AAE
330
1F
100
AcDbEntity
  8
OBRYS
  6
CONTINUOUS
100
AcDbEllipse
 10
167.4150433792836
 20
52.27287720759146
 30
0.0
 11
0.03545231217175339
 21
0.03545231217175336
 31
0.0
210
0.0
220
0.0
230
-1.0
 40
0.9972649999999998
 41
5.499156671652195
 42
7.067213942706739
  0
ELLIPSE
  5
AAF
330
1F
100
AcDbEntity
  8
OBRYS
  6
CONTINUOUS
100
AcDbEllipse
 10
167.8781893792836
 20
52.90948520759149
 30
0.0
 11
-0.03545231217175333
 21
0.03545231217175334
 31
0.0
210
0.0
220
0.0
230
-1.0
 40
0.997265
 41
5.499156671652523
 42
7.067213942706581
  0
ELLIPSE
  5
AB0
330
1F
100
AcDbEntity
  8
OBRYS
  6
CONTINUOUS
100
AcDbEllipse
 10
169.5359183792836
 20
62.13549220759147
 30
0.0
 11
0.03545231217175334
 21
0.03545231217175333
 31
0.0
210
0.0
220
0.0
230
-1.0
 40
0.997265
 41
5.499156671652591
 42
7.067213942706685
  0
ELLIPSE
  5
AB1
330
1F
100
AcDbEntity
  8
OBRYS
  6
CONTINUOUS
100
AcDbEllipse
 10
168.5516353792836
 20
62.13549220759147
 30
0.0
 11
-0.03545231217175333
 21
0.03545231217175334
 31
0.0
210
0.0
220
0.0
230
-1.0
 40
0.997265
 41
5.499156671652518
 42
7.067213942706577
  0
ELLIPSE
  5
AB2
330
1F
100
AcDbEntity
  8
OBRYS
  6
CONTINUOUS
100
AcDbEllipse
 10
168.9599393792836
 20
52.90948520759149
 30
0.0
 11
0.03545231217175334
 21
0.03545231217175333
 31
0.0
210
0.0
220
0.0
230
-1.0
 40
0.997265
 41
5.499156671652587
 42
7.067213942706611
  0
ELLIPSE
  5
AB3
330
1F
100
AcDbEntity
  8
OBRYS
  6
CONTINUOUS
100
AcDbEllipse
 10
169.5359183792836
 20
62.05873020759149
 30
0.0
 11
0.03545231217175333
 21
-0.03545231217175334
 31
0.0
210
0.0
220
0.0
230
-1.0
 40
0.997265
 41
5.499156671652558
 42
7.067213942706581
  0
ELLIPSE
  5
AB4
330
1F
100
AcDbEntity
  8
OBRYS
  6
CONTINUOUS
100
AcDbEllipse
 10
167.9683823792836
 20
51.50962220759151
 30
0.0
 11
0.03545231217175333
 21
-0.03545231217175334
 31
0.0
210
0.0
220
0.0
230
-1.0
 40
0.997265
 41
5.499156671652444
 42
7.067213942706572
  0
ELLIPSE
  5
AB5
330
1F
100
AcDbEntity
  8
OBRYS
  6
CONTINUOUS
100
AcDbEllipse
 10
169.5708373792836
 20
60.73563020759148
 30
0.0
 11
0.03545231217175333
 21
-0.03545231217175334
 31
0.0
210
0.0
220
0.0
230
-1.0
 40
0.997265
 41
5.499156671652557
 42
7.067213942706581
  0
ELLIPSE
  5
AB6
330
1F
100
AcDbEntity
  8
OBRYS
  6
CONTINUOUS
100
AcDbEllipse
 10
164.3463393792836
 20
62.13549220759147
 30
0.0
 11
-0.03545231217175333
 21
0.03545231217175334
 31
0.0
210
0.0
220
0.0
230
-1.0
 40
0.997265
 41
5.499156671652518
 42
7.067213942706577
  0
ELLIPSE
  5
AB7
330
1F
100
AcDbEntity
  8
OBRYS
  6
CONTINUOUS
100
AcDbEllipse
 10
167.5059873792836
 20
51.50962220759151
 30
0.0
 11
0.03545231217175333
 21
-0.03545231217175334
 31
0.0
210
0.0
220
0.0
230
-1.0
 40
0.997265
 41
5.499156671652522
 42
7.067213942706581
  0
ELLIPSE
  5
AB8
330
1F
100
AcDbEntity
  8
OBRYS
  6
CONTINUOUS
100
AcDbEllipse
 10
164.4445903792836
 20
62.13549220759147
 30
0.0
 11
0.03545231217175334
 21
0.03545231217175333
 31
0.0
210
0.0
220
0.0
230
-1.0
 40
0.997265
 41
5.499156671652314
 42
7.067213942706685
  0
ELLIPSE
  5
AB9
330
1F
100
AcDbEntity
  8
OBRYS
  6
CONTINUOUS
100
AcDbEllipse
 10
169.4798933792836
 20
61.4988852075915
 30
0.0
 11
0.03545231217175334
 21
0.03545231217175333
 31
0.0
210
0.0
220
0.0
230
-1.0
 40
0.997265
 41
5.499156671652314
 42
7.067213942706684
  0
ELLIPSE
  5
ABA
330
1F
100
AcDbEntity
  8
OBRYS
  6
CONTINUOUS
100
AcDbEllipse
 10
165.0850193792836
 20
51.50962220759151
 30
0.0
 11
-0.03545231217175334
 21
-0.03545231217175333
 31
0.0
210
0.0
220
0.0
230
-1.0
 40
0.997265
 41
5.499156671652591
 42
7.06721394270665
  0
ELLIPSE
  5
ABB
330
1F
100
AcDbEntity
  8
OBRYS
  6
CONTINUOUS
100
AcDbEllipse
 10
169.5708373792836
 20
60.81239220759151
 30
0.0
 11
0.03545231217175334
 21
0.03545231217175333
 31
0.0
210
0.0
220
0.0
230
-1.0
 40
0.997265
 41
5.499156671652314
 42
7.06721394270665
  0
ELLIPSE
  5
ABC
330
1F
100
AcDbEntity
  8
OBRYS
  6
CONTINUOUS
100
AcDbEllipse
 10
164.3463393792836
 20
60.73563020759148
 30
0.0
 11
-0.03545231217175334
 21
-0.03545231217175333
 31
0.0
210
0.0
220
0.0
230
-1.0
 40
0.997265
 41
5.499156671652309
 42
7.067213942706645
  0
ELLIPSE
  5
ABD
330
1F
100
AcDbEntity
  8
OBRYS
  6
CONTINUOUS
100
AcDbEllipse
 10
167.8781893792836
 20
51.50962220759151
 30
0.0
 11
-0.03545231217175333
 21
-0.03545231217175331
 31
0.0
210
0.0
220
0.0
230
-1.0
 40
0.9972649999999998
 41
5.499156671652583
 42
7.067213942706711
  0
ELLIPSE
  5
ABE
330
1F
100
AcDbEntity
  8
OBRYS
  6
CONTINUOUS
100
AcDbEllipse
 10
169.4798933792836
 20
61.42327420759146
 30
0.0
 11
0.03545231217175333
 21
-0.03545231217175334
 31
0.0
210
0.0
220
0.0
230
-1.0
 40
0.997265
 41
5.499156671652574
 42
7.067213942706304
  0
ELLIPSE
  5
ABF
330
1F
100
AcDbEntity
  8
OBRYS
  6
CONTINUOUS
100
AcDbEllipse
 10
165.1836543792836
 20
51.50962220759151
 30
0.0
 11
0.03545231217175333
 21
-0.03545231217175334
 31
0.0
210
0.0
220
0.0
230
-1.0
 40
0.997265
 41
5.499156671652522
 42
7.067213942706581
  0
ELLIPSE
  5
AC0
330
1F
100
AcDbEntity
  8
OBRYS
  6
CONTINUOUS
100
AcDbEllipse
 10
165.1836543792836
 20
60.81239220759151
 30
0.0
 11
0.03545231217175334
 21
0.03545231217175333
 31
0.0
210
0.0
220
0.0
230
-1.0
 40
0.997265
 41
5.499156671652314
 42
7.067213942706667
  0
ELLIPSE
  5
AC1
330
1F
100
AcDbEntity
  8
OBRYS
  6
CONTINUOUS
100
AcDbEllipse
 10
168.8697473792836
 20
52.90948520759149
 30
0.0
 11
-0.03545231217175333
 21
0.03545231217175334
 31
0.0
210
0.0
220
0.0
230
-1.0
 40
0.997265
 41
5.499156671652519
 42
7.067213942706577
  0
ELLIPSE
  5
AC2
330
1F
100
AcDbEntity
  8
OBRYS
  6
CONTINUOUS
100
AcDbEllipse
 10
167.4710683792836
 20
52.83272220759152
 30
0.0
 11
0.03545231217175333
 21
-0.03545231217175334
 31
0.0
210
0.0
220
0.0
230
-1.0
 40
0.997265
 41
5.499156671652487
 42
7.06721394270658
  0
ELLIPSE
  5
AC3
330
1F
100
AcDbEntity
  8
OBRYS
  6
CONTINUOUS
100
AcDbEllipse
 10
167.5059873792836
 20
51.58638420759148
 30
0.0
 11
0.03545231217175334
 21
0.03545231217175333
 31
0.0
210
0.0
220
0.0
230
-1.0
 40
0.997265
 41
5.499156671652313
 42
7.06721394270665
  0
ELLIPSE
  5
AC4
330
1F
100
AcDbEntity
  8
OBRYS
  6
CONTINUOUS
100
AcDbEllipse
 10
166.4867843792836
 20
51.50962220759151
 30
0.0
 11
-0.03545231217175334
 21
-0.03545231217175333
 31
0.0
210
0.0
220
0.0
230
-1.0
 40
0.997265
 41
5.499156671652313
 42
7.06721394270658
  0
ELLIPSE
  5
AC5
330
1F
100
AcDbEntity
  8
OBRYS
  6
CONTINUOUS
100
AcDbEllipse
 10
165.1836543792836
 20
60.73563020759148
 30
0.0
 11
0.03545231217175333
 21
-0.03545231217175334
 31
0.0
210
0.0
220
0.0
230
-1.0
 40
0.997265
 41
5.499156671652557
 42
7.067213942706581
  0
ELLIPSE
  5
AC6
330
1F
100
AcDbEntity
  8
OBRYS
  6
CONTINUOUS
100
AcDbEllipse
 10
168.5516353792836
 20
60.73563020759148
 30
0.0
 11
-0.03545231217175334
 21
-0.03545231217175333
 31
0.0
210
0.0
220
0.0
230
-1.0
 40
0.997265
 41
5.499156671652309
 42
7.067213942706645
  0
ELLIPSE
  5
AC7
330
1F
100
AcDbEntity
  8
OBRYS
  6
CONTINUOUS
100
AcDbEllipse
 10
167.4710683792836
 20
52.90948520759149
 30
0.0
 11
0.03545231217175334
 21
0.03545231217175333
 31
0.0
210
0.0
220
0.0
230
-1.0
 40
0.997265
 41
5.499156671652592
 42
7.067213942706617
  0
ELLIPSE
  5
AC8
330
1F
100
AcDbEntity
  8
OBRYS
  6
CONTINUOUS
100
AcDbEllipse
 10
166.4867843792836
 20
52.90948520759149
 30
0.0
 11
-0.03545231217175333
 21
0.03545231217175334
 31
0.0
210
0.0
220
0.0
230
-1.0
 40
0.997265
 41
5.499156671652524
 42
7.067213942706582
  0
ELLIPSE
  5
AC9
330
1F
100
AcDbEntity
  8
OBRYS
  6
CONTINUOUS
100
AcDbEllipse
 10
167.4150433792836
 20
52.19726620759148
 30
0.0
 11
0.03545231217175331
 21
-0.03545231217175333
 31
0.0
210
0.0
220
0.0
230
-1.0
 40
0.997265
 41
5.499156671652612
 42
7.06721394270674
  0
ELLIPSE
  5
ACA
330
1F
100
AcDbEntity
  8
OBRYS
  6
CONTINUOUS
100
AcDbEllipse
 10
168.8330073792836
 20
51.50962220759151
 30
0.0
 11
-0.02360964861858024
 21
-0.04417479269303146
 31
0.0
210
0.0
220
0.0
230
-1.0
 40
0.998239
 41
5.793083739115147
 42
6.773286875244221
  0
ELLIPSE
  5
ACB
330
1F
100
AcDbEntity
  8
OBRYS
  6
CONTINUOUS
100
AcDbEllipse
 10
168.0051363792836
 20
52.90948520759149
 30
0.0
 11
0.02359966670000252
 21
0.04418010208077738
 31
0.0
210
0.0
220
0.0
230
-1.0
 40
0.9982399999999999
 41
5.793309065508732
 42
6.773061548850119
  0
ELLIPSE
  5
ACC
330
1F
100
AcDbEntity
  8
OBRYS
  6
CONTINUOUS
100
AcDbEllipse
 10
164.3804003792836
 20
56.52304620759149
 30
0.0
 11
-0.1892292473316091
 21
-0.0750435239077068
 31
0.0
210
0.0
220
0.0
230
1.0
 40
0.982481
 41
5.911653010962473
 42
7.470335956972569
  0
ELLIPSE
  5
ACD
330
1F
100
AcDbEntity
  8
OBRYS
  6
CONTINUOUS
100
AcDbEllipse
 10
164.3804003792836
 20
57.12206920759148
 30
0.0
 11
-0.1892292473316091
 21
0.0750435239077068
 31
0.0
210
0.0
220
0.0
230
1.0
 40
0.982481
 41
5.096034657386534
 42
6.654717603396698
  0
ELLIPSE
  5
ACE
330
1F
100
AcDbEntity
  8
OBRYS
  6
CONTINUOUS
100
AcDbEllipse
 10
167.9742293792836
 20
56.52304620759149
 30
0.0
 11
0.1892292473316091
 21
-0.07504352390770685
 31
0.0
210
0.0
220
0.0
230
1.0
 40
0.982481
 41
5.096034657386467
 42
6.654717603396699
  0
ELLIPSE
  5
ACF
330
1F
100
AcDbEntity
  8
OBRYS
  6
CONTINUOUS
100
AcDbEllipse
 10
167.9742293792836
 20
57.12206920759148
 30
0.0
 11
0.1892292473316091
 21
0.07504352390770685
 31
0.0
210
0.0
220
0.0
230
1.0
 40
0.982481
 41
5.911653010962473
 42
7.470335956972569
  0
ELLIPSE
  5
AD0
330
1F
100
AcDbEntity
  8
OBRYS
  6
CONTINUOUS
100
AcDbEllipse
 10
162.3773143792836
 20
63.30954620759148
 30
0.0
 11
-2.449386863441125E-17
 21
-0.2000076156771474
 31
0.0
210
0.0
220
0.0
230
-1.0
 40
0.999962
 41
1.570796326794897
 42
3.141592653589793
  0
ELLIPSE
  5
AD1
330
1F
100
AcDbEntity
  8
OBRYS
  6
CONTINUOUS
100
AcDbEllipse
 10
169.9773143792836
 20
63.30954620759148
 30
0.0
 11
-2.449386863441125E-17
 21
-0.2000076156771474
 31
0.0
210
0.0
220
0.0
230
-1.0
 40
0.999962
 41
3.141592653589793
 42
4.71238898038469
  0
LWPOLYLINE
  5
AD2
330
1F
100
AcDbEntity
  8
OBRYS
  6
CONTINUOUS
100
AcDbPolyline
 90
       51
 70
     0
 43
0.0
 10
165.8024103792836
 20
52.76922320759148
 10
165.8213603792836
 20
52.76295120759151
 10
165.8392713792836
 20
52.75488720759147
 10
165.8561253792836
 20
52.74515020759149
 10
165.8719083792836
 20
52.73386420759151
 10
165.8866033792836
 20
52.72115020759149
 10
165.9001943792836
 20
52.70712920759148
 10
165.9126663792836
 20
52.6919232075915
 10
165.9240033792836
 20
52.67565320759148
 10
165.9341883792836
 20
52.65844220759151
 10
165.9432063792836
 20
52.6404102075915
 10
165.9510403792836
 20
52.6216802075915
 10
165.9576763792836
 20
52.60237220759147
 10
165.9630963792836
 20
52.58261020759151
 10
165.9672863792836
 20
52.56251320759149
 10
165.9702283792836
 20
52.5422042075915
 10
165.9719083792836
 20
52.5218042075915
 10
165.9723093792836
 20
52.50143520759148
 10
165.9714163792836
 20
52.48121920759148
 10
165.9692123792836
 20
52.46127620759147
 10
165.9656813792836
 20
52.44173020759148
 10
165.9608083792836
 20
52.42270120759149
 10
165.9545773792836
 20
52.40431020759148
 10
165.9469713792836
 20
52.38668020759148
 10
165.9379753792836
 20
52.36993220759148
 10
165.9275733792836
 20
52.35418820759149
 10
165.9154703792836
 20
52.33967320759147
 10
165.9014343792836
 20
52.3264912075915
 10
165.8855483792836
 20
52.31457920759151
 10
165.8678933792836
 20
52.30387320759148
 10
165.8485533792836
 20
52.29431120759146
 10
165.8276073792836
 20
52.2858292075915
 10
165.8051393792836
 20
52.27836520759148
 10
165.7812303792836
 20
52.27185620759148
 10
165.7559623792836
 20
52.26623820759151
 10
165.7294183792836
 20
52.2614492075915
 10
165.7016783792835
 20
52.25742520759148
 10
165.6728263792836
 20
52.25410420759151
 10
165.6429423792836
 20
52.25142320759151
 10
165.6121093792836
 20
52.24931820759149
 10
165.5804093792836
 20
52.24772720759147
 10
165.5479233792836
 20
52.24658620759151
 10
165.5147343792836
 20
52.24583320759147
 10
165.4809233792836
 20
52.24540420759148
 10
165.4465723792836
 20
52.2452372075915
 10
165.4117643792836
 20
52.24526920759148
 10
165.3765803792836
 20
52.24543620759151
 10
165.3411023792836
 20
52.24567520759147
 10
165.3054113792836
 20
52.24592520759147
 10
165.2695913792836
 20
52.24612020759149
 10
165.2337233792836
 20
52.24620020759151
  0
LWPOLYLINE
  5
AD3
330
1F
100
AcDbEntity
  8
OBRYS
  6
CONTINUOUS
100
AcDbPolyline
 90
       51
 70
     0
 43
0.0
 10
165.7659563792836
 20
61.89661220759147
 10
165.7934483792836
 20
61.92084420759151
 10
165.8223893792836
 20
61.94274120759148
 10
165.8526293792836
 20
61.96231520759152
 10
165.8840163792836
 20
61.97957220759149
 10
165.9164003792836
 20
61.99452320759148
 10
165.9496303792836
 20
62.00717520759149
 10
165.9835533792836
 20
62.01753820759153
 10
166.0180203792836
 20
62.02562120759147
 10
166.0528783792836
 20
62.03143120759147
 10
166.0879773792836
 20
62.03497820759149
 10
166.1231663792836
 20
62.03627120759153
 10
166.1582943792836
 20
62.03531920759148
 10
166.1932083792836
 20
62.03212920759152
 10
166.2277603792836
 20
62.0267122075915
 10
166.2617963792836
 20
62.01907620759151
 10
166.2951673792836
 20
62.00922820759148
 10
166.3277203792836
 20
61.99718020759148
 10
166.3593063792836
 20
61.98293820759152
 10
166.3897723792836
 20
61.96651220759149
 10
166.4189683792836
 20
61.9479112075915
 10
166.4467423792836
 20
61.92714420759147
 10
166.4729433792836
 20
61.90421820759148
 10
166.4974213792836
 20
61.87914420759147
 10
166.5200243792836
 20
61.85192920759151
 10
166.5406013792836
 20
61.82258320759148
 10
166.5591493792836
 20
61.79088220759148
 10
166.5757633792836
 20
61.75678320759151
 10
166.5904453792836
 20
61.7205632075915
 10
166.6031943792836
 20
61.68250020759147
 10
166.6140093792836
 20
61.64287320759148
 10
166.6228923792836
 20
61.60195820759149
 10
166.6298413792836
 20
61.5600342075915
 10
166.6348583792836
 20
61.51737920759147
 10
166.6379403792836
 20
61.47427120759151
 10
166.6390903792836
 20
61.43098720759149
 10
166.6383063792836
 20
61.38780520759148
 10
166.6355883792836
 20
61.34500320759149
 10
166.6309333792836
 20
61.30296720759149
 10
166.6243343792836
 20
61.26252120759146
 10
166.6158203792836
 20
61.2237832075915
 10
166.6054283792836
 20
61.18675520759153
 10
166.5931933792836
 20
61.15143920759151
 10
166.5791523792836
 20
61.11783320759149
 10
166.5633393792836
 20
61.08594120759152
 10
166.5457913792836
 20
61.05576220759148
 10
166.5265433792836
 20
61.0272972075915
 10
166.5056313792836
 20
61.00054720759151
 10
166.4830913792836
 20
60.97551220759151
 10
166.4589583792836
 20
60.95219520759149
 10
166.4332693792836
 20
60.93059520759151
  0
LWPOLYLINE
  5
AD4
330
1F
100
AcDbEntity
  8
OBRYS
  6
CONTINUOUS
100
AcDbPolyline
 90
       51
 70
     0
 43
0.0
 10
163.7011063792836
 20
52.67060520759149
 10
163.7285973792836
 20
52.69483620759148
 10
163.7575393792836
 20
52.7167342075915
 10
163.7877793792836
 20
52.73630720759148
 10
163.8191663792836
 20
52.75356520759151
 10
163.8515503792836
 20
52.76851520759151
 10
163.8847793792836
 20
52.78116820759151
 10
163.9187033792836
 20
52.79153120759149
 10
163.9531693792836
 20
52.79961320759149
 10
163.9880283792836
 20
52.80542320759149
 10
164.0231273792836
 20
52.80897120759151
 10
164.0583163792836
 20
52.81026420759149
 10
164.0934433792836
 20
52.80931120759151
 10
164.1283583792836
 20
52.80612220759149
 10
164.1629093792835
 20
52.80070420759147
 10
164.1969463792836
 20
52.79306820759147
 10
164.2303163792836
 20
52.7832212075915
 10
164.2628703792836
 20
52.7711722075915
 10
164.2944553792836
 20
52.75693120759148
 10
164.3249213792836
 20
52.74050520759151
 10
164.3541173792836
 20
52.72190420759146
 10
164.3818913792836
 20
52.70113620759149
 10
164.4080933792836
 20
52.6782112075915
 10
164.4325713792836
 20
52.65313620759149
 10
164.4551743792836
 20
52.62592120759147
 10
164.4757513792836
 20
52.5965752075915
 10
164.4942983792835
 20
52.5648742075915
 10
164.5109133792836
 20
52.53077520759147
 10
164.5255953792836
 20
52.49455520759152
 10
164.5383433792836
 20
52.45649320759149
 10
164.5491593792836
 20
52.4168652075915
 10
164.5580423792836
 20
52.37595020759152
 10
164.5649913792836
 20
52.33402720759152
 10
164.5700073792836
 20
52.29137220759149
 10
164.5730903792836
 20
52.24826320759148
 10
164.5742393792836
 20
52.20497920759151
 10
164.5734553792836
 20
52.1617972075915
 10
164.5707383792836
 20
52.11899520759151
 10
164.5660833792836
 20
52.07696020759151
 10
164.5594833792836
 20
52.03651320759148
 10
164.5509703792836
 20
51.99777520759152
 10
164.5405783792836
 20
51.96074820759149
 10
164.5283433792836
 20
51.92543120759147
 10
164.5143013792836
 20
51.89182620759151
 10
164.4984893792836
 20
51.85993320759148
 10
164.4809403792836
 20
51.82975420759151
 10
164.4616933792836
 20
51.80128920759147
 10
164.4407813792835
 20
51.77453920759147
 10
164.4182413792836
 20
51.74950520759147
 10
164.3941083792836
 20
51.72618720759151
 10
164.3684193792836
 20
51.70458720759147
  0
LWPOLYLINE
  5
AD5
330
1F
100
AcDbEntity
  8
OBRYS
  6
CONTINUOUS
100
AcDbPolyline
 90
       51
 70
     0
 43
0.0
 10
167.1147663792836
 20
60.89776420759152
 10
167.1485103792836
 20
60.85235320759146
 10
167.1868993792836
 20
60.8118332075915
 10
167.2300243792836
 20
60.77616520759152
 10
167.2779743792836
 20
60.74531020759149
 10
167.3308403792836
 20
60.71922920759151
 10
167.3887113792836
 20
60.69788320759152
 10
167.4522993792836
 20
60.68107820759148
 10
167.5224753792836
 20
60.66863920759151
 10
167.5972193792836
 20
60.66118620759151
 10
167.6743483792836
 20
60.65937920759153
 10
167.7516823792836
 20
60.66387720759148
 10
167.8270373792836
 20
60.67534120759147
 10
167.8981823792836
 20
60.6944892075915
 10
167.9630563792836
 20
60.7220032075915
 10
168.0211893792836
 20
60.75707120759147
 10
168.0723713792836
 20
60.7986182075915
 10
168.1163913792836
 20
60.84557020759148
 10
168.1530393792836
 20
60.89685220759149
 10
168.1821053792836
 20
60.95139220759152
 10
168.2033763792836
 20
61.00811320759151
 10
168.2166443792836
 20
61.06594420759153
 10
168.2216983792836
 20
61.12380820759152
 10
168.2183263792836
 20
61.18063320759153
 10
168.2063193792836
 20
61.23534320759153
 10
168.1854653792836
 20
61.2868662075915
 10
168.1557843792836
 20
61.33439020759151
 10
168.1176473792836
 20
61.37794920759153
 10
168.0709513792836
 20
61.41742220759151
 10
168.0159223792836
 20
61.45260520759153
 10
167.9476173792836
 20
61.4847002075915
 10
167.8519123792836
 20
61.51715620759147
 10
167.7138173792836
 20
61.55334520759151
 10
167.5504553792836
 20
61.5926782075915
 10
167.4249683792836
 20
61.6318792075915
 10
167.3479253792836
 20
61.67047620759148
 10
167.3055153792836
 20
61.71176420759149
 10
167.2859823792836
 20
61.75855620759147
 10
167.2809283792836
 20
61.81274320759148
 10
167.2891533792836
 20
61.86814820759149
 10
167.3134093792836
 20
61.9189142075915
 10
167.3544483792836
 20
61.96303020759147
 10
167.4130243792836
 20
61.99848720759148
 10
167.4898903792836
 20
62.02327420759148
 10
167.5857973792836
 20
62.03538320759149
 10
167.6896673792836
 20
62.03284620759148
 10
167.7795963792836
 20
62.0149132075915
 10
167.8545653792836
 20
61.98168620759149
 10
167.9140383792836
 20
61.93327320759151
 10
167.9574823792836
 20
61.86978220759151
 10
167.9843593792836
 20
61.79132120759151
  0
LWPOLYLINE
  5
AD6
330
1F
100
AcDbEntity
  8
OBRYS
  6
CONTINUOUS
100
AcDbPolyline
 90
       51
 70
     0
 43
0.0
 10
166.7861203792836
 20
61.76756520759152
 10
166.7676083792836
 20
61.81177220759149
 10
166.7464523792836
 20
61.85419320759148
 10
166.7227523792836
 20
61.89472820759151
 10
166.6966093792836
 20
61.9332772075915
 10
166.6681263792836
 20
61.96974320759146
 10
166.6374023792836
 20
62.00402320759149
 10
166.6045393792836
 20
62.03602120759147
 10
166.5696383792836
 20
62.06563520759151
 10
166.5328003792836
 20
62.09276620759151
 10
166.4941273792836
 20
62.11731620759149
 10
166.4537183792836
 20
62.13918420759147
 10
166.4116773792836
 20
62.15827120759148
 10
166.3680793792836
 20
62.17447920759149
 10
166.3229693792836
 20
62.1877582075915
 10
166.2766293792836
 20
62.19813320759151
 10
166.2293763792836
 20
62.2056332075915
 10
166.1815273792836
 20
62.21028920759152
 10
166.1333983792836
 20
62.21212820759148
 10
166.0853063792836
 20
62.21118020759148
 10
166.0375663792836
 20
62.20747620759151
 10
165.9904963792836
 20
62.2010422075915
 10
165.9444113792836
 20
62.19191020759148
 10
165.8996283792836
 20
62.18010920759149
 10
165.8564633792836
 20
62.16566720759151
 10
165.8152343792836
 20
62.14861420759148
 10
165.7757243792836
 20
62.12889020759148
 10
165.7375943792836
 20
62.10646520759148
 10
165.7009683792836
 20
62.08141120759147
 10
165.6659743792836
 20
62.05380320759149
 10
165.6327363792836
 20
62.02371420759151
 10
165.6013803792836
 20
61.99121620759148
 10
165.5720333792836
 20
61.95638420759148
 10
165.5448203792836
 20
61.91929020759152
 10
165.5198683792836
 20
61.8800082075915
 10
165.4973023792836
 20
61.83861120759148
 10
165.4772473792836
 20
61.7951732075915
 10
165.4598313792836
 20
61.74976720759149
 10
165.4451113792836
 20
61.70235820759147
 10
165.4328153792836
 20
61.65249120759152
 10
165.4230223792836
 20
61.6004242075915
 10
165.4158823792836
 20
61.54653320759148
 10
165.4115413792836
 20
61.49119520759153
 10
165.4101493792836
 20
61.4347882075915
 10
165.4118543792836
 20
61.3776882075915
 10
165.4168053792836
 20
61.32027320759151
 10
165.4251493792836
 20
61.26291920759148
 10
165.4370343792836
 20
61.20600420759148
 10
165.4526103792836
 20
61.14990520759152
 10
165.4720253792836
 20
61.0949992075915
 10
165.4954263792836
 20
61.0416622075915
  0
LWPOLYLINE
  5
AD7
330
1F
100
AcDbEntity
  8
OBRYS
  6
CONTINUOUS
100
AcDbPolyline
 90
       51
 70
     0
 43
0.0
 10
164.7212703792836
 20
52.54155720759148
 10
164.7027583792836
 20
52.58576420759151
 10
164.6816023792836
 20
52.6281852075915
 10
164.6579023792836
 20
52.66872020759148
 10
164.6317593792836
 20
52.70727020759146
 10
164.6032753792836
 20
52.74373520759148
 10
164.5725523792836
 20
52.77801620759151
 10
164.5396893792836
 20
52.8100132075915
 10
164.5047883792836
 20
52.83962720759148
 10
164.4679503792836
 20
52.86675920759147
 10
164.4292763792836
 20
52.89130820759151
 10
164.3888683792836
 20
52.91317620759149
 10
164.3468263792836
 20
52.9322642075915
 10
164.3032293792836
 20
52.94847120759151
 10
164.2581183792836
 20
52.96175020759146
 10
164.2117793792836
 20
52.97212520759147
 10
164.1645263792836
 20
52.97962620759147
 10
164.1166773792836
 20
52.98428120759148
 10
164.0685483792836
 20
52.9861202075915
 10
164.0204563792836
 20
52.9851732075915
 10
163.9727163792836
 20
52.98146820759148
 10
163.9256453792836
 20
52.97503520759152
 10
163.8795603792836
 20
52.9659032075915
 10
163.8347773792836
 20
52.95410120759151
 10
163.7916133792836
 20
52.93965920759148
 10
163.7503833792836
 20
52.9226062075915
 10
163.7108743792836
 20
52.9028822075915
 10
163.6727443792836
 20
52.8804572075915
 10
163.6361183792836
 20
52.85540420759149
 10
163.6011233792836
 20
52.82779520759151
 10
163.5678853792836
 20
52.79770620759147
 10
163.5365303792836
 20
52.7652082075915
 10
163.5071833792836
 20
52.7303762075915
 10
163.4799703792836
 20
52.69328220759148
 10
163.4550173792836
 20
52.65400020759147
 10
163.4324513792835
 20
52.6126042075915
 10
163.4123973792836
 20
52.56916520759147
 10
163.3949813792836
 20
52.52375920759151
 10
163.3802613792836
 20
52.47635020759149
 10
163.3679653792836
 20
52.42648420759149
 10
163.3581723792836
 20
52.37441620759147
 10
163.3510313792836
 20
52.3205252075915
 10
163.3466913792836
 20
52.26518820759149
 10
163.3452993792836
 20
52.20878020759152
 10
163.3470043792836
 20
52.15168020759147
 10
163.3519543792836
 20
52.09426520759148
 10
163.3602983792836
 20
52.0369112075915
 10
163.3721843792836
 20
51.9799962075915
 10
163.3877603792835
 20
51.92389720759148
 10
163.4071753792836
 20
51.86899120759146
 10
163.4305763792836
 20
51.81565520759146
  0
LWPOLYLINE
  5
AD8
330
1F
100
AcDbEntity
  8
OBRYS
  6
CONTINUOUS
100
AcDbPolyline
 90
       51
 70
     0
 43
0.0
 10
163.7049433792836
 20
60.92616020759151
 10
163.6747943792836
 20
60.90358820759148
 10
163.6420523792836
 20
60.8839482075915
 10
163.6070653792836
 20
60.86729720759148
 10
163.5701793792836
 20
60.85369420759149
 10
163.5317413792836
 20
60.84319520759151
 10
163.4920993792836
 20
60.8358562075915
 10
163.4515983792836
 20
60.8317372075915
 10
163.4105863792836
 20
60.83089320759153
 10
163.3694103792836
 20
60.8333822075915
 10
163.3284173792836
 20
60.83926220759149
 10
163.2879533792836
 20
60.84858920759153
 10
163.2483663792836
 20
60.86142120759148
 10
163.2100503792836
 20
60.87783120759148
 10
163.1738153792836
 20
60.8979992075915
 10
163.1399013792836
 20
60.9218642075915
 10
163.1083763792836
 20
60.94929820759147
 10
163.0793093792836
 20
60.98017820759149
 10
163.0527683792836
 20
61.01437720759149
 10
163.0288203792836
 20
61.0517702075915
 10
163.0075363792836
 20
61.09223220759149
 10
162.9889823792836
 20
61.1356372075915
 10
162.9732273792836
 20
61.1818602075915
 10
162.9603403792836
 20
61.23077520759146
 10
162.9503893792836
 20
61.28225720759148
 10
162.9434423792836
 20
61.33618020759148
 10
162.9395463792836
 20
61.39233920759146
 10
162.9387923792836
 20
61.45010520759148
 10
162.9414013792836
 20
61.50877420759149
 10
162.9476013792836
 20
61.5676452075915
 10
162.9576203792836
 20
61.62601620759152
 10
162.9716853792836
 20
61.6831872075915
 10
162.9900253792836
 20
61.73845720759151
 10
163.0128663792836
 20
61.79112620759149
 10
163.0404363792836
 20
61.84049220759151
 10
163.0729633792836
 20
61.88585520759146
 10
163.1106753792836
 20
61.92651420759147
 10
163.1537993792836
 20
61.96176820759148
 10
163.2025703792836
 20
61.99091820759149
 10
163.2578553792836
 20
62.01365720759149
 10
163.3186013792836
 20
62.02986120759151
 10
163.3825933792836
 20
62.03923420759149
 10
163.4476153792836
 20
62.0414802075915
 10
163.5114493792836
 20
62.0363032075915
 10
163.5718803792836
 20
62.02340520759149
 10
163.6270523792836
 20
62.0026012075915
 10
163.6768093792836
 20
61.97376620759148
 10
163.7212973792836
 20
61.93645820759149
 10
163.7606493792836
 20
61.89022320759152
 10
163.7949983792836
 20
61.83460520759148
 10
163.8244753792836
 20
61.76915020759149
  0
LWPOLYLINE
  5
AD9
330
1F
100
AcDbEntity
  8
OBRYS
  6
CONTINUOUS
100
AcDbPolyline
 90
       51
 70
     0
 43
0.0
 10
164.0159563792836
 20
61.82821820759146
 10
163.9875963792836
 20
61.89121120759147
 10
163.9533673792836
 20
61.94909020759148
 10
163.9136363792836
 20
62.00167920759149
 10
163.8687763792836
 20
62.04880520759149
 10
163.8191573792836
 20
62.0902932075915
 10
163.7651483792836
 20
62.12596920759152
 10
163.7071213792836
 20
62.15565920759148
 10
163.6454463792836
 20
62.17918820759148
 10
163.5804933792836
 20
62.1963832075915
 10
163.5126333792836
 20
62.20706820759152
 10
163.4422363792836
 20
62.21106920759148
 10
163.3696733792836
 20
62.20821320759147
 10
163.2971953792836
 20
62.1983162075915
 10
163.2272743792836
 20
62.18144520759152
 10
163.1603183792836
 20
62.15780920759151
 10
163.0967353792836
 20
62.12761820759151
 10
163.0369333792836
 20
62.0910822075915
 10
162.9813203792836
 20
62.04840920759146
 10
162.9303033792836
 20
61.9998092075915
 10
162.8842913792836
 20
61.94549220759153
 10
162.8436913792836
 20
61.88566620759148
 10
162.8089103792836
 20
61.82054320759151
 10
162.7803573792836
 20
61.75033020759149
 10
162.7584403792836
 20
61.67523820759151
 10
162.7435573792836
 20
61.59548520759152
 10
162.7355643792836
 20
61.51202520759146
 10
162.7342613792836
 20
61.42631820759151
 10
162.7396763792836
 20
61.33966520759149
 10
162.7518393792836
 20
61.25336820759149
 10
162.7707753792836
 20
61.16872520759146
 10
162.7965133792836
 20
61.08703820759148
 10
162.8288613792836
 20
61.01009120759151
 10
162.8673673792836
 20
60.93992420759149
 10
162.9121993792836
 20
60.87691920759151
 10
162.9635583792836
 20
60.82138520759149
 10
163.0216413792836
 20
60.77363020759149
 10
163.0866503792836
 20
60.73396220759149
 10
163.1590053792836
 20
60.7026392075915
 10
163.2409633792836
 20
60.67940020759151
 10
163.3304323792836
 20
60.6647492075915
 10
163.4240643792836
 20
60.65945320759151
 10
163.5185133792836
 20
60.6642772075915
 10
163.6104323792836
 20
60.67998720759151
 10
163.6964753792836
 20
60.70734820759149
 10
163.7747133792836
 20
60.74672620759149
 10
163.8455373792836
 20
60.79765920759148
 10
163.9084793792836
 20
60.85982120759148
 10
163.9630623792836
 20
60.93288420759153
 10
164.0088103792836
 20
61.01652320759148
 10
164.0452433792836
 20
61.11041120759147
  0
LWPOLYLINE
  5
ADA
330
1F
100
AcDbEntity
  8
OBRYS
  6
CONTINUOUS
100
AcDbPolyline
 90
       51
 70
     0
 43
0.0
 10
163.4305763792836
 20
51.81565520759146
 10
163.4504223792836
 20
51.77814420759147
 10
163.4727813792836
 20
51.74230520759151
 10
163.4975153792836
 20
51.70818820759148
 10
163.5244853792836
 20
51.67584420759151
 10
163.5535523792836
 20
51.64532120759149
 10
163.5845773792836
 20
51.61667220759146
 10
163.6174233792836
 20
51.58994620759147
 10
163.6519493792836
 20
51.56519320759149
 10
163.6880173792836
 20
51.54246420759146
 10
163.7254893792836
 20
51.52181020759149
 10
163.7642263792836
 20
51.50327920759149
 10
163.8040883792836
 20
51.48692320759152
 10
163.8449373792836
 20
51.47279320759149
 10
163.8866353792836
 20
51.46093720759147
 10
163.9290423792836
 20
51.45140820759148
 10
163.9720203792836
 20
51.44425420759147
 10
164.0154303792836
 20
51.43952620759147
 10
164.0591333792836
 20
51.43727520759147
 10
164.1029913792836
 20
51.43755120759151
 10
164.1468643792836
 20
51.44040420759147
 10
164.1906153792836
 20
51.4458852075915
 10
164.2341033792836
 20
51.45404320759148
 10
164.2771913792836
 20
51.46492920759151
 10
164.3197393792836
 20
51.47859420759151
 10
164.3616103792836
 20
51.49508720759148
 10
164.4022513792836
 20
51.51458420759148
 10
164.4411633792836
 20
51.53712020759149
 10
164.4782883792836
 20
51.56254420759147
 10
164.5135643792836
 20
51.59070120759149
 10
164.5469333792836
 20
51.62143820759148
 10
164.5783333792836
 20
51.65460220759148
 10
164.6077053792836
 20
51.69003820759148
 10
164.6349903792836
 20
51.72759420759148
 10
164.6601263792836
 20
51.76711620759151
 10
164.6830553792836
 20
51.80845120759152
 10
164.7037163792836
 20
51.85144420759148
 10
164.7220493792836
 20
51.89594220759152
 10
164.7379943792835
 20
51.94179320759149
 10
164.7514923792836
 20
51.98884120759151
 10
164.7624823792836
 20
52.0369352075915
 10
164.7709043792836
 20
52.08591920759152
 10
164.7766993792836
 20
52.13564220759149
 10
164.7798063792836
 20
52.18594820759147
 10
164.7801663792836
 20
52.23668620759149
 10
164.7777183792836
 20
52.2877002075915
 10
164.7724033792836
 20
52.33883820759148
 10
164.7641613792836
 20
52.38994720759148
 10
164.7529313792836
 20
52.44087120759148
 10
164.7386543792836
 20
52.49145920759149
 10
164.7212703792836
 20
52.54155720759148
  0
LWPOLYLINE
  5
ADB
330
1F
100
AcDbEntity
  8
OBRYS
  6
CONTINUOUS
100
AcDbPolyline
 90
       51
 70
     0
 43
0.0
 10
165.4954263792836
 20
61.0416622075915
 10
165.5152723792836
 20
61.0041522075915
 10
165.5376313792836
 20
60.96831320759149
 10
165.5623653792836
 20
60.93419620759151
 10
165.5893353792836
 20
60.90185120759149
 10
165.6184023792836
 20
60.87132920759153
 10
165.6494283792836
 20
60.8426802075915
 10
165.6822733792836
 20
60.8159542075915
 10
165.7167993792836
 20
60.79120120759147
 10
165.7528683792836
 20
60.7684722075915
 10
165.7903393792836
 20
60.74781720759152
 10
165.8290763792836
 20
60.72928720759147
 10
165.8689383792836
 20
60.7129312075915
 10
165.9097873792836
 20
60.69880020759147
 10
165.9514853792836
 20
60.68694520759151
 10
165.9938923792836
 20
60.67741520759147
 10
166.0368703792836
 20
60.67026120759151
 10
166.0802803792836
 20
60.66553420759151
 10
166.1239843792836
 20
60.6632832075915
 10
166.1678413792836
 20
60.66355920759149
 10
166.2117153792836
 20
60.66641220759151
 10
166.2554653792836
 20
60.67189220759148
 10
166.2989533792836
 20
60.68005120759152
 10
166.3420413792836
 20
60.69093720759149
 10
166.3845903792836
 20
60.70460220759149
 10
166.4264603792836
 20
60.72109520759152
 10
166.4671013792836
 20
60.74059120759146
 10
166.5060143792836
 20
60.76312820759152
 10
166.5431383792836
 20
60.78855220759151
 10
166.5784153792836
 20
60.81670920759153
 10
166.6117833792836
 20
60.84744620759152
 10
166.6431833792836
 20
60.88060920759152
 10
166.6725563792836
 20
60.91604620759152
 10
166.6998403792836
 20
60.95360220759152
 10
166.7249773792836
 20
60.99312420759149
 10
166.7479053792836
 20
61.0344582075915
 10
166.7685663792836
 20
61.07745220759146
 10
166.7868993792836
 20
61.1219502075915
 10
166.8028443792836
 20
61.16780020759153
 10
166.8163423792836
 20
61.21484920759148
 10
166.8273323792836
 20
61.26294220759148
 10
166.8357543792836
 20
61.31192720759149
 10
166.8415493792836
 20
61.36164920759153
 10
166.8446563792836
 20
61.4119562075915
 10
166.8450163792836
 20
61.46269320759153
 10
166.8425693792836
 20
61.51370820759148
 10
166.8372543792836
 20
61.56484620759151
 10
166.8290113792836
 20
61.61595420759151
 10
166.8177813792836
 20
61.66687920759146
 10
166.8035043792836
 20
61.71746720759153
 10
166.7861203792836
 20
61.76756520759152
  0
LWPOLYLINE
  5
ADC
330
1F
100
AcDbEntity
  8
OBRYS
  6
CONTINUOUS
100
AcDbPolyline
 90
       51
 70
     0
 43
0.0
 10
164.3684193792836
 20
51.70458720759147
 10
164.3414123792836
 20
51.68499320759149
 10
164.3132423792836
 20
51.66756820759149
 10
164.2840373792836
 20
51.6522982075915
 10
164.2539263792836
 20
51.6391702075915
 10
164.2230363792836
 20
51.62816720759149
 10
164.1914963792836
 20
51.61927620759148
 10
164.1594343792836
 20
51.61248220759147
 10
164.1269783792836
 20
51.60777120759148
 10
164.0942563792836
 20
51.60512820759151
 10
164.0613963792836
 20
51.60454020759151
 10
164.0285263792836
 20
51.60599120759149
 10
163.9957753792836
 20
51.60946620759147
 10
163.9632713792836
 20
51.61495320759148
 10
163.9311413792836
 20
51.62243620759146
 10
163.8995143792836
 20
51.6319002075915
 10
163.8685183792836
 20
51.64333120759152
 10
163.8382813792836
 20
51.65671620759149
 10
163.8089313792836
 20
51.67203820759151
 10
163.7805973792836
 20
51.68928520759151
 10
163.7534063792836
 20
51.70844120759146
 10
163.7274863792836
 20
51.72949220759146
 10
163.7029673792836
 20
51.75242420759149
 10
163.6799753792835
 20
51.77722120759147
 10
163.6586403792836
 20
51.80387120759148
 10
163.6390893792836
 20
51.83235720759147
 10
163.6215213792836
 20
51.86294920759148
 10
163.6060183792836
 20
51.8957472075915
 10
163.5925243792836
 20
51.93048320759151
 10
163.5809863792836
 20
51.9668902075915
 10
163.5713523792836
 20
52.00470020759148
 10
163.5635683792836
 20
52.04364720759149
 10
163.5575813792836
 20
52.08346320759146
 10
163.5533363792836
 20
52.12388120759151
 10
163.5507823792836
 20
52.16463320759151
 10
163.5498643792835
 20
52.20545220759151
 10
163.5505303792836
 20
52.2460712075915
 10
163.5527253792836
 20
52.28622320759148
 10
163.5563783792836
 20
52.32554920759149
 10
163.5613423792836
 20
52.36333620759147
 10
163.5675973792836
 20
52.39948020759151
 10
163.5751423792836
 20
52.43398220759148
 10
163.5839773792836
 20
52.46684220759151
 10
163.5941023792836
 20
52.49805920759148
 10
163.6055183792836
 20
52.5276352075915
 10
163.6182233792836
 20
52.55556920759152
 10
163.6322193792836
 20
52.58186020759148
 10
163.6475063792836
 20
52.60650920759149
 10
163.6640823792836
 20
52.62951720759149
 10
163.6819493792836
 20
52.65088220759149
 10
163.7011063792836
 20
52.67060520759149
  0
LWPOLYLINE
  5
ADD
330
1F
100
AcDbEntity
  8
OBRYS
  6
CONTINUOUS
100
AcDbPolyline
 90
       51
 70
     0
 43
0.0
 10
166.4332693792836
 20
60.93059520759151
 10
166.4062623792836
 20
60.91100120759153
 10
166.3780923792836
 20
60.89357620759152
 10
166.3488873792836
 20
60.87830620759148
 10
166.3187763792836
 20
60.86517720759149
 10
166.2878873792836
 20
60.85417420759153
 10
166.2563473792836
 20
60.84528320759146
 10
166.2242853792836
 20
60.83849020759151
 10
166.1918283792836
 20
60.83377920759152
 10
166.1591063792836
 20
60.83113620759148
 10
166.1262463792836
 20
60.83054720759149
 10
166.0933773792836
 20
60.83199820759147
 10
166.0606253792836
 20
60.8354742075915
 10
166.0281213792836
 20
60.84096120759146
 10
165.9959913792836
 20
60.8484432075915
 10
165.9643643792836
 20
60.85790820759148
 10
165.9333683792836
 20
60.86933920759149
 10
165.9031313792836
 20
60.88272320759152
 10
165.8737813792836
 20
60.89804620759149
 10
165.8454473792836
 20
60.91529320759149
 10
165.8182563792836
 20
60.9344492075915
 10
165.7923373792836
 20
60.9555002075915
 10
165.7678173792836
 20
60.97843120759147
 10
165.7448263792836
 20
61.0032292075915
 10
165.7234903792836
 20
61.02987820759152
 10
165.7039393792836
 20
61.05836520759151
 10
165.6863723792836
 20
61.08895720759152
 10
165.6708683792836
 20
61.12175520759148
 10
165.6573743792836
 20
61.15649120759149
 10
165.6458373792836
 20
61.19289720759149
 10
165.6362033792836
 20
61.23070820759152
 10
165.6284193792836
 20
61.26965520759153
 10
165.6224313792836
 20
61.3094712075915
 10
165.6181873792836
 20
61.34988820759149
 10
165.6156323792836
 20
61.39064020759149
 10
165.6147153792836
 20
61.43146020759148
 10
165.6153803792836
 20
61.47207920759148
 10
165.6175753792836
 20
61.51223120759151
 10
165.6212283792836
 20
61.55155720759147
 10
165.6261933792836
 20
61.58934320759151
 10
165.6324473792836
 20
61.62548720759149
 10
165.6399923792836
 20
61.65998920759147
 10
165.6488273792836
 20
61.69284920759149
 10
165.6589523792836
 20
61.72406720759152
 10
165.6703683792836
 20
61.75364320759148
 10
165.6830743792836
 20
61.7815762075915
 10
165.6970703792836
 20
61.80786820759151
 10
165.7123563792836
 20
61.83251720759152
 10
165.7289323792836
 20
61.85552420759153
 10
165.7467993792836
 20
61.87688920759147
 10
165.7659563792836
 20
61.89661220759147
  0
LWPOLYLINE
  5
ADE
330
1F
100
AcDbEntity
  8
OBRYS
  6
CONTINUOUS
100
AcDbPolyline
 90
       51
 70
     0
 43
0.0
 10
168.1766143792836
 20
61.81627720759148
 10
168.1684663792836
 20
61.85828720759149
 10
168.1566713792836
 20
61.89870320759148
 10
168.1412863792836
 20
61.93736420759147
 10
168.1223663792836
 20
61.97410820759147
 10
168.0999673792836
 20
62.00877120759149
 10
168.0741453792836
 20
62.0411912075915
 10
168.0449563792836
 20
62.07120720759148
 10
168.0124563792836
 20
62.09865520759148
 10
167.9767023792836
 20
62.12337320759148
 10
167.9377483792836
 20
62.14520020759151
 10
167.8956523792836
 20
62.16397120759153
 10
167.8504593792836
 20
62.17954320759149
 10
167.8023273792836
 20
62.19194120759151
 10
167.7518303792836
 20
62.20116320759148
 10
167.6995933792836
 20
62.20717920759147
 10
167.6462433792836
 20
62.20996320759149
 10
167.5924043792836
 20
62.2094842075915
 10
167.5387033792836
 20
62.20571620759152
 10
167.4857653792836
 20
62.19862920759151
 10
167.4342163792836
 20
62.18819520759148
 10
167.3846823792836
 20
62.1743862075915
 10
167.3377893792836
 20
62.15717420759152
 10
167.2941613792836
 20
62.13652920759147
 10
167.2544263792836
 20
62.1124242075915
 10
167.2190793792836
 20
62.08483120759148
 10
167.1879743792836
 20
62.05394220759148
 10
167.1611033792836
 20
62.02021220759148
 10
167.1384913792836
 20
61.98411220759151
 10
167.1201683792836
 20
61.9461102075915
 10
167.1061613792836
 20
61.90667620759153
 10
167.0964983792836
 20
61.86627820759149
 10
167.0912063792836
 20
61.82538620759151
 10
167.0903143792836
 20
61.78446820759153
 10
167.0938483792836
 20
61.74399420759151
 10
167.1018373792836
 20
61.70443420759146
 10
167.1143093792836
 20
61.6662552075915
 10
167.1312913792836
 20
61.62992720759148
 10
167.1518703792836
 20
61.59603020759151
 10
167.1751203792836
 20
61.56477620759152
 10
167.2027533792836
 20
61.5357622075915
 10
167.2365473792836
 20
61.50856920759149
 10
167.2782793792836
 20
61.48278220759151
 10
167.3297293792836
 20
61.45798420759148
 10
167.3936083792836
 20
61.43353520759148
 10
167.4763303792836
 20
61.40765120759151
 10
167.5705213792836
 20
61.38134920759147
 10
167.6660443792836
 20
61.3562562075915
 10
167.7527583792836
 20
61.33400120759153
 10
167.8205243792836
 20
61.31621220759148
 10
167.8592023792836
 20
61.3045172075915
  0
LWPOLYLINE
  5
ADF
330
1F
100
AcDbEntity
  8
OBRYS
  6
CONTINUOUS
100
AcDbPolyline
 90
       51
 70
     0
 43
0.0
 10
167.8592023792836
 20
61.3045172075915
 10
167.8867853792836
 20
61.29277220759148
 10
167.9119723792836
 20
61.27952220759151
 10
167.9347713792836
 20
61.26490120759148
 10
167.9551913792836
 20
61.2490422075915
 10
167.9732423792836
 20
61.23208120759146
 10
167.9889313792836
 20
61.21414920759149
 10
168.0022683792836
 20
61.19538120759147
 10
168.0132623792836
 20
61.17591020759151
 10
168.0219223792836
 20
61.15587020759152
 10
168.0282563792836
 20
61.13539520759149
 10
168.0322733792836
 20
61.11461920759153
 10
168.0339823792836
 20
61.09367520759149
 10
168.0333923792836
 20
61.07269620759148
 10
168.0305123792836
 20
61.0518172075915
 10
168.0253513792836
 20
61.0311712075915
 10
168.0179173792836
 20
61.01089220759148
 10
168.0082193792836
 20
60.99111320759151
 10
167.9962673792836
 20
60.97196820759153
 10
167.9820683792836
 20
60.95359220759148
 10
167.9656333792836
 20
60.9361162075915
 10
167.9469693792836
 20
60.91967620759151
 10
167.9260863792836
 20
60.90440520759147
 10
167.9029923792836
 20
60.89043620759149
 10
167.8776963792836
 20
60.87790420759153
 10
167.8502083792836
 20
60.86694120759147
 10
167.8205533792836
 20
60.85768420759153
 10
167.7891203792836
 20
60.8502662075915
 10
167.7563023792836
 20
60.84470020759152
 10
167.7224073792836
 20
60.84097420759149
 10
167.6877483792836
 20
60.83907220759151
 10
167.6526363792836
 20
60.83898320759151
 10
167.6173803792836
 20
60.84069220759152
 10
167.5822933792836
 20
60.84418620759151
 10
167.5476853792836
 20
60.84945220759151
 10
167.5138673792836
 20
60.85647720759151
 10
167.4811503792836
 20
60.86524720759148
 10
167.4498453792836
 20
60.87574820759151
 10
167.4202623792836
 20
60.88796820759147
 10
167.3927283792836
 20
60.90182820759149
 10
167.3675243792836
 20
60.9168412075915
 10
167.3446063792836
 20
60.9329632075915
 10
167.3238843792836
 20
60.95026520759153
 10
167.3052663792836
 20
60.96881620759153
 10
167.2886623792836
 20
60.9886852075915
 10
167.2739823792836
 20
61.0099412075915
 10
167.2611353792836
 20
61.0326552075915
 10
167.2500323792836
 20
61.05689620759152
 10
167.2405813792836
 20
61.08273320759149
 10
167.2326923792836
 20
61.11023520759151
 10
167.2262753792836
 20
61.13947220759148
  0
LWPOLYLINE
  5
AE0
330
1F
100
AcDbEntity
  8
OBRYS
  6
CONTINUOUS
100
AcDbPolyline
 90
       51
 70
     0
 43
0.0
 10
165.2337233792836
 20
52.06930020759147
 10
165.2884133792836
 20
52.06904220759149
 10
165.3440103792836
 20
52.06842720759151
 10
165.4001093792836
 20
52.06769320759149
 10
165.4563063792836
 20
52.06707720759151
 10
165.5121953792836
 20
52.06681920759148
 10
165.5673713792836
 20
52.06715420759149
 10
165.6214313792836
 20
52.06832320759149
 10
165.6739693792836
 20
52.07056220759146
 10
165.7245813792836
 20
52.07410920759149
 10
165.7728623792836
 20
52.07920320759148
 10
165.8184073792836
 20
52.0860812075915
 10
165.8608113792836
 20
52.09498220759149
 10
165.8997443792836
 20
52.1061222075915
 10
165.9354463792835
 20
52.11947820759148
 10
165.9681073792836
 20
52.13490720759147
 10
165.9978653792836
 20
52.15227320759151
 10
166.0248583792836
 20
52.17143820759149
 10
166.0492233792836
 20
52.19226620759149
 10
166.0710993792836
 20
52.2146192075915
 10
166.0906233792836
 20
52.23836020759147
 10
166.1079343792836
 20
52.26335320759146
 10
166.1231693792836
 20
52.28946020759149
 10
166.1364673792836
 20
52.31654520759149
 10
166.1479653792836
 20
52.34446920759147
 10
166.1578023792836
 20
52.3730972075915
 10
166.1659063792836
 20
52.40259620759149
 10
166.1721153792836
 20
52.43307220759151
 10
166.1764243792836
 20
52.46429520759146
 10
166.1788303792836
 20
52.49603720759147
 10
166.1793303792836
 20
52.52806720759149
 10
166.1779223792836
 20
52.56015620759148
 10
166.1746023792836
 20
52.59207520759149
 10
166.1693663792836
 20
52.62359520759149
 10
166.1622123792836
 20
52.65448520759149
 10
166.1531373792835
 20
52.6845172075915
 10
166.1421373792836
 20
52.71346020759147
 10
166.1292083792836
 20
52.74108720759146
 10
166.1144413792836
 20
52.7671432075915
 10
166.0983693792836
 20
52.79135720759147
 10
166.0810413792836
 20
52.81373620759148
 10
166.0624153792836
 20
52.83431920759146
 10
166.0424483792836
 20
52.85314620759151
 10
166.0210973792836
 20
52.87025720759151
 10
165.9983193792836
 20
52.88569320759147
 10
165.9740713792836
 20
52.89949220759148
 10
165.9483103792836
 20
52.91169620759148
 10
165.9209923792836
 20
52.92234420759148
 10
165.8920753792836
 20
52.9314772075915
 10
165.8615163792836
 20
52.93913420759149
 10
165.8292713792836
 20
52.94535520759148
  0
LWPOLYLINE
  5
AE1
330
1F
100
AcDbEntity
  8
OBRYS
  6
CONTINUOUS
100
AcDbPolyline
 90
       51
 70
     0
 43
0.0
 10
165.8292713792836
 20
52.94535520759148
 10
165.8194823792836
 20
52.94704420759147
 10
165.8091983792836
 20
52.94862920759151
 10
165.7984353792836
 20
52.95011620759151
 10
165.7872093792836
 20
52.95150620759146
 10
165.7755343792836
 20
52.95280120759149
 10
165.7634263792836
 20
52.95400620759146
 10
165.7509013792836
 20
52.95512220759149
 10
165.7379743792836
 20
52.9561532075915
 10
165.7246593792836
 20
52.95710220759149
 10
165.7109733792836
 20
52.95797020759152
 10
165.6969313792836
 20
52.9587622075915
 10
165.6825473792836
 20
52.95947920759151
 10
165.6678393792835
 20
52.96012520759147
 10
165.6528203792836
 20
52.9607022075915
 10
165.6375063792836
 20
52.96121420759151
 10
165.6219123792836
 20
52.96166220759152
 10
165.6060543792836
 20
52.9620512075915
 10
165.5899483792836
 20
52.96238220759152
 10
165.5736083792836
 20
52.9626592075915
 10
165.5570503792836
 20
52.9628842075915
 10
165.5402893792836
 20
52.96306020759151
 10
165.5233403792836
 20
52.96319020759147
 10
165.5062203792836
 20
52.96327620759148
 10
165.4889423792836
 20
52.96332320759147
 10
165.4715233792836
 20
52.96333220759151
 10
165.4539783792836
 20
52.96330520759152
 10
165.4363223792836
 20
52.96324720759149
 10
165.4185713792836
 20
52.96316020759149
 10
165.4007403792836
 20
52.96304720759149
 10
165.3828443792836
 20
52.96290920759149
 10
165.3648983792836
 20
52.9627512075915
 10
165.3469183792836
 20
52.96257620759148
 10
165.3289203792836
 20
52.96238520759151
 10
165.3109183792835
 20
52.96218120759151
 10
165.2929293792835
 20
52.96196920759148
 10
165.2749663792836
 20
52.96174920759147
 10
165.2570473792836
 20
52.96152620759146
 10
165.2391853792836
 20
52.96130220759152
 10
165.2213963792836
 20
52.96107920759151
 10
165.2036973792836
 20
52.96086120759149
 10
165.1861013792836
 20
52.96065120759151
 10
165.1686243792836
 20
52.96045020759151
 10
165.1512833792836
 20
52.96026320759147
 10
165.1340913792836
 20
52.9600922075915
 10
165.1170653792836
 20
52.95993920759149
 10
165.1002193792836
 20
52.95980820759148
 10
165.0835693792836
 20
52.95970120759146
 10
165.0671313792836
 20
52.9596212075915
 10
165.0509203792836
 20
52.95957120759151
 10
165.0349513792836
 20
52.9595532075915
  0
LWPOLYLINE
  5
AE2
330
1F
100
AcDbEntity
  8
OBRYS
  6
CONTINUOUS
100
AcDbPolyline
 90
       51
 70
     0
 43
0.0
 10
165.2337233792836
 20
52.78265420759151
 10
165.2457683792836
 20
52.78266220759149
 10
165.2580223792836
 20
52.78268620759148
 10
165.2704683792836
 20
52.7827242075915
 10
165.2830943792836
 20
52.78277420759149
 10
165.2958833792836
 20
52.7828352075915
 10
165.3088213792836
 20
52.7829042075915
 10
165.3218933792836
 20
52.78298120759148
 10
165.3350853792836
 20
52.7830632075915
 10
165.3483833792836
 20
52.78314920759151
 10
165.3617703792836
 20
52.78323720759151
 10
165.3752333792836
 20
52.78332620759151
 10
165.3887573792836
 20
52.78341320759147
 10
165.4023273792835
 20
52.78349820759148
 10
165.4159283792836
 20
52.7835782075915
 10
165.4295463792836
 20
52.78365120759149
 10
165.4431673792836
 20
52.78371720759149
 10
165.4567743792836
 20
52.78377320759147
 10
165.4703543792836
 20
52.78381820759147
 10
165.4838923792836
 20
52.7838502075915
 10
165.4973733792836
 20
52.78386720759151
 10
165.5107823792836
 20
52.78386820759151
 10
165.5241063792836
 20
52.7838512075915
 10
165.5373283792836
 20
52.78381420759148
 10
165.5504343792836
 20
52.78375520759151
 10
165.5634113792836
 20
52.78367420759149
 10
165.5762423792836
 20
52.78356820759147
 10
165.5889133792836
 20
52.78343520759147
 10
165.6014103792836
 20
52.78327520759147
 10
165.6137173792836
 20
52.7830842075915
 10
165.6258213792836
 20
52.78286220759149
 10
165.6377063792836
 20
52.78260720759151
 10
165.6493573792836
 20
52.7823172075915
 10
165.6607613792836
 20
52.78199020759148
 10
165.6719013792836
 20
52.78162620759149
 10
165.6827643792836
 20
52.78122120759149
 10
165.6933353792836
 20
52.78077520759147
 10
165.7035993792836
 20
52.78028620759152
 10
165.7135423792836
 20
52.7797512075915
 10
165.7231483792836
 20
52.77917020759149
 10
165.7324033792836
 20
52.77854120759149
 10
165.7412923792836
 20
52.7778622075915
 10
165.7498013792836
 20
52.77713120759147
 10
165.7579153792836
 20
52.77634720759151
 10
165.7656193792835
 20
52.77550820759147
 10
165.7728983792836
 20
52.77461220759152
 10
165.7797383792836
 20
52.77365820759148
 10
165.7861243792836
 20
52.77264320759149
 10
165.7920413792836
 20
52.77156720759147
 10
165.7974753792836
 20
52.77042820759151
 10
165.8024103792836
 20
52.76922320759148
  0
LWPOLYLINE
  5
AE3
330
1F
100
AcDbEntity
  8
OBRYS
  6
CONTINUOUS
100
AcDbPolyline
 90
       51
 70
     0
 43
0.0
 10
163.8494113792836
 20
61.16462420759147
 10
163.8476293792836
 20
61.1584662075915
 10
163.8458023792836
 20
61.1523642075915
 10
163.8439293792836
 20
61.14632020759153
 10
163.8420113792836
 20
61.14033120759153
 10
163.8400473792836
 20
61.1344002075915
 10
163.8380383792836
 20
61.12852520759149
 10
163.8359843792836
 20
61.12270720759152
 10
163.8338853792836
 20
61.11694620759151
 10
163.8317403792836
 20
61.11124120759148
 10
163.8295503792836
 20
61.10559320759147
 10
163.8273143792836
 20
61.10000120759149
 10
163.8250343792836
 20
61.09446720759148
 10
163.8227083792836
 20
61.0889892075915
 10
163.8203373792836
 20
61.08356720759149
 10
163.8179203792836
 20
61.0782032075915
 10
163.8154583792836
 20
61.07289520759149
 10
163.8129523792836
 20
61.0676442075915
 10
163.8104003792836
 20
61.06244920759148
 10
163.8078023792836
 20
61.05731220759149
 10
163.8051603792836
 20
61.05223020759148
 10
163.8024723792836
 20
61.04720620759149
 10
163.7997403792836
 20
61.04223820759147
 10
163.7969623792836
 20
61.03732720759147
 10
163.7941393792836
 20
61.03247320759151
 10
163.7912713792836
 20
61.02767520759151
 10
163.7883583792836
 20
61.02293420759149
 10
163.7853993792836
 20
61.01825020759149
 10
163.7823963792836
 20
61.01362320759152
 10
163.7793483792836
 20
61.00905220759147
 10
163.7762543792836
 20
61.0045372075915
 10
163.7731163792836
 20
61.00008020759149
 10
163.7699323792836
 20
60.99567920759146
 10
163.7667033792836
 20
60.99133520759152
 10
163.7634303792836
 20
60.98704820759149
 10
163.7601113792836
 20
60.98281720759148
 10
163.7567483792836
 20
60.9786432075915
 10
163.7533393792836
 20
60.9745262075915
 10
163.7498863792836
 20
60.97046520759152
 10
163.7463883792836
 20
60.96646120759151
 10
163.7428443792836
 20
60.96251420759152
 10
163.7392563792836
 20
60.95862320759151
 10
163.7356233792836
 20
60.95478920759147
 10
163.7319453792836
 20
60.95101220759152
 10
163.7282223792836
 20
60.94729220759153
 10
163.7244543792836
 20
60.94362820759152
 10
163.7206423792836
 20
60.94002120759147
 10
163.7167843792836
 20
60.93647120759151
 10
163.7128823792836
 20
60.93297720759152
 10
163.7089353792836
 20
60.9295402075915
 10
163.7049433792836
 20
60.92616020759151
  0
LWPOLYLINE
  5
AE4
330
1F
100
AcDbEntity
  8
OBRYS
  6
CONTINUOUS
100
AcDbPolyline
 90
       51
 70
     0
 43
0.0
 10
167.0358973792836
 20
61.11630020759149
 10
167.0364793792836
 20
61.11150420759149
 10
167.0371013792836
 20
61.10672620759151
 10
167.0377643792836
 20
61.10196520759148
 10
167.0384683792836
 20
61.09722220759151
 10
167.0392123792836
 20
61.09249620759151
 10
167.0399983792836
 20
61.08778820759152
 10
167.0408243792836
 20
61.08309720759148
 10
167.0416913792836
 20
61.07842420759151
 10
167.0425983792836
 20
61.0737682075915
 10
167.0435473792836
 20
61.0691292075915
 10
167.0445363792836
 20
61.06450820759152
 10
167.0455663792836
 20
61.05990420759149
 10
167.0466363792836
 20
61.05531820759153
 10
167.0477483792836
 20
61.05074920759147
 10
167.0489003792836
 20
61.04619820759147
 10
167.0500923792836
 20
61.0416642075915
 10
167.0513253792836
 20
61.03714720759147
 10
167.0525993792836
 20
61.03264720759147
 10
167.0539143792836
 20
61.02816520759153
 10
167.0552693792836
 20
61.02370120759149
 10
167.0566653792836
 20
61.01925320759152
 10
167.0581013792836
 20
61.0148232075915
 10
167.0595783792836
 20
61.01041020759151
 10
167.0610963792836
 20
61.00601520759152
 10
167.0626543792836
 20
61.00163620759149
 10
167.0642533792836
 20
60.99727520759153
 10
167.0658923792836
 20
60.99293220759147
 10
167.0675723792836
 20
60.98860520759148
 10
167.0692923792836
 20
60.9842962075915
 10
167.0710533792836
 20
60.98000420759148
 10
167.0728553792836
 20
60.97572920759147
 10
167.0746973792836
 20
60.97147120759148
 10
167.0765793792836
 20
60.9672312075915
 10
167.0785023792836
 20
60.96300820759153
 10
167.0804653792836
 20
60.95880120759146
 10
167.0824693792836
 20
60.95461320759146
 10
167.0845143792836
 20
60.95044120759148
 10
167.0865983792836
 20
60.94628620759151
 10
167.0887243792836
 20
60.9421492075915
 10
167.0908893792836
 20
60.9380282075915
 10
167.0930953792836
 20
60.93392520759151
 10
167.0953423792836
 20
60.92983920759148
 10
167.0976283792836
 20
60.92577020759153
 10
167.0999563792836
 20
60.92171820759152
 10
167.1023233792836
 20
60.91768320759148
 10
167.1047313792836
 20
60.91366520759151
 10
167.1071793792836
 20
60.90966420759149
 10
167.1096683792836
 20
60.90568020759149
 10
167.1121973792836
 20
60.9017132075915
 10
167.1147663792836
 20
60.89776420759152
  0
LWPOLYLINE
  5
AE5
330
1F
100
AcDbEntity
  8
OBRYS
  6
CONTINUOUS
100
AcDbPolyline
 90
       51
 70
     0
 43
0.0
 10
164.0159563792836
 20
61.82821820759146
 10
164.0165473792836
 20
61.8266052075915
 10
164.0170813792836
 20
61.82498120759151
 10
164.0175583792836
 20
61.82334420759149
 10
164.0179773792836
 20
61.8216972075915
 10
164.0183393792836
 20
61.82003720759148
 10
164.0186453792836
 20
61.8183662075915
 10
164.0188953792836
 20
61.81668320759148
 10
164.0190873792836
 20
61.8149852075915
 10
164.0192213792836
 20
61.8132772075915
 10
164.0192983792836
 20
61.8115652075915
 10
164.0193163792836
 20
61.8098522075915
 10
164.0192763792836
 20
61.8081432075915
 10
164.0191773792836
 20
61.80644220759153
 10
164.0190213792836
 20
61.80474920759148
 10
164.0188083792836
 20
61.80306420759148
 10
164.0185373792836
 20
61.8013872075915
 10
164.0182083792836
 20
61.79971820759151
 10
164.0178213792836
 20
61.7980572075915
 10
164.0173773792836
 20
61.79640520759152
 10
164.0168753792836
 20
61.79476720759151
 10
164.0163183792836
 20
61.7931492075915
 10
164.0157063792836
 20
61.79155220759149
 10
164.0150413792836
 20
61.78998020759148
 10
164.0143253792836
 20
61.78843420759152
 10
164.0135573792836
 20
61.78691720759149
 10
164.0127383792836
 20
61.7854262075915
 10
164.0118643792836
 20
61.78396020759151
 10
164.0109403792836
 20
61.7825212075915
 10
164.0099663792836
 20
61.78111320759147
 10
164.0089443792836
 20
61.77973920759148
 10
164.0078763792836
 20
61.7784022075915
 10
164.0067663792836
 20
61.77710520759148
 10
164.0056153792836
 20
61.77585020759152
 10
164.0044243792836
 20
61.77463820759151
 10
164.0031933792836
 20
61.77346720759151
 10
164.0019223792836
 20
61.77234020759151
 10
164.0006113792836
 20
61.77125420759147
 10
163.9992613792836
 20
61.77021020759149
 10
163.9978723792836
 20
61.76921220759151
 10
163.9964473792836
 20
61.76826020759152
 10
163.9949923792836
 20
61.76735820759153
 10
163.9935093792836
 20
61.76650720759152
 10
163.9920023792836
 20
61.76570920759148
 10
163.9904753792836
 20
61.76496620759148
 10
163.9889273792836
 20
61.76427620759146
 10
163.9873553792836
 20
61.76363920759148
 10
163.9857603792836
 20
61.76305520759148
 10
163.9841423792836
 20
61.76252520759151
 10
163.9825013792836
 20
61.76204820759152
 10
163.9808363792836
 20
61.7616262075915
  0
LWPOLYLINE
  5
AE6
330
1F
100
AcDbEntity
  8
OBRYS
  6
CONTINUOUS
100
AcDbPolyline
 90
       51
 70
     0
 43
0.0
 10
168.1766143792836
 20
61.81627720759148
 10
168.1768283792836
 20
61.81464220759152
 10
168.1769873792836
 20
61.8130072075915
 10
168.1770933792836
 20
61.81137420759147
 10
168.1771443792836
 20
61.8097422075915
 10
168.1771433792836
 20
61.80811220759152
 10
168.1770883792836
 20
61.80648220759149
 10
168.1769793792836
 20
61.80485220759151
 10
168.1768173792836
 20
61.80322120759148
 10
168.1766013792836
 20
61.8015922075915
 10
168.1763313792836
 20
61.7999692075915
 10
168.1760093792836
 20
61.79835620759148
 10
168.1756343792836
 20
61.79675720759148
 10
168.1752083792836
 20
61.7951752075915
 10
168.1747313792836
 20
61.79361320759152
 10
168.1742053792836
 20
61.7920692075915
 10
168.1736283792836
 20
61.79054420759148
 10
168.1730023792836
 20
61.78903820759147
 10
168.1723253792836
 20
61.78755120759148
 10
168.1715983792836
 20
61.78608320759149
 10
168.1708203792836
 20
61.7846362075915
 10
168.1699953792836
 20
61.78321320759152
 10
168.1691233792836
 20
61.78181920759151
 10
168.1682073792836
 20
61.78045520759149
 10
168.1672493792836
 20
61.77912420759149
 10
168.1662513792836
 20
61.77783120759146
 10
168.1652123792836
 20
61.77657320759151
 10
168.1641303792836
 20
61.77534820759148
 10
168.1630073792836
 20
61.77415920759152
 10
168.1618443792836
 20
61.77300520759148
 10
168.1606443792836
 20
61.77189020759151
 10
168.1594083792836
 20
61.7708142075915
 10
168.1581373792836
 20
61.7697782075915
 10
168.1568343792836
 20
61.76878420759151
 10
168.1554993792836
 20
61.76783420759146
 10
168.1541353792836
 20
61.76692820759148
 10
168.1527433792836
 20
61.76606820759149
 10
168.1513253792836
 20
61.76525620759149
 10
168.1498823792836
 20
61.76449120759149
 10
168.1484093792836
 20
61.76377320759148
 10
168.1469083792836
 20
61.76310120759148
 10
168.1453853792836
 20
61.76247820759151
 10
168.1438423792836
 20
61.76190520759148
 10
168.1422823792836
 20
61.76138320759149
 10
168.1407103792836
 20
61.76091420759148
 10
168.1391263792836
 20
61.76049820759151
 10
168.1375313792836
 20
61.76013420759146
 10
168.1359243792836
 20
61.75982320759151
 10
168.1343053792836
 20
61.75956420759148
 10
168.1326743792836
 20
61.75935820759149
 10
168.1310313792836
 20
61.75920520759148
  0
LWPOLYLINE
  5
AE7
330
1F
100
AcDbEntity
  8
OBRYS
  6
CONTINUOUS
100
AcDbPolyline
 90
       51
 70
     0
 43
0.0
 10
164.0099253792836
 20
61.1740232075915
 10
164.0115093792836
 20
61.17359420759151
 10
164.0130723792836
 20
61.17311720759152
 10
164.0146123792836
 20
61.17259120759148
 10
164.0161323792836
 20
61.17201520759151
 10
164.0176293792836
 20
61.1713922075915
 10
164.0191063792836
 20
61.17072020759149
 10
164.0205623792836
 20
61.17000020759149
 10
164.0220003792836
 20
61.1692292075915
 10
164.0234153792836
 20
61.16841020759146
 10
164.0248043792836
 20
61.16754420759149
 10
164.0261643792836
 20
61.16663420759151
 10
164.0274923792836
 20
61.16568120759148
 10
164.0287843792836
 20
61.16468820759148
 10
164.0300403792836
 20
61.16365620759153
 10
164.0312603792836
 20
61.1625862075915
 10
164.0324433792836
 20
61.16147720759152
 10
164.0335903792836
 20
61.16032920759152
 10
164.0347013792836
 20
61.1591422075915
 10
164.0357753792836
 20
61.15791720759147
 10
164.0368123792836
 20
61.15665420759147
 10
164.0378073792836
 20
61.15535520759151
 10
164.0387603792836
 20
61.15402520759152
 10
164.0396683792836
 20
61.15266520759148
 10
164.0405303792836
 20
61.15128020759151
 10
164.0413433792836
 20
61.14987220759149
 10
164.0421083792836
 20
61.14844020759152
 10
164.0428263792836
 20
61.14698120759151
 10
164.0434963792836
 20
61.1454982075915
 10
164.0441193792836
 20
61.1439922075915
 10
164.0446923792836
 20
61.14246620759148
 10
164.0452173792836
 20
61.14092220759152
 10
164.0456913792836
 20
61.13936120759148
 10
164.0461143792836
 20
61.13778620759147
 10
164.0464863792836
 20
61.1361992075915
 10
164.0468063792836
 20
61.1346022075915
 10
164.0470743792836
 20
61.13299720759152
 10
164.0472883792836
 20
61.13138520759149
 10
164.0474493792836
 20
61.12976920759148
 10
164.0475573792836
 20
61.12814220759149
 10
164.0476113792836
 20
61.12650820759153
 10
164.0476133792836
 20
61.12487120759151
 10
164.0475613792836
 20
61.12323420759149
 10
164.0474563792836
 20
61.12160120759152
 10
164.0472983792836
 20
61.11997520759148
 10
164.0470873792836
 20
61.11835920759152
 10
164.0468233792836
 20
61.11675120759149
 10
164.0465083792836
 20
61.11515320759149
 10
164.0461393792836
 20
61.11356320759147
 10
164.0457183792836
 20
61.11198220759148
 10
164.0452433792836
 20
61.11041120759147
  0
LWPOLYLINE
  5
AE8
330
1F
100
AcDbEntity
  8
OBRYS
  6
CONTINUOUS
100
AcDbPolyline
 90
       51
 70
     0
 43
0.0
 10
167.0358973792836
 20
61.11630020759149
 10
167.0357363792836
 20
61.11789920759149
 10
167.0356273792836
 20
61.1194952075915
 10
167.0355693792836
 20
61.12108920759151
 10
167.0355623792836
 20
61.12268020759153
 10
167.0356063792836
 20
61.1242692075915
 10
167.0357003792836
 20
61.12585420759147
 10
167.0358453792836
 20
61.12743920759151
 10
167.0360413792836
 20
61.12902420759148
 10
167.0362883792836
 20
61.13060520759153
 10
167.0365863792836
 20
61.13218020759153
 10
167.0369343792836
 20
61.1337452075915
 10
167.0373313792836
 20
61.13529620759151
 10
167.0377773792836
 20
61.1368302075915
 10
167.0382713792836
 20
61.13834420759149
 10
167.0388113792836
 20
61.13983920759152
 10
167.0393983792836
 20
61.14131520759149
 10
167.0400333792836
 20
61.14277220759151
 10
167.0407143792836
 20
61.14420920759152
 10
167.0414433792836
 20
61.14562720759152
 10
167.0422193792836
 20
61.14702620759151
 10
167.0430413792836
 20
61.1484012075915
 10
167.0439083792836
 20
61.14975120759151
 10
167.0448173792836
 20
61.15107120759147
 10
167.0457653792836
 20
61.15235920759152
 10
167.0467503792836
 20
61.15361120759148
 10
167.0477743792836
 20
61.15482920759148
 10
167.0488393792836
 20
61.1560142075915
 10
167.0499423792836
 20
61.15716620759149
 10
167.0510833792836
 20
61.15828320759151
 10
167.0522583792836
 20
61.15936420759151
 10
167.0534683792836
 20
61.16040720759149
 10
167.0547113792836
 20
61.16141120759151
 10
167.0559843792836
 20
61.16237620759146
 10
167.0572863792836
 20
61.16329920759152
 10
167.0586163792836
 20
61.16417920759152
 10
167.0599723792836
 20
61.16501620759151
 10
167.0613523792836
 20
61.1658082075915
 10
167.0627563792836
 20
61.16655320759149
 10
167.0641873792836
 20
61.16725520759148
 10
167.0656433792836
 20
61.16791320759147
 10
167.0671223792836
 20
61.16852420759152
 10
167.0686223792836
 20
61.16909020759151
 10
167.0701403792836
 20
61.16960720759151
 10
167.0716743792836
 20
61.17007520759147
 10
167.0732193792836
 20
61.17049220759149
 10
167.0747753792836
 20
61.17086020759153
 10
167.0763433792836
 20
61.17117820759152
 10
167.0779203792836
 20
61.17144620759153
 10
167.0795093792836
 20
61.17166320759149
 10
167.0811093792836
 20
61.17183020759147
  0
LWPOLYLINE
  5
AE9
330
1F
100
AcDbEntity
  8
OBRYS
  6
CONTINUOUS
100
AcDbPolyline
 90
       51
 70
     0
 43
0.0
 10
163.8494113792836
 20
61.16462420759147
 10
163.8498583792836
 20
61.16610820759148
 10
163.8503483792836
 20
61.16757020759148
 10
163.8508813792836
 20
61.16901220759148
 10
163.8514573792836
 20
61.17043420759147
 10
163.8520753792836
 20
61.17183520759151
 10
163.8527363792836
 20
61.17321620759149
 10
163.8534403792836
 20
61.17457820759147
 10
163.8541883792836
 20
61.17592220759148
 10
163.8549783792836
 20
61.1772452075915
 10
163.8558103792836
 20
61.17854520759151
 10
163.8566823792836
 20
61.17982020759148
 10
163.8575933792836
 20
61.18106720759151
 10
163.8585413792836
 20
61.18228320759151
 10
163.8595223792836
 20
61.18346620759148
 10
163.8605383792836
 20
61.18461620759147
 10
163.8615863792836
 20
61.1857322075915
 10
163.8626693792836
 20
61.18681520759149
 10
163.8637843792836
 20
61.18786420759152
 10
163.8649333792836
 20
61.18888120759151
 10
163.8661173792836
 20
61.18986520759152
 10
163.8673353792836
 20
61.19081420759152
 10
163.8685833792836
 20
61.19172720759148
 10
163.8698583792836
 20
61.19260120759149
 10
163.8711583792836
 20
61.19343420759149
 10
163.8724783792836
 20
61.19422420759149
 10
163.8738183792836
 20
61.19497020759148
 10
163.8751783792836
 20
61.19567320759153
 10
163.8765593792836
 20
61.1963352075915
 10
163.8779603792836
 20
61.19695320759148
 10
163.8793823792836
 20
61.1975302075915
 10
163.8808253792836
 20
61.19806320759152
 10
163.8822873792836
 20
61.19855320759153
 10
163.8837663792836
 20
61.19899820759149
 10
163.8852583792836
 20
61.1993972075915
 10
163.8867613792836
 20
61.19975020759146
 10
163.8882713792836
 20
61.20005620759149
 10
163.8897863792836
 20
61.20031420759152
 10
163.8913043792836
 20
61.2005252075915
 10
163.8928293792836
 20
61.20068920759148
 10
163.8943593792836
 20
61.20080620759153
 10
163.8958953792836
 20
61.20087620759146
 10
163.8974343792836
 20
61.20089820759152
 10
163.8989753792836
 20
61.20087420759147
 10
163.9005153792836
 20
61.20080220759148
 10
163.9020553792836
 20
61.2006832075915
 10
163.9035923792836
 20
61.20051620759146
 10
163.9051243792836
 20
61.20030220759149
 10
163.9066513792836
 20
61.20004020759153
 10
163.9081703792836
 20
61.19973120759151
 10
163.9096813792836
 20
61.1993742075915
  0
LWPOLYLINE
  5
AEA
330
1F
100
AcDbEntity
  8
OBRYS
  6
CONTINUOUS
100
AcDbPolyline
 90
       51
 70
     0
 43
0.0
 10
167.1728353792836
 20
61.17991220759153
 10
167.1743113792836
 20
61.18002020759148
 10
167.1757853792836
 20
61.18008520759149
 10
167.1772563792836
 20
61.18010720759149
 10
167.1787253792836
 20
61.18008520759149
 10
167.1801903792836
 20
61.18002020759148
 10
167.1816513792836
 20
61.17991220759153
 10
167.1831083792836
 20
61.17976120759151
 10
167.1845593792836
 20
61.17956720759149
 10
167.1860053792836
 20
61.17933020759152
 10
167.1874453792836
 20
61.17905120759148
 10
167.1888783792836
 20
61.1787282075915
 10
167.1903043792836
 20
61.17836420759151
 10
167.1917213792836
 20
61.17795720759146
 10
167.1931223792836
 20
61.17751020759151
 10
167.1945053792836
 20
61.17702320759149
 10
167.1958703792836
 20
61.17649720759151
 10
167.1972183792836
 20
61.17593120759152
 10
167.1985493792836
 20
61.17532720759151
 10
167.1998623792836
 20
61.17468320759149
 10
167.2011603792836
 20
61.17399820759151
 10
167.2024413792836
 20
61.17327320759146
 10
167.2037033792836
 20
61.17251020759151
 10
167.2049423792836
 20
61.17170920759149
 10
167.2061573792836
 20
61.1708732075915
 10
167.2073443792836
 20
61.17000220759148
 10
167.2085023792836
 20
61.16910020759148
 10
167.2096303792836
 20
61.16816620759151
 10
167.2107283792836
 20
61.16720020759151
 10
167.2117973792836
 20
61.16620420759146
 10
167.2128373792836
 20
61.1651762075915
 10
167.2138473792836
 20
61.1641172075915
 10
167.2148283792836
 20
61.16302620759153
 10
167.2157793792836
 20
61.16190220759152
 10
167.2166993792836
 20
61.16074820759148
 10
167.2175863792836
 20
61.15956720759151
 10
167.2184363792836
 20
61.15836220759148
 10
167.2192493792836
 20
61.15713520759151
 10
167.2200233792836
 20
61.15588920759147
 10
167.2207583792836
 20
61.15462120759149
 10
167.2214573792836
 20
61.1533322075915
 10
167.2221173792836
 20
61.15202220759151
 10
167.2227393792836
 20
61.15069320759152
 10
167.2233233792836
 20
61.14934520759151
 10
167.2238663792836
 20
61.14798020759149
 10
167.2243703792836
 20
61.14659820759151
 10
167.2248343792836
 20
61.14520120759151
 10
167.2252573792836
 20
61.1437882075915
 10
167.2256383792836
 20
61.14236220759152
 10
167.2259783792836
 20
61.14092320759151
 10
167.2262753792836
 20
61.13947220759148
  0
LWPOLYLINE
  5
AEB
330
1F
100
AcDbEntity
  8
OBRYS
  6
CONTINUOUS
100
AcDbPolyline
 90
       51
 70
     0
 43
0.0
 10
163.8825453792836
 20
61.73845320759152
 10
163.8811353792836
 20
61.73814220759151
 10
163.8797213792836
 20
61.73787120759151
 10
163.8783043792836
 20
61.73764220759152
 10
163.8768843792836
 20
61.73745520759148
 10
163.8754613792836
 20
61.73730820759151
 10
163.8740363792836
 20
61.73720320759149
 10
163.8726093792836
 20
61.73713920759148
 10
163.8711803792836
 20
61.73711520759149
 10
163.8697513792836
 20
61.7371342075915
 10
163.8683213792836
 20
61.73719320759152
 10
163.8668903792836
 20
61.73729320759149
 10
163.8654603792836
 20
61.73743520759147
 10
163.8640313792836
 20
61.73761720759147
 10
163.8626123792836
 20
61.73784020759147
 10
163.8612043792836
 20
61.73810320759149
 10
163.8598083792836
 20
61.73840520759153
 10
163.8584223792836
 20
61.73874720759152
 10
163.8570483792836
 20
61.73912920759152
 10
163.8556853792836
 20
61.73954920759148
 10
163.8543303792836
 20
61.74001020759151
 10
163.8529863792836
 20
61.7405112075915
 10
163.8516543792836
 20
61.7410512075915
 10
163.8503363792836
 20
61.74163020759151
 10
163.8490363792836
 20
61.74224620759149
 10
163.8477543792836
 20
61.74290020759149
 10
163.8464953792836
 20
61.74358820759151
 10
163.8452603792836
 20
61.74431120759151
 10
163.8440483792836
 20
61.74506720759153
 10
163.8428603792836
 20
61.74585720759147
 10
163.8416953792836
 20
61.7466802075915
 10
163.8405543792836
 20
61.74753620759149
 10
163.8394353792836
 20
61.74842720759146
 10
163.8383393792836
 20
61.74935320759151
 10
163.8372673792836
 20
61.75031320759147
 10
163.8362223792836
 20
61.75130420759147
 10
163.8352053792836
 20
61.75232420759151
 10
163.8342203792836
 20
61.75337120759148
 10
163.8332693792836
 20
61.7544442075915
 10
163.8323493792836
 20
61.75554320759151
 10
163.8314623792836
 20
61.75666720759146
 10
163.8306073792836
 20
61.75781520759152
 10
163.8297873792836
 20
61.75898720759152
 10
163.8289993792836
 20
61.76018220759151
 10
163.8282473792836
 20
61.76140020759151
 10
163.8275283792836
 20
61.7626402075915
 10
163.8268463792836
 20
61.7639022075915
 10
163.8261983792836
 20
61.7651842075915
 10
163.8255873792836
 20
61.76648720759151
 10
163.8250133792836
 20
61.76780920759153
 10
163.8244753792836
 20
61.76915020759149
  0
LWPOLYLINE
  5
AEC
330
1F
100
AcDbEntity
  8
OBRYS
  6
CONTINUOUS
100
AcDbPolyline
 90
       51
 70
     0
 43
0.0
 10
168.0369953792836
 20
61.75200120759148
 10
168.0355543792836
 20
61.75191120759148
 10
168.0341153792836
 20
61.75186220759149
 10
168.0326783792836
 20
61.7518552075915
 10
168.0312463792836
 20
61.75188920759147
 10
168.0298173792836
 20
61.75196420759151
 10
168.0283923792836
 20
61.7520802075915
 10
168.0269723792836
 20
61.75223720759151
 10
168.0255573792836
 20
61.75243520759152
 10
168.0241473792836
 20
61.75267420759148
 10
168.0227423792836
 20
61.75295420759151
 10
168.0213443792836
 20
61.7532742075915
 10
168.0199523792836
 20
61.7536352075915
 10
168.0185683792836
 20
61.75403720759151
 10
168.0172003792836
 20
61.75447620759148
 10
168.0158503792836
 20
61.75495320759147
 10
168.0145173792836
 20
61.75546820759148
 10
168.0132003792836
 20
61.7560202075915
 10
168.0119013792836
 20
61.75661020759149
 10
168.0106193792836
 20
61.7572362075915
 10
168.0093513792836
 20
61.75790120759153
 10
168.0081003792836
 20
61.75860420759152
 10
168.0068673792836
 20
61.75934420759152
 10
168.0056553792836
 20
61.7601202075915
 10
168.0044653792836
 20
61.7609302075915
 10
168.0032993792836
 20
61.76177420759153
 10
168.0021623792836
 20
61.76265020759148
 10
168.0010533792836
 20
61.76355520759147
 10
167.9999723792836
 20
61.76449020759149
 10
167.9989203792836
 20
61.7654542075915
 10
167.9978963792836
 20
61.76644820759149
 10
167.9969013792836
 20
61.76747120759147
 10
167.9959333792836
 20
61.76852420759148
 10
167.9949933792836
 20
61.76960920759153
 10
167.9940823792836
 20
61.7707242075915
 10
167.9932033792836
 20
61.77186520759152
 10
167.9923563792836
 20
61.77303020759153
 10
167.9915453792836
 20
61.77421820759149
 10
167.9907713792836
 20
61.77542620759151
 10
167.9900323792836
 20
61.77665420759148
 10
167.9893293792836
 20
61.77790220759151
 10
167.9886633792836
 20
61.77916920759149
 10
167.9880333792836
 20
61.78045420759149
 10
167.9874403792836
 20
61.7817572075915
 10
167.9868853792836
 20
61.78307820759152
 10
167.9863673792836
 20
61.78441520759149
 10
167.9858883792836
 20
61.78576720759149
 10
167.9854473792836
 20
61.7871352075915
 10
167.9850453792836
 20
61.78851720759148
 10
167.9846823792836
 20
61.78991220759148
 10
167.9843593792836
 20
61.79132120759151
  0
LINE
  5
AED
330
1F
100
AcDbEntity
  8
OBRYS
100
AcDbLine
 10
168.0773143792836
 20
50.99489720759151
 30
0.0
 11
168.0773143792836
 21
50.9595532075915
 31
0.0
  0
LINE
  5
AEE
330
1F
100
AcDbEntity
  8
OBRYS
100
AcDbLine
 10
164.2773143792836
 20
50.99489720759151
 30
0.0
 11
164.2773143792836
 21
50.9595532075915
 31
0.0
  0
ARC
  5
AEF
330
1F
100
AcDbEntity
  8
OBRYS
100
AcDbCircle
 10
169.9772737908533
 20
51.19522717624544
 30
0.0
 40
0.2000405884459726
100
AcDbArc
 50
270.0116253684836
 51
359.9992830604764
  0
ARC
  5
AF0
330
1F
100
AcDbEntity
  8
OBRYS
100
AcDbCircle
 10
162.3774190079059
 20
51.19538314701497
 30
0.0
 40
0.2001965824386872
100
AcDbArc
 50
178.2633559832613
 51
269.970055540124
  0
LINE
  5
BB3
330
1F
100
AcDbEntity
  8
OBRYS
  6
CONTINUOUS
100
AcDbLine
 10
166.1137443792836
 20
118.4587707511383
 30
0.0
 11
163.9847633792836
 21
120.2119937511383
 31
0.0
  0
LINE
  5
BB4
330
1F
100
AcDbEntity
  8
OBRYS
  6
CONTINUOUS
100
AcDbLine
 10
168.3698643792835
 20
120.2119937511383
 30
0.0
 11
166.2408833792836
 21
118.4587707511383
 31
0.0
  0
LINE
  5
BB5
330
1F
100
AcDbEntity
  8
OBRYS
  6
CONTINUOUS
100
AcDbLine
 10
163.9847633792836
 20
123.3859427511382
 30
0.0
 11
166.1137443792836
 21
125.1391667511382
 31
0.0
  0
LINE
  5
BB6
330
1F
100
AcDbEntity
  8
OBRYS
  6
CONTINUOUS
100
AcDbLine
 10
166.2408833792836
 20
125.1391667511382
 30
0.0
 11
168.3698643792835
 21
123.3859427511382
 31
0.0
  0
LINE
  5
BB7
330
1F
100
AcDbEntity
  8
OBRYS
  6
CONTINUOUS
100
AcDbLine
 10
166.4315923792836
 20
118.2271887511383
 30
0.0
 11
168.5605733792836
 21
119.9804117511382
 31
0.0
  0
LINE
  5
BB8
330
1F
100
AcDbEntity
  8
OBRYS
  6
CONTINUOUS
100
AcDbLine
 10
163.7940553792835
 20
119.9804117511382
 30
0.0
 11
165.9230363792836
 21
118.2271887511383
 31
0.0
  0
LINE
  5
BB9
330
1F
100
AcDbEntity
  8
OBRYS
  6
CONTINUOUS
100
AcDbLine
 10
165.9230363792836
 20
125.3707487511382
 30
0.0
 11
163.7940553792835
 21
123.6175247511382
 31
0.0
  0
LINE
  5
BBA
330
1F
100
AcDbEntity
  8
OBRYS
  6
CONTINUOUS
100
AcDbLine
 10
168.5605733792836
 20
123.6175247511382
 30
0.0
 11
166.4315923792836
 21
125.3707487511382
 31
0.0
  0
LINE
  5
BBB
330
1F
100
AcDbEntity
  8
OBRYS
  6
CONTINUOUS
100
AcDbLine
 10
167.1209053792836
 20
126.3753257511383
 30
0.0
 11
167.1209053792836
 21
125.8388717511383
 31
0.0
  0
LINE
  5
BBC
330
1F
100
AcDbEntity
  8
OBRYS
  6
CONTINUOUS
100
AcDbLine
 10
167.1209053792836
 20
127.1120407511383
 30
0.0
 11
167.1209053792836
 21
126.5522257511383
 31
0.0
  0
LINE
  5
BBD
330
1F
100
AcDbEntity
  8
OBRYS
  6
CONTINUOUS
100
AcDbLine
 10
164.8895163792835
 20
126.4243967511382
 30
0.0
 11
164.8895163792835
 21
126.3485117511383
 31
0.0
  0
LINE
  5
BBE
330
1F
100
AcDbEntity
  8
OBRYS
  6
CONTINUOUS
100
AcDbLine
 10
162.8185733792835
 20
116.4359647511383
 30
0.0
 11
163.8031303792835
 21
116.4359647511383
 31
0.0
  0
LINE
  5
BBF
330
1F
100
AcDbEntity
  8
OBRYS
  6
CONTINUOUS
100
AcDbLine
 10
164.9394483792836
 20
126.2985807511383
 30
0.0
 11
165.7195243792836
 21
126.2985807511383
 31
0.0
  0
LINE
  5
BC0
330
1F
100
AcDbEntity
  8
OBRYS
  6
CONTINUOUS
100
AcDbLine
 10
163.3446203792836
 20
127.1120407511383
 30
0.0
 11
163.3446203792836
 21
125.7119037511383
 31
0.0
  0
LINE
  5
BC1
330
1F
100
AcDbEntity
  8
OBRYS
  6
CONTINUOUS
100
AcDbLine
 10
165.7195243792836
 20
125.8388717511383
 30
0.0
 11
164.8834233792836
 21
125.8388717511383
 31
0.0
  0
LINE
  5
BC2
330
1F
100
AcDbEntity
  8
OBRYS
  6
CONTINUOUS
100
AcDbLine
 10
168.0084263792836
 20
117.9359647511383
 30
0.0
 11
167.1708373792836
 21
117.9359647511383
 31
0.0
  0
LINE
  5
BC3
330
1F
100
AcDbEntity
  8
OBRYS
  6
CONTINUOUS
100
AcDbLine
 10
165.7195243792836
 20
126.4743287511383
 30
0.0
 11
164.9394483792836
 21
126.4743287511383
 31
0.0
  0
LINE
  5
BC4
330
1F
100
AcDbEntity
  8
OBRYS
  6
CONTINUOUS
100
AcDbLine
 10
165.7195243792836
 20
126.2985807511383
 30
0.0
 11
165.7195243792836
 21
125.8388717511383
 31
0.0
  0
LINE
  5
BC5
330
1F
100
AcDbEntity
  8
OBRYS
  6
CONTINUOUS
100
AcDbLine
 10
163.8530623792836
 20
116.4858957511383
 30
0.0
 11
163.8530623792836
 21
117.8860337511383
 31
0.0
  0
LINE
  5
BC6
330
1F
100
AcDbEntity
  8
OBRYS
  6
CONTINUOUS
100
AcDbLine
 10
163.6546743792836
 20
117.7590657511383
 30
0.0
 11
163.6546743792836
 21
117.2483207511383
 31
0.0
  0
LINE
  5
BC7
330
1F
100
AcDbEntity
  8
OBRYS
  6
CONTINUOUS
100
AcDbLine
 10
164.7985723792836
 20
127.1120407511383
 30
0.0
 11
164.7985723792836
 21
127.0350047511383
 31
0.0
  0
LINE
  5
BC8
330
1F
100
AcDbEntity
  8
OBRYS
  6
CONTINUOUS
100
AcDbLine
 10
162.7836533792835
 20
117.7590657511383
 30
0.0
 11
163.6546743792836
 21
117.7590657511383
 31
0.0
  0
LINE
  5
BC9
330
1F
100
AcDbEntity
  8
OBRYS
  6
CONTINUOUS
100
AcDbLine
 10
164.3361783792836
 20
125.9831547511383
 30
0.0
 11
163.5632083792836
 21
127.1397847511383
 31
0.0
  0
LINE
  5
BCA
330
1F
100
AcDbEntity
  8
OBRYS
  6
CONTINUOUS
100
AcDbLine
 10
167.1708373792836
 20
117.7590657511383
 30
0.0
 11
167.8599693792836
 21
117.7590657511383
 31
0.0
  0
LINE
  5
BCB
330
1F
100
AcDbEntity
  8
OBRYS
  6
CONTINUOUS
100
AcDbLine
 10
163.8031303792835
 20
117.9359647511383
 30
0.0
 11
162.7836533792835
 21
117.9359647511383
 31
0.0
  0
LINE
  5
BCC
330
1F
100
AcDbEntity
  8
OBRYS
  6
CONTINUOUS
100
AcDbLine
 10
163.5216943792836
 20
127.1619727511383
 30
0.0
 11
163.3945513792836
 21
127.1619727511383
 31
0.0
  0
LINE
  5
BCD
330
1F
100
AcDbEntity
  8
OBRYS
  6
CONTINUOUS
100
AcDbLine
 10
164.4765763792836
 20
127.1619727511383
 30
0.0
 11
164.3861093792836
 21
127.1619727511383
 31
0.0
  0
LINE
  5
BCE
330
1F
100
AcDbEntity
  8
OBRYS
  6
CONTINUOUS
100
AcDbLine
 10
164.5265083792836
 20
125.7119037511383
 30
0.0
 11
164.5265083792836
 21
127.1120407511383
 31
0.0
  0
LINE
  5
BCF
330
1F
100
AcDbEntity
  8
OBRYS
  6
CONTINUOUS
100
AcDbLine
 10
162.7686413792836
 20
116.5629327511382
 30
0.0
 11
162.7686413792836
 21
116.4858957511383
 31
0.0
  0
LINE
  5
BD0
330
1F
100
AcDbEntity
  8
OBRYS
  6
CONTINUOUS
100
AcDbLine
 10
167.2697463792836
 20
127.1619727511383
 30
0.0
 11
167.1708373792836
 21
127.1619727511383
 31
0.0
  0
LINE
  5
BD1
330
1F
100
AcDbEntity
  8
OBRYS
  6
CONTINUOUS
100
AcDbLine
 10
167.8599693792836
 20
117.7590657511383
 30
0.0
 11
167.8599693792836
 21
116.4858957511383
 31
0.0
  0
LINE
  5
BD2
330
1F
100
AcDbEntity
  8
OBRYS
  6
CONTINUOUS
100
AcDbLine
 10
168.0583573792836
 20
116.4858957511383
 30
0.0
 11
168.0583573792836
 21
117.8860337511383
 31
0.0
  0
LINE
  5
BD3
330
1F
100
AcDbEntity
  8
OBRYS
  6
CONTINUOUS
100
AcDbLine
 10
164.3176333792836
 20
116.8695247511383
 30
0.0
 11
164.2235973792836
 21
116.8623207511383
 31
0.0
  0
LINE
  5
BD4
330
1F
100
AcDbEntity
  8
OBRYS
  6
CONTINUOUS
100
AcDbLine
 10
168.3447033792836
 20
117.4475027511383
 30
0.0
 11
168.4449473792835
 21
117.4221517511383
 31
0.0
  0
LINE
  5
BD5
330
1F
100
AcDbEntity
  8
OBRYS
  6
CONTINUOUS
100
AcDbLine
 10
163.3945513792836
 20
125.6619727511383
 30
0.0
 11
163.4850183792836
 21
125.6619727511383
 31
0.0
  0
LINE
  5
BD6
330
1F
100
AcDbEntity
  8
OBRYS
  6
CONTINUOUS
100
AcDbLine
 10
167.3196773792835
 20
125.6619727511383
 30
0.0
 11
167.3196773792835
 21
127.1120407511383
 31
0.0
  0
LINE
  5
BD7
330
1F
100
AcDbEntity
  8
OBRYS
  6
CONTINUOUS
100
AcDbLine
 10
165.1817933792836
 20
117.4416137511383
 30
0.0
 11
165.2735193792836
 21
117.4496957511383
 31
0.0
  0
LINE
  5
BD8
330
1F
100
AcDbEntity
  8
OBRYS
  6
CONTINUOUS
100
AcDbLine
 10
163.6546743792836
 20
116.6128637511382
 30
0.0
 11
162.8185733792835
 21
116.6128637511382
 31
0.0
  0
LINE
  5
BD9
330
1F
100
AcDbEntity
  8
OBRYS
  6
CONTINUOUS
100
AcDbLine
 10
164.8485043792836
 20
126.9850727511382
 30
0.0
 11
165.7195243792836
 21
126.9850727511382
 31
0.0
  0
LINE
  5
BDA
330
1F
100
AcDbEntity
  8
OBRYS
  6
CONTINUOUS
100
AcDbLine
 10
164.3361783792836
 20
127.1120407511383
 30
0.0
 11
164.3361783792836
 21
125.9831547511383
 31
0.0
  0
LINE
  5
BDB
330
1F
100
AcDbEntity
  8
OBRYS
  6
CONTINUOUS
100
AcDbLine
 10
167.1209053792836
 20
117.8860337511383
 30
0.0
 11
167.1209053792836
 21
117.8089967511383
 31
0.0
  0
LINE
  5
BDC
330
1F
100
AcDbEntity
  8
OBRYS
  6
CONTINUOUS
100
AcDbLine
 10
163.6546743792836
 20
117.0725727511383
 30
0.0
 11
163.6546743792836
 21
116.6128637511382
 31
0.0
  0
LINE
  5
BDD
330
1F
100
AcDbEntity
  8
OBRYS
  6
CONTINUOUS
100
AcDbLine
 10
168.4720833792836
 20
116.8830727511383
 30
0.0
 11
168.3737923792836
 21
116.8598997511383
 31
0.0
  0
LINE
  5
BDE
330
1F
100
AcDbEntity
  8
OBRYS
  6
CONTINUOUS
100
AcDbLine
 10
167.9099013792836
 20
116.4359647511383
 30
0.0
 11
168.0084263792836
 21
116.4359647511383
 31
0.0
  0
LINE
  5
BDF
330
1F
100
AcDbEntity
  8
OBRYS
  6
CONTINUOUS
100
AcDbLine
 10
162.7337223792836
 20
117.8860337511383
 30
0.0
 11
162.7337223792836
 21
117.8089967511383
 31
0.0
  0
LINE
  5
BE0
330
1F
100
AcDbEntity
  8
OBRYS
  6
CONTINUOUS
100
AcDbLine
 10
165.8679813792836
 20
127.1619727511383
 30
0.0
 11
164.8485043792836
 21
127.1619727511383
 31
0.0
  0
LINE
  5
BE1
330
1F
100
AcDbEntity
  8
OBRYS
  6
CONTINUOUS
100
AcDbLine
 10
164.8834233792836
 20
125.6619727511383
 30
0.0
 11
165.8679813792836
 21
125.6619727511383
 31
0.0
  0
LINE
  5
BE2
330
1F
100
AcDbEntity
  8
OBRYS
  6
CONTINUOUS
100
AcDbLine
 10
164.8334923792836
 20
125.7889407511383
 30
0.0
 11
164.8334923792836
 21
125.7119037511383
 31
0.0
  0
LINE
  5
BE3
330
1F
100
AcDbEntity
  8
OBRYS
  6
CONTINUOUS
100
AcDbLine
 10
163.5349503792836
 20
125.7119037511383
 30
0.0
 11
163.5349503792836
 21
126.8396397511383
 31
0.0
  0
LINE
  5
BE4
330
1F
100
AcDbEntity
  8
OBRYS
  6
CONTINUOUS
100
AcDbLine
 10
164.3494193792835
 20
125.6619727511383
 30
0.0
 11
164.4765763792836
 21
125.6619727511383
 31
0.0
  0
LINE
  5
BE5
330
1F
100
AcDbEntity
  8
OBRYS
  6
CONTINUOUS
100
AcDbLine
 10
162.8745973792836
 20
117.0725727511383
 30
0.0
 11
163.6546743792836
 21
117.0725727511383
 31
0.0
  0
LINE
  5
BE6
330
1F
100
AcDbEntity
  8
OBRYS
  6
CONTINUOUS
100
AcDbLine
 10
162.8246663792836
 20
117.1983897511383
 30
0.0
 11
162.8246663792836
 21
117.1225037511382
 31
0.0
  0
LINE
  5
BE7
330
1F
100
AcDbEntity
  8
OBRYS
  6
CONTINUOUS
100
AcDbLine
 10
165.9179123792836
 20
125.7119037511383
 30
0.0
 11
165.9179123792836
 21
127.1120407511383
 31
0.0
  0
LINE
  5
BE8
330
1F
100
AcDbEntity
  8
OBRYS
  6
CONTINUOUS
100
AcDbLine
 10
163.6546743792836
 20
117.2483207511383
 30
0.0
 11
162.8745973792836
 21
117.2483207511383
 31
0.0
  0
LINE
  5
BE9
330
1F
100
AcDbEntity
  8
OBRYS
  6
CONTINUOUS
100
AcDbLine
 10
163.5349503792836
 20
126.8396397511383
 30
0.0
 11
164.3079173792836
 21
125.6841417511383
 31
0.0
  0
LINE
  5
BEA
330
1F
100
AcDbEntity
  8
OBRYS
  6
CONTINUOUS
100
AcDbLine
 10
168.3062953792836
 20
120.6891877511382
 30
0.0
 11
164.0483333792835
 21
120.6891877511382
 31
0.0
  0
LINE
  5
BEB
330
1F
100
AcDbEntity
  8
OBRYS
  6
CONTINUOUS
100
AcDbLine
 10
164.0483333792835
 20
122.9087487511382
 30
0.0
 11
168.3062953792836
 21
122.9087487511382
 31
0.0
  0
LINE
  5
BEC
330
1F
100
AcDbEntity
  8
OBRYS
  6
CONTINUOUS
100
AcDbLine
 10
164.0483333792835
 20
120.3891877511383
 30
0.0
 11
168.3062953792836
 21
120.3891877511383
 31
0.0
  0
LINE
  5
BED
330
1F
100
AcDbEntity
  8
OBRYS
  6
CONTINUOUS
100
AcDbLine
 10
168.3062953792836
 20
123.2087487511383
 30
0.0
 11
164.0483333792835
 21
123.2087487511383
 31
0.0
  0
LINE
  5
BEE
330
1F
100
AcDbEntity
  8
OBRYS
  6
CONTINUOUS
100
AcDbLine
 10
165.7195243792836
 20
126.9850727511382
 30
0.0
 11
165.7195243792836
 21
126.4743287511383
 31
0.0
  0
LINE
  5
BEF
330
1F
100
AcDbEntity
  8
OBRYS
  6
CONTINUOUS
100
AcDbLine
 10
162.1773143792836
 20
115.3387327511382
 30
0.0
 11
162.1773143792836
 21
127.6619727511383
 31
0.0
  0
LINE
  5
BF0
330
1F
100
AcDbEntity
  8
OBRYS
  6
CONTINUOUS
100
AcDbLine
 10
170.1773143792836
 20
127.6619727511383
 30
0.0
 11
170.1773143792836
 21
115.3387327511382
 31
0.0
  0
LINE
  5
BF1
330
1F
100
AcDbEntity
  8
OBRYS
  6
CONTINUOUS
100
AcDbLine
 10
164.1773143792836
 20
121.4970287511382
 30
0.0
 11
164.1773143792836
 21
122.1009087511382
 31
0.0
  0
LINE
  5
BF2
330
1F
100
AcDbEntity
  8
OBRYS
  6
CONTINUOUS
100
AcDbLine
 10
168.1773143792836
 20
122.1009087511382
 30
0.0
 11
168.1773143792836
 21
121.4970287511382
 31
0.0
  0
LINE
  5
BF3
330
1F
100
AcDbEntity
  8
OBRYS
  6
CONTINUOUS
100
AcDbLine
 10
164.3779393792836
 20
122.2989687511382
 30
0.0
 11
167.9766883792836
 21
122.2989687511382
 31
0.0
  0
LINE
  5
BF4
330
1F
100
AcDbEntity
  8
OBRYS
  6
CONTINUOUS
100
AcDbLine
 10
167.9766883792836
 20
121.2989687511382
 30
0.0
 11
164.3779393792836
 21
121.2989687511382
 31
0.0
  0
LINE
  5
BF5
330
1F
100
AcDbEntity
  8
OBRYS
  6
CONTINUOUS
100
AcDbLine
 10
170.1773143792836
 20
127.4263007511383
 30
0.0
 11
170.1773143792836
 21
127.4200757511383
 31
0.0
  0
LINE
  5
BF6
330
1F
100
AcDbEntity
  8
OBRYS
  6
CONTINUOUS
100
AcDbLine
 10
162.3773143792835
 20
127.6263387511383
 30
0.0
 11
164.2773143792836
 21
127.6266287511383
 31
0.0
  0
LINE
  5
BF7
330
1F
100
AcDbEntity
  8
OBRYS
  6
CONTINUOUS
100
AcDbLine
 10
170.1773143792836
 20
127.6619727511383
 30
0.0
 11
162.1773143792836
 21
127.6619727511383
 31
0.0
  0
LINE
  5
BF8
330
1F
100
AcDbEntity
  8
OBRYS
  6
CONTINUOUS
100
AcDbLine
 10
168.0773143792836
 20
127.6266287511383
 30
0.0
 11
169.9773143792836
 21
127.6263387511383
 31
0.0
  0
LINE
  5
BF9
330
1F
100
AcDbEntity
  8
OBRYS
  6
CONTINUOUS
100
AcDbLine
 10
162.1773143792836
 20
127.4200757511383
 30
0.0
 11
162.1773143792836
 21
127.4263007511383
 31
0.0
  0
LINE
  5
BFA
330
1F
100
AcDbEntity
  8
OBRYS
  6
CONTINUOUS
100
AcDbLine
 10
170.1773143792836
 20
115.3387327511382
 30
0.0
 11
170.1773143792836
 21
115.3119797511383
 31
0.0
  0
LINE
  5
BFB
330
1F
100
AcDbEntity
  8
OBRYS
  6
CONTINUOUS
100
AcDbLine
 10
162.3773143792835
 20
115.1119727511383
 30
0.0
 11
164.9873143792836
 21
115.1119727511383
 31
0.0
  0
LINE
  5
BFC
330
1F
100
AcDbEntity
  8
OBRYS
  6
CONTINUOUS
100
AcDbLine
 10
169.9773143792836
 20
115.1119727511383
 30
0.0
 11
167.3673143792836
 21
115.1119727511383
 31
0.0
  0
LINE
  5
BFD
330
1F
100
AcDbEntity
  8
OBRYS
  6
CONTINUOUS
100
AcDbLine
 10
162.1773143792836
 20
115.3119797511383
 30
0.0
 11
162.1773143792836
 21
115.3387327511382
 31
0.0
  0
LINE
  5
BFE
330
1F
100
AcDbEntity
  8
OBRYS
  6
CONTINUOUS
100
AcDbLine
 10
165.2774771390121
 20
114.8217826480461
 30
0.0
 11
167.0774771390121
 21
114.8217826480461
 31
0.0
  0
ARC
  5
BFF
330
1F
100
AcDbEntity
  8
OBRYS
  6
CONTINUOUS
100
AcDbCircle
 10
-166.1773143792836
 20
118.5359647511383
 30
0.0
 40
0.0999999999999942
210
0.0
220
0.0
230
-1.0
100
AcDbArc
 50
230.5284220000102
 51
309.4715779999898
  0
ARC
  5
C00
330
1F
100
AcDbEntity
  8
OBRYS
  6
CONTINUOUS
100
AcDbCircle
 10
166.1773143792836
 20
125.0619727511383
 30
0.0
 40
0.3999999999999954
100
AcDbArc
 50
50.5284219999987
 51
129.4715780000013
  0
ARC
  5
C01
330
1F
100
AcDbEntity
  8
OBRYS
  6
CONTINUOUS
100
AcDbCircle
 10
166.1773143792836
 20
118.5359647511383
 30
0.0
 40
0.3999999999999954
100
AcDbArc
 50
230.5284219999987
 51
309.471578
  0
ARC
  5
C02
330
1F
100
AcDbEntity
  8
OBRYS
  6
CONTINUOUS
100
AcDbCircle
 10
-166.1773143792836
 20
125.0619727511383
 30
0.0
 40
0.0999999999999956
210
0.0
220
0.0
230
-1.0
100
AcDbArc
 50
50.52842200001017
 51
129.4715779999898
  0
ARC
  5
C03
330
1F
100
AcDbEntity
  8
OBRYS
  6
CONTINUOUS
100
AcDbCircle
 10
168.3062953792836
 20
123.3087487511383
 30
0.0
 40
0.4000000000000009
100
AcDbArc
 50
270.0
 51
50.52842199999557
  0
ARC
  5
C04
330
1F
100
AcDbEntity
  8
OBRYS
  6
CONTINUOUS
100
AcDbCircle
 10
164.0483333792835
 20
120.2891877511383
 30
0.0
 40
0.4000000000000004
100
AcDbArc
 50
90.0
 51
230.5284219999955
  0
ARC
  5
C05
330
1F
100
AcDbEntity
  8
OBRYS
  6
CONTINUOUS
100
AcDbCircle
 10
164.0483333792835
 20
123.3087487511383
 30
0.0
 40
0.4000000000000004
100
AcDbArc
 50
129.4715780000045
 51
270.0
  0
ARC
  5
C06
330
1F
100
AcDbEntity
  8
OBRYS
  6
CONTINUOUS
100
AcDbCircle
 10
168.3062953792836
 20
120.2891877511383
 30
0.0
 40
0.4000000000000009
100
AcDbArc
 50
309.4715780000045
 51
90.0
  0
ARC
  5
C07
330
1F
100
AcDbEntity
  8
OBRYS
  6
CONTINUOUS
100
AcDbCircle
 10
-168.3062953792836
 20
120.2891877511383
 30
0.0
 40
0.1000000000000025
210
0.0
220
0.0
230
-1.0
100
AcDbArc
 50
90.0
 51
230.5284220000102
  0
ARC
  5
C08
330
1F
100
AcDbEntity
  8
OBRYS
  6
CONTINUOUS
100
AcDbCircle
 10
-164.0483333792835
 20
123.3087487511383
 30
0.0
 40
0.1000000000000014
210
0.0
220
0.0
230
-1.0
100
AcDbArc
 50
270.0
 51
50.52842200001017
  0
ARC
  5
C09
330
1F
100
AcDbEntity
  8
OBRYS
  6
CONTINUOUS
100
AcDbCircle
 10
-168.3062953792836
 20
123.3087487511383
 30
0.0
 40
0.1000000000000039
210
0.0
220
0.0
230
-1.0
100
AcDbArc
 50
129.4715779999898
 51
270.0
  0
ARC
  5
C0A
330
1F
100
AcDbEntity
  8
OBRYS
  6
CONTINUOUS
100
AcDbCircle
 10
-164.0483333792835
 20
120.2891877511383
 30
0.0
 40
0.0999999999999997
210
0.0
220
0.0
230
-1.0
100
AcDbArc
 50
309.4715779999898
 51
90.0
  0
ARC
  5
C0B
330
1F
100
AcDbEntity
  8
OBRYS
  6
CONTINUOUS
100
AcDbCircle
 10
164.9871968776367
 20
114.8216924995464
 30
0.0
 40
0.2902802753735161
100
AcDbArc
 50
358.0811487182644
 51
89.97680741956779
  0
ARC
  5
C0C
330
1F
100
AcDbEntity
  8
OBRYS
  6
CONTINUOUS
100
AcDbCircle
 10
167.3674485940113
 20
114.8216526374027
 30
0.0
 40
0.2903201447592048
100
AcDbArc
 50
90.02648778549515
 51
181.8719151724515
  0
ELLIPSE
  5
C0D
330
1F
100
AcDbEntity
  8
OBRYS
  6
CONTINUOUS
100
AcDbEllipse
 10
163.3946893792836
 20
127.1119037511383
 30
0.0
 11
-0.03545231217175334
 21
0.03545231217175334
 31
0.0
210
0.0
220
0.0
230
-1.0
 40
0.997265
 41
5.499156671652522
 42
7.067213942706581
  0
ELLIPSE
  5
C0E
330
1F
100
AcDbEntity
  8
OBRYS
  6
CONTINUOUS
100
AcDbEllipse
 10
164.9395853792836
 20
126.3486487511383
 30
0.0
 11
-0.03545231217175337
 21
-0.03545231217175337
 31
0.0
210
0.0
220
0.0
230
-1.0
 40
0.997265
 41
5.499156671652195
 42
7.067213942706739
  0
ELLIPSE
  5
C0F
330
1F
100
AcDbEntity
  8
OBRYS
  6
CONTINUOUS
100
AcDbEllipse
 10
164.4764393792836
 20
125.7120407511382
 30
0.0
 11
0.03545231217175334
 21
-0.03545231217175334
 31
0.0
210
0.0
220
0.0
230
-1.0
 40
0.997265
 41
5.499156671652523
 42
7.067213942706581
  0
ELLIPSE
  5
C10
330
1F
100
AcDbEntity
  8
OBRYS
  6
CONTINUOUS
100
AcDbEllipse
 10
162.8187103792835
 20
116.4860337511383
 30
0.0
 11
-0.03545231217175334
 21
-0.03545231217175334
 31
0.0
210
0.0
220
0.0
230
-1.0
 40
0.997265
 41
5.499156671652591
 42
7.067213942706685
  0
ELLIPSE
  5
C11
330
1F
100
AcDbEntity
  8
OBRYS
  6
CONTINUOUS
100
AcDbEllipse
 10
163.8029933792835
 20
116.4860337511383
 30
0.0
 11
0.03545231217175334
 21
-0.03545231217175334
 31
0.0
210
0.0
220
0.0
230
-1.0
 40
0.997265
 41
5.499156671652518
 42
7.067213942706577
  0
ELLIPSE
  5
C12
330
1F
100
AcDbEntity
  8
OBRYS
  6
CONTINUOUS
100
AcDbEllipse
 10
163.3946893792836
 20
125.7120407511382
 30
0.0
 11
-0.03545231217175334
 21
-0.03545231217175334
 31
0.0
210
0.0
220
0.0
230
-1.0
 40
0.997265
 41
5.499156671652587
 42
7.067213942706611
  0
ELLIPSE
  5
C13
330
1F
100
AcDbEntity
  8
OBRYS
  6
CONTINUOUS
100
AcDbEllipse
 10
162.8187103792835
 20
116.5627957511382
 30
0.0
 11
-0.03545231217175334
 21
0.03545231217175334
 31
0.0
210
0.0
220
0.0
230
-1.0
 40
0.997265
 41
5.499156671652558
 42
7.067213942706581
  0
ELLIPSE
  5
C14
330
1F
100
AcDbEntity
  8
OBRYS
  6
CONTINUOUS
100
AcDbEllipse
 10
164.3862463792836
 20
127.1119037511383
 30
0.0
 11
-0.03545231217175334
 21
0.03545231217175334
 31
0.0
210
0.0
220
0.0
230
-1.0
 40
0.997265
 41
5.499156671652444
 42
7.067213942706572
  0
ELLIPSE
  5
C15
330
1F
100
AcDbEntity
  8
OBRYS
  6
CONTINUOUS
100
AcDbEllipse
 10
162.7837913792835
 20
117.8858957511382
 30
0.0
 11
-0.03545231217175334
 21
0.03545231217175334
 31
0.0
210
0.0
220
0.0
230
-1.0
 40
0.997265
 41
5.499156671652557
 42
7.067213942706581
  0
ELLIPSE
  5
C16
330
1F
100
AcDbEntity
  8
OBRYS
  6
CONTINUOUS
100
AcDbEllipse
 10
168.0082893792836
 20
116.4860337511383
 30
0.0
 11
0.03545231217175334
 21
-0.03545231217175334
 31
0.0
210
0.0
220
0.0
230
-1.0
 40
0.997265
 41
5.499156671652518
 42
7.067213942706577
  0
ELLIPSE
  5
C17
330
1F
100
AcDbEntity
  8
OBRYS
  6
CONTINUOUS
100
AcDbEllipse
 10
164.8486413792836
 20
127.1119037511383
 30
0.0
 11
-0.03545231217175334
 21
0.03545231217175334
 31
0.0
210
0.0
220
0.0
230
-1.0
 40
0.997265
 41
5.499156671652522
 42
7.067213942706581
  0
ELLIPSE
  5
C18
330
1F
100
AcDbEntity
  8
OBRYS
  6
CONTINUOUS
100
AcDbEllipse
 10
167.9100383792836
 20
116.4860337511383
 30
0.0
 11
-0.03545231217175334
 21
-0.03545231217175334
 31
0.0
210
0.0
220
0.0
230
-1.0
 40
0.997265
 41
5.499156671652314
 42
7.067213942706685
  0
ELLIPSE
  5
C19
330
1F
100
AcDbEntity
  8
OBRYS
  6
CONTINUOUS
100
AcDbEllipse
 10
162.8747353792836
 20
117.1226407511382
 30
0.0
 11
-0.03545231217175334
 21
-0.03545231217175334
 31
0.0
210
0.0
220
0.0
230
-1.0
 40
0.997265
 41
5.499156671652314
 42
7.067213942706684
  0
ELLIPSE
  5
C1A
330
1F
100
AcDbEntity
  8
OBRYS
  6
CONTINUOUS
100
AcDbEllipse
 10
167.2696093792836
 20
127.1119037511383
 30
0.0
 11
0.03545231217175334
 21
0.03545231217175334
 31
0.0
210
0.0
220
0.0
230
-1.0
 40
0.997265
 41
5.499156671652591
 42
7.06721394270665
  0
ELLIPSE
  5
C1B
330
1F
100
AcDbEntity
  8
OBRYS
  6
CONTINUOUS
100
AcDbEllipse
 10
162.7837913792835
 20
117.8091337511383
 30
0.0
 11
-0.03545231217175334
 21
-0.03545231217175334
 31
0.0
210
0.0
220
0.0
230
-1.0
 40
0.997265
 41
5.499156671652314
 42
7.06721394270665
  0
ELLIPSE
  5
C1C
330
1F
100
AcDbEntity
  8
OBRYS
  6
CONTINUOUS
100
AcDbEllipse
 10
168.0082893792836
 20
117.8858957511382
 30
0.0
 11
0.03545231217175334
 21
0.03545231217175334
 31
0.0
210
0.0
220
0.0
230
-1.0
 40
0.997265
 41
5.499156671652309
 42
7.067213942706645
  0
ELLIPSE
  5
C1D
330
1F
100
AcDbEntity
  8
OBRYS
  6
CONTINUOUS
100
AcDbEllipse
 10
164.4764393792836
 20
127.1119037511383
 30
0.0
 11
0.03545231217175333
 21
0.03545231217175333
 31
0.0
210
0.0
220
0.0
230
-1.0
 40
0.9972649999999998
 41
5.499156671652583
 42
7.067213942706711
  0
ELLIPSE
  5
C1E
330
1F
100
AcDbEntity
  8
OBRYS
  6
CONTINUOUS
100
AcDbEllipse
 10
162.8747353792836
 20
117.1982517511383
 30
0.0
 11
-0.03545231217175334
 21
0.03545231217175334
 31
0.0
210
0.0
220
0.0
230
-1.0
 40
0.997265
 41
5.499156671652574
 42
7.067213942706304
  0
ELLIPSE
  5
C1F
330
1F
100
AcDbEntity
  8
OBRYS
  6
CONTINUOUS
100
AcDbEllipse
 10
167.1709743792836
 20
127.1119037511383
 30
0.0
 11
-0.03545231217175334
 21
0.03545231217175334
 31
0.0
210
0.0
220
0.0
230
-1.0
 40
0.997265
 41
5.499156671652522
 42
7.067213942706581
  0
ELLIPSE
  5
C20
330
1F
100
AcDbEntity
  8
OBRYS
  6
CONTINUOUS
100
AcDbEllipse
 10
167.1709743792836
 20
117.8091337511383
 30
0.0
 11
-0.03545231217175334
 21
-0.03545231217175334
 31
0.0
210
0.0
220
0.0
230
-1.0
 40
0.997265
 41
5.499156671652314
 42
7.067213942706667
  0
ELLIPSE
  5
C21
330
1F
100
AcDbEntity
  8
OBRYS
  6
CONTINUOUS
100
AcDbEllipse
 10
163.4848813792836
 20
125.7120407511382
 30
0.0
 11
0.03545231217175334
 21
-0.03545231217175334
 31
0.0
210
0.0
220
0.0
230
-1.0
 40
0.997265
 41
5.499156671652519
 42
7.067213942706577
  0
ELLIPSE
  5
C22
330
1F
100
AcDbEntity
  8
OBRYS
  6
CONTINUOUS
100
AcDbEllipse
 10
164.8835603792836
 20
125.7888037511383
 30
0.0
 11
-0.03545231217175334
 21
0.03545231217175334
 31
0.0
210
0.0
220
0.0
230
-1.0
 40
0.997265
 41
5.499156671652487
 42
7.06721394270658
  0
ELLIPSE
  5
C23
330
1F
100
AcDbEntity
  8
OBRYS
  6
CONTINUOUS
100
AcDbEllipse
 10
164.8486413792836
 20
127.0351417511383
 30
0.0
 11
-0.03545231217175334
 21
-0.03545231217175334
 31
0.0
210
0.0
220
0.0
230
-1.0
 40
0.997265
 41
5.499156671652313
 42
7.06721394270665
  0
ELLIPSE
  5
C24
330
1F
100
AcDbEntity
  8
OBRYS
  6
CONTINUOUS
100
AcDbEllipse
 10
165.8678443792836
 20
127.1119037511383
 30
0.0
 11
0.03545231217175334
 21
0.03545231217175334
 31
0.0
210
0.0
220
0.0
230
-1.0
 40
0.997265
 41
5.499156671652313
 42
7.06721394270658
  0
ELLIPSE
  5
C25
330
1F
100
AcDbEntity
  8
OBRYS
  6
CONTINUOUS
100
AcDbEllipse
 10
167.1709743792836
 20
117.8858957511382
 30
0.0
 11
-0.03545231217175334
 21
0.03545231217175334
 31
0.0
210
0.0
220
0.0
230
-1.0
 40
0.997265
 41
5.499156671652557
 42
7.067213942706581
  0
ELLIPSE
  5
C26
330
1F
100
AcDbEntity
  8
OBRYS
  6
CONTINUOUS
100
AcDbEllipse
 10
163.8029933792835
 20
117.8858957511382
 30
0.0
 11
0.03545231217175334
 21
0.03545231217175334
 31
0.0
210
0.0
220
0.0
230
-1.0
 40
0.997265
 41
5.499156671652309
 42
7.067213942706645
  0
ELLIPSE
  5
C27
330
1F
100
AcDbEntity
  8
OBRYS
  6
CONTINUOUS
100
AcDbEllipse
 10
164.8835603792836
 20
125.7120407511382
 30
0.0
 11
-0.03545231217175334
 21
-0.03545231217175334
 31
0.0
210
0.0
220
0.0
230
-1.0
 40
0.997265
 41
5.499156671652592
 42
7.067213942706617
  0
ELLIPSE
  5
C28
330
1F
100
AcDbEntity
  8
OBRYS
  6
CONTINUOUS
100
AcDbEllipse
 10
165.8678443792836
 20
125.7120407511382
 30
0.0
 11
0.03545231217175334
 21
-0.03545231217175334
 31
0.0
210
0.0
220
0.0
230
-1.0
 40
0.997265
 41
5.499156671652524
 42
7.067213942706582
  0
ELLIPSE
  5
C29
330
1F
100
AcDbEntity
  8
OBRYS
  6
CONTINUOUS
100
AcDbEllipse
 10
164.9395853792836
 20
126.4242597511383
 30
0.0
 11
-0.03545231217175332
 21
0.03545231217175332
 31
0.0
210
0.0
220
0.0
230
-1.0
 40
0.997265
 41
5.499156671652612
 42
7.06721394270674
  0
ELLIPSE
  5
C2A
330
1F
100
AcDbEntity
  8
OBRYS
  6
CONTINUOUS
100
AcDbEllipse
 10
163.5216213792836
 20
127.1119037511383
 30
0.0
 11
0.02360964861858023
 21
0.04417479269303146
 31
0.0
210
0.0
220
0.0
230
-1.0
 40
0.998239
 41
5.793083739115147
 42
6.773286875244221
  0
ELLIPSE
  5
C2B
330
1F
100
AcDbEntity
  8
OBRYS
  6
CONTINUOUS
100
AcDbEllipse
 10
164.3494923792836
 20
125.7120407511382
 30
0.0
 11
-0.02359966670000251
 21
-0.04418010208077738
 31
0.0
210
0.0
220
0.0
230
-1.0
 40
0.9982399999999999
 41
5.793309065508732
 42
6.773061548850119
  0
ELLIPSE
  5
C2C
330
1F
100
AcDbEntity
  8
OBRYS
  6
CONTINUOUS
100
AcDbEllipse
 10
167.9742283792836
 20
122.0984797511383
 30
0.0
 11
0.1892292473316091
 21
0.07504352390770683
 31
0.0
210
0.0
220
0.0
230
1.0
 40
0.982481
 41
5.911653010962473
 42
7.470335956972569
  0
ELLIPSE
  5
C2D
330
1F
100
AcDbEntity
  8
OBRYS
  6
CONTINUOUS
100
AcDbEllipse
 10
167.9742283792836
 20
121.4994567511383
 30
0.0
 11
0.1892292473316091
 21
-0.07504352390770677
 31
0.0
210
0.0
220
0.0
230
1.0
 40
0.982481
 41
5.096034657386534
 42
6.654717603396698
  0
ELLIPSE
  5
C2E
330
1F
100
AcDbEntity
  8
OBRYS
  6
CONTINUOUS
100
AcDbEllipse
 10
164.3803993792835
 20
122.0984797511383
 30
0.0
 11
-0.1892292473316091
 21
0.07504352390770683
 31
0.0
210
0.0
220
0.0
230
1.0
 40
0.982481
 41
5.096034657386467
 42
6.654717603396699
  0
ELLIPSE
  5
C2F
330
1F
100
AcDbEntity
  8
OBRYS
  6
CONTINUOUS
100
AcDbEllipse
 10
164.3803993792835
 20
121.4994567511383
 30
0.0
 11
-0.1892292473316091
 21
-0.07504352390770688
 31
0.0
210
0.0
220
0.0
230
1.0
 40
0.982481
 41
5.911653010962473
 42
7.470335956972569
  0
ELLIPSE
  5
C30
330
1F
100
AcDbEntity
  8
OBRYS
  6
CONTINUOUS
100
AcDbEllipse
 10
169.9773143792836
 20
115.3119797511383
 30
0.0
 11
0.0
 21
0.2000076156771474
 31
0.0
210
0.0
220
0.0
230
-1.0
 40
0.999962
 41
1.570796326794897
 42
3.141592653589793
  0
ELLIPSE
  5
C31
330
1F
100
AcDbEntity
  8
OBRYS
  6
CONTINUOUS
100
AcDbEllipse
 10
162.3773143792835
 20
115.3119797511383
 30
0.0
 11
0.0
 21
0.2000076156771474
 31
0.0
210
0.0
220
0.0
230
-1.0
 40
0.999962
 41
3.141592653589793
 42
4.71238898038469
  0
LWPOLYLINE
  5
C32
330
1F
100
AcDbEntity
  8
OBRYS
  6
CONTINUOUS
100
AcDbPolyline
 90
       51
 70
     0
 43
0.0
 10
166.5522183792836
 20
125.8523027511383
 10
166.5332683792836
 20
125.8585747511383
 10
166.5153573792836
 20
125.8666387511383
 10
166.4985033792836
 20
125.8763757511382
 10
166.4827203792836
 20
125.8876617511383
 10
166.4680253792835
 20
125.9003757511382
 10
166.4544343792836
 20
125.9143967511383
 10
166.4419623792836
 20
125.9296027511382
 10
166.4306253792836
 20
125.9458727511383
 10
166.4204403792836
 20
125.9630837511383
 10
166.4114223792836
 20
125.9811157511382
 10
166.4035883792835
 20
125.9998457511382
 10
166.3969523792836
 20
126.0191537511383
 10
166.3915323792836
 20
126.0389157511383
 10
166.3873423792836
 20
126.0590127511382
 10
166.3844003792836
 20
126.0793217511382
 10
166.3827203792836
 20
126.0997217511382
 10
166.3823193792836
 20
126.1200907511382
 10
166.3832123792835
 20
126.1403067511383
 10
166.3854163792836
 20
126.1602497511383
 10
166.3889473792836
 20
126.1797957511383
 10
166.3938203792836
 20
126.1988247511382
 10
166.4000513792836
 20
126.2172157511383
 10
166.4076573792836
 20
126.2348457511383
 10
166.4166533792836
 20
126.2515937511383
 10
166.4270553792836
 20
126.2673377511383
 10
166.4391583792836
 20
126.2818527511383
 10
166.4531943792836
 20
126.2950347511383
 10
166.4690803792836
 20
126.3069467511383
 10
166.4867353792835
 20
126.3176527511383
 10
166.5060753792835
 20
126.3272147511383
 10
166.5270213792836
 20
126.3356967511383
 10
166.5494893792836
 20
126.3431607511383
 10
166.5733983792836
 20
126.3496697511383
 10
166.5986663792836
 20
126.3552877511383
 10
166.6252103792836
 20
126.3600767511382
 10
166.6529503792836
 20
126.3641007511383
 10
166.6818023792836
 20
126.3674217511383
 10
166.7116863792836
 20
126.3701027511383
 10
166.7425193792836
 20
126.3722077511382
 10
166.7742193792836
 20
126.3737987511383
 10
166.8067053792836
 20
126.3749397511383
 10
166.8398943792835
 20
126.3756927511383
 10
166.8737053792836
 20
126.3761217511383
 10
166.9080563792836
 20
126.3762887511382
 10
166.9428643792836
 20
126.3762567511383
 10
166.9780483792836
 20
126.3760897511383
 10
167.0135263792835
 20
126.3758507511383
 10
167.0492173792836
 20
126.3756007511383
 10
167.0850373792836
 20
126.3754057511382
 10
167.1209053792836
 20
126.3753257511383
  0
LWPOLYLINE
  5
C33
330
1F
100
AcDbEntity
  8
OBRYS
  6
CONTINUOUS
100
AcDbPolyline
 90
       51
 70
     0
 43
0.0
 10
166.5886723792836
 20
116.7249137511383
 10
166.5611803792836
 20
116.7006817511383
 10
166.5322393792836
 20
116.6787847511383
 10
166.5019993792835
 20
116.6592107511383
 10
166.4706123792836
 20
116.6419537511382
 10
166.4382283792836
 20
116.6270027511382
 10
166.4049983792836
 20
116.6143507511382
 10
166.3710753792836
 20
116.6039877511383
 10
166.3366083792835
 20
116.5959047511383
 10
166.3017503792836
 20
116.5900947511383
 10
166.2666513792836
 20
116.5865477511383
 10
166.2314623792836
 20
116.5852547511383
 10
166.1963343792836
 20
116.5862067511382
 10
166.1614203792836
 20
116.5893967511383
 10
166.1268683792836
 20
116.5948137511382
 10
166.0928323792836
 20
116.6024497511383
 10
166.0594613792836
 20
116.6122977511383
 10
166.0269083792836
 20
116.6243457511383
 10
165.9953223792836
 20
116.6385877511383
 10
165.9648563792836
 20
116.6550137511382
 10
165.9356603792836
 20
116.6736147511382
 10
165.9078863792836
 20
116.6943817511383
 10
165.8816853792836
 20
116.7173077511383
 10
165.8572073792836
 20
116.7423817511383
 10
165.8346043792835
 20
116.7695967511383
 10
165.8140273792835
 20
116.7989427511383
 10
165.7954793792836
 20
116.8306437511383
 10
165.7788653792836
 20
116.8647427511383
 10
165.7641833792836
 20
116.9009627511382
 10
165.7514343792836
 20
116.9390257511383
 10
165.7406193792836
 20
116.9786527511383
 10
165.7317363792835
 20
117.0195677511382
 10
165.7247873792836
 20
117.0614917511382
 10
165.7197703792836
 20
117.1041467511383
 10
165.7166883792836
 20
117.1472547511383
 10
165.7155383792836
 20
117.1905387511382
 10
165.7163223792836
 20
117.2337207511383
 10
165.7190403792835
 20
117.2765227511382
 10
165.7236953792836
 20
117.3185587511382
 10
165.7302943792835
 20
117.3590047511383
 10
165.7388083792836
 20
117.3977427511383
 10
165.7492003792836
 20
117.4347707511383
 10
165.7614353792836
 20
117.4700867511383
 10
165.7754763792836
 20
117.5036927511382
 10
165.7912893792836
 20
117.5355847511383
 10
165.8088373792836
 20
117.5657637511382
 10
165.8280853792836
 20
117.5942287511382
 10
165.8489973792836
 20
117.6209787511383
 10
165.8715373792836
 20
117.6460137511383
 10
165.8956703792836
 20
117.6693307511382
 10
165.9213593792836
 20
117.6909307511383
  0
LWPOLYLINE
  5
C34
330
1F
100
AcDbEntity
  8
OBRYS
  6
CONTINUOUS
100
AcDbPolyline
 90
       51
 70
     0
 43
0.0
 10
168.6535223792835
 20
125.9509207511383
 10
168.6260313792835
 20
125.9266897511383
 10
168.5970893792836
 20
125.9047917511382
 10
168.5668493792836
 20
125.8852187511383
 10
168.5354623792836
 20
125.8679607511383
 10
168.5030783792836
 20
125.8530107511383
 10
168.4698493792835
 20
125.8403577511383
 10
168.4359253792836
 20
125.8299947511382
 10
168.4014593792836
 20
125.8219127511383
 10
168.3666003792836
 20
125.8161027511382
 10
168.3315013792836
 20
125.8125547511383
 10
168.2963123792836
 20
125.8112617511382
 10
168.2611853792835
 20
125.8122147511383
 10
168.2262703792836
 20
125.8154037511382
 10
168.1917193792836
 20
125.8208217511383
 10
168.1576823792836
 20
125.8284577511383
 10
168.1243123792836
 20
125.8383047511383
 10
168.0917583792836
 20
125.8503537511383
 10
168.0601733792836
 20
125.8645947511383
 10
168.0297073792836
 20
125.8810207511383
 10
168.0005113792836
 20
125.8996217511383
 10
167.9727373792836
 20
125.9203897511382
 10
167.9465353792836
 20
125.9433147511383
 10
167.9220573792836
 20
125.9683897511382
 10
167.8994543792836
 20
125.9956047511383
 10
167.8788773792836
 20
126.0249507511383
 10
167.8603303792836
 20
126.0566517511383
 10
167.8437153792836
 20
126.0907507511383
 10
167.8290333792836
 20
126.1269707511383
 10
167.8162853792836
 20
126.1650327511383
 10
167.8054693792836
 20
126.2046607511383
 10
167.7965863792836
 20
126.2455757511383
 10
167.7896373792836
 20
126.2874987511383
 10
167.7846213792835
 20
126.3301537511383
 10
167.7815383792835
 20
126.3732627511383
 10
167.7803893792835
 20
126.4165467511383
 10
167.7811733792836
 20
126.4597287511383
 10
167.7838903792836
 20
126.5025307511383
 10
167.7885453792836
 20
126.5445657511383
 10
167.7951453792836
 20
126.5850127511383
 10
167.8036583792836
 20
126.6237507511383
 10
167.8140503792835
 20
126.6607777511382
 10
167.8262853792836
 20
126.6960947511383
 10
167.8403273792836
 20
126.7296997511383
 10
167.8561393792836
 20
126.7615927511383
 10
167.8736883792835
 20
126.7917717511383
 10
167.8929353792836
 20
126.8202367511383
 10
167.9138473792836
 20
126.8469867511383
 10
167.9363873792836
 20
126.8720207511383
 10
167.9605203792836
 20
126.8953387511383
 10
167.9862093792836
 20
126.9169387511383
  0
LWPOLYLINE
  5
C35
330
1F
100
AcDbEntity
  8
OBRYS
  6
CONTINUOUS
100
AcDbPolyline
 90
       51
 70
     0
 43
0.0
 10
165.2398623792836
 20
117.7237617511383
 10
165.2061183792836
 20
117.7691727511383
 10
165.1677293792835
 20
117.8096927511383
 10
165.1246043792836
 20
117.8453607511383
 10
165.0766543792836
 20
117.8762157511382
 10
165.0237883792836
 20
117.9022967511383
 10
164.9659173792836
 20
117.9236427511383
 10
164.9023293792835
 20
117.9404477511383
 10
164.8321533792836
 20
117.9528867511383
 10
164.7574093792836
 20
117.9603397511383
 10
164.6802803792836
 20
117.9621467511383
 10
164.6029463792836
 20
117.9576487511383
 10
164.5275913792836
 20
117.9461847511383
 10
164.4564463792836
 20
117.9270367511382
 10
164.3915723792836
 20
117.8995227511382
 10
164.3334393792836
 20
117.8644547511383
 10
164.2822573792835
 20
117.8229077511383
 10
164.2382373792836
 20
117.7759557511383
 10
164.2015893792835
 20
117.7246737511382
 10
164.1725233792835
 20
117.6701337511383
 10
164.1512523792836
 20
117.6134127511383
 10
164.1379843792836
 20
117.5555817511383
 10
164.1329303792836
 20
117.4977177511383
 10
164.1363023792836
 20
117.4408927511383
 10
164.1483093792836
 20
117.3861827511383
 10
164.1691633792836
 20
117.3346597511383
 10
164.1988443792835
 20
117.2871357511383
 10
164.2369813792835
 20
117.2435767511383
 10
164.2836773792835
 20
117.2041037511383
 10
164.3387063792836
 20
117.1689207511383
 10
164.4070113792835
 20
117.1368257511382
 10
164.5027163792836
 20
117.1043697511383
 10
164.6408113792836
 20
117.0681807511383
 10
164.8041733792836
 20
117.0288477511383
 10
164.9296603792835
 20
116.9896467511383
 10
165.0067033792836
 20
116.9510497511383
 10
165.0491133792836
 20
116.9097617511382
 10
165.0686463792836
 20
116.8629697511383
 10
165.0737003792836
 20
116.8087827511383
 10
165.0654753792836
 20
116.7533777511382
 10
165.0412193792835
 20
116.7026117511382
 10
165.0001803792836
 20
116.6584957511383
 10
164.9416043792836
 20
116.6230387511383
 10
164.8647383792836
 20
116.5982517511382
 10
164.7688313792836
 20
116.5861427511383
 10
164.6649613792836
 20
116.5886797511383
 10
164.5750323792836
 20
116.6066127511383
 10
164.5000633792835
 20
116.6398397511382
 10
164.4405903792836
 20
116.6882527511383
 10
164.3971463792836
 20
116.7517437511383
 10
164.3702693792835
 20
116.8302047511383
  0
LWPOLYLINE
  5
C36
330
1F
100
AcDbEntity
  8
OBRYS
  6
CONTINUOUS
100
AcDbPolyline
 90
       51
 70
     0
 43
0.0
 10
165.5685083792835
 20
116.8539607511383
 10
165.5870203792836
 20
116.8097537511382
 10
165.6081763792835
 20
116.7673327511383
 10
165.6318763792836
 20
116.7267977511383
 10
165.6580193792836
 20
116.6882487511382
 10
165.6865023792836
 20
116.6517827511383
 10
165.7172263792836
 20
116.6175027511382
 10
165.7500893792836
 20
116.5855047511383
 10
165.7849903792836
 20
116.5558907511383
 10
165.8218283792836
 20
116.5287597511383
 10
165.8605013792836
 20
116.5042097511382
 10
165.9009103792835
 20
116.4823417511383
 10
165.9429513792836
 20
116.4632547511383
 10
165.9865493792836
 20
116.4470467511382
 10
166.0316593792836
 20
116.4337677511383
 10
166.0779993792836
 20
116.4233927511383
 10
166.1252523792836
 20
116.4158927511383
 10
166.1731013792836
 20
116.4112367511383
 10
166.2212303792836
 20
116.4093977511383
 10
166.2693223792836
 20
116.4103457511383
 10
166.3170623792836
 20
116.4140497511383
 10
166.3641323792836
 20
116.4204837511383
 10
166.4102173792836
 20
116.4296157511383
 10
166.4550003792836
 20
116.4414167511382
 10
166.4981653792836
 20
116.4558587511383
 10
166.5393943792836
 20
116.4729117511383
 10
166.5789043792836
 20
116.4926357511383
 10
166.6170343792836
 20
116.5150607511383
 10
166.6536603792836
 20
116.5401147511383
 10
166.6886543792836
 20
116.5677227511382
 10
166.7218923792836
 20
116.5978117511383
 10
166.7532483792836
 20
116.6303097511383
 10
166.7825953792835
 20
116.6651417511383
 10
166.8098083792836
 20
116.7022357511383
 10
166.8347603792836
 20
116.7415177511382
 10
166.8573263792836
 20
116.7829147511383
 10
166.8773813792835
 20
116.8263527511382
 10
166.8947973792836
 20
116.8717587511382
 10
166.9095173792836
 20
116.9191677511383
 10
166.9218133792836
 20
116.9690347511383
 10
166.9316063792836
 20
117.0211017511382
 10
166.9387463792836
 20
117.0749927511383
 10
166.9430873792836
 20
117.1303307511383
 10
166.9444793792836
 20
117.1867377511383
 10
166.9427743792836
 20
117.2438377511383
 10
166.9378233792836
 20
117.3012527511383
 10
166.9294793792835
 20
117.3586067511383
 10
166.9175943792835
 20
117.4155217511383
 10
166.9020183792836
 20
117.4716207511383
 10
166.8826033792836
 20
117.5265267511383
 10
166.8592023792836
 20
117.5798637511382
  0
LWPOLYLINE
  5
C37
330
1F
100
AcDbEntity
  8
OBRYS
  6
CONTINUOUS
100
AcDbPolyline
 90
       51
 70
     0
 43
0.0
 10
167.6333583792836
 20
126.0799687511383
 10
167.6518703792836
 20
126.0357617511383
 10
167.6730263792836
 20
125.9933407511383
 10
167.6967263792835
 20
125.9528057511383
 10
167.7228693792836
 20
125.9142557511383
 10
167.7513533792836
 20
125.8777907511382
 10
167.7820763792836
 20
125.8435097511383
 10
167.8149393792836
 20
125.8115127511383
 10
167.8498403792836
 20
125.7818987511383
 10
167.8866783792836
 20
125.7547667511383
 10
167.9253523792836
 20
125.7302177511383
 10
167.9657603792836
 20
125.7083497511383
 10
168.0078023792836
 20
125.6892617511383
 10
168.0513993792836
 20
125.6730547511383
 10
168.0965103792836
 20
125.6597757511383
 10
168.1428493792835
 20
125.6494007511383
 10
168.1901023792836
 20
125.6418997511383
 10
168.2379513792835
 20
125.6372447511383
 10
168.2860803792836
 20
125.6354057511383
 10
168.3341723792836
 20
125.6363527511383
 10
168.3819123792836
 20
125.6400577511383
 10
168.4289833792836
 20
125.6464907511383
 10
168.4750683792836
 20
125.6556227511383
 10
168.5198513792836
 20
125.6674247511383
 10
168.5630153792835
 20
125.6818667511383
 10
168.6042453792836
 20
125.6989197511382
 10
168.6437543792836
 20
125.7186437511382
 10
168.6818843792836
 20
125.7410687511383
 10
168.7185103792836
 20
125.7661217511383
 10
168.7535053792836
 20
125.7937307511383
 10
168.7867433792836
 20
125.8238197511383
 10
168.8180983792836
 20
125.8563177511383
 10
168.8474453792836
 20
125.8911497511383
 10
168.8746583792835
 20
125.9282437511383
 10
168.8996113792836
 20
125.9675257511383
 10
168.9221773792836
 20
126.0089217511383
 10
168.9422313792836
 20
126.0523607511383
 10
168.9596473792836
 20
126.0977667511383
 10
168.9743673792836
 20
126.1451757511383
 10
168.9866633792836
 20
126.1950417511382
 10
168.9964563792836
 20
126.2471097511383
 10
169.0035973792835
 20
126.3010007511382
 10
169.0079373792836
 20
126.3563377511382
 10
169.0093293792836
 20
126.4127457511383
 10
169.0076243792836
 20
126.4698457511383
 10
169.0026743792835
 20
126.5272607511383
 10
168.9943303792836
 20
126.5846147511383
 10
168.9824443792836
 20
126.6415297511383
 10
168.9668683792836
 20
126.6976287511383
 10
168.9474533792836
 20
126.7525347511383
 10
168.9240523792836
 20
126.8058707511383
  0
LWPOLYLINE
  5
C38
330
1F
100
AcDbEntity
  8
OBRYS
  6
CONTINUOUS
100
AcDbPolyline
 90
       51
 70
     0
 43
0.0
 10
168.6496853792836
 20
117.6953657511383
 10
168.6798343792836
 20
117.7179377511383
 10
168.7125763792835
 20
117.7375777511383
 10
168.7475633792835
 20
117.7542287511383
 10
168.7844493792836
 20
117.7678317511382
 10
168.8228873792836
 20
117.7783307511383
 10
168.8625293792836
 20
117.7856697511383
 10
168.9030303792836
 20
117.7897887511382
 10
168.9440423792836
 20
117.7906327511383
 10
168.9852183792836
 20
117.7881437511383
 10
169.0262113792836
 20
117.7822637511382
 10
169.0666753792836
 20
117.7729367511383
 10
169.1062623792835
 20
117.7601047511383
 10
169.1445783792836
 20
117.7436947511382
 10
169.1808133792836
 20
117.7235267511383
 10
169.2147273792836
 20
117.6996617511383
 10
169.2462523792836
 20
117.6722277511383
 10
169.2753193792836
 20
117.6413477511383
 10
169.3018603792836
 20
117.6071487511382
 10
169.3258083792836
 20
117.5697557511383
 10
169.3470923792836
 20
117.5292937511382
 10
169.3656463792836
 20
117.4858887511382
 10
169.3814013792836
 20
117.4396657511383
 10
169.3942883792836
 20
117.3907507511383
 10
169.4042393792836
 20
117.3392687511382
 10
169.4111863792836
 20
117.2853457511383
 10
169.4150823792836
 20
117.2291867511383
 10
169.4158363792835
 20
117.1714207511383
 10
169.4132273792836
 20
117.1127517511382
 10
169.4070273792836
 20
117.0538807511382
 10
169.3970083792836
 20
116.9955097511383
 10
169.3829433792835
 20
116.9383387511382
 10
169.3646033792836
 20
116.8830687511383
 10
169.3417623792836
 20
116.8303997511382
 10
169.3141923792836
 20
116.7810337511383
 10
169.2816653792836
 20
116.7356707511383
 10
169.2439533792836
 20
116.6950117511383
 10
169.2008293792836
 20
116.6597577511383
 10
169.1520583792835
 20
116.6306077511382
 10
169.0967733792836
 20
116.6078687511382
 10
169.0360273792836
 20
116.5916647511383
 10
168.9720353792836
 20
116.5822917511382
 10
168.9070133792836
 20
116.5800457511383
 10
168.8431793792836
 20
116.5852227511382
 10
168.7827483792836
 20
116.5981207511383
 10
168.7275763792836
 20
116.6189247511383
 10
168.6778193792836
 20
116.6477597511383
 10
168.6333313792836
 20
116.6850677511382
 10
168.5939793792836
 20
116.7313027511383
 10
168.5596303792836
 20
116.7869207511383
 10
168.5301533792836
 20
116.8523757511382
  0
LWPOLYLINE
  5
C39
330
1F
100
AcDbEntity
  8
OBRYS
  6
CONTINUOUS
100
AcDbPolyline
 90
       51
 70
     0
 43
0.0
 10
168.3386723792836
 20
116.7933077511383
 10
168.3670323792836
 20
116.7303147511383
 10
168.4012613792836
 20
116.6724357511383
 10
168.4409923792836
 20
116.6198467511382
 10
168.4858523792836
 20
116.5727207511382
 10
168.5354713792836
 20
116.5312327511382
 10
168.5894803792836
 20
116.4955567511383
 10
168.6475073792836
 20
116.4658667511383
 10
168.7091823792836
 20
116.4423377511383
 10
168.7741353792836
 20
116.4251427511382
 10
168.8419953792836
 20
116.4144577511383
 10
168.9123923792835
 20
116.4104567511383
 10
168.9849553792835
 20
116.4133127511383
 10
169.0574333792836
 20
116.4232097511382
 10
169.1273543792836
 20
116.4400807511383
 10
169.1943103792836
 20
116.4637167511383
 10
169.2578933792836
 20
116.4939077511383
 10
169.3176953792835
 20
116.5304437511383
 10
169.3733083792835
 20
116.5731167511383
 10
169.4243253792835
 20
116.6217167511383
 10
169.4703373792836
 20
116.6760337511383
 10
169.5109373792835
 20
116.7358597511382
 10
169.5457183792836
 20
116.8009827511383
 10
169.5742713792835
 20
116.8711957511382
 10
169.5961883792836
 20
116.9462877511383
 10
169.6110713792836
 20
117.0260407511383
 10
169.6190643792836
 20
117.1095007511383
 10
169.6203673792836
 20
117.1952077511383
 10
169.6149523792836
 20
117.2818607511382
 10
169.6027893792836
 20
117.3681577511383
 10
169.5838533792836
 20
117.4528007511383
 10
169.5581153792836
 20
117.5344877511383
 10
169.5257673792836
 20
117.6114347511383
 10
169.4872613792836
 20
117.6816017511382
 10
169.4424293792836
 20
117.7446067511383
 10
169.3910703792835
 20
117.8001407511382
 10
169.3329873792836
 20
117.8478957511383
 10
169.2679783792836
 20
117.8875637511382
 10
169.1956233792835
 20
117.9188867511382
 10
169.1136653792836
 20
117.9421257511383
 10
169.0241963792836
 20
117.9567767511383
 10
168.9305643792836
 20
117.9620727511383
 10
168.8361153792836
 20
117.9572487511382
 10
168.7441963792836
 20
117.9415387511383
 10
168.6581533792836
 20
117.9141777511383
 10
168.5799153792836
 20
117.8747997511382
 10
168.5090913792835
 20
117.8238667511383
 10
168.4461493792836
 20
117.7617047511383
 10
168.3915663792835
 20
117.6886417511383
 10
168.3458183792835
 20
117.6050027511383
 10
168.3093853792836
 20
117.5111147511383
  0
LWPOLYLINE
  5
C3A
330
1F
100
AcDbEntity
  8
OBRYS
  6
CONTINUOUS
100
AcDbPolyline
 90
       51
 70
     0
 43
0.0
 10
168.9240523792836
 20
126.8058707511383
 10
168.9042063792836
 20
126.8433817511383
 10
168.8818473792836
 20
126.8792207511383
 10
168.8571133792836
 20
126.9133377511383
 10
168.8301433792836
 20
126.9456817511383
 10
168.8010763792836
 20
126.9762047511382
 10
168.7700513792836
 20
127.0048537511383
 10
168.7372053792836
 20
127.0315797511383
 10
168.7026793792836
 20
127.0563327511383
 10
168.6666113792836
 20
127.0790617511383
 10
168.6291393792835
 20
127.0997157511382
 10
168.5904023792836
 20
127.1182467511383
 10
168.5505403792835
 20
127.1346027511383
 10
168.5096913792836
 20
127.1487327511383
 10
168.4679933792836
 20
127.1605887511383
 10
168.4255863792835
 20
127.1701177511382
 10
168.3826083792836
 20
127.1772717511383
 10
168.3391983792835
 20
127.1819997511383
 10
168.2954953792836
 20
127.1842507511383
 10
168.2516373792836
 20
127.1839747511383
 10
168.2077643792836
 20
127.1811217511383
 10
168.1640133792835
 20
127.1756407511382
 10
168.1205253792836
 20
127.1674827511383
 10
168.0774373792836
 20
127.1565967511383
 10
168.0348893792836
 20
127.1429317511383
 10
167.9930183792836
 20
127.1264387511383
 10
167.9523773792835
 20
127.1069417511383
 10
167.9134653792836
 20
127.0844057511382
 10
167.8763403792836
 20
127.0589817511383
 10
167.8410643792836
 20
127.0308247511382
 10
167.8076953792836
 20
127.0000877511383
 10
167.7762953792836
 20
126.9669237511383
 10
167.7469233792836
 20
126.9314877511382
 10
167.7196383792836
 20
126.8939317511383
 10
167.6945023792836
 20
126.8544097511383
 10
167.6715733792836
 20
126.8130747511383
 10
167.6509123792836
 20
126.7700817511382
 10
167.6325793792836
 20
126.7255837511383
 10
167.6166343792836
 20
126.6797327511382
 10
167.6031363792836
 20
126.6326847511383
 10
167.5921463792835
 20
126.5845907511382
 10
167.5837243792836
 20
126.5356067511383
 10
167.5779293792836
 20
126.4858837511382
 10
167.5748223792836
 20
126.4355777511383
 10
167.5744623792836
 20
126.3848397511382
 10
167.5769103792836
 20
126.3338257511382
 10
167.5822253792836
 20
126.2826877511383
 10
167.5904673792836
 20
126.2315787511383
 10
167.6016973792836
 20
126.1806547511382
 10
167.6159743792836
 20
126.1300667511382
 10
167.6333583792836
 20
126.0799687511383
  0
LWPOLYLINE
  5
C3B
330
1F
100
AcDbEntity
  8
OBRYS
  6
CONTINUOUS
100
AcDbPolyline
 90
       51
 70
     0
 43
0.0
 10
166.8592023792836
 20
117.5798637511382
 10
166.8393563792835
 20
117.6173737511382
 10
166.8169973792835
 20
117.6532127511382
 10
166.7922633792836
 20
117.6873297511383
 10
166.7652933792836
 20
117.7196747511382
 10
166.7362263792836
 20
117.7501967511383
 10
166.7052003792836
 20
117.7788457511382
 10
166.6723553792836
 20
117.8055717511383
 10
166.6378293792835
 20
117.8303247511383
 10
166.6017603792835
 20
117.8530537511382
 10
166.5642893792836
 20
117.8737087511383
 10
166.5255523792836
 20
117.8922387511383
 10
166.4856903792836
 20
117.9085947511383
 10
166.4448413792836
 20
117.9227257511383
 10
166.4031433792836
 20
117.9345807511383
 10
166.3607363792836
 20
117.9441107511383
 10
166.3177583792836
 20
117.9512647511383
 10
166.2743483792836
 20
117.9559917511383
 10
166.2306443792836
 20
117.9582427511383
 10
166.1867873792836
 20
117.9579667511382
 10
166.1429133792836
 20
117.9551137511383
 10
166.0991633792836
 20
117.9496337511383
 10
166.0556753792835
 20
117.9414747511383
 10
166.0125873792836
 20
117.9305887511382
 10
165.9700383792836
 20
117.9169237511383
 10
165.9281683792836
 20
117.9004307511383
 10
165.8875273792836
 20
117.8809347511383
 10
165.8486143792836
 20
117.8583977511383
 10
165.8114903792836
 20
117.8329737511383
 10
165.7762133792836
 20
117.8048167511383
 10
165.7428453792836
 20
117.7740797511383
 10
165.7114453792836
 20
117.7409167511383
 10
165.6820723792836
 20
117.7054797511383
 10
165.6547883792836
 20
117.6679237511383
 10
165.6296513792836
 20
117.6284017511382
 10
165.6067233792836
 20
117.5870677511382
 10
165.5860623792836
 20
117.5440737511383
 10
165.5677293792836
 20
117.4995757511382
 10
165.5517843792836
 20
117.4537257511383
 10
165.5382863792836
 20
117.4066767511382
 10
165.5272963792836
 20
117.3585837511383
 10
165.5188743792836
 20
117.3095987511382
 10
165.5130793792836
 20
117.2598767511383
 10
165.5099723792836
 20
117.2095697511383
 10
165.5096123792836
 20
117.1588327511383
 10
165.5120593792836
 20
117.1078177511383
 10
165.5173743792836
 20
117.0566797511383
 10
165.5256173792835
 20
117.0055717511383
 10
165.5368473792836
 20
116.9546467511383
 10
165.5511243792836
 20
116.9040587511383
 10
165.5685083792835
 20
116.8539607511383
  0
LWPOLYLINE
  5
C3C
330
1F
100
AcDbEntity
  8
OBRYS
  6
CONTINUOUS
100
AcDbPolyline
 90
       51
 70
     0
 43
0.0
 10
167.9862093792836
 20
126.9169387511383
 10
168.0132163792836
 20
126.9365327511382
 10
168.0413863792836
 20
126.9539577511382
 10
168.0705913792836
 20
126.9692277511382
 10
168.1007023792835
 20
126.9823557511383
 10
168.1315923792835
 20
126.9933587511382
 10
168.1631323792836
 20
127.0022497511383
 10
168.1951943792835
 20
127.0090437511383
 10
168.2276503792836
 20
127.0137547511383
 10
168.2603723792836
 20
127.0163977511383
 10
168.2932323792836
 20
127.0169857511383
 10
168.3261023792836
 20
127.0155347511382
 10
168.3588533792835
 20
127.0120597511383
 10
168.3913573792836
 20
127.0065727511383
 10
168.4234873792836
 20
126.9990897511383
 10
168.4551143792836
 20
126.9896257511382
 10
168.4861103792836
 20
126.9781947511383
 10
168.5163473792836
 20
126.9648097511382
 10
168.5456973792836
 20
126.9494877511383
 10
168.5740313792836
 20
126.9322407511383
 10
168.6012223792835
 20
126.9130847511383
 10
168.6271423792836
 20
126.8920337511383
 10
168.6516613792836
 20
126.8691017511382
 10
168.6746533792836
 20
126.8443047511383
 10
168.6959883792836
 20
126.8176547511382
 10
168.7155393792836
 20
126.7891687511383
 10
168.7331073792836
 20
126.7585767511382
 10
168.7486103792836
 20
126.7257787511383
 10
168.7621043792836
 20
126.6910427511383
 10
168.7736423792836
 20
126.6546357511383
 10
168.7832763792836
 20
126.6168257511383
 10
168.7910603792836
 20
126.5778787511382
 10
168.7970473792836
 20
126.5380627511383
 10
168.8012923792836
 20
126.4976447511383
 10
168.8038463792836
 20
126.4568927511383
 10
168.8047643792836
 20
126.4160737511383
 10
168.8040983792835
 20
126.3754547511383
 10
168.8019033792836
 20
126.3353027511383
 10
168.7982503792836
 20
126.2959767511383
 10
168.7932863792836
 20
126.2581897511383
 10
168.7870313792835
 20
126.2220457511383
 10
168.7794863792836
 20
126.1875437511383
 10
168.7706513792836
 20
126.1546837511383
 10
168.7605263792836
 20
126.1234667511383
 10
168.7491103792836
 20
126.0938907511383
 10
168.7364053792836
 20
126.0659567511383
 10
168.7224093792836
 20
126.0396657511383
 10
168.7071223792836
 20
126.0150167511382
 10
168.6905463792836
 20
125.9920087511382
 10
168.6726793792836
 20
125.9706437511383
 10
168.6535223792835
 20
125.9509207511383
  0
LWPOLYLINE
  5
C3D
330
1F
100
AcDbEntity
  8
OBRYS
  6
CONTINUOUS
100
AcDbPolyline
 90
       51
 70
     0
 43
0.0
 10
165.9213593792836
 20
117.6909307511383
 10
165.9483663792836
 20
117.7105247511383
 10
165.9765363792835
 20
117.7279497511383
 10
166.0057413792836
 20
117.7432197511383
 10
166.0358523792836
 20
117.7563487511382
 10
166.0667413792836
 20
117.7673517511383
 10
166.0982813792836
 20
117.7762427511383
 10
166.1303433792836
 20
117.7830357511383
 10
166.1628003792836
 20
117.7877467511383
 10
166.1955223792836
 20
117.7903897511382
 10
166.2283823792835
 20
117.7909787511383
 10
166.2612513792836
 20
117.7895277511383
 10
166.2940033792836
 20
117.7860517511382
 10
166.3265073792836
 20
117.7805647511383
 10
166.3586373792836
 20
117.7730827511382
 10
166.3902643792836
 20
117.7636177511383
 10
166.4212603792836
 20
117.7521867511382
 10
166.4514973792836
 20
117.7388027511383
 10
166.4808473792836
 20
117.7234797511383
 10
166.5091813792835
 20
117.7062327511382
 10
166.5363723792836
 20
117.6870767511382
 10
166.5622913792836
 20
117.6660257511383
 10
166.5868113792835
 20
117.6430947511383
 10
166.6098023792836
 20
117.6182967511383
 10
166.6311383792836
 20
117.5916477511383
 10
166.6506893792836
 20
117.5631607511383
 10
166.6682563792836
 20
117.5325687511383
 10
166.6837603792836
 20
117.4997707511383
 10
166.6972543792836
 20
117.4650347511382
 10
166.7087913792836
 20
117.4286287511382
 10
166.7184253792836
 20
117.3908177511383
 10
166.7262093792836
 20
117.3518707511383
 10
166.7321973792836
 20
117.3120547511383
 10
166.7364413792835
 20
117.2716377511382
 10
166.7389963792836
 20
117.2308857511382
 10
166.7399133792836
 20
117.1900657511382
 10
166.7392483792836
 20
117.1494467511383
 10
166.7370533792836
 20
117.1092947511383
 10
166.7334003792836
 20
117.0699687511383
 10
166.7284353792836
 20
117.0321827511383
 10
166.7221813792836
 20
116.9960387511383
 10
166.7146363792836
 20
116.9615367511383
 10
166.7058013792835
 20
116.9286767511383
 10
166.6956763792836
 20
116.8974587511383
 10
166.6842603792836
 20
116.8678827511383
 10
166.6715543792835
 20
116.8399497511382
 10
166.6575583792836
 20
116.8136577511383
 10
166.6422723792836
 20
116.7890087511383
 10
166.6256963792836
 20
116.7660017511383
 10
166.6078293792836
 20
116.7446367511383
 10
166.5886723792836
 20
116.7249137511383
  0
LWPOLYLINE
  5
C3E
330
1F
100
AcDbEntity
  8
OBRYS
  6
CONTINUOUS
100
AcDbPolyline
 90
       51
 70
     0
 43
0.0
 10
164.1780143792836
 20
116.8052487511383
 10
164.1861623792836
 20
116.7632387511382
 10
164.1979573792836
 20
116.7228227511383
 10
164.2133423792835
 20
116.6841617511383
 10
164.2322623792836
 20
116.6474177511383
 10
164.2546613792836
 20
116.6127547511383
 10
164.2804833792836
 20
116.5803347511383
 10
164.3096723792836
 20
116.5503187511382
 10
164.3421723792836
 20
116.5228707511383
 10
164.3779263792836
 20
116.4981527511382
 10
164.4168803792836
 20
116.4763257511383
 10
164.4589763792835
 20
116.4575547511383
 10
164.5041693792836
 20
116.4419827511382
 10
164.5523013792836
 20
116.4295847511383
 10
164.6027983792835
 20
116.4203627511383
 10
164.6550353792836
 20
116.4143467511383
 10
164.7083853792836
 20
116.4115627511382
 10
164.7622243792836
 20
116.4120417511382
 10
164.8159253792836
 20
116.4158097511383
 10
164.8688633792836
 20
116.4228967511383
 10
164.9204123792836
 20
116.4333307511383
 10
164.9699463792836
 20
116.4471397511383
 10
165.0168393792836
 20
116.4643517511383
 10
165.0604673792836
 20
116.4849967511383
 10
165.1002023792836
 20
116.5091017511383
 10
165.1355493792836
 20
116.5366947511383
 10
165.1666543792836
 20
116.5675837511383
 10
165.1935253792836
 20
116.6013137511382
 10
165.2161373792836
 20
116.6374137511383
 10
165.2344603792835
 20
116.6754157511382
 10
165.2484673792836
 20
116.7148497511383
 10
165.2581303792836
 20
116.7552477511382
 10
165.2634223792836
 20
116.7961397511383
 10
165.2643143792835
 20
116.8370577511383
 10
165.2607803792835
 20
116.8775317511383
 10
165.2527913792836
 20
116.9170917511383
 10
165.2403193792836
 20
116.9552707511383
 10
165.2233373792835
 20
116.9915987511383
 10
165.2027583792836
 20
117.0254957511383
 10
165.1795083792836
 20
117.0567497511383
 10
165.1518753792836
 20
117.0857637511382
 10
165.1180813792836
 20
117.1129567511382
 10
165.0763493792836
 20
117.1387437511383
 10
165.0248993792836
 20
117.1635417511383
 10
164.9610203792836
 20
117.1879907511383
 10
164.8782983792836
 20
117.2138747511383
 10
164.7841073792836
 20
117.2401767511383
 10
164.6885843792836
 20
117.2652697511383
 10
164.6018703792836
 20
117.2875247511383
 10
164.5341043792835
 20
117.3053137511383
 10
164.4954263792835
 20
117.3170087511383
  0
LWPOLYLINE
  5
C3F
330
1F
100
AcDbEntity
  8
OBRYS
  6
CONTINUOUS
100
AcDbPolyline
 90
       51
 70
     0
 43
0.0
 10
164.4954263792835
 20
117.3170087511383
 10
164.4678433792836
 20
117.3287537511383
 10
164.4426563792836
 20
117.3420037511383
 10
164.4198573792836
 20
117.3566247511383
 10
164.3994373792836
 20
117.3724837511383
 10
164.3813863792836
 20
117.3894447511383
 10
164.3656973792835
 20
117.4073767511382
 10
164.3523603792836
 20
117.4261447511383
 10
164.3413663792836
 20
117.4456157511383
 10
164.3327063792836
 20
117.4656557511383
 10
164.3263723792836
 20
117.4861307511382
 10
164.3223553792836
 20
117.5069067511383
 10
164.3206463792835
 20
117.5278507511382
 10
164.3212363792836
 20
117.5488297511383
 10
164.3241163792836
 20
117.5697087511383
 10
164.3292773792836
 20
117.5903547511382
 10
164.3367113792836
 20
117.6106337511383
 10
164.3464093792836
 20
117.6304127511383
 10
164.3583613792836
 20
117.6495577511383
 10
164.3725603792836
 20
117.6679337511382
 10
164.3889953792836
 20
117.6854097511382
 10
164.4076593792836
 20
117.7018497511383
 10
164.4285423792836
 20
117.7171207511383
 10
164.4516363792835
 20
117.7310897511383
 10
164.4769323792836
 20
117.7436217511383
 10
164.5044203792836
 20
117.7545847511383
 10
164.5340753792836
 20
117.7638417511383
 10
164.5655083792836
 20
117.7712597511383
 10
164.5983263792836
 20
117.7768257511383
 10
164.6322213792835
 20
117.7805517511382
 10
164.6668803792836
 20
117.7824537511383
 10
164.7019923792836
 20
117.7825427511383
 10
164.7372483792836
 20
117.7808337511383
 10
164.7723353792836
 20
117.7773397511383
 10
164.8069433792836
 20
117.7720737511383
 10
164.8407613792836
 20
117.7650487511383
 10
164.8734783792836
 20
117.7562787511383
 10
164.9047833792835
 20
117.7457777511383
 10
164.9343663792835
 20
117.7335577511383
 10
164.9619003792835
 20
117.7196977511383
 10
164.9871043792836
 20
117.7046847511382
 10
165.0100223792836
 20
117.6885627511382
 10
165.0307443792836
 20
117.6712607511383
 10
165.0493623792836
 20
117.6527097511383
 10
165.0659663792836
 20
117.6328407511383
 10
165.0806463792836
 20
117.6115847511383
 10
165.0934933792836
 20
117.5888707511382
 10
165.1045963792835
 20
117.5646297511383
 10
165.1140473792836
 20
117.5387927511382
 10
165.1219363792836
 20
117.5112907511383
 10
165.1283533792836
 20
117.4820537511383
  0
LWPOLYLINE
  5
C40
330
1F
100
AcDbEntity
  8
OBRYS
  6
CONTINUOUS
100
AcDbPolyline
 90
       51
 70
     0
 43
0.0
 10
167.1209053792836
 20
126.5522257511383
 10
167.0662153792836
 20
126.5524837511382
 10
167.0106183792836
 20
126.5530987511383
 10
166.9545193792836
 20
126.5538327511382
 10
166.8983223792835
 20
126.5544487511383
 10
166.8424333792836
 20
126.5547067511383
 10
166.7872573792835
 20
126.5543717511382
 10
166.7331973792836
 20
126.5532027511382
 10
166.6806593792836
 20
126.5509637511383
 10
166.6300473792836
 20
126.5474167511383
 10
166.5817663792836
 20
126.5423227511383
 10
166.5362213792835
 20
126.5354447511383
 10
166.4938173792836
 20
126.5265437511382
 10
166.4548843792836
 20
126.5154037511383
 10
166.4191823792836
 20
126.5020477511382
 10
166.3865213792836
 20
126.4866187511383
 10
166.3567633792836
 20
126.4692527511383
 10
166.3297703792836
 20
126.4500877511382
 10
166.3054053792835
 20
126.4292597511382
 10
166.2835293792836
 20
126.4069067511382
 10
166.2640053792836
 20
126.3831657511383
 10
166.2466943792836
 20
126.3581727511383
 10
166.2314593792836
 20
126.3320657511382
 10
166.2181613792835
 20
126.3049807511382
 10
166.2066633792836
 20
126.2770567511383
 10
166.1968263792836
 20
126.2484287511383
 10
166.1887223792836
 20
126.2189297511382
 10
166.1825133792836
 20
126.1884537511383
 10
166.1782043792836
 20
126.1572307511383
 10
166.1757983792836
 20
126.1254887511383
 10
166.1752983792836
 20
126.0934587511382
 10
166.1767063792836
 20
126.0613697511383
 10
166.1800263792836
 20
126.0294507511383
 10
166.1852623792836
 20
125.9979307511383
 10
166.1924163792836
 20
125.9670407511383
 10
166.2014913792836
 20
125.9370087511383
 10
166.2124913792836
 20
125.9080657511383
 10
166.2254203792836
 20
125.8804387511383
 10
166.2401873792836
 20
125.8543827511383
 10
166.2562593792836
 20
125.8301687511383
 10
166.2735873792836
 20
125.8077897511383
 10
166.2922133792836
 20
125.7872067511383
 10
166.3121803792835
 20
125.7683797511383
 10
166.3335313792836
 20
125.7512687511383
 10
166.3563093792835
 20
125.7358327511383
 10
166.3805573792835
 20
125.7220337511383
 10
166.4063183792836
 20
125.7098297511383
 10
166.4336363792836
 20
125.6991817511383
 10
166.4625533792835
 20
125.6900487511382
 10
166.4931123792836
 20
125.6823917511382
 10
166.5253573792836
 20
125.6761707511383
  0
LWPOLYLINE
  5
C41
330
1F
100
AcDbEntity
  8
OBRYS
  6
CONTINUOUS
100
AcDbPolyline
 90
       51
 70
     0
 43
0.0
 10
166.5253573792836
 20
125.6761707511383
 10
166.5351463792836
 20
125.6744817511383
 10
166.5454303792835
 20
125.6728967511383
 10
166.5561933792835
 20
125.6714097511383
 10
166.5674193792836
 20
125.6700197511383
 10
166.5790943792836
 20
125.6687247511383
 10
166.5912023792835
 20
125.6675197511383
 10
166.6037273792836
 20
125.6664037511382
 10
166.6166543792836
 20
125.6653727511382
 10
166.6299693792836
 20
125.6644237511382
 10
166.6436553792836
 20
125.6635557511383
 10
166.6576973792836
 20
125.6627637511383
 10
166.6720813792836
 20
125.6620467511383
 10
166.6867893792836
 20
125.6614007511383
 10
166.7018083792836
 20
125.6608237511382
 10
166.7171223792836
 20
125.6603117511383
 10
166.7327163792836
 20
125.6598637511383
 10
166.7485743792836
 20
125.6594747511382
 10
166.7646803792836
 20
125.6591437511383
 10
166.7810203792835
 20
125.6588667511383
 10
166.7975783792836
 20
125.6586417511383
 10
166.8143393792836
 20
125.6584657511383
 10
166.8312883792836
 20
125.6583357511383
 10
166.8484083792836
 20
125.6582497511383
 10
166.8656863792836
 20
125.6582027511383
 10
166.8831053792836
 20
125.6581937511383
 10
166.9006503792836
 20
125.6582207511383
 10
166.9183063792836
 20
125.6582787511383
 10
166.9360573792836
 20
125.6583657511382
 10
166.9538883792836
 20
125.6584787511382
 10
166.9717843792835
 20
125.6586167511382
 10
166.9897303792835
 20
125.6587747511383
 10
167.0077103792836
 20
125.6589497511383
 10
167.0257083792835
 20
125.6591407511383
 10
167.0437103792836
 20
125.6593447511383
 10
167.0616993792836
 20
125.6595567511383
 10
167.0796623792836
 20
125.6597767511383
 10
167.0975813792836
 20
125.6599997511383
 10
167.1154433792836
 20
125.6602237511383
 10
167.1332323792836
 20
125.6604467511383
 10
167.1509313792835
 20
125.6606647511383
 10
167.1685273792836
 20
125.6608747511383
 10
167.1860043792836
 20
125.6610757511383
 10
167.2033453792835
 20
125.6612627511383
 10
167.2205373792836
 20
125.6614337511383
 10
167.2375633792836
 20
125.6615867511382
 10
167.2544093792835
 20
125.6617177511383
 10
167.2710593792836
 20
125.6618247511383
 10
167.2874973792836
 20
125.6619047511382
 10
167.3037083792836
 20
125.6619547511383
 10
167.3196773792835
 20
125.6619727511383
  0
LWPOLYLINE
  5
C42
330
1F
100
AcDbEntity
  8
OBRYS
  6
CONTINUOUS
100
AcDbPolyline
 90
       51
 70
     0
 43
0.0
 10
167.1209053792836
 20
125.8388717511383
 10
167.1088603792836
 20
125.8388637511382
 10
167.0966063792835
 20
125.8388397511383
 10
167.0841603792836
 20
125.8388017511383
 10
167.0715343792836
 20
125.8387517511382
 10
167.0587453792836
 20
125.8386907511382
 10
167.0458073792836
 20
125.8386217511383
 10
167.0327353792836
 20
125.8385447511383
 10
167.0195433792836
 20
125.8384627511382
 10
167.0062453792836
 20
125.8383767511383
 10
166.9928583792835
 20
125.8382887511383
 10
166.9793953792835
 20
125.8381997511383
 10
166.9658713792836
 20
125.8381127511383
 10
166.9523013792836
 20
125.8380277511383
 10
166.9387003792836
 20
125.8379477511383
 10
166.9250823792836
 20
125.8378747511382
 10
166.9114613792836
 20
125.8378087511383
 10
166.8978543792836
 20
125.8377527511383
 10
166.8842743792836
 20
125.8377077511383
 10
166.8707363792836
 20
125.8376757511383
 10
166.8572553792835
 20
125.8376587511383
 10
166.8438463792836
 20
125.8376577511383
 10
166.8305223792836
 20
125.8376747511383
 10
166.8173003792836
 20
125.8377117511383
 10
166.8041943792836
 20
125.8377707511383
 10
166.7912173792836
 20
125.8378517511382
 10
166.7783863792835
 20
125.8379577511383
 10
166.7657153792836
 20
125.8380907511383
 10
166.7532183792836
 20
125.8382507511383
 10
166.7409113792836
 20
125.8384417511383
 10
166.7288073792836
 20
125.8386637511383
 10
166.7169223792835
 20
125.8389187511383
 10
166.7052713792836
 20
125.8392087511383
 10
166.6938673792835
 20
125.8395357511383
 10
166.6827273792836
 20
125.8398997511382
 10
166.6718643792836
 20
125.8403047511382
 10
166.6612933792836
 20
125.8407507511383
 10
166.6510293792836
 20
125.8412397511383
 10
166.6410863792836
 20
125.8417747511383
 10
166.6314803792835
 20
125.8423557511383
 10
166.6222253792835
 20
125.8429847511382
 10
166.6133363792836
 20
125.8436637511383
 10
166.6048273792836
 20
125.8443947511383
 10
166.5967133792836
 20
125.8451787511383
 10
166.5890093792836
 20
125.8460177511383
 10
166.5817303792836
 20
125.8469137511383
 10
166.5748903792836
 20
125.8478677511383
 10
166.5685043792836
 20
125.8488827511382
 10
166.5625873792835
 20
125.8499587511383
 10
166.5571533792836
 20
125.8510977511383
 10
166.5522183792836
 20
125.8523027511383
  0
LWPOLYLINE
  5
C43
330
1F
100
AcDbEntity
  8
OBRYS
  6
CONTINUOUS
100
AcDbPolyline
 90
       51
 70
     0
 43
0.0
 10
168.5052173792836
 20
117.4569017511383
 10
168.5069993792835
 20
117.4630597511382
 10
168.5088263792836
 20
117.4691617511383
 10
168.5106993792836
 20
117.4752057511383
 10
168.5126173792836
 20
117.4811947511383
 10
168.5145813792836
 20
117.4871257511383
 10
168.5165903792835
 20
117.4930007511382
 10
168.5186443792836
 20
117.4988187511383
 10
168.5207433792836
 20
117.5045797511383
 10
168.5228883792836
 20
117.5102847511383
 10
168.5250783792835
 20
117.5159327511383
 10
168.5273143792836
 20
117.5215247511382
 10
168.5295943792836
 20
117.5270587511383
 10
168.5319203792835
 20
117.5325367511382
 10
168.5342913792836
 20
117.5379587511382
 10
168.5367083792836
 20
117.5433227511383
 10
168.5391703792835
 20
117.5486307511382
 10
168.5416763792836
 20
117.5538817511382
 10
168.5442283792836
 20
117.5590767511382
 10
168.5468263792835
 20
117.5642137511383
 10
168.5494683792836
 20
117.5692957511383
 10
168.5521563792836
 20
117.5743197511382
 10
168.5548883792836
 20
117.5792877511383
 10
168.5576663792836
 20
117.5841987511383
 10
168.5604893792836
 20
117.5890527511383
 10
168.5633573792836
 20
117.5938507511383
 10
168.5662703792836
 20
117.5985917511382
 10
168.5692293792835
 20
117.6032757511382
 10
168.5722323792836
 20
117.6079027511383
 10
168.5752803792836
 20
117.6124737511383
 10
168.5783743792836
 20
117.6169887511383
 10
168.5815123792836
 20
117.6214457511383
 10
168.5846963792835
 20
117.6258467511383
 10
168.5879253792836
 20
117.6301907511383
 10
168.5911983792836
 20
117.6344777511382
 10
168.5945173792836
 20
117.6387087511383
 10
168.5978803792836
 20
117.6428827511383
 10
168.6012893792835
 20
117.6469997511382
 10
168.6047423792836
 20
117.6510607511383
 10
168.6082403792836
 20
117.6550647511383
 10
168.6117843792836
 20
117.6590117511383
 10
168.6153723792836
 20
117.6629027511383
 10
168.6190053792835
 20
117.6667367511383
 10
168.6226833792836
 20
117.6705137511383
 10
168.6264063792836
 20
117.6742337511383
 10
168.6301743792835
 20
117.6778977511383
 10
168.6339863792836
 20
117.6815047511383
 10
168.6378443792836
 20
117.6850547511383
 10
168.6417463792835
 20
117.6885487511383
 10
168.6456933792836
 20
117.6919857511382
 10
168.6496853792836
 20
117.6953657511383
  0
LWPOLYLINE
  5
C44
330
1F
100
AcDbEntity
  8
OBRYS
  6
CONTINUOUS
100
AcDbPolyline
 90
       51
 70
     0
 43
0.0
 10
165.3187313792835
 20
117.5052257511383
 10
165.3181493792836
 20
117.5100217511382
 10
165.3175273792836
 20
117.5147997511383
 10
165.3168643792835
 20
117.5195607511383
 10
165.3161603792836
 20
117.5243037511383
 10
165.3154163792836
 20
117.5290297511383
 10
165.3146303792836
 20
117.5337377511383
 10
165.3138043792836
 20
117.5384287511383
 10
165.3129373792836
 20
117.5431017511383
 10
165.3120303792836
 20
117.5477577511382
 10
165.3110813792836
 20
117.5523967511382
 10
165.3100923792836
 20
117.5570177511383
 10
165.3090623792836
 20
117.5616217511382
 10
165.3079923792835
 20
117.5662077511383
 10
165.3068803792836
 20
117.5707767511383
 10
165.3057283792836
 20
117.5753277511383
 10
165.3045363792836
 20
117.5798617511382
 10
165.3033033792836
 20
117.5843787511383
 10
165.3020293792836
 20
117.5888787511383
 10
165.3007143792836
 20
117.5933607511383
 10
165.2993593792836
 20
117.5978247511382
 10
165.2979633792836
 20
117.6022727511383
 10
165.2965273792836
 20
117.6067027511383
 10
165.2950503792836
 20
117.6111157511383
 10
165.2935323792836
 20
117.6155107511383
 10
165.2919743792836
 20
117.6198897511382
 10
165.2903753792836
 20
117.6242507511383
 10
165.2887363792836
 20
117.6285937511383
 10
165.2870563792835
 20
117.6329207511383
 10
165.2853363792836
 20
117.6372297511382
 10
165.2835753792836
 20
117.6415217511383
 10
165.2817733792836
 20
117.6457967511383
 10
165.2799313792836
 20
117.6500547511383
 10
165.2780493792835
 20
117.6542947511382
 10
165.2761263792836
 20
117.6585177511383
 10
165.2741633792836
 20
117.6627247511383
 10
165.2721593792836
 20
117.6669127511383
 10
165.2701143792836
 20
117.6710847511383
 10
165.2680303792835
 20
117.6752397511383
 10
165.2659043792836
 20
117.6793767511382
 10
165.2637393792836
 20
117.6834977511383
 10
165.2615333792836
 20
117.6876007511383
 10
165.2592863792836
 20
117.6916867511382
 10
165.2570003792836
 20
117.6957557511383
 10
165.2546723792836
 20
117.6998077511383
 10
165.2523053792836
 20
117.7038427511383
 10
165.2498973792836
 20
117.7078607511383
 10
165.2474493792836
 20
117.7118617511383
 10
165.2449603792836
 20
117.7158457511382
 10
165.2424313792835
 20
117.7198127511382
 10
165.2398623792836
 20
117.7237617511383
  0
LWPOLYLINE
  5
C45
330
1F
100
AcDbEntity
  8
OBRYS
  6
CONTINUOUS
100
AcDbPolyline
 90
       51
 70
     0
 43
0.0
 10
168.3386723792836
 20
116.7933077511383
 10
168.3380813792836
 20
116.7949207511382
 10
168.3375473792836
 20
116.7965447511383
 10
168.3370703792836
 20
116.7981817511382
 10
168.3366513792836
 20
116.7998287511382
 10
168.3362893792836
 20
116.8014887511383
 10
168.3359833792836
 20
116.8031597511382
 10
168.3357333792836
 20
116.8048427511383
 10
168.3355413792836
 20
116.8065407511383
 10
168.3354073792836
 20
116.8082487511382
 10
168.3353303792836
 20
116.8099607511382
 10
168.3353123792836
 20
116.8116737511383
 10
168.3353523792836
 20
116.8133827511382
 10
168.3354513792836
 20
116.8150837511383
 10
168.3356073792836
 20
116.8167767511382
 10
168.3358203792835
 20
116.8184617511383
 10
168.3360913792835
 20
116.8201387511382
 10
168.3364203792836
 20
116.8218077511383
 10
168.3368073792836
 20
116.8234687511382
 10
168.3372513792836
 20
116.8251207511383
 10
168.3377533792836
 20
116.8267587511383
 10
168.3383103792836
 20
116.8283767511382
 10
168.3389223792836
 20
116.8299737511383
 10
168.3395873792836
 20
116.8315457511383
 10
168.3403033792836
 20
116.8330917511383
 10
168.3410713792836
 20
116.8346087511382
 10
168.3418903792836
 20
116.8360997511383
 10
168.3427643792836
 20
116.8375657511383
 10
168.3436883792836
 20
116.8390047511382
 10
168.3446623792836
 20
116.8404127511383
 10
168.3456843792836
 20
116.8417867511383
 10
168.3467523792836
 20
116.8431237511383
 10
168.3478623792836
 20
116.8444207511383
 10
168.3490133792835
 20
116.8456757511383
 10
168.3502043792836
 20
116.8468877511383
 10
168.3514353792836
 20
116.8480587511383
 10
168.3527063792835
 20
116.8491857511383
 10
168.3540173792836
 20
116.8502717511383
 10
168.3553673792836
 20
116.8513157511382
 10
168.3567563792836
 20
116.8523137511383
 10
168.3581813792836
 20
116.8532657511383
 10
168.3596363792836
 20
116.8541677511383
 10
168.3611193792836
 20
116.8550187511383
 10
168.3626263792836
 20
116.8558167511382
 10
168.3641533792836
 20
116.8565597511382
 10
168.3657013792836
 20
116.8572497511383
 10
168.3672733792835
 20
116.8578867511383
 10
168.3688683792836
 20
116.8584707511383
 10
168.3704863792836
 20
116.8590007511383
 10
168.3721273792836
 20
116.8594777511383
 10
168.3737923792836
 20
116.8598997511383
  0
LWPOLYLINE
  5
C46
330
1F
100
AcDbEntity
  8
OBRYS
  6
CONTINUOUS
100
AcDbPolyline
 90
       51
 70
     0
 43
0.0
 10
164.1780143792836
 20
116.8052487511383
 10
164.1778003792836
 20
116.8068837511383
 10
164.1776413792836
 20
116.8085187511382
 10
164.1775353792836
 20
116.8101517511383
 10
164.1774843792836
 20
116.8117837511383
 10
164.1774853792836
 20
116.8134137511383
 10
164.1775403792836
 20
116.8150437511382
 10
164.1776493792836
 20
116.8166737511383
 10
164.1778113792836
 20
116.8183047511383
 10
164.1780273792836
 20
116.8199337511383
 10
164.1782973792836
 20
116.8215567511383
 10
164.1786193792836
 20
116.8231697511383
 10
164.1789943792836
 20
116.8247687511383
 10
164.1794203792836
 20
116.8263507511382
 10
164.1798973792836
 20
116.8279127511383
 10
164.1804233792836
 20
116.8294567511382
 10
164.1810003792836
 20
116.8309817511383
 10
164.1816263792836
 20
116.8324877511383
 10
164.1823033792836
 20
116.8339747511383
 10
164.1830303792836
 20
116.8354427511382
 10
164.1838083792836
 20
116.8368897511382
 10
164.1846333792836
 20
116.8383127511383
 10
164.1855053792836
 20
116.8397067511383
 10
164.1864213792836
 20
116.8410707511382
 10
164.1873793792836
 20
116.8424017511383
 10
164.1883773792836
 20
116.8436947511383
 10
164.1894163792836
 20
116.8449527511383
 10
164.1904983792836
 20
116.8461777511383
 10
164.1916213792836
 20
116.8473667511383
 10
164.1927843792836
 20
116.8485207511383
 10
164.1939843792836
 20
116.8496357511383
 10
164.1952203792836
 20
116.8507117511382
 10
164.1964913792836
 20
116.8517477511382
 10
164.1977943792836
 20
116.8527417511383
 10
164.1991293792836
 20
116.8536917511383
 10
164.2004933792836
 20
116.8545977511383
 10
164.2018853792836
 20
116.8554577511382
 10
164.2033033792836
 20
116.8562697511383
 10
164.2047463792836
 20
116.8570347511383
 10
164.2062193792836
 20
116.8577527511382
 10
164.2077203792836
 20
116.8584247511383
 10
164.2092433792835
 20
116.8590477511383
 10
164.2107863792836
 20
116.8596207511383
 10
164.2123463792836
 20
116.8601427511383
 10
164.2139183792836
 20
116.8606117511383
 10
164.2155023792835
 20
116.8610277511383
 10
164.2170973792836
 20
116.8613917511383
 10
164.2187043792836
 20
116.8617027511383
 10
164.2203233792835
 20
116.8619617511383
 10
164.2219543792836
 20
116.8621677511382
 10
164.2235973792836
 20
116.8623207511383
  0
LWPOLYLINE
  5
C47
330
1F
100
AcDbEntity
  8
OBRYS
  6
CONTINUOUS
100
AcDbPolyline
 90
       51
 70
     0
 43
0.0
 10
168.3447033792836
 20
117.4475027511383
 10
168.3431193792836
 20
117.4479317511383
 10
168.3415563792836
 20
117.4484087511383
 10
168.3400163792836
 20
117.4489347511383
 10
168.3384963792836
 20
117.4495107511383
 10
168.3369993792836
 20
117.4501337511382
 10
168.3355223792836
 20
117.4508057511382
 10
168.3340663792835
 20
117.4515257511382
 10
168.3326283792836
 20
117.4522967511382
 10
168.3312133792836
 20
117.4531157511383
 10
168.3298243792836
 20
117.4539817511383
 10
168.3284643792836
 20
117.4548917511383
 10
168.3271363792836
 20
117.4558447511383
 10
168.3258443792836
 20
117.4568377511383
 10
168.3245883792836
 20
117.4578697511383
 10
168.3233683792836
 20
117.4589397511383
 10
168.3221853792836
 20
117.4600487511383
 10
168.3210383792836
 20
117.4611967511383
 10
168.3199273792835
 20
117.4623837511382
 10
168.3188533792836
 20
117.4636087511383
 10
168.3178163792836
 20
117.4648717511383
 10
168.3168213792836
 20
117.4661707511383
 10
168.3158683792836
 20
117.4675007511383
 10
168.3149603792836
 20
117.4688607511383
 10
168.3140983792836
 20
117.4702457511383
 10
168.3132853792835
 20
117.4716537511382
 10
168.3125203792836
 20
117.4730857511383
 10
168.3118023792836
 20
117.4745447511383
 10
168.3111323792836
 20
117.4760277511382
 10
168.3105093792836
 20
117.4775337511383
 10
168.3099363792836
 20
117.4790597511383
 10
168.3094113792835
 20
117.4806037511383
 10
168.3089373792835
 20
117.4821647511383
 10
168.3085143792836
 20
117.4837397511383
 10
168.3081423792836
 20
117.4853267511383
 10
168.3078223792836
 20
117.4869237511382
 10
168.3075543792836
 20
117.4885287511383
 10
168.3073403792835
 20
117.4901407511383
 10
168.3071793792836
 20
117.4917567511383
 10
168.3070713792835
 20
117.4933837511383
 10
168.3070173792836
 20
117.4950177511383
 10
168.3070153792836
 20
117.4966547511383
 10
168.3070673792836
 20
117.4982917511383
 10
168.3071723792836
 20
117.4999247511383
 10
168.3073303792836
 20
117.5015507511383
 10
168.3075413792835
 20
117.5031667511383
 10
168.3078053792836
 20
117.5047747511383
 10
168.3081203792836
 20
117.5063727511382
 10
168.3084893792835
 20
117.5079627511383
 10
168.3089103792836
 20
117.5095437511383
 10
168.3093853792836
 20
117.5111147511383
  0
LWPOLYLINE
  5
C48
330
1F
100
AcDbEntity
  8
OBRYS
  6
CONTINUOUS
100
AcDbPolyline
 90
       51
 70
     0
 43
0.0
 10
165.3187313792835
 20
117.5052257511383
 10
165.3188923792836
 20
117.5036267511382
 10
165.3190013792835
 20
117.5020307511383
 10
165.3190593792836
 20
117.5004367511383
 10
165.3190663792836
 20
117.4988457511383
 10
165.3190223792836
 20
117.4972567511383
 10
165.3189283792836
 20
117.4956717511383
 10
165.3187833792836
 20
117.4940867511383
 10
165.3185873792836
 20
117.4925017511382
 10
165.3183403792836
 20
117.4909207511383
 10
165.3180423792836
 20
117.4893457511383
 10
165.3176943792836
 20
117.4877807511382
 10
165.3172973792836
 20
117.4862297511383
 10
165.3168513792836
 20
117.4846957511383
 10
165.3163573792836
 20
117.4831817511382
 10
165.3158173792836
 20
117.4816867511383
 10
165.3152303792836
 20
117.4802107511382
 10
165.3145953792836
 20
117.4787537511383
 10
165.3139143792835
 20
117.4773167511383
 10
165.3131853792836
 20
117.4758987511383
 10
165.3124093792836
 20
117.4744997511383
 10
165.3115873792836
 20
117.4731247511383
 10
165.3107203792836
 20
117.4717747511383
 10
165.3098113792836
 20
117.4704547511383
 10
165.3088633792836
 20
117.4691667511383
 10
165.3078783792836
 20
117.4679147511383
 10
165.3068543792836
 20
117.4666967511383
 10
165.3057893792836
 20
117.4655117511383
 10
165.3046863792836
 20
117.4643597511382
 10
165.3035453792836
 20
117.4632427511383
 10
165.3023703792836
 20
117.4621617511383
 10
165.3011603792836
 20
117.4611187511382
 10
165.2999173792836
 20
117.4601147511383
 10
165.2986443792836
 20
117.4591497511383
 10
165.2973423792835
 20
117.4582267511383
 10
165.2960123792836
 20
117.4573467511383
 10
165.2946563792836
 20
117.4565097511383
 10
165.2932763792836
 20
117.4557177511382
 10
165.2918723792835
 20
117.4549727511383
 10
165.2904413792836
 20
117.4542707511383
 10
165.2889853792836
 20
117.4536127511383
 10
165.2875063792835
 20
117.4530017511383
 10
165.2860063792836
 20
117.4524357511383
 10
165.2844883792835
 20
117.4519187511383
 10
165.2829543792836
 20
117.4514507511383
 10
165.2814093792836
 20
117.4510337511382
 10
165.2798533792836
 20
117.4506657511383
 10
165.2782853792836
 20
117.4503477511383
 10
165.2767083792836
 20
117.4500797511383
 10
165.2751193792836
 20
117.4498627511382
 10
165.2735193792836
 20
117.4496957511383
  0
LWPOLYLINE
  5
C49
330
1F
100
AcDbEntity
  8
OBRYS
  6
CONTINUOUS
100
AcDbPolyline
 90
       51
 70
     0
 43
0.0
 10
168.5052173792836
 20
117.4569017511383
 10
168.5047703792835
 20
117.4554177511383
 10
168.5042803792836
 20
117.4539557511383
 10
168.5037473792836
 20
117.4525137511383
 10
168.5031713792835
 20
117.4510917511383
 10
168.5025533792836
 20
117.4496907511383
 10
168.5018923792836
 20
117.4483097511383
 10
168.5011883792835
 20
117.4469477511383
 10
168.5004403792836
 20
117.4456037511383
 10
168.4996503792836
 20
117.4442807511382
 10
168.4988183792836
 20
117.4429807511383
 10
168.4979463792835
 20
117.4417057511383
 10
168.4970353792836
 20
117.4404587511383
 10
168.4960873792836
 20
117.4392427511383
 10
168.4951063792836
 20
117.4380597511383
 10
168.4940903792836
 20
117.4369097511383
 10
168.4930423792836
 20
117.4357937511383
 10
168.4919593792835
 20
117.4347107511383
 10
168.4908443792836
 20
117.4336617511383
 10
168.4896953792836
 20
117.4326447511383
 10
168.4885113792836
 20
117.4316607511383
 10
168.4872933792836
 20
117.4307117511383
 10
168.4860453792836
 20
117.4297987511383
 10
168.4847703792836
 20
117.4289247511382
 10
168.4834703792835
 20
117.4280917511383
 10
168.4821503792836
 20
117.4273017511382
 10
168.4808103792836
 20
117.4265557511383
 10
168.4794503792836
 20
117.4258527511383
 10
168.4780693792836
 20
117.4251907511382
 10
168.4766683792836
 20
117.4245727511383
 10
168.4752463792836
 20
117.4239957511383
 10
168.4738033792836
 20
117.4234627511383
 10
168.4723413792836
 20
117.4229727511383
 10
168.4708623792835
 20
117.4225277511382
 10
168.4693703792836
 20
117.4221287511382
 10
168.4678673792835
 20
117.4217757511383
 10
168.4663573792836
 20
117.4214697511382
 10
168.4648423792836
 20
117.4212117511383
 10
168.4633243792836
 20
117.4210007511382
 10
168.4617993792836
 20
117.4208367511383
 10
168.4602693792836
 20
117.4207197511383
 10
168.4587333792836
 20
117.4206497511383
 10
168.4571943792835
 20
117.4206277511383
 10
168.4556533792836
 20
117.4206517511383
 10
168.4541133792836
 20
117.4207237511383
 10
168.4525733792836
 20
117.4208427511383
 10
168.4510363792836
 20
117.4210097511383
 10
168.4495043792836
 20
117.4212237511382
 10
168.4479773792836
 20
117.4214857511383
 10
168.4464583792835
 20
117.4217947511383
 10
168.4449473792835
 20
117.4221517511383
  0
LWPOLYLINE
  5
C4A
330
1F
100
AcDbEntity
  8
OBRYS
  6
CONTINUOUS
100
AcDbPolyline
 90
       51
 70
     0
 43
0.0
 10
165.1817933792836
 20
117.4416137511383
 10
165.1803173792836
 20
117.4415057511383
 10
165.1788433792836
 20
117.4414407511382
 10
165.1773723792836
 20
117.4414187511383
 10
165.1759033792836
 20
117.4414407511382
 10
165.1744383792835
 20
117.4415057511383
 10
165.1729773792836
 20
117.4416137511383
 10
165.1715203792836
 20
117.4417647511383
 10
165.1700693792835
 20
117.4419587511382
 10
165.1686233792836
 20
117.4421957511383
 10
165.1671833792836
 20
117.4424747511382
 10
165.1657503792836
 20
117.4427977511383
 10
165.1643243792836
 20
117.4431617511383
 10
165.1629073792836
 20
117.4435687511383
 10
165.1615063792836
 20
117.4440157511383
 10
165.1601233792836
 20
117.4445027511382
 10
165.1587583792836
 20
117.4450287511383
 10
165.1574103792836
 20
117.4455947511383
 10
165.1560793792836
 20
117.4461987511383
 10
165.1547663792836
 20
117.4468427511382
 10
165.1534683792836
 20
117.4475277511383
 10
165.1521873792836
 20
117.4482527511383
 10
165.1509253792836
 20
117.4490157511383
 10
165.1496863792836
 20
117.4498167511382
 10
165.1484713792836
 20
117.4506527511383
 10
165.1472843792835
 20
117.4515237511383
 10
165.1461263792836
 20
117.4524257511383
 10
165.1449983792836
 20
117.4533597511383
 10
165.1439003792836
 20
117.4543257511383
 10
165.1428313792836
 20
117.4553217511383
 10
165.1417913792835
 20
117.4563497511382
 10
165.1407813792836
 20
117.4574087511383
 10
165.1398003792836
 20
117.4584997511383
 10
165.1388493792836
 20
117.4596237511383
 10
165.1379293792836
 20
117.4607777511383
 10
165.1370423792835
 20
117.4619587511383
 10
165.1361923792836
 20
117.4631637511383
 10
165.1353793792836
 20
117.4643907511383
 10
165.1346053792836
 20
117.4656367511383
 10
165.1338703792836
 20
117.4669047511382
 10
165.1331713792836
 20
117.4681937511382
 10
165.1325113792836
 20
117.4695037511383
 10
165.1318893792836
 20
117.4708327511383
 10
165.1313053792836
 20
117.4721807511383
 10
165.1307623792836
 20
117.4735457511382
 10
165.1302583792836
 20
117.4749277511383
 10
165.1297943792836
 20
117.4763247511383
 10
165.1293713792836
 20
117.4777377511382
 10
165.1289903792836
 20
117.4791637511383
 10
165.1286503792836
 20
117.4806027511383
 10
165.1283533792836
 20
117.4820537511383
  0
LWPOLYLINE
  5
C4B
330
1F
100
AcDbEntity
  8
OBRYS
  6
CONTINUOUS
100
AcDbPolyline
 90
       51
 70
     0
 43
0.0
 10
168.4720833792836
 20
116.8830727511383
 10
168.4734933792836
 20
116.8833837511383
 10
168.4749073792836
 20
116.8836547511383
 10
168.4763243792836
 20
116.8838837511383
 10
168.4777443792836
 20
116.8840707511383
 10
168.4791673792836
 20
116.8842177511383
 10
168.4805923792836
 20
116.8843227511383
 10
168.4820193792836
 20
116.8843867511383
 10
168.4834483792835
 20
116.8844107511382
 10
168.4848773792836
 20
116.8843917511382
 10
168.4863073792835
 20
116.8843327511383
 10
168.4877383792836
 20
116.8842327511383
 10
168.4891683792836
 20
116.8840907511383
 10
168.4905973792836
 20
116.8839087511383
 10
168.4920163792836
 20
116.8836857511383
 10
168.4934243792836
 20
116.8834227511383
 10
168.4948203792836
 20
116.8831207511383
 10
168.4962063792836
 20
116.8827787511383
 10
168.4975803792836
 20
116.8823967511383
 10
168.4989433792836
 20
116.8819767511383
 10
168.5002983792836
 20
116.8815157511383
 10
168.5016423792836
 20
116.8810147511382
 10
168.5029743792836
 20
116.8804747511382
 10
168.5042923792836
 20
116.8798957511383
 10
168.5055923792836
 20
116.8792797511383
 10
168.5068743792836
 20
116.8786257511382
 10
168.5081333792836
 20
116.8779377511383
 10
168.5093683792836
 20
116.8772147511383
 10
168.5105803792836
 20
116.8764587511383
 10
168.5117683792836
 20
116.8756687511383
 10
168.5129333792836
 20
116.8748457511382
 10
168.5140743792836
 20
116.8739897511382
 10
168.5151933792835
 20
116.8730987511383
 10
168.5162893792836
 20
116.8721727511383
 10
168.5173613792836
 20
116.8712127511383
 10
168.5184063792836
 20
116.8702217511383
 10
168.5194233792836
 20
116.8692017511383
 10
168.5204083792836
 20
116.8681547511382
 10
168.5213593792836
 20
116.8670817511383
 10
168.5222793792836
 20
116.8659827511383
 10
168.5231663792836
 20
116.8648587511383
 10
168.5240213792836
 20
116.8637107511383
 10
168.5248413792836
 20
116.8625387511383
 10
168.5256293792836
 20
116.8613437511383
 10
168.5263813792835
 20
116.8601257511383
 10
168.5271003792836
 20
116.8588857511383
 10
168.5277823792836
 20
116.8576237511383
 10
168.5284303792835
 20
116.8563417511382
 10
168.5290413792836
 20
116.8550387511383
 10
168.5296153792836
 20
116.8537167511383
 10
168.5301533792836
 20
116.8523757511382
  0
LWPOLYLINE
  5
C4C
330
1F
100
AcDbEntity
  8
OBRYS
  6
CONTINUOUS
100
AcDbPolyline
 90
       51
 70
     0
 43
0.0
 10
164.3176333792836
 20
116.8695247511383
 10
164.3190743792836
 20
116.8696147511383
 10
164.3205133792836
 20
116.8696637511382
 10
164.3219503792835
 20
116.8696707511383
 10
164.3233823792836
 20
116.8696367511383
 10
164.3248113792835
 20
116.8695617511383
 10
164.3262363792836
 20
116.8694457511383
 10
164.3276563792836
 20
116.8692887511383
 10
164.3290713792836
 20
116.8690907511383
 10
164.3304813792836
 20
116.8688517511383
 10
164.3318863792836
 20
116.8685717511383
 10
164.3332843792836
 20
116.8682517511383
 10
164.3346763792836
 20
116.8678907511383
 10
164.3360603792836
 20
116.8674887511383
 10
164.3374283792836
 20
116.8670497511383
 10
164.3387783792836
 20
116.8665727511383
 10
164.3401113792836
 20
116.8660577511383
 10
164.3414283792835
 20
116.8655057511383
 10
164.3427273792836
 20
116.8649157511383
 10
164.3440093792836
 20
116.8642897511383
 10
164.3452773792835
 20
116.8636247511383
 10
164.3465283792836
 20
116.8629217511383
 10
164.3477613792836
 20
116.8621817511383
 10
164.3489733792836
 20
116.8614057511383
 10
164.3501633792835
 20
116.8605957511383
 10
164.3513293792836
 20
116.8597517511383
 10
164.3524663792836
 20
116.8588757511383
 10
164.3535753792836
 20
116.8579707511383
 10
164.3546563792836
 20
116.8570357511383
 10
164.3557083792836
 20
116.8560717511382
 10
164.3567323792836
 20
116.8550777511382
 10
164.3577273792835
 20
116.8540547511383
 10
164.3586953792835
 20
116.8530017511383
 10
164.3596353792836
 20
116.8519167511383
 10
164.3605463792836
 20
116.8508017511382
 10
164.3614253792836
 20
116.8496607511383
 10
164.3622723792836
 20
116.8484957511383
 10
164.3630833792836
 20
116.8473077511382
 10
164.3638573792836
 20
116.8460997511383
 10
164.3645963792836
 20
116.8448717511383
 10
164.3652993792836
 20
116.8436237511383
 10
164.3659653792836
 20
116.8423567511383
 10
164.3665953792836
 20
116.8410717511382
 10
164.3671883792836
 20
116.8397687511382
 10
164.3677433792836
 20
116.8384477511383
 10
164.3682613792836
 20
116.8371107511382
 10
164.3687403792836
 20
116.8357587511382
 10
164.3691813792836
 20
116.8343907511383
 10
164.3695833792836
 20
116.8330087511383
 10
164.3699463792836
 20
116.8316137511382
 10
164.3702693792835
 20
116.8302047511383
  0
LINE
  5
C4D
330
1F
100
AcDbEntity
  8
OBRYS
100
AcDbLine
 10
164.2773143792836
 20
127.6266287511383
 30
0.0
 11
164.2773143792836
 21
127.6619727511383
 31
0.0
  0
LINE
  5
C4E
330
1F
100
AcDbEntity
  8
OBRYS
100
AcDbLine
 10
168.0773143792836
 20
127.6266287511383
 30
0.0
 11
168.0773143792836
 21
127.6619727511383
 31
0.0
  0
ARC
  5
C4F
330
1F
100
AcDbEntity
  8
OBRYS
100
AcDbCircle
 10
162.3773549677139
 20
127.4262987824843
 30
0.0
 40
0.2000405884459726
100
AcDbArc
 50
90.0116253684835
 51
179.9992830604764
  0
ARC
  5
C50
330
1F
100
AcDbEntity
  8
OBRYS
100
AcDbCircle
 10
169.9772097506612
 20
127.4261428117148
 30
0.0
 40
0.2001965824386872
100
AcDbArc
 50
358.2633559832777
 51
89.97005554013215
  0
LINE
  5
C84
330
1F
100
AcDbEntity
  8
OBRYS
  6
CONTINUOUS
100
AcDbLine
 10
162.6773910709917
 20
41.16672648032099
 30
0.0000000000003897
 11
162.6773910709917
 21
43.71972948032098
 31
0.0000000000003897
  0
LINE
  5
C85
330
1F
100
AcDbEntity
  8
OBRYS
  6
CONTINUOUS
100
AcDbLine
 10
169.6773910709917
 20
43.71972948032098
 30
0.0000000000003897
 11
169.6773910709917
 21
41.16672648032099
 31
0.0000000000003897
  0
LINE
  5
C86
330
1F
100
AcDbEntity
  8
OBRYS
  6
CONTINUOUS
100
AcDbLine
 10
169.4775620709917
 20
40.85368548032099
 30
0.0000000000003897
 11
162.8772210709918
 21
40.85368548032099
 31
0.0000000000003897
  0
LINE
  5
C87
330
1F
100
AcDbEntity
  8
OBRYS
  6
CONTINUOUS
100
AcDbLine
 10
175.1773910709917
 20
44.31077348032099
 30
0.0000000000003897
 11
175.1773910709917
 21
40.21971048032097
 31
0.0000000000003897
  0
LINE
  5
C88
330
1F
100
AcDbEntity
  8
OBRYS
  6
CONTINUOUS
100
AcDbLine
 10
157.1773910709918
 20
40.21971048032097
 30
0.0000000000003897
 11
157.1773910709918
 21
44.31077348032099
 31
0.0000000000003897
  0
LINE
  5
C89
330
1F
100
AcDbEntity
  8
OBRYS
  6
CONTINUOUS
100
AcDbLine
 10
163.6904440709918
 20
41.71971048032097
 30
0.0000000000003897
 11
168.6643390709917
 21
41.71971048032097
 31
0.0000000000003897
  0
ELLIPSE
  5
C8A
330
1F
100
AcDbEntity
  8
OBRYS
  6
CONTINUOUS
100
AcDbEllipse
 10
169.1773720709917
 20
43.71969148032096
 30
0.0000000000003897
 11
-0.3535803155654446
 21
-0.3535803155654446
 31
0.0
210
0.0
220
0.0
230
-1.0
 40
0.999924
 41
2.356232566403285
 42
3.926952740776305
  0
ELLIPSE
  5
C8B
330
1F
100
AcDbEntity
  8
OBRYS
  6
CONTINUOUS
100
AcDbEllipse
 10
163.1774110709918
 20
43.71969148032096
 30
0.0000000000003897
 11
-0.3535803155654446
 21
0.3535803155654446
 31
0.0
210
0.0
220
0.0
230
-1.0
 40
0.999924
 41
5.497825219993081
 42
7.068545394366095
  0
LINE
  5
C8C
330
1F
100
AcDbEntity
  8
OBRYS
  6
CONTINUOUS
100
AcDbLine
 10
163.1773720709917
 20
44.21971048032097
 30
0.0000000000003897
 11
169.1774110709918
 21
44.21971048032097
 31
0.0000000000003897
  0
ARC
  5
C8D
330
1F
100
AcDbEntity
  8
OBRYS
100
AcDbCircle
 10
168.6567501000295
 20
42.74061770833558
 30
0.0000000000003897
 40
1.020935434144949
100
AcDbArc
 50
270.425903535928
 51
358.623854255593
  0
ARC
  5
C8E
330
1F
100
AcDbEntity
  8
OBRYS
100
AcDbCircle
 10
163.6986313261114
 20
42.74122415251864
 30
0.0000000000003897
 40
1.021546481386512
100
AcDbArc
 50
181.402944961249
 51
269.5407940854685
  0
ARC
  5
C8F
330
1F
100
AcDbEntity
  8
OBRYS
100
AcDbCircle
 10
162.937491232568
 20
41.11246032028853
 30
0.0000000000003897
 40
0.2657007906963345
100
AcDbArc
 50
168.2151124462731
 51
256.8892108488531
  0
ARC
  5
C90
330
1F
100
AcDbEntity
  8
OBRYS
100
AcDbCircle
 10
169.4155398419095
 20
41.11357791765758
 30
0.0000000000003897
 40
0.267190635848424
100
AcDbArc
 50
283.422344610316
 51
11.4735921740655
  0
LINE
  5
C91
330
1F
100
AcDbEntity
  8
OBRYS
100
AcDbLine
 10
157.1773910709918
 20
40.21971048032097
 30
0.0000000000003897
 11
175.1773910709917
 21
40.21971048032097
 31
0.0000000000003897
  0
LINE
  5
CA2
330
1F
100
AcDbEntity
  8
OBRYS
  6
CONTINUOUS
100
AcDbLine
 10
98.82332980093524
 20
40.24573248032098
 30
0.0000000000003897
 11
98.82332980093524
 21
44.31077348032099
 31
0.0000000000003897
  0
LINE
  5
CA3
330
1F
100
AcDbEntity
  8
OBRYS
  6
CONTINUOUS
100
AcDbLine
 10
100.3233298009352
 20
44.310612480321
 30
0.0000000000003897
 11
100.3232655500676
 21
40.24900434016845
 31
0.0000000000003897
  0
LINE
  5
CA4
330
1F
100
AcDbEntity
  8
OBRYS
  6
CONTINUOUS
100
AcDbLine
 10
104.8233298009352
 20
44.31697748032096
 30
0.0000000000003897
 11
104.8233298009352
 21
40.25882048032102
 31
0.0000000000003897
  0
LINE
  5
CA5
330
1F
100
AcDbEntity
  8
OBRYS
  6
CONTINUOUS
100
AcDbLine
 10
104.8233298009352
 20
40.25882048032102
 30
0.0000000000003897
 11
98.82332980093524
 21
40.24573248032098
 31
0.0000000000003897
  0
LINE
  5
CA6
330
1F
100
AcDbEntity
  8
OBRYS
  6
CONTINUOUS
100
AcDbLine
 10
101.4733298009352
 20
71.21954948032098
 30
0.0000000000003897
 11
101.7961798915582
 21
70.9018470040816
 31
0.0000000000003897
  0
LINE
  5
CA7
330
1F
100
AcDbEntity
  8
OBRYS
  6
CONTINUOUS
100
AcDbLine
 10
101.4733298009352
 20
71.21954948032098
 30
0.0000000000003897
 11
101.2924422760549
 21
70.90624298663043
 31
0.0000000000003897
  0
LINE
  5
CB8
330
1F
100
AcDbEntity
  8
OBRYS
  6
CONTINUOUS
100
AcDbLine
 10
55.8137587075544
 20
120.605856480321
 30
0.0000000000003897
 11
55.96637470755442
 21
120.613854480321
 31
0.0000000000003897
  0
LINE
  5
CB9
330
1F
100
AcDbEntity
  8
OBRYS
  6
CONTINUOUS
100
AcDbLine
 10
55.8137587075544
 20
122.841414480321
 30
0.0000000000003897
 11
55.96637470755442
 21
122.833415480321
 31
0.0000000000003897
  0
LINE
  5
CBA
330
1F
100
AcDbEntity
  8
OBRYS
  6
CONTINUOUS
100
AcDbLine
 10
55.46637470755442
 20
118.134283480321
 30
0.0000000000003897
 11
55.46637470755442
 21
118.360631480321
 31
0.0000000000003897
  0
LINE
  5
CBB
330
1F
100
AcDbEntity
  8
OBRYS
  6
CONTINUOUS
100
AcDbLine
 10
55.96637470755442
 20
125.386639480321
 30
0.0000000000003897
 11
55.51375870755444
 21
125.362918480321
 31
0.0000000000003897
  0
LINE
  5
CBC
330
1F
100
AcDbEntity
  8
OBRYS
  6
CONTINUOUS
100
AcDbLine
 10
55.51375870755444
 20
118.084352480321
 30
0.0000000000003897
 11
55.96637470755442
 21
118.060631480321
 31
0.0000000000003897
  0
LINE
  5
CBD
330
1F
100
AcDbEntity
  8
OBRYS
  6
CONTINUOUS
100
AcDbLine
 10
55.76637470755443
 20
122.891345480321
 30
0.0000000000003897
 11
55.76637470755443
 21
123.133415480321
 31
0.0000000000003897
  0
LINE
  5
CBE
330
1F
100
AcDbEntity
  8
OBRYS
  6
CONTINUOUS
100
AcDbLine
 10
55.76637470755443
 20
120.313854480321
 30
0.0000000000003897
 11
55.76637470755443
 21
120.555925480321
 31
0.0000000000003897
  0
LINE
  5
CBF
330
1F
100
AcDbEntity
  8
OBRYS
  6
CONTINUOUS
100
AcDbLine
 10
55.46637470755442
 20
125.312987480321
 30
0.0000000000003897
 11
55.46637518514009
 21
125.0866388686187
 31
0.0000000000003897
  0
LINE
  5
CC0
330
1F
100
AcDbEntity
  8
OBRYS
  6
CONTINUOUS
100
AcDbLine
 10
55.81374470755443
 20
116.342050480321
 30
0.0000000000003897
 11
55.81374470755443
 21
116.342050480321
 31
0.0000000000003897
  0
LINE
  5
CC1
330
1F
100
AcDbEntity
  8
OBRYS
  6
CONTINUOUS
100
AcDbLine
 10
55.76637470755443
 20
116.391979480321
 30
0.0000000000003897
 11
55.76637470755443
 21
116.392744480321
 31
0.0000000000003897
  0
LINE
  5
CC2
330
1F
100
AcDbEntity
  8
OBRYS
  6
CONTINUOUS
100
AcDbLine
 10
55.4667647075544
 20
125.085399480321
 30
0.0000000000003897
 11
55.46637670755442
 21
125.086635480321
 31
0.0000000000003897
  0
LINE
  5
CC3
330
1F
100
AcDbEntity
  8
OBRYS
  6
CONTINUOUS
100
AcDbLine
 10
55.46637470755442
 20
118.360631480321
 30
0.0000000000003897
 11
55.4667647075544
 21
118.361870480321
 31
0.0000000000003897
  0
LINE
  5
CC4
330
1F
100
AcDbEntity
  8
OBRYS
  6
CONTINUOUS
100
AcDbLine
 10
55.81374070755444
 20
117.878890480321
 30
0.0000000000003897
 11
55.81374070755444
 21
117.878890480321
 31
0.0000000000003897
  0
LINE
  5
CC5
330
1F
100
AcDbEntity
  8
OBRYS
  6
CONTINUOUS
100
AcDbLine
 10
55.81374470755443
 20
125.568058480321
 30
0.0000000000003897
 11
55.81374470755443
 21
125.568058480321
 31
0.0000000000003897
  0
ARC
  5
CC6
330
1F
100
AcDbEntity
  8
OBRYS
  6
CONTINUOUS
100
AcDbCircle
 10
-55.81637470755444
 20
122.891345480321
 30
-0.0000000000003897
 40
0.05
210
0.0
220
0.0
230
-1.0
100
AcDbArc
 50
273.0000000000058
 51
0.0
  0
ARC
  5
CC7
330
1F
100
AcDbEntity
  8
OBRYS
  6
CONTINUOUS
100
AcDbCircle
 10
-55.81637470755444
 20
120.555925480321
 30
-0.0000000000003897
 40
0.05
210
0.0
220
0.0
230
-1.0
100
AcDbArc
 50
0.0
 51
86.99999999999422
  0
ARC
  5
CC8
330
1F
100
AcDbEntity
  8
OBRYS
  6
CONTINUOUS
100
AcDbCircle
 10
55.51637470755443
 20
125.312987480321
 30
0.0000000000003897
 40
0.05
100
AcDbArc
 50
93.00000000000577
 51
180.0
  0
ARC
  5
CC9
330
1F
100
AcDbEntity
  8
OBRYS
  6
CONTINUOUS
100
AcDbCircle
 10
55.51637470755443
 20
118.134283480321
 30
0.0000000000003897
 40
0.05
100
AcDbArc
 50
180.0
 51
266.9999999999942
  0
ARC
  5
CCA
330
1F
100
AcDbEntity
  8
OBRYS
  6
CONTINUOUS
100
AcDbCircle
 10
-55.81637470755444
 20
117.8280284798558
 30
0.0010347530349019
 40
0.05
210
2.775557561464175E-13
220
-8.434739697336407E-6
230
-0.9999999999644277
100
AcDbArc
 50
1.059945000018398
 51
86.97840399996466
  0
ARC
  5
CCB
330
1F
100
AcDbEntity
  8
OBRYS
  6
CONTINUOUS
100
AcDbCircle
 10
49.25792245952525
 20
123.1334196237056
 30
0.0000000000003897
 40
6.50845224803049
100
AcDbArc
 50
359.999963524592
 51
17.46391146307475
  0
ARC
  5
CCC
330
1F
100
AcDbEntity
  8
OBRYS
  6
CONTINUOUS
100
AcDbCircle
 10
49.25792248345044
 20
120.3138503310188
 30
0.0000000000003897
 40
6.508452224105301
100
AcDbArc
 50
342.5360885234103
 51
0.0000365275022327
  0
LINE
  5
CCD
330
1F
100
AcDbEntity
  8
OBRYS
100
AcDbLine
 10
55.81373908969121
 20
117.8779589537989
 30
-0.0020290229193112
 11
55.96637470755442
 21
117.886935480321
 31
0.0000000000003897
  0
LINE
  5
CCE
330
1F
100
AcDbEntity
  8
OBRYS
100
AcDbLine
 10
55.81374331214838
 20
116.3420697707504
 30
0.0000000000003897
 11
55.96637470755442
 21
116.334029480321
 31
0.0000000000003897
  0
ARC
  5
CCF
330
1F
100
AcDbEntity
  8
OBRYS
100
AcDbCircle
 10
55.81640967586131
 20
116.3920144292439
 30
0.0000000000003897
 40
0.0500349702512362
100
AcDbArc
 50
180.0159729223965
 51
266.9468609269501
  0
LINE
  5
CD0
330
1F
100
AcDbEntity
  8
OBRYS
100
AcDbLine
 10
55.81374331214838
 20
125.5680767707504
 30
0.0000000000003897
 11
55.96637470755442
 21
125.560037480321
 31
0.0000000000003897
  0
ARC
  5
CD1
330
1F
100
AcDbEntity
  8
OBRYS
100
AcDbCircle
 10
55.81641030839242
 20
125.6180260152558
 30
0.0000000000003897
 40
0.050038584864941
100
AcDbArc
 50
179.3742675901842
 51
266.9463563861322
  0
LINE
  5
CD2
330
1F
100
AcDbEntity
  8
OBRYS
100
AcDbLine
 10
55.7663747076198
 20
127.0512200369763
 30
0.0000000000003897
 11
55.76637470755443
 21
125.618572480321
 31
0.0000000000003897
  0
LINE
  5
CD3
330
1F
100
AcDbEntity
  8
OBRYS
100
AcDbLine
 10
55.76638326312582
 20
117.828953390685
 30
-0.0020286095701557
 11
55.76637470755443
 21
116.392744480321
 31
0.0000000000003897
  0
ARC
  5
CD4
330
1F
100
AcDbEntity
  8
OBRYS
100
AcDbCircle
 10
55.81652748945518
 20
127.0511565095707
 30
0.0000000000003897
 40
0.0501528220697484
100
AcDbArc
 50
89.66616118841982
 51
179.9274247580364
  0
LINE
  5
CD5
330
1F
100
AcDbEntity
  8
OBRYS
100
AcDbLine
 10
55.8168197075544
 20
127.101308480321
 30
0.0000000000003897
 11
55.96637470755442
 21
127.109113480321
 31
0.0000000000003897
  0
LINE
  5
CD6
330
1F
100
AcDbEntity
  8
OBRYS
  6
CONTINUOUS
100
AcDbLine
 10
55.8137587075544
 20
55.80171248032104
 30
0.0000000000003897
 11
55.96637470755442
 21
55.80971048032103
 31
0.0000000000003897
  0
LINE
  5
CD7
330
1F
100
AcDbEntity
  8
OBRYS
  6
CONTINUOUS
100
AcDbLine
 10
55.8137587075544
 20
58.03727048032101
 30
0.0000000000003897
 11
55.96637470755442
 21
58.02927148032103
 31
0.0000000000003897
  0
LINE
  5
CD8
330
1F
100
AcDbEntity
  8
OBRYS
  6
CONTINUOUS
100
AcDbLine
 10
55.46637470755442
 20
53.33013948032101
 30
0.0000000000003897
 11
55.46637470755442
 21
53.55648748032104
 31
0.0000000000003897
  0
LINE
  5
CD9
330
1F
100
AcDbEntity
  8
OBRYS
  6
CONTINUOUS
100
AcDbLine
 10
55.96637470755442
 20
60.58249548032103
 30
0.0000000000003897
 11
55.51375870755444
 21
60.55877448032101
 31
0.0000000000003897
  0
LINE
  5
CDA
330
1F
100
AcDbEntity
  8
OBRYS
  6
CONTINUOUS
100
AcDbLine
 10
55.51375870755444
 20
53.28020848032099
 30
0.0000000000003897
 11
55.96637470755442
 21
53.25648748032103
 31
0.0000000000003897
  0
LINE
  5
CDB
330
1F
100
AcDbEntity
  8
OBRYS
  6
CONTINUOUS
100
AcDbLine
 10
55.76637470755443
 20
58.08720148032103
 30
0.0000000000003897
 11
55.76637470755443
 21
58.32927148032104
 31
0.0000000000003897
  0
LINE
  5
CDC
330
1F
100
AcDbEntity
  8
OBRYS
  6
CONTINUOUS
100
AcDbLine
 10
55.76637470755443
 20
55.50971048032102
 30
0.0000000000003897
 11
55.76637470755443
 21
55.75178148032103
 31
0.0000000000003897
  0
LINE
  5
CDD
330
1F
100
AcDbEntity
  8
OBRYS
  6
CONTINUOUS
100
AcDbLine
 10
55.46637470755442
 20
60.50884348032099
 30
0.0000000000003897
 11
55.46637518514009
 21
60.28249486861876
 31
0.0000000000003897
  0
LINE
  5
CDE
330
1F
100
AcDbEntity
  8
OBRYS
  6
CONTINUOUS
100
AcDbLine
 10
55.81374470755443
 20
51.537906480321
 30
0.0000000000003897
 11
55.81374470755443
 21
51.537906480321
 31
0.0000000000003897
  0
LINE
  5
CDF
330
1F
100
AcDbEntity
  8
OBRYS
  6
CONTINUOUS
100
AcDbLine
 10
55.76637470755443
 20
51.58783548032102
 30
0.0000000000003897
 11
55.76637470755443
 21
51.58860048032102
 31
0.0000000000003897
  0
LINE
  5
CE0
330
1F
100
AcDbEntity
  8
OBRYS
  6
CONTINUOUS
100
AcDbLine
 10
55.4667647075544
 20
60.28125548032102
 30
0.0000000000003897
 11
55.46637670755442
 21
60.28249148032103
 31
0.0000000000003897
  0
LINE
  5
CE1
330
1F
100
AcDbEntity
  8
OBRYS
  6
CONTINUOUS
100
AcDbLine
 10
55.46637470755442
 20
53.55648748032104
 30
0.0000000000003897
 11
55.4667647075544
 21
53.55772648032098
 31
0.0000000000003897
  0
LINE
  5
CE2
330
1F
100
AcDbEntity
  8
OBRYS
  6
CONTINUOUS
100
AcDbLine
 10
55.81374070755444
 20
53.07474648032098
 30
0.0000000000003897
 11
55.81374070755444
 21
53.07474648032098
 31
0.0000000000003897
  0
LINE
  5
CE3
330
1F
100
AcDbEntity
  8
OBRYS
  6
CONTINUOUS
100
AcDbLine
 10
55.81374470755443
 20
60.76391448032098
 30
0.0000000000003897
 11
55.81374470755443
 21
60.76391448032098
 31
0.0000000000003897
  0
ARC
  5
CE4
330
1F
100
AcDbEntity
  8
OBRYS
  6
CONTINUOUS
100
AcDbCircle
 10
-55.81637470755444
 20
58.08720148032103
 30
-0.0000000000003897
 40
0.05
210
0.0
220
0.0
230
-1.0
100
AcDbArc
 50
273.0000000000058
 51
0.0
  0
ARC
  5
CE5
330
1F
100
AcDbEntity
  8
OBRYS
  6
CONTINUOUS
100
AcDbCircle
 10
-55.81637470755444
 20
55.75178148032103
 30
-0.0000000000003897
 40
0.05
210
0.0
220
0.0
230
-1.0
100
AcDbArc
 50
0.0
 51
86.99999999999422
  0
ARC
  5
CE6
330
1F
100
AcDbEntity
  8
OBRYS
  6
CONTINUOUS
100
AcDbCircle
 10
55.51637470755443
 20
60.50884348032099
 30
0.0000000000003897
 40
0.05
100
AcDbArc
 50
93.00000000000577
 51
180.0
  0
ARC
  5
CE7
330
1F
100
AcDbEntity
  8
OBRYS
  6
CONTINUOUS
100
AcDbCircle
 10
55.51637470755443
 20
53.33013948032101
 30
0.0000000000003897
 40
0.05
100
AcDbArc
 50
180.0
 51
266.9999999999942
  0
ARC
  5
CE8
330
1F
100
AcDbEntity
  8
OBRYS
  6
CONTINUOUS
100
AcDbCircle
 10
-55.81637470755444
 20
53.02388448216106
 30
0.0015813591208506
 40
0.05
210
2.775557561464175E-13
220
-8.434739697336407E-6
230
-0.9999999999644277
100
AcDbArc
 50
1.059945000002117
 51
86.97840399996552
  0
ARC
  5
CE9
330
1F
100
AcDbEntity
  8
OBRYS
  6
CONTINUOUS
100
AcDbCircle
 10
49.25792245952525
 20
58.3292756237056
 30
0.0000000000003897
 40
6.50845224803049
100
AcDbArc
 50
359.999963524592
 51
17.46391146307475
  0
ARC
  5
CEA
330
1F
100
AcDbEntity
  8
OBRYS
  6
CONTINUOUS
100
AcDbCircle
 10
49.25792248345044
 20
55.50970633101883
 30
0.0000000000003897
 40
6.508452224105301
100
AcDbArc
 50
342.5360885234101
 51
0.0000365275022327
  0
LINE
  5
CEB
330
1F
100
AcDbEntity
  8
OBRYS
100
AcDbLine
 10
55.81373908969121
 20
53.07381495379894
 30
-0.0020290229193112
 11
55.96637470755442
 21
53.08279148032102
 31
0.0000000000003897
  0
LINE
  5
CEC
330
1F
100
AcDbEntity
  8
OBRYS
100
AcDbLine
 10
55.81374331214838
 20
51.53792577075046
 30
0.0000000000003897
 11
55.96637470755442
 21
51.52988548032101
 31
0.0000000000003897
  0
ARC
  5
CED
330
1F
100
AcDbEntity
  8
OBRYS
100
AcDbCircle
 10
55.81640967586131
 20
51.58787042924388
 30
0.0000000000003897
 40
0.0500349702512362
100
AcDbArc
 50
180.0159729223965
 51
266.9468609269501
  0
LINE
  5
CEE
330
1F
100
AcDbEntity
  8
OBRYS
100
AcDbLine
 10
55.81374331214838
 20
60.76393277075044
 30
0.0000000000003897
 11
55.96637470755442
 21
60.75589348032099
 31
0.0000000000003897
  0
ARC
  5
CEF
330
1F
100
AcDbEntity
  8
OBRYS
100
AcDbCircle
 10
55.81641030839242
 20
60.81388201525579
 30
0.0000000000003897
 40
0.050038584864941
100
AcDbArc
 50
179.3742675901842
 51
266.9463563861322
  0
LINE
  5
CF0
330
1F
100
AcDbEntity
  8
OBRYS
100
AcDbLine
 10
55.7663747076198
 20
62.2470760369763
 30
0.0000000000003897
 11
55.76637470755443
 21
60.814428480321
 31
0.0000000000003897
  0
LINE
  5
CF1
330
1F
100
AcDbEntity
  8
OBRYS
100
AcDbLine
 10
55.76638326312582
 20
53.02480939068505
 30
-0.0020286095701557
 11
55.76637470755443
 21
51.58860048032102
 31
0.0000000000003897
  0
ARC
  5
CF2
330
1F
100
AcDbEntity
  8
OBRYS
100
AcDbCircle
 10
55.81652748945518
 20
62.24701250957071
 30
0.0000000000003897
 40
0.0501528220697484
100
AcDbArc
 50
89.66616118841982
 51
179.9274247580364
  0
LINE
  5
CF3
330
1F
100
AcDbEntity
  8
OBRYS
100
AcDbLine
 10
55.8168197075544
 20
62.29716448032104
 30
0.0000000000003897
 11
55.96637470755442
 21
62.30496948032101
 31
0.0000000000003897
  0
DIMENSION
  5
CF4
330
1F
100
AcDbEntity
  8
KOTY
 62
     1
100
AcDbDimension
  2
*D6
 10
99.77092908357609
 20
139.9535588922868
 30
0.0000000000003897
 11
83.0233747075544
 21
139.9535588922868
 31
0.0000000000003897
 70
   160
  3
STANDARD
100
AcDbAlignedDimension
 13
67.77337470755441
 23
134.310773480321
 33
0.0000000000003897
 14
99.77092908357609
 24
106.9194781377467
 34
0.0000000000003897
100
AcDbRotatedDimension
1001
ACAD
1000
DSTYLE
1002
{
1070
   278
1070
    44
1070
   147
1040
1.0
1070
    77
1070
     1
1070
   271
1070
     0
1070
   140
1040
4.0
1070
    41
1040
4.0
1002
}
  0
DIMENSION
  5
D28
330
1F
100
AcDbEntity
  8
KOTY
100
AcDbDimension
  2
*D8
 10
99.77337470755442
 20
30.75041825161284
 30
0.0
 11
77.86987470755443
 21
33.75041825161284
 31
0.0
 70
    32
  3
STANDARD
100
AcDbAlignedDimension
 13
55.96637470755443
 23
47.934969480321
 33
0.0000000000003897
 14
99.77337470755442
 24
70.91949948032101
 34
0.0000000000003897
100
AcDbRotatedDimension
1001
ACAD
1000
DSTYLE
1002
{
1070
   287
1070
     5
1070
   271
1070
     0
1070
   278
1070
    44
1070
   140
1040
4.0
1070
    73
1070
     0
1070
    77
1070
     1
1070
   147
1040
1.0
1070
    41
1040
4.0
1070
   279
1070
     2
1002
}
  0
DIMENSION
  5
D38
330
1F
100
AcDbEntity
  8
KOTY
100
AcDbDimension
  2
*D9
 10
105.4733747075544
 20
147.9855673700593
 30
0.0
 11
69.6233650755157
 21
150.9935673700593
 31
0.0
 70
    32
  3
STANDARD
100
AcDbAlignedDimension
 13
33.77335544347697
 23
109.7675904803208
 33
0.0000000000003998
 14
105.4733747075544
 24
134.110773480321
 34
0.0000000000003897
100
AcDbRotatedDimension
1001
ACAD
1000
DSTYLE
1002
{
1070
   287
1070
     5
1070
   271
1070
     0
1070
   278
1070
    44
1070
   140
1040
4.0
1070
    73
1070
     0
1070
    77
1070
     1
1070
   147
1040
1.0
1070
    41
1040
4.0
1070
   279
1070
     2
1002
}
  0
DIMENSION
  5
D4A
330
1F
100
AcDbEntity
  8
KOTY
100
AcDbDimension
  2
*D10
 10
117.3513000312554
 20
40.25882048032102
 30
0.0
 11
114.3093000312554
 21
87.284796980321
 31
0.0
 70
    32
  3
STANDARD
100
AcDbAlignedDimension
 13
105.2733747075544
 23
134.310773480321
 33
0.0000000000003897
 14
104.8233298009352
 24
40.25882048032102
 34
0.0000000000003897
 50
90.0
100
AcDbRotatedDimension
1001
ACAD
1000
DSTYLE
1002
{
1070
   287
1070
     5
1070
   271
1070
     0
1070
   278
1070
    44
1070
   140
1040
4.0
1070
    73
1070
     0
1070
    77
1070
     1
1070
   147
1040
1.0
1070
    41
1040
4.0
1070
   279
1070
     2
1002
}
  0
LINE
  5
FD9
102
{ACAD_REACTORS
102
}
330
1F
100
AcDbEntity
  8
OBRYS
100
AcDbLine
 10
164.1049463257423
 20
92.34754014423763
 30
0.0000000000004647
 11
164.1049463257423
 21
88.09754014423763
 31
0.0000000000004647
  0
LINE
  5
FDA
330
1F
100
AcDbEntity
  8
OBRYS
100
AcDbLine
 10
168.3747663257424
 20
88.09754014423763
 30
0.0000000000004647
 11
168.3747663257424
 21
92.34754014423763
 31
0.0000000000004647
  0
LINE
  5
FDB
330
1F
100
AcDbEntity
  8
OBRYS
100
AcDbLine
 10
168.3747663257424
 20
92.34754014423763
 30
0.0000000000004647
 11
164.1049463257423
 21
92.34754014423763
 31
0.0000000000004647
  0
LINE
  5
FDC
330
1F
100
AcDbEntity
  8
OBRYS
100
AcDbLine
 10
168.3747663257424
 20
88.09754014423763
 30
0.0000000000004647
 11
164.1049463257423
 21
88.09754014423763
 31
0.0000000000004647
  0
LINE
  5
1068
330
1F
100
AcDbEntity
  8
OBRYS
  6
HIDDEN
 62
     5
 48
8.0
100
AcDbLine
 10
65.77337470755441
 20
134.310773480321
 30
0.0
 11
65.77337470755441
 21
127.310773480321
 31
0.0
  0
LINE
  5
1069
330
1F
100
AcDbEntity
  8
OBRYS
  6
HIDDEN
 62
     5
 48
8.0
100
AcDbLine
 10
65.77337470755441
 20
127.310773480321
 30
0.0
 11
67.77337470755441
 21
127.310773480321
 31
0.0
  0
LINE
  5
106A
330
1F
100
AcDbEntity
  8
OBRYS
  6
HIDDEN
 62
     5
 48
8.0
100
AcDbLine
 10
67.77337470755441
 20
127.310773480321
 30
0.0
 11
67.77337470755441
 21
134.310773480321
 31
0.0
  0
LINE
  5
107C
330
1F
100
AcDbEntity
  8
OBRYS
100
AcDbLine
 10
101.5224707075544
 20
62.67217078292821
 30
0.0000000000003897
 11
98.94420070755443
 21
62.67228878292821
 31
0.0000000000003897
  0
LINE
  5
107D
330
1F
100
AcDbEntity
  8
OBRYS
100
AcDbLine
 10
98.94420070755443
 20
62.67228878292821
 30
0.0000000000003897
 11
98.94420070755443
 21
60.87383078292822
 31
0.0000000000003897
  0
LINE
  5
107E
330
1F
100
AcDbEntity
  8
OBRYS
100
AcDbLine
 10
100.7233599880873
 20
60.87391220992972
 30
0.0000000000003897
 11
100.7233599880416
 21
62.67220735592671
 31
0.0000000000003897
  0
LINE
  5
107F
330
1F
100
AcDbEntity
  8
OBRYS
100
AcDbLine
 10
101.5224707075544
 20
60.87394878292822
 30
0.0000000000003897
 11
101.5224707075544
 21
62.67217078292821
 31
0.0000000000003897
  0
LINE
  5
1080
330
1F
100
AcDbEntity
  8
OBRYS
100
AcDbLine
 10
98.94420070755443
 20
60.87383078292822
 30
0.0000000000003897
 11
101.5224707075544
 21
60.87394878292822
 31
0.0000000000003897
  0
LINE
  5
1081
330
1F
100
AcDbEntity
  8
OBRYS
100
AcDbLine
 10
98.35238270755441
 20
63.05276278292822
 30
0.0000000000003897
 11
101.7943357075544
 21
63.05276278292822
 31
0.0000000000003897
  0
LINE
  5
1082
330
1F
100
AcDbEntity
  8
OBRYS
100
AcDbLine
 10
98.35238270755441
 20
60.51080978292821
 30
0.0000000000003897
 11
98.35238270755441
 21
63.05276278292822
 31
0.0000000000003897
  0
LINE
  5
1083
102
{ACAD_REACTORS
330
108F
102
}
330
1F
100
AcDbEntity
  8
OBRYS
100
AcDbLine
 10
101.7943357075544
 20
60.51080978292821
 30
0.0000000000003897
 11
98.35238270755441
 21
60.51080978292821
 31
0.0000000000003897
  0
LINE
  5
1084
330
1F
100
AcDbEntity
  8
OBRYS
100
AcDbLine
 10
101.7943357075544
 20
63.05276278292822
 30
0.0000000000003897
 11
101.7943357075544
 21
60.51080978292821
 31
0.0000000000003897
  0
LINE
  5
1085
330
1F
100
AcDbEntity
  8
OBRYS
100
AcDbLine
 10
101.5943667075544
 20
62.85279278292821
 30
0.0000000000003897
 11
98.55235270755445
 21
62.85279278292821
 31
0.0000000000003897
  0
LINE
  5
1086
330
1F
100
AcDbEntity
  8
OBRYS
100
AcDbLine
 10
98.55235270755445
 20
60.71077878292821
 30
0.0000000000003897
 11
98.35238270755441
 21
60.51080978292821
 31
0.0000000000003897
  0
LINE
  5
1087
330
1F
100
AcDbEntity
  8
OBRYS
100
AcDbLine
 10
98.55235270755445
 20
62.85279278292821
 30
0.0000000000003897
 11
98.55235270755445
 21
60.71077878292821
 31
0.0000000000003897
  0
LINE
  5
1088
330
1F
100
AcDbEntity
  8
OBRYS
100
AcDbLine
 10
101.7943357075544
 20
63.05276278292822
 30
0.0000000000003897
 11
101.5943667075544
 21
62.85279278292821
 31
0.0000000000003897
  0
LINE
  5
1089
330
1F
100
AcDbEntity
  8
OBRYS
100
AcDbLine
 10
98.55235270755445
 20
62.85279278292821
 30
0.0000000000003897
 11
98.35238270755441
 21
63.05276278292822
 31
0.0000000000003897
  0
LINE
  5
108A
330
1F
100
AcDbEntity
  8
OBRYS
100
AcDbLine
 10
98.55235270755445
 20
60.71077878292821
 30
0.0000000000003897
 11
101.5943667075544
 21
60.71077878292821
 31
0.0000000000003897
  0
LINE
  5
108B
330
1F
100
AcDbEntity
  8
OBRYS
100
AcDbLine
 10
101.7943357075544
 20
60.51080978292821
 30
0.0000000000003897
 11
101.5943667075544
 21
60.71077878292821
 31
0.0000000000003897
  0
LINE
  5
108C
330
1F
100
AcDbEntity
  8
OBRYS
100
AcDbLine
 10
101.5943667075544
 20
60.71077878292821
 30
0.0000000000003897
 11
101.5943667075544
 21
62.85279278292821
 31
0.0000000000003897
  0
VIEWPORT
  5
FF2
330
FEE
100
AcDbEntity
 67
     1
  8
0
100
AcDbViewport
 10
0.0
 20
0.0
 30
0.0
 40
8.976
 41
6.936000000000001
 68
     1
 69
     1
1001
ACAD
1000
MVIEW
1002
{
1070
    16
1010
0.0
1020
0.0
1030
0.0
1010
0.0
1020
0.0
1030
1.0
1040
0.0
1040
6.936000000000001
1040
5.25
1040
4.0
1040
50.0
1040
0.0
1040
0.0
1070
     0
1070
   100
1070
     0
1070
     3
1070
     0
1070
     0
1070
     0
1070
     0
1040
0.0
1040
0.0
1040
0.0
1040
0.5
1040
0.5
1040
0.0
1040
0.0
1070
     0
1002
{
1002
}
1002
}
  0
VIEWPORT
  5
FF3
330
FEE
100
AcDbEntity
 67
     1
  8
0
100
AcDbViewport
 10
5.25
 20
4.0
 30
0.0
 40
8.4
 41
6.4
 68
     2
 69
     2
1001
ACAD
1000
MVIEW
1002
{
1070
    16
1010
0.0
1020
0.0
1030
0.0
1010
0.0
1020
0.0
1030
1.0
1040
0.0
1040
142.1584832799084
1040
92.71508824437805
1040
85.88293423855222
1040
50.0
1040
0.0
1040
0.0
1070
     0
1070
   100
1070
     0
1070
     3
1070
     0
1070
     0
1070
     0
1070
     0
1040
0.0
1040
0.0
1040
0.0
1040
0.5
1040
0.5
1040
0.0
1040
0.0
1070
     0
1002
{
1002
}
1002
}
  0
ENDSEC
  0
SECTION
  2
OBJECTS
  0
DICTIONARY
  5
C
330
0
100
AcDbDictionary
  3
ACAD_DETAILVIEWSTYLE
350
122
  3
ACAD_GROUP
350
D
  3
ACAD_IMAGE_VARS
350
DC
  3
ACAD_MLINESTYLE
350
17
  3
ACAD_SCALELIST
350
FF6
  3
ACAD_SECTIONVIEWSTYLE
350
123
  3
ACDBVARIABLEDICTIONARY
350
66
  3
APPDATA
350
E1
  3
DWGPROPS
350
109D
  0
DICTIONARY
  5
5CF
330
2
100
AcDbDictionary
280
     1
  3
ACAD_LAYERSTATES
360
5D0
  3
ACLYDICTIONARY
360
736
  0
DICTIONARY
  5
122
102
{ACAD_REACTORS
330
C
102
}
330
C
100
AcDbDictionary
  0
DICTIONARY
  5
D
102
{ACAD_REACTORS
330
C
102
}
330
C
100
AcDbDictionary
  0
RASTERVARIABLES
  5
DC
102
{ACAD_REACTORS
330
C
102
}
330
C
100
AcDbRasterVariables
 90
        0
 70
     1
 71
     1
 72
     5
  0
DICTIONARY
  5
17
102
{ACAD_REACTORS
330
C
102
}
330
C
100
AcDbDictionary
  3
STANDARD
350
18
  0
DICTIONARY
  5
FF6
102
{ACAD_REACTORS
330
C
102
}
330
C
100
AcDbDictionary
  0
DICTIONARY
  5
123
102
{ACAD_REACTORS
330
C
102
}
330
C
100
AcDbDictionary
  0
DICTIONARY
  5
66
102
{ACAD_REACTORS
330
C
102
}
330
C
100
AcDbDictionary
  3
DIMASSOC
350
67
  3
HIDETEXT
350
6B
  0
DICTIONARY
  5
E1
102
{ACAD_REACTORS
330
C
102
}
330
C
100
AcDbDictionary
  0
XRECORD
  5
109D
102
{ACAD_REACTORS
330
C
102
}
330
C
100
AcDbXrecord
  1
DWGPROPS COOKIE
  2

  3

  4

  6

  7

  8
jaromir.podrabsky
  9

300
=
301
=
302
=
303
=
304
=
305
=
306
=
307
=
308
=
309
=
 40
0.0
 41
2452643.063384236
 42
2457087.31366522
  1

 90
        0
  0
DICTIONARY
  5
5D0
102
{ACAD_REACTORS
330
5CF
102
}
330
5CF
100
AcDbDictionary
  0
DICTIONARY
  5
736
102
{ACAD_REACTORS
330
5CF
102
}
330
5CF
100
AcDbDictionary
1001
ACAD
1000
<All
  0
MLINESTYLE
  5
18
102
{ACAD_REACTORS
330
17
102
}
330
17
100
AcDbMlineStyle
  2
STANDARD
 70
     0
  3

 62
   256
 51
90.0
 52
90.0
 71
     2
 49
0.5
 62
   256
  6
BYLAYER
 49
-0.5
 62
   256
  6
BYLAYER
  0
DICTIONARYVAR
  5
67
102
{ACAD_REACTORS
330
66
102
}
330
66
100
DictionaryVariables
280
     0
  1
2
  0
DICTIONARYVAR
  5
6B
102
{ACAD_REACTORS
330
66
102
}
330
66
100
DictionaryVariables
280
     0
  1
1
  0
ENDSEC
  0
EOF
