  0
SECTION
  2
HEADER
  9
$ACADVER
  1
AC1027
  9
$ACADMAINTVER
 70
     8
  9
$DWGCODEPAGE
  3
ANSI_1250
  9
$REQUIREDVERSIONS
160
                 0
  9
$LASTSAVEDBY
  1
jaromir.podrabsky
  9
$INSBASE
 10
0.0
 20
0.0
 30
0.0
  9
$EXTMIN
 10
1.000000000000000E+20
 20
1.000000000000000E+20
 30
1.000000000000000E+20
  9
$EXTMAX
 10
-1.000000000000000E+20
 20
-1.000000000000000E+20
 30
-1.000000000000000E+20
  9
$LIMMIN
 10
0.0
 20
0.0
  9
$LIMMAX
 10
12.0
 20
9.0
  9
$ORTHOMODE
 70
     0
  9
$REGENMODE
 70
     1
  9
$FILLMODE
 70
     1
  9
$QTEXTMODE
 70
     0
  9
$MIRRTEXT
 70
     0
  9
$LTSCALE
 40
1.0
  9
$ATTMODE
 70
     1
  9
$TEXTSIZE
 40
0.2
  9
$TRACEWID
 40
0.05
  9
$TEXTSTYLE
  7
STANDARD
  9
$CLAYER
  8
OBRYS
  9
$CELTYPE
  6
BYLAYER
  9
$CECOLOR
 62
   256
  9
$CELTSCALE
 40
1.0
  9
$DISPSILH
 70
     0
  9
$DIMSCALE
 40
1.0
  9
$DIMASZ
 40
0.18
  9
$DIMEXO
 40
0.0625
  9
$DIMDLI
 40
0.38
  9
$DIMRND
 40
0.0
  9
$DIMDLE
 40
0.0
  9
$DIMEXE
 40
0.18
  9
$DIMTP
 40
0.0
  9
$DIMTM
 40
0.0
  9
$DIMTXT
 40
0.18
  9
$DIMCEN
 40
0.09
  9
$DIMTSZ
 40
0.0
  9
$DIMTOL
 70
     0
  9
$DIMLIM
 70
     0
  9
$DIMTIH
 70
     1
  9
$DIMTOH
 70
     1
  9
$DIMSE1
 70
     0
  9
$DIMSE2
 70
     0
  9
$DIMTAD
 70
     0
  9
$DIMZIN
 70
     0
  9
$DIMBLK
  1

  9
$DIMASO
 70
     1
  9
$DIMSHO
 70
     1
  9
$DIMPOST
  1

  9
$DIMAPOST
  1

  9
$DIMALT
 70
     0
  9
$DIMALTD
 70
     2
  9
$DIMALTF
 40
25.4
  9
$DIMLFAC
 40
1.0
  9
$DIMTOFL
 70
     0
  9
$DIMTVP
 40
0.0
  9
$DIMTIX
 70
     0
  9
$DIMSOXD
 70
     0
  9
$DIMSAH
 70
     0
  9
$DIMBLK1
  1

  9
$DIMBLK2
  1

  9
$DIMSTYLE
  2
STANDARD
  9
$DIMCLRD
 70
     0
  9
$DIMCLRE
 70
     0
  9
$DIMCLRT
 70
     0
  9
$DIMTFAC
 40
1.0
  9
$DIMGAP
 40
0.09
  9
$DIMJUST
 70
     0
  9
$DIMSD1
 70
     0
  9
$DIMSD2
 70
     0
  9
$DIMTOLJ
 70
     1
  9
$DIMTZIN
 70
     0
  9
$DIMALTZ
 70
     0
  9
$DIMALTTZ
 70
     0
  9
$DIMUPT
 70
     0
  9
$DIMDEC
 70
     4
  9
$DIMTDEC
 70
     4
  9
$DIMALTU
 70
     2
  9
$DIMALTTD
 70
     2
  9
$DIMTXSTY
  7
STANDARD
  9
$DIMAUNIT
 70
     0
  9
$DIMADEC
 70
     0
  9
$DIMALTRND
 40
0.0
  9
$DIMAZIN
 70
     0
  9
$DIMDSEP
 70
    46
  9
$DIMATFIT
 70
     3
  9
$DIMFRAC
 70
     0
  9
$DIMLDRBLK
  1

  9
$DIMLUNIT
 70
     2
  9
$DIMLWD
 70
    -2
  9
$DIMLWE
 70
    -2
  9
$DIMTMOVE
 70
     2
  9
$DIMFXL
 40
1.0
  9
$DIMFXLON
 70
     0
  9
$DIMJOGANG
 40
0.7853981633974483
  9
$DIMTFILL
 70
     0
  9
$DIMTFILLCLR
 70
     0
  9
$DIMARCSYM
 70
     0
  9
$DIMLTYPE
  6

  9
$DIMLTEX1
  6

  9
$DIMLTEX2
  6

  9
$DIMTXTDIRECTION
 70
     0
  9
$LUNITS
 70
     2
  9
$LUPREC
 70
     4
  9
$SKETCHINC
 40
0.1
  9
$FILLETRAD
 40
0.0
  9
$AUNITS
 70
     0
  9
$AUPREC
 70
     0
  9
$MENU
  1
.
  9
$ELEVATION
 40
0.0
  9
$PELEVATION
 40
0.0
  9
$THICKNESS
 40
0.0
  9
$LIMCHECK
 70
     0
  9
$CHAMFERA
 40
0.0
  9
$CHAMFERB
 40
0.0
  9
$CHAMFERC
 40
0.0
  9
$CHAMFERD
 40
0.0
  9
$SKPOLY
 70
     0
  9
$TDCREATE
 40
2452643.105050926
  9
$TDUCREATE
 40
2452643.063384259
  9
$TDUPDATE
 40
2457429.561568634
  9
$TDUUPDATE
 40
2457429.519901968
  9
$TDINDWG
 40
0.0773057986
  9
$TDUSRTIMER
 40
2457429.481447095
  9
$USRTIMER
 70
     1
  9
$ANGBASE
 50
0.0
  9
$ANGDIR
 70
     0
  9
$PDMODE
 70
     0
  9
$PDSIZE
 40
0.0
  9
$PLINEWID
 40
0.0
  9
$SPLFRAME
 70
     0
  9
$SPLINETYPE
 70
     6
  9
$SPLINESEGS
 70
     8
  9
$HANDSEED
  5
CF3
  9
$SURFTAB1
 70
     6
  9
$SURFTAB2
 70
     6
  9
$SURFTYPE
 70
     6
  9
$SURFU
 70
     6
  9
$SURFV
 70
     6
  9
$UCSBASE
  2

  9
$UCSNAME
  2

  9
$UCSORG
 10
0.0
 20
0.0
 30
0.0
  9
$UCSXDIR
 10
1.0
 20
0.0
 30
0.0
  9
$UCSYDIR
 10
0.0
 20
1.0
 30
0.0
  9
$UCSORTHOREF
  2

  9
$UCSORTHOVIEW
 70
     0
  9
$UCSORGTOP
 10
0.0
 20
0.0
 30
0.0
  9
$UCSORGBOTTOM
 10
0.0
 20
0.0
 30
0.0
  9
$UCSORGLEFT
 10
0.0
 20
0.0
 30
0.0
  9
$UCSORGRIGHT
 10
0.0
 20
0.0
 30
0.0
  9
$UCSORGFRONT
 10
0.0
 20
0.0
 30
0.0
  9
$UCSORGBACK
 10
0.0
 20
0.0
 30
0.0
  9
$PUCSBASE
  2

  9
$PUCSNAME
  2

  9
$PUCSORG
 10
0.0
 20
0.0
 30
0.0
  9
$PUCSXDIR
 10
1.0
 20
0.0
 30
0.0
  9
$PUCSYDIR
 10
0.0
 20
1.0
 30
0.0
  9
$PUCSORTHOREF
  2

  9
$PUCSORTHOVIEW
 70
     0
  9
$PUCSORGTOP
 10
0.0
 20
0.0
 30
0.0
  9
$PUCSORGBOTTOM
 10
0.0
 20
0.0
 30
0.0
  9
$PUCSORGLEFT
 10
0.0
 20
0.0
 30
0.0
  9
$PUCSORGRIGHT
 10
0.0
 20
0.0
 30
0.0
  9
$PUCSORGFRONT
 10
0.0
 20
0.0
 30
0.0
  9
$PUCSORGBACK
 10
0.0
 20
0.0
 30
0.0
  9
$USERI1
 70
     0
  9
$USERI2
 70
     0
  9
$USERI3
 70
     0
  9
$USERI4
 70
     0
  9
$USERI5
 70
     0
  9
$USERR1
 40
0.0
  9
$USERR2
 40
0.0
  9
$USERR3
 40
0.0
  9
$USERR4
 40
0.0
  9
$USERR5
 40
0.0
  9
$WORLDVIEW
 70
     1
  9
$SHADEDGE
 70
     3
  9
$SHADEDIF
 70
    70
  9
$TILEMODE
 70
     0
  9
$MAXACTVP
 70
    64
  9
$PINSBASE
 10
0.0
 20
0.0
 30
0.0
  9
$PLIMCHECK
 70
     0
  9
$PEXTMIN
 10
1.05
 20
0.6999999999999997
 30
0.0
  9
$PEXTMAX
 10
9.45
 20
6.300000000000001
 30
0.0
  9
$PLIMMIN
 10
-0.25
 20
-0.7499999999999999
  9
$PLIMMAX
 10
10.75
 20
7.75
  9
$UNITMODE
 70
     0
  9
$VISRETAIN
 70
     1
  9
$PLINEGEN
 70
     0
  9
$PSLTSCALE
 70
     1
  9
$TREEDEPTH
 70
  3020
  9
$CMLSTYLE
  2
STANDARD
  9
$CMLJUST
 70
     0
  9
$CMLSCALE
 40
1.0
  9
$PROXYGRAPHICS
 70
     1
  9
$MEASUREMENT
 70
     0
  9
$CELWEIGHT
370
    -1
  9
$ENDCAPS
280
     0
  9
$JOINSTYLE
280
     0
  9
$LWDISPLAY
290
     0
  9
$INSUNITS
 70
     0
  9
$HYPERLINKBASE
  1

  9
$STYLESHEET
  1

  9
$XEDIT
290
     1
  9
$CEPSNTYPE
380
     0
  9
$PSTYLEMODE
290
     1
  9
$FINGERPRINTGUID
  2
{426F9FC7-280F-4093-A014-018CB00602E2}
  9
$VERSIONGUID
  2
{FAEB1C32-E019-11D5-929B-00C0DF256EC4}
  9
$EXTNAMES
290
     1
  9
$PSVPSCALE
 40
0.0
  9
$OLESTARTUP
290
     0
  9
$SORTENTS
280
   127
  9
$INDEXCTL
280
     0
  9
$HIDETEXT
280
     1
  9
$XCLIPFRAME
280
     2
  9
$HALOGAP
280
     0
  9
$OBSCOLOR
 70
   257
  9
$OBSLTYPE
280
     0
  9
$INTERSECTIONDISPLAY
280
     0
  9
$INTERSECTIONCOLOR
 70
   257
  9
$DIMASSOC
280
     2
  9
$PROJECTNAME
  1

  9
$CAMERADISPLAY
290
     0
  9
$LENSLENGTH
 40
50.0
  9
$CAMERAHEIGHT
 40
0.0
  9
$STEPSPERSEC
 40
2.0
  9
$STEPSIZE
 40
6.0
  9
$3DDWFPREC
 40
2.0
  9
$PSOLWIDTH
 40
0.25
  9
$PSOLHEIGHT
 40
4.0
  9
$LOFTANG1
 40
1.570796326794897
  9
$LOFTANG2
 40
1.570796326794897
  9
$LOFTMAG1
 40
0.0
  9
$LOFTMAG2
 40
0.0
  9
$LOFTPARAM
 70
     7
  9
$LOFTNORMALS
280
     1
  9
$LATITUDE
 40
37.795
  9
$LONGITUDE
 40
-122.394
  9
$NORTHDIRECTION
 40
0.0
  9
$TIMEZONE
 70
 -8000
  9
$LIGHTGLYPHDISPLAY
280
     1
  9
$TILEMODELIGHTSYNCH
280
     1
  9
$SOLIDHIST
280
     0
  9
$SHOWHIST
280
     1
  9
$DWFFRAME
280
     2
  9
$DGNFRAME
280
     2
  9
$REALWORLDSCALE
290
     1
  9
$INTERFERECOLOR
 62
   256
  9
$CSHADOW
280
     0
  9
$SHADOWPLANELOCATION
 40
0.0
  0
ENDSEC
  0
SECTION
  2
CLASSES
  0
CLASS
  1
ACDBDICTIONARYWDFLT
  2
AcDbDictionaryWithDefault
  3
ObjectDBX Classes
 90
        0
 91
        4
280
     0
281
     0
  0
CLASS
  1
ACDBPLACEHOLDER
  2
AcDbPlaceHolder
  3
ObjectDBX Classes
 90
        0
 91
        1
280
     0
281
     0
  0
CLASS
  1
LAYOUT
  2
AcDbLayout
  3
ObjectDBX Classes
 90
        0
 91
        1
280
     0
281
     0
  0
CLASS
  1
DICTIONARYVAR
  2
AcDbDictionaryVar
  3
ObjectDBX Classes
 90
        0
 91
        4
280
     0
281
     0
  0
CLASS
  1
TABLESTYLE
  2
AcDbTableStyle
  3
ObjectDBX Classes
 90
     4095
 91
        4
280
     0
281
     0
  0
CLASS
  1
MATERIAL
  2
AcDbMaterial
  3
ObjectDBX Classes
 90
     1153
 91
        4
280
     0
281
     0
  0
CLASS
  1
VISUALSTYLE
  2
AcDbVisualStyle
  3
ObjectDBX Classes
 90
     4095
 91
        4
280
     0
281
     0
  0
CLASS
  1
SCALE
  2
AcDbScale
  3
ObjectDBX Classes
 90
     1153
 91
        4
280
     0
281
     0
  0
CLASS
  1
CELLSTYLEMAP
  2
AcDbCellStyleMap
  3
ObjectDBX Classes
 90
     1152
 91
        4
280
     0
281
     0
  0
CLASS
  1
RASTERVARIABLES
  2
AcDbRasterVariables
  3
ISM
 90
        0
 91
        4
280
     0
281
     0
  0
CLASS
  1
SUN
  2
AcDbSun
  3
SCENEOE
 90
     1153
 91
        4
280
     0
281
     0
  0
CLASS
  1
DIMASSOC
  2
AcDbDimAssoc
  3
"AcDbDimAssoc|Product Desc:     AcDim ARX App For Dimension|Company:          Autodesk, Inc.|WEB Address:      www.autodesk.com"
 90
        0
 91
        4
280
     0
281
     0
  0
CLASS
  1
XRECORD
  2
AcDbXrecord
  3
ObjectDBX Classes
 90
        0
 91
        1
280
     0
281
     0
  0
CLASS
  1
LWPOLYLINE
  2
AcDbPolyline
  3
ObjectDBX Classes
 90
        0
 91
        1
280
     0
281
     1
  0
CLASS
  1
HATCH
  2
AcDbHatch
  3
ObjectDBX Classes
 90
        0
 91
        1
280
     0
281
     1
  0
CLASS
  1
MLEADERSTYLE
  2
AcDbMLeaderStyle
  3
ACDB_MLEADERSTYLE_CLASS
 90
     4095
 91
        4
280
     0
281
     0
  0
ENDSEC
  0
SECTION
  2
TABLES
  0
TABLE
  2
VPORT
  5
8
330
0
100
AcDbSymbolTable
 70
     1
  0
VPORT
  5
94
330
8
100
AcDbSymbolTableRecord
100
AcDbViewportTableRecord
  2
*ACTIVE
 70
     0
 10
0.0
 20
0.0
 11
1.0
 21
1.0
 12
400.9200304707035
 22
155.0092674334271
 13
0.0
 23
0.0
 14
0.5
 24
0.5
 15
0.5
 25
0.5
 16
0.0
 26
0.0
 36
1.0
 17
-27.66959356597977
 27
-19.53870295786211
 37
0.0
 40
142.7191303499361
 41
1.944153577661431
 42
50.0
 43
0.0
 44
0.0
 50
0.0
 51
0.0
 71
    16
 72
  1000
 73
     1
 74
     3
 75
     0
 76
     0
 77
     0
 78
     0
281
     0
 65
     1
110
0.0
120
0.0
130
0.0
111
1.0
121
0.0
131
0.0
112
0.0
122
1.0
132
0.0
 79
     0
146
0.0
348
AAD
 60
     3
 61
     5
292
     1
282
     1
141
0.0
142
0.0
 63
   256
361
ACA
  0
ENDTAB
  0
TABLE
  2
LTYPE
  5
5
330
0
100
AcDbSymbolTable
 70
     4
  0
LTYPE
  5
14
330
5
100
AcDbSymbolTableRecord
100
AcDbLinetypeTableRecord
  2
BYBLOCK
 70
     0
  3

 72
    65
 73
     0
 40
0.0
  0
LTYPE
  5
15
330
5
100
AcDbSymbolTableRecord
100
AcDbLinetypeTableRecord
  2
BYLAYER
 70
     0
  3
Solid line
 72
    65
 73
     0
 40
0.0
  0
LTYPE
  5
16
330
5
100
AcDbSymbolTableRecord
100
AcDbLinetypeTableRecord
  2
CONTINUOUS
 70
     0
  3
Solid line
 72
    65
 73
     0
 40
0.0
  0
LTYPE
  5
130
330
5
100
AcDbSymbolTableRecord
100
AcDbLinetypeTableRecord
  2
AI-LINETYPE-1
 70
     0
  3
Adobe Illustrator Linetype No. 1
 72
    65
 73
     2
 40
4.233333332275
 49
2.1166666661375
 74
     0
 49
-2.1166666661375
 74
     0
  0
LTYPE
  5
131
330
5
100
AcDbSymbolTableRecord
100
AcDbLinetypeTableRecord
  2
AI-LINETYPE-2
 70
     0
  3
Adobe Illustrator Linetype No. 2
 72
    65
 73
     2
 40
4.233333332275
 49
2.1166666661375
 74
     0
 49
-2.1166666661375
 74
     0
  0
LTYPE
  5
132
330
5
100
AcDbSymbolTableRecord
100
AcDbLinetypeTableRecord
  2
AI-LINETYPE-3
 70
     0
  3
Adobe Illustrator Linetype No. 3
 72
    65
 73
     2
 40
4.233333332275
 49
2.1166666661375
 74
     0
 49
-2.1166666661375
 74
     0
  0
ENDTAB
  0
TABLE
  2
LAYER
  5
2
102
{ACAD_XDICTIONARY
360
912
102
}
330
0
100
AcDbSymbolTable
 70
     6
  0
LAYER
  5
10
330
2
100
AcDbSymbolTableRecord
100
AcDbLayerTableRecord
  2
0
 70
     0
 62
     7
  6
CONTINUOUS
370
    -3
390
0
347
AC4
348
0
  0
LAYER
  5
125
330
2
100
AcDbSymbolTableRecord
100
AcDbLayerTableRecord
  2
DEFPOINTS
 70
     0
 62
     7
  6
CONTINUOUS
290
     0
370
    -3
390
0
347
AC4
348
0
  0
LAYER
  5
12B
330
2
100
AcDbSymbolTableRecord
100
AcDbLayerTableRecord
  2
DS-V
 70
     0
 62
     7
  6
CONTINUOUS
370
    -3
390
0
347
AC4
348
0
  0
LAYER
  5
12C
330
2
100
AcDbSymbolTableRecord
100
AcDbLayerTableRecord
  2
KOTY
 70
     0
 62
     1
  6
CONTINUOUS
370
    -3
390
0
347
AC4
348
0
1001
ACAECLAYERSTANDARD
1000

1000

  0
LAYER
  5
12E
330
2
100
AcDbSymbolTableRecord
100
AcDbLayerTableRecord
  2
OBRYS
 70
     0
 62
     5
  6
CONTINUOUS
370
    -3
390
0
347
AC4
348
0
1001
ACAECLAYERSTANDARD
1000

1000

  0
LAYER
  5
12F
330
2
100
AcDbSymbolTableRecord
100
AcDbLayerTableRecord
  2
POZNAMKA
 70
     0
 62
     7
  6
CONTINUOUS
370
    -3
390
0
347
AC4
348
0
1001
ACAECLAYERSTANDARD
1000

1000

  0
ENDTAB
  0
TABLE
  2
STYLE
  5
3
330
0
100
AcDbSymbolTable
 70
     1
  0
STYLE
  5
11
330
3
100
AcDbSymbolTableRecord
100
AcDbTextStyleTableRecord
  2
STANDARD
 70
     0
 40
0.0
 41
1.0
 50
0.0
 71
     0
 42
0.2
  3
arial.ttf
  4

1001
ACAD
1000
Arial
1071
        0
  0
ENDTAB
  0
TABLE
  2
VIEW
  5
6
330
0
100
AcDbSymbolTable
 70
     0
  0
ENDTAB
  0
TABLE
  2
UCS
  5
7
330
0
100
AcDbSymbolTable
 70
     0
  0
ENDTAB
  0
TABLE
  2
APPID
  5
9
330
0
100
AcDbSymbolTable
 70
     2
  0
APPID
  5
12
330
9
100
AcDbSymbolTableRecord
100
AcDbRegAppTableRecord
  2
ACAD
 70
     0
  0
APPID
  5
12D
330
9
100
AcDbSymbolTableRecord
100
AcDbRegAppTableRecord
  2
ACAECLAYERSTANDARD
 70
     0
  0
ENDTAB
  0
TABLE
  2
DIMSTYLE
  5
A
330
0
100
AcDbSymbolTable
 70
     1
100
AcDbDimStyleTable
  0
DIMSTYLE
105
27
102
{ACAD_REACTORS
330
8F4
330
8F5
330
944
330
974
102
}
330
A
100
AcDbSymbolTableRecord
100
AcDbDimStyleTableRecord
  2
STANDARD
 70
     0
178
     0
340
11
  0
ENDTAB
  0
TABLE
  2
BLOCK_RECORD
  5
1
330
0
100
AcDbSymbolTable
 70
    25
  0
BLOCK_RECORD
  5
1F
330
1
100
AcDbSymbolTableRecord
100
AcDbBlockTableRecord
  2
*MODEL_SPACE
340
AA6
 70
     0
280
     1
281
     0
  0
BLOCK_RECORD
  5
CE9
330
1
100
AcDbSymbolTableRecord
100
AcDbBlockTableRecord
  2
*Paper_Space
340
CEA
 70
     0
280
     1
281
     0
  0
BLOCK_RECORD
  5
5D
330
1
100
AcDbSymbolTableRecord
100
AcDbBlockTableRecord
  2
*PAPER_SPACE0
340
0
 70
     0
280
     1
281
     0
  0
BLOCK_RECORD
  5
296
330
1
100
AcDbSymbolTableRecord
100
AcDbBlockTableRecord
  2
BLOCK_4
340
0
 70
     0
280
     1
281
     0
  0
BLOCK_RECORD
  5
8F8
330
1
100
AcDbSymbolTableRecord
100
AcDbBlockTableRecord
  2
*D2
340
0
 70
     0
280
     1
281
     0
  0
BLOCK_RECORD
  5
905
330
1
100
AcDbSymbolTableRecord
100
AcDbBlockTableRecord
  2
*D3
340
0
 70
     0
280
     1
281
     0
  0
BLOCK_RECORD
  5
947
330
1
100
AcDbSymbolTableRecord
100
AcDbBlockTableRecord
  2
*D6
340
0
 70
     0
280
     1
281
     0
  0
BLOCK_RECORD
  5
977
330
1
100
AcDbSymbolTableRecord
100
AcDbBlockTableRecord
  2
*D9
340
0
 70
     0
280
     1
281
     0
  0
BLOCK_RECORD
  5
A75
330
1
100
AcDbSymbolTableRecord
100
AcDbBlockTableRecord
  2
_CLOSEDBLANK
340
0
 70
     0
280
     1
281
     0
  0
BLOCK_RECORD
  5
A7B
330
1
100
AcDbSymbolTableRecord
100
AcDbBlockTableRecord
  2
_CLOSED
340
0
 70
     0
280
     1
281
     0
  0
ENDTAB
  0
ENDSEC
  0
SECTION
  2
BLOCKS
  0
BLOCK
  5
20
330
1F
100
AcDbEntity
  8
0
100
AcDbBlockBegin
  2
*MODEL_SPACE
 70
     0
 10
0.0
 20
0.0
 30
0.0
  3
*MODEL_SPACE
  1
*MODEL_SPACE
  0
ENDBLK
  5
21
330
1F
100
AcDbEntity
  8
0
100
AcDbBlockEnd
  0
BLOCK
  5
CEB
330
CE9
100
AcDbEntity
 67
     1
  8
0
100
AcDbBlockBegin
  2
*Paper_Space
 70
     0
 10
0.0
 20
0.0
 30
0.0
  3
*Paper_Space
  1
*Paper_Space
  0
ENDBLK
  5
CEC
330
CE9
100
AcDbEntity
 67
     1
  8
0
100
AcDbBlockEnd
  0
BLOCK
  5
5F
330
5D
100
AcDbEntity
  8
0
100
AcDbBlockBegin
  2
*PAPER_SPACE0
 70
     0
 10
0.0
 20
0.0
 30
0.0
  3
*PAPER_SPACE0
  1
*PAPER_SPACE0
  0
ENDBLK
  5
60
330
5D
100
AcDbEntity
  8
0
100
AcDbBlockEnd
  0
BLOCK
  5
297
330
296
100
AcDbEntity
  8
0
100
AcDbBlockBegin
  2
BLOCK_4
 70
     0
 10
0.0
 20
0.0
 30
0.0
  3
BLOCK_4
  1
BLOCK_4
  0
LWPOLYLINE
  5
298
330
296
100
AcDbEntity
  8
DS-V
 62
   250
100
AcDbPolyline
 90
        2
 70
     0
 43
0.0
 10
78.04881047310933
 20
163.8804361569466
 10
87.26202932931297
 20
163.8804361569466
  0
LWPOLYLINE
  5
299
330
296
100
AcDbEntity
  8
DS-V
 62
   250
100
AcDbPolyline
 90
        2
 70
     0
 43
0.0
 10
78.04881047310933
 20
160.0012586405552
 10
87.26202932931297
 20
160.0012586405552
  0
LWPOLYLINE
  5
29A
330
296
100
AcDbEntity
  8
DS-V
 62
   250
100
AcDbPolyline
 90
        2
 70
     0
 43
0.0
 10
87.26202932931297
 20
163.8804361569466
 10
87.26202932931297
 20
160.0012586405552
  0
LWPOLYLINE
  5
29B
330
296
100
AcDbEntity
  8
DS-V
 62
   250
100
AcDbPolyline
 90
        2
 70
     0
 43
0.0
 10
78.04881047310933
 20
163.8804361569466
 10
78.04881047310933
 20
160.0012586405552
  0
LWPOLYLINE
  5
29C
330
296
100
AcDbEntity
  8
DS-V
 62
   250
100
AcDbPolyline
 90
        2
 70
     0
 43
0.0
 10
78.04881047310933
 20
164.8505750455929
 10
79.74620901869193
 20
164.8505750455929
  0
LWPOLYLINE
  5
29D
330
296
100
AcDbEntity
  8
DS-V
 62
   250
100
AcDbPolyline
 90
        2
 70
     0
 43
0.0
 10
85.5649752932789
 20
159.031808771006
 10
87.26202932931297
 20
159.031808771006
  0
LWPOLYLINE
  5
29E
330
296
100
AcDbEntity
  8
DS-V
 62
   250
100
AcDbPolyline
 90
        2
 70
     0
 43
0.0
 10
74.69948864234944
 20
161.9408473987509
 10
78.04881047310933
 20
161.9408473987509
  0
LWPOLYLINE
  5
29F
330
296
100
AcDbEntity
  8
DS-V
 62
   250
100
AcDbPolyline
 90
        2
 70
     0
 43
0.0
 10
82.65593666553394
 20
161.9408473987509
 10
79.74620901869193
 20
164.8505750455929
  0
LWPOLYLINE
  5
2A0
330
296
100
AcDbEntity
  8
DS-V
 62
   250
100
AcDbPolyline
 90
        2
 70
     0
 43
0.0
 10
82.65593666553394
 20
161.9408473987509
 10
85.5649752932789
 20
159.031808771006
  0
LWPOLYLINE
  5
2A1
330
296
100
AcDbEntity
  8
DS-V
 62
   250
100
AcDbPolyline
 90
        2
 70
     0
 43
0.0
 10
87.26202932931297
 20
161.9408473987509
 10
91.31725122500055
 20
161.9408473987509
  0
ENDBLK
  5
2A2
330
296
100
AcDbEntity
  8
0
100
AcDbBlockEnd
  0
BLOCK
  5
8F9
330
8F8
100
AcDbEntity
  8
0
100
AcDbBlockBegin
  2
*D2
 70
     1
 10
0.0
 20
0.0
 30
0.0
  3
*D2
  1
*D5
  0
LINE
  5
8FB
330
8F8
100
AcDbEntity
  8
KOTY
 62
     0
100
AcDbLine
 10
389.5517081735529
 20
85.08754412059645
 30
0.0
 11
389.5517081735529
 21
76.26098373096305
 31
0.0
  0
LINE
  5
8FC
330
8F8
100
AcDbEntity
  8
KOTY
 62
     0
100
AcDbLine
 10
395.4517081735528
 20
85.08754412059645
 30
0.0
 11
395.4517081735528
 21
76.26098373096305
 31
0.0
  0
LINE
  5
8FD
330
8F8
100
AcDbEntity
  8
KOTY
 62
     0
100
AcDbLine
 10
385.5517081735529
 20
76.44098373096305
 30
0.0
 11
381.5517081735529
 21
76.44098373096305
 31
0.0
  0
LINE
  5
8FE
330
8F8
100
AcDbEntity
  8
KOTY
 62
     0
100
AcDbLine
 10
399.4517081735528
 20
76.44098373096305
 30
0.0
 11
403.4517081735528
 21
76.44098373096305
 31
0.0
  0
SOLID
  5
8FF
330
8F8
100
AcDbEntity
  8
KOTY
 62
     0
100
AcDbTrace
 10
385.5517081735529
 20
75.77431706429638
 30
0.0
 11
385.5517081735529
 21
77.10765039762973
 31
0.0
 12
389.5517081735529
 22
76.44098373096305
 32
0.0
 13
389.5517081735529
 23
76.44098373096305
 33
0.0
  0
SOLID
  5
900
330
8F8
100
AcDbEntity
  8
KOTY
 62
     0
100
AcDbTrace
 10
399.4517081735528
 20
77.10765039762973
 30
0.0
 11
399.4517081735528
 21
75.77431706429638
 31
0.0
 12
395.4517081735528
 22
76.44098373096305
 32
0.0
 13
395.4517081735528
 23
76.44098373096305
 33
0.0
  0
MTEXT
  5
901
330
8F8
100
AcDbEntity
  8
KOTY
 62
     0
100
AcDbMText
 10
392.5017081735529
 20
79.48298373096306
 30
0.0
 40
4.0
 41
0.0
 46
0.0
 71
     5
 72
     1
  1
\A1;6
 73
     1
 44
1.0
  0
POINT
  5
902
330
8F8
100
AcDbEntity
  8
DEFPOINTS
 62
     0
100
AcDbPoint
 10
389.5517081735529
 20
85.15004412059645
 30
0.0
  0
POINT
  5
903
330
8F8
100
AcDbEntity
  8
DEFPOINTS
 62
     0
100
AcDbPoint
 10
395.4517081735528
 20
85.15004412059645
 30
0.0
  0
POINT
  5
904
330
8F8
100
AcDbEntity
  8
DEFPOINTS
 62
     0
100
AcDbPoint
 10
395.4517081735528
 20
76.44098373096305
 30
0.0
  0
ENDBLK
  5
8FA
330
8F8
100
AcDbEntity
  8
0
100
AcDbBlockEnd
  0
BLOCK
  5
906
330
905
100
AcDbEntity
  8
0
100
AcDbBlockBegin
  2
*D3
 70
     1
 10
0.0
 20
0.0
 30
0.0
  3
*D3
  1
*D6
  0
LINE
  5
908
330
905
100
AcDbEntity
  8
KOTY
 62
     0
100
AcDbLine
 10
419.3922481735528
 20
85.10263712059643
 30
0.0
 11
419.3922481735528
 21
76.26098373096305
 31
0.0
  0
LINE
  5
909
330
905
100
AcDbEntity
  8
KOTY
 62
     0
100
AcDbLine
 10
426.192248173553
 20
85.10263712059643
 30
0.0
 11
426.192248173553
 21
76.26098373096305
 31
0.0
  0
LINE
  5
90A
330
905
100
AcDbEntity
  8
KOTY
 62
     0
100
AcDbLine
 10
415.3922481735528
 20
76.44098373096305
 30
0.0
 11
411.3922481735528
 21
76.44098373096305
 31
0.0
  0
LINE
  5
90B
330
905
100
AcDbEntity
  8
KOTY
 62
     0
100
AcDbLine
 10
430.192248173553
 20
76.44098373096305
 30
0.0
 11
434.192248173553
 21
76.44098373096305
 31
0.0
  0
SOLID
  5
90C
330
905
100
AcDbEntity
  8
KOTY
 62
     0
100
AcDbTrace
 10
415.3922481735528
 20
75.77431706429638
 30
0.0
 11
415.3922481735528
 21
77.10765039762973
 31
0.0
 12
419.3922481735528
 22
76.44098373096305
 32
0.0
 13
419.3922481735528
 23
76.44098373096305
 33
0.0
  0
SOLID
  5
90D
330
905
100
AcDbEntity
  8
KOTY
 62
     0
100
AcDbTrace
 10
430.192248173553
 20
77.10765039762973
 30
0.0
 11
430.192248173553
 21
75.77431706429638
 31
0.0
 12
426.192248173553
 22
76.44098373096305
 32
0.0
 13
426.192248173553
 23
76.44098373096305
 33
0.0
  0
MTEXT
  5
90E
330
905
100
AcDbEntity
  8
KOTY
 62
     0
100
AcDbMText
 10
422.7922481735529
 20
79.44098373096305
 30
0.0
 40
4.0
 41
0.0
 46
0.0
 71
     5
 72
     1
  1
\A1;7
 73
     1
 44
1.0
  0
POINT
  5
90F
330
905
100
AcDbEntity
  8
DEFPOINTS
 62
     0
100
AcDbPoint
 10
419.3922481735528
 20
85.16513712059643
 30
0.0
  0
POINT
  5
910
330
905
100
AcDbEntity
  8
DEFPOINTS
 62
     0
100
AcDbPoint
 10
426.192248173553
 20
85.16513712059643
 30
0.0
  0
POINT
  5
911
330
905
100
AcDbEntity
  8
DEFPOINTS
 62
     0
100
AcDbPoint
 10
426.192248173553
 20
76.44098373096305
 30
0.0
  0
ENDBLK
  5
907
330
905
100
AcDbEntity
  8
0
100
AcDbBlockEnd
  0
BLOCK
  5
948
330
947
100
AcDbEntity
  8
0
100
AcDbBlockBegin
  2
*D6
 70
     1
 10
0.0
 20
0.0
 30
0.0
  3
*D6
  1
*D9
  0
LINE
  5
94A
330
947
100
AcDbEntity
  8
KOTY
 62
     0
100
AcDbLine
 10
327.5992968661942
 20
176.2352681646655
 30
0.0
 11
284.3669719553507
 21
176.2352681646655
 31
0.0
  0
LINE
  5
94B
330
947
100
AcDbEntity
  8
KOTY
 62
     0
100
AcDbLine
 10
342.0990147445136
 20
85.15004412059645
 30
0.0
 11
284.3669719553507
 21
85.15004412059645
 31
0.0
  0
LINE
  5
94C
330
947
100
AcDbEntity
  8
KOTY
 62
     0
100
AcDbLine
 10
284.5469719553507
 20
172.2352681646655
 30
0.0
 11
284.5469719553507
 21
89.15004412059645
 31
0.0
  0
SOLID
  5
94D
330
947
100
AcDbEntity
  8
KOTY
 62
     0
100
AcDbTrace
 10
285.2136386220174
 20
172.2352681646655
 30
0.0
 11
283.880305288684
 21
172.2352681646655
 31
0.0
 12
284.5469719553507
 22
176.2352681646655
 32
0.0
 13
284.5469719553507
 23
176.2352681646655
 33
0.0
  0
SOLID
  5
94E
330
947
100
AcDbEntity
  8
KOTY
 62
     0
100
AcDbTrace
 10
283.880305288684
 20
89.15004412059645
 30
0.0
 11
285.2136386220174
 21
89.15004412059645
 31
0.0
 12
284.5469719553507
 22
85.15004412059645
 32
0.0
 13
284.5469719553507
 23
85.15004412059645
 33
0.0
  0
MTEXT
  5
94F
330
947
100
AcDbEntity
  8
KOTY
 62
     0
100
AcDbMText
 10
281.5049719553507
 20
130.692656142631
 30
0.0
 40
4.0
 41
0.0
 46
0.0
 71
     5
 72
     1
  1
\A1;91
 11
0.0
 21
1.0
 31
0.0
 73
     1
 44
1.0
  0
POINT
  5
950
330
947
100
AcDbEntity
  8
DEFPOINTS
 62
     0
100
AcDbPoint
 10
327.6617968661942
 20
176.2352681646655
 30
0.0
  0
POINT
  5
951
330
947
100
AcDbEntity
  8
DEFPOINTS
 62
     0
100
AcDbPoint
 10
342.1615147445136
 20
85.15004412059645
 30
0.0
  0
POINT
  5
952
330
947
100
AcDbEntity
  8
DEFPOINTS
 62
     0
100
AcDbPoint
 10
284.5469719553507
 20
85.15004412059645
 30
0.0
  0
ENDBLK
  5
949
330
947
100
AcDbEntity
  8
0
100
AcDbBlockEnd
  0
BLOCK
  5
978
330
977
100
AcDbEntity
  8
0
100
AcDbBlockBegin
  2
*D9
 70
     1
 10
0.0
 20
0.0
 30
0.0
  3
*D9
  1
*D12
  0
LINE
  5
97A
330
977
100
AcDbEntity
  8
KOTY
 62
     0
100
AcDbLine
 10
294.0373204206071
 20
147.659033905332
 30
0.0
 11
294.0373204206071
 21
189.6981652371337
 31
0.0
  0
LINE
  5
97B
330
977
100
AcDbEntity
  8
KOTY
 62
     0
100
AcDbLine
 10
352.2370410006753
 20
154.545435270798
 30
0.0
 11
352.2370410006753
 21
189.6981652371337
 31
0.0
  0
LINE
  5
97C
330
977
100
AcDbEntity
  8
KOTY
 62
     0
100
AcDbLine
 10
298.0373204206071
 20
189.5181652371337
 30
0.0
 11
348.2370410006753
 21
189.5181652371337
 31
0.0
  0
SOLID
  5
97D
330
977
100
AcDbEntity
  8
KOTY
 62
     0
100
AcDbTrace
 10
298.0373204206071
 20
190.1848319038004
 30
0.0
 11
298.0373204206071
 21
188.851498570467
 31
0.0
 12
294.0373204206071
 22
189.5181652371337
 32
0.0
 13
294.0373204206071
 23
189.5181652371337
 33
0.0
  0
SOLID
  5
97E
330
977
100
AcDbEntity
  8
KOTY
 62
     0
100
AcDbTrace
 10
348.2370410006753
 20
188.851498570467
 30
0.0
 11
348.2370410006753
 21
190.1848319038004
 31
0.0
 12
352.2370410006753
 22
189.5181652371337
 32
0.0
 13
352.2370410006753
 23
189.5181652371337
 33
0.0
  0
MTEXT
  5
97F
330
977
100
AcDbEntity
  8
KOTY
 62
     0
100
AcDbMText
 10
323.1371807106412
 20
192.5601652371337
 30
0.0
 40
4.0
 41
0.0
 46
0.0
 71
     5
 72
     1
  1
\A1;58
 73
     1
 44
1.0
  0
POINT
  5
980
330
977
100
AcDbEntity
  8
DEFPOINTS
 62
     0
100
AcDbPoint
 10
294.0373204206071
 20
147.596533905332
 30
0.0
  0
POINT
  5
981
330
977
100
AcDbEntity
  8
DEFPOINTS
 62
     0
100
AcDbPoint
 10
352.2370410006753
 20
154.482935270798
 30
0.0
  0
POINT
  5
982
330
977
100
AcDbEntity
  8
DEFPOINTS
 62
     0
100
AcDbPoint
 10
352.2370410006753
 20
189.5181652371337
 30
0.0
  0
ENDBLK
  5
979
330
977
100
AcDbEntity
  8
0
100
AcDbBlockEnd
  0
BLOCK
  5
A76
330
A75
100
AcDbEntity
  8
0
100
AcDbBlockBegin
  2
_CLOSEDBLANK
 70
     0
 10
0.0
 20
0.0
 30
0.0
  3
_CLOSEDBLANK
  1
_CLOSEDBLANK
  0
LINE
  5
A78
330
A75
100
AcDbEntity
  8
0
  6
ByBlock
 62
     0
100
AcDbLine
 10
-1.0
 20
0.166667
 30
0.0
 11
0.0
 21
0.0
 31
0.0
  0
LINE
  5
A79
330
A75
100
AcDbEntity
  8
0
  6
ByBlock
 62
     0
100
AcDbLine
 10
0.0
 20
0.0
 30
0.0
 11
-1.0
 21
-0.166667
 31
0.0
  0
LINE
  5
A7A
330
A75
100
AcDbEntity
  8
0
  6
ByBlock
 62
     0
100
AcDbLine
 10
-1.0
 20
0.166667
 30
0.0
 11
-1.0
 21
-0.166667
 31
0.0
  0
ENDBLK
  5
A77
330
A75
100
AcDbEntity
  8
0
100
AcDbBlockEnd
  0
BLOCK
  5
A7C
330
A7B
100
AcDbEntity
  8
0
100
AcDbBlockBegin
  2
_CLOSED
 70
     0
 10
0.0
 20
0.0
 30
0.0
  3
_CLOSED
  1
_CLOSED
  0
LINE
  5
A7E
330
A7B
100
AcDbEntity
  8
0
  6
ByBlock
 62
     0
100
AcDbLine
 10
-1.0
 20
0.166667
 30
0.0
 11
0.0
 21
0.0
 31
0.0
  0
LINE
  5
A7F
330
A7B
100
AcDbEntity
  8
0
  6
ByBlock
 62
     0
100
AcDbLine
 10
0.0
 20
0.0
 30
0.0
 11
-1.0
 21
-0.166667
 31
0.0
  0
LINE
  5
A80
330
A7B
100
AcDbEntity
  8
0
  6
ByBlock
 62
     0
100
AcDbLine
 10
-1.0
 20
0.166667
 30
0.0
 11
-1.0
 21
-0.166667
 31
0.0
  0
LINE
  5
A81
330
A7B
100
AcDbEntity
  8
0
  6
ByBlock
 62
     0
100
AcDbLine
 10
0.0
 20
0.0
 30
0.0
 11
-1.0
 21
0.0
 31
0.0
  0
ENDBLK
  5
A7D
330
A7B
100
AcDbEntity
  8
0
100
AcDbBlockEnd
  0
ENDSEC
  0
SECTION
  2
ENTITIES
  0
SPLINE
  5
53A
330
1F
100
AcDbEntity
  8
OBRYS
100
AcDbSpline
210
0.0
220
0.0
230
1.0
 70
     8
 71
     3
 72
    11
 73
     7
 74
     0
 42
0.000000001
 43
0.0000000001
 40
0.0
 40
0.0
 40
0.0
 40
0.0
 40
1.0
 40
1.0
 40
1.0
 40
2.0
 40
2.0
 40
2.0
 40
2.0
 10
355.2277283914208
 20
121.6181023797086
 30
0.0
 10
355.0337695156011
 20
121.8144728223678
 30
0.0
 10
354.7168207309581
 20
121.8161953701104
 30
0.0
 10
354.5204502882989
 20
121.6220642395167
 30
0.0
 10
354.4887554098347
 20
121.5907138706009
 30
0.0
 10
354.4615391555011
 20
121.5552293871028
 30
0.0
 10
354.439146034847
 20
121.5164720628938
 30
0.0
  0
SPLINE
  5
53D
330
1F
100
AcDbEntity
  8
OBRYS
100
AcDbSpline
210
0.0
220
0.0
230
1.0
 70
     8
 71
     3
 72
     8
 73
     4
 74
     0
 42
0.000000001
 43
0.0000000001
 40
0.0
 40
0.0
 40
0.0
 40
0.0
 40
1.0
 40
1.0
 40
1.0
 40
1.0
 10
356.1909770890966
 20
118.5509338691906
 30
0.0
 10
356.6415955785673
 20
119.3315925061483
 30
0.0
 10
356.51481606471
 20
120.3167175601555
 30
0.0
 10
355.8812630049727
 20
120.9573330656377
 30
0.0
  0
SPLINE
  5
540
330
1F
100
AcDbEntity
  8
OBRYS
100
AcDbSpline
210
0.0
220
0.0
230
1.0
 70
     8
 71
     3
 72
     8
 73
     4
 74
     0
 42
0.000000001
 43
0.0000000001
 40
0.0
 40
0.0
 40
0.0
 40
0.0
 40
1.0
 40
1.0
 40
1.0
 40
1.0
 10
352.7489821897834
 20
128.1503479292908
 30
0.0
 10
353.2002896983511
 20
128.271270780823
 30
0.0
 10
353.5075922156354
 20
128.6886440988612
 30
0.0
 10
353.4893332095637
 20
129.1556267918867
 30
0.0
  0
SPLINE
  5
543
330
1F
100
AcDbEntity
  8
OBRYS
100
AcDbSpline
210
0.0
220
0.0
230
1.0
 70
     8
 71
     3
 72
     8
 73
     4
 74
     0
 42
0.000000001
 43
0.0000000001
 40
0.0
 40
0.0
 40
0.0
 40
0.0
 40
1.0
 40
1.0
 40
1.0
 40
1.0
 10
354.3147780878296
 20
116.4728522724879
 30
0.0
 10
354.8270637864862
 20
116.6099670728008
 30
0.0
 10
355.2639018940158
 20
116.9451748635158
 30
0.0
 10
355.5291742463801
 20
117.4044060916996
 30
0.0
  0
SPLINE
  5
546
330
1F
100
AcDbEntity
  8
OBRYS
100
AcDbSpline
210
0.0
220
0.0
230
1.0
 70
     8
 71
     3
 72
     8
 73
     4
 74
     0
 42
0.000000001
 43
0.0000000001
 40
0.0
 40
0.0
 40
0.0
 40
0.0
 40
1.0
 40
1.0
 40
1.0
 40
1.0
 10
351.7371576457655
 20
145.2230353707691
 30
0.0
 10
352.0592740736364
 20
145.5883877469799
 30
0.0
 10
352.2370410006753
 20
146.0588155354907
 30
0.0
 10
352.2370410006753
 20
146.5459520371051
 30
0.0
  0
SPLINE
  5
549
330
1F
100
AcDbEntity
  8
OBRYS
100
AcDbSpline
210
0.0
220
0.0
230
1.0
 70
     8
 71
     3
 72
     8
 73
     4
 74
     0
 42
0.000000001
 43
0.0000000001
 40
0.0
 40
0.0
 40
0.0
 40
0.0
 40
1.0
 40
1.0
 40
1.0
 40
1.0
 10
353.3026090342631
 20
133.8847093644891
 30
0.0
 10
353.2778043467694
 20
134.5141283096444
 30
0.0
 10
352.9577549761897
 20
135.0951436632316
 30
0.0
 10
352.4392681056596
 20
135.4525723198263
 30
0.0
  0
SPLINE
  5
54C
330
1F
100
AcDbEntity
  8
OBRYS
100
AcDbSpline
210
0.0
220
0.0
230
1.0
 70
     8
 71
     3
 72
     8
 73
     4
 74
     0
 42
0.000000001
 43
0.0000000001
 40
0.0
 40
0.0
 40
0.0
 40
0.0
 40
1.0
 40
1.0
 40
1.0
 40
1.0
 10
350.7370464263976
 20
157.3158372883188
 30
0.0
 10
349.9777473814486
 20
157.3158372883188
 30
0.0
 10
349.2839051507191
 20
156.8857171169855
 30
0.0
 10
348.9459412836162
 20
156.2054830134228
 30
0.0
  0
SPLINE
  5
54F
330
1F
100
AcDbEntity
  8
OBRYS
100
AcDbSpline
210
0.0
220
0.0
230
1.0
 70
     8
 71
     3
 72
     8
 73
     4
 74
     0
 42
0.000000001
 43
0.0000000001
 40
0.0
 40
0.0
 40
0.0
 40
0.0
 40
1.0
 40
1.0
 40
1.0
 40
1.0
 10
352.6676779363315
 20
120.4886278248695
 30
0.0
 10
352.8833409137083
 20
120.9509596389899
 30
0.0
 10
352.8926426715183
 20
121.4832268914611
 30
0.0
 10
352.6931716429224
 20
121.9527934061006
 30
0.0
  0
SPLINE
  5
552
330
1F
100
AcDbEntity
  8
OBRYS
100
AcDbSpline
210
0.0
220
0.0
230
1.0
 70
     8
 71
     3
 72
     8
 73
     4
 74
     0
 42
0.000000001
 43
0.0000000001
 40
0.0
 40
0.0
 40
0.0
 40
0.0
 40
1.0
 40
1.0
 40
1.0
 40
1.0
 10
351.9428298462349
 20
120.8267639467467
 30
0.0
 10
352.0623746595732
 20
121.083595815172
 30
0.0
 10
352.067542302801
 20
121.3791850078066
 30
0.0
 10
351.9566102281759
 20
121.6401509908141
 30
0.0
  0
SPLINE
  5
555
330
1F
100
AcDbEntity
  8
OBRYS
100
AcDbSpline
210
0.0
220
0.0
230
1.0
 70
     8
 71
     3
 72
    11
 73
     7
 74
     0
 42
0.000000001
 43
0.0000000001
 40
0.0
 40
0.0
 40
0.0
 40
0.0
 40
1.0
 40
1.0
 40
1.0
 40
2.0
 40
2.0
 40
2.0
 40
2.0
 10
345.8374316272752
 20
156.2128899687161
 30
0.0
 10
345.8374316272752
 20
155.9367655655734
 30
0.0
 10
346.0610183242679
 20
155.7130066138064
 30
0.0
 10
346.3369704726364
 20
155.7130066138064
 30
0.0
 10
346.3690098606493
 20
155.7130066138064
 30
0.0
 10
346.4003602295651
 20
155.7159349449689
 30
0.0
 10
346.4317105984808
 20
155.721963862068
 30
0.0
  0
SPLINE
  5
557
330
1F
100
AcDbEntity
  8
OBRYS
100
AcDbSpline
210
0.0
220
0.0
230
1.0
 70
     8
 71
     3
 72
     8
 73
     4
 74
     0
 42
0.000000001
 43
0.0000000001
 40
0.0
 40
0.0
 40
0.0
 40
0.0
 40
1.0
 40
1.0
 40
1.0
 40
1.0
 10
346.8371983370947
 20
158.4652933969725
 30
0.0
 10
346.2849495308092
 20
158.4652933969725
 30
0.0
 10
345.8374316272752
 20
158.0176032386643
 30
0.0
 10
345.8374316272752
 20
157.4653544323788
 30
0.0
  0
SPLINE
  5
559
330
1F
100
AcDbEntity
  8
OBRYS
100
AcDbSpline
210
0.0
220
0.0
230
1.0
 70
     8
 71
     3
 72
    11
 73
     7
 74
     0
 42
0.000000001
 43
0.0000000001
 40
0.0
 40
0.0
 40
0.0
 40
0.0
 40
1.0
 40
1.0
 40
1.0
 40
2.0
 40
2.0
 40
2.0
 40
2.0
 10
352.4795757228369
 20
158.4652933969725
 30
0.0
 10
352.6452848156774
 20
158.4652933969725
 30
0.0
 10
352.7796435396021
 20
158.5996521208972
 30
0.0
 10
352.7796435396021
 20
158.7653612137378
 30
0.0
 10
352.7796435396021
 20
158.7827589459383
 30
0.0
 10
352.7779209918596
 20
158.800328932913
 30
0.0
 10
352.7751649154714
 20
158.817382155565
 30
0.0
  0
SPLINE
  5
55B
330
1F
100
AcDbEntity
  8
OBRYS
100
AcDbSpline
210
0.0
220
0.0
230
1.0
 70
     8
 71
     3
 72
     8
 73
     4
 74
     0
 42
0.000000001
 43
0.0000000001
 40
0.0
 40
0.0
 40
0.0
 40
0.0
 40
1.0
 40
1.0
 40
1.0
 40
1.0
 10
352.5574348808035
 20
160.0521043774785
 30
0.0
 10
352.5154047158835
 20
160.2911940041549
 30
0.0
 10
352.3076654581229
 20
160.4653435809342
 30
0.0
 10
352.0647862264128
 20
160.4653435809342
 30
0.0
  0
SPLINE
  5
55D
330
1F
100
AcDbEntity
  8
OBRYS
100
AcDbSpline
210
0.0
220
0.0
230
1.0
 70
     8
 71
     3
 72
    11
 73
     7
 74
     0
 42
0.000000001
 43
0.0000000001
 40
0.0
 40
0.0
 40
0.0
 40
0.0
 40
1.0
 40
1.0
 40
1.0
 40
2.0
 40
2.0
 40
2.0
 40
2.0
 10
346.5002679986374
 20
161.7241814712445
 30
0.0
 10
346.357641045548
 20
161.1907084353537
 30
0.0
 10
346.6739008110939
 20
160.6424214888762
 30
0.0
 10
347.207546101759
 20
160.4994500262383
 30
0.0
 10
347.2919509411478
 20
160.4767123960356
 30
0.0
 10
347.378767347376
 20
160.4653435809342
 30
0.0
 10
347.4662727727014
 20
160.4653435809342
 30
0.0
  0
SPLINE
  5
55F
330
1F
100
AcDbEntity
  8
OBRYS
100
AcDbSpline
210
0.0
220
0.0
230
1.0
 70
     8
 71
     3
 72
     8
 73
     4
 74
     0
 42
0.000000001
 43
0.0000000001
 40
0.0
 40
0.0
 40
0.0
 40
0.0
 40
1.0
 40
1.0
 40
1.0
 40
1.0
 10
348.3303027204021
 20
166.3755771406546
 30
0.0
 10
347.9540982934127
 20
166.3032301354644
 30
0.0
 10
347.6523079289049
 20
166.0224548534165
 30
0.0
 10
347.5530891789297
 20
165.6524515983007
 30
0.0
  0
SPLINE
  5
561
330
1F
100
AcDbEntity
  8
OBRYS
100
AcDbSpline
210
0.0
220
0.0
230
1.0
 70
     8
 71
     3
 72
    11
 73
     7
 74
     0
 42
0.000000001
 43
0.0000000001
 40
0.0
 40
0.0
 40
0.0
 40
0.0
 40
1.0
 40
1.0
 40
1.0
 40
2.0
 40
2.0
 40
2.0
 40
2.0
 10
354.8373990729419
 20
167.0217047989133
 30
0.0
 10
354.8373990729419
 20
167.2980014568303
 30
0.0
 10
354.6134678664006
 20
167.5217604085972
 30
0.0
 10
354.3371712084837
 20
167.5217604085972
 30
0.0
 10
354.3054763300194
 20
167.5217604085972
 30
0.0
 10
354.273781451555
 20
167.5188320774348
 30
0.0
 10
354.2427755921877
 20
167.5128031603356
 30
0.0
  0
SPLINE
  5
563
330
1F
100
AcDbEntity
  8
OBRYS
100
AcDbSpline
210
0.0
220
0.0
230
1.0
 70
     8
 71
     3
 72
     8
 73
     4
 74
     0
 42
0.000000001
 43
0.0000000001
 40
0.0
 40
0.0
 40
0.0
 40
0.0
 40
1.0
 40
1.0
 40
1.0
 40
1.0
 10
354.3371712084837
 20
156.6654032607037
 30
0.0
 10
354.6134678664006
 20
156.6654032607037
 30
0.0
 10
354.8373990729419
 20
156.8891622124706
 30
0.0
 10
354.8373990729419
 20
157.1652866156135
 30
0.0
  0
SPLINE
  5
565
330
1F
100
AcDbEntity
  8
OBRYS
100
AcDbSpline
210
0.0
220
0.0
230
1.0
 70
     8
 71
     3
 72
     8
 73
     4
 74
     0
 42
0.000000001
 43
0.0000000001
 40
0.0
 40
0.0
 40
0.0
 40
0.0
 40
1.0
 40
1.0
 40
1.0
 40
1.0
 10
351.3847243776245
 20
156.6654032607037
 30
0.0
 10
351.3530294991602
 20
156.6654032607037
 30
0.0
 10
351.3213346206959
 20
156.662302674767
 30
0.0
 10
351.2903287613286
 20
156.6564460124421
 30
0.0
  0
SPLINE
  5
568
330
1F
100
AcDbEntity
  8
OBRYS
100
AcDbSpline
210
0.0
220
0.0
230
1.0
 70
     8
 71
     3
 72
    11
 73
     7
 74
     0
 42
0.000000001
 43
0.0000000001
 40
0.0
 40
0.0
 40
0.0
 40
0.0
 40
1.0
 40
1.0
 40
1.0
 40
2.0
 40
2.0
 40
2.0
 40
2.0
 10
345.7206428903253
 20
154.0576382331438
 30
0.0
 10
345.0698643531615
 20
153.9325812670293
 30
0.0
 10
344.6437060416362
 20
153.3035068314226
 30
0.0
 10
344.7687630077507
 20
152.652728294259
 30
0.0
 10
344.8776280250846
 20
152.0875603799037
 30
0.0
 10
345.3716547176695
 20
151.6793165649016
 30
0.0
 10
345.9473301732547
 20
151.6793165649016
 30
0.0
  0
SPLINE
  5
56A
330
1F
100
AcDbEntity
  8
OBRYS
100
AcDbSpline
210
0.0
220
0.0
230
1.0
 70
     8
 71
     3
 72
     8
 73
     4
 74
     0
 42
0.000000001
 43
0.0000000001
 40
0.0
 40
0.0
 40
0.0
 40
0.0
 40
1.0
 40
1.0
 40
1.0
 40
1.0
 10
353.4386903059304
 20
153.2135898392576
 30
0.0
 10
353.4621169552302
 20
153.1260844139323
 30
0.0
 10
353.5413541513909
 20
153.0652784786176
 30
0.0
 10
353.6316156531044
 20
153.0652784786176
 30
0.0
  0
SPLINE
  5
56C
330
1F
100
AcDbEntity
  8
OBRYS
100
AcDbSpline
210
0.0
220
0.0
230
1.0
 70
     8
 71
     3
 72
     8
 73
     4
 74
     0
 42
0.000000001
 43
0.0000000001
 40
0.0
 40
0.0
 40
0.0
 40
0.0
 40
1.0
 40
1.0
 40
1.0
 40
1.0
 10
354.4253656529061
 20
153.0652784786176
 30
0.0
 10
355.4347786300842
 20
153.4213290970183
 30
0.0
 10
356.3814908694309
 20
153.9339593052234
 30
0.0
 10
357.231395925642
 20
154.5843933328385
 30
0.0
  0
SPLINE
  5
56F
330
1F
100
AcDbEntity
  8
OBRYS
100
AcDbSpline
210
0.0
220
0.0
230
1.0
 70
     8
 71
     3
 72
     8
 73
     4
 74
     0
 42
0.000000001
 43
0.0000000001
 40
0.0
 40
0.0
 40
0.0
 40
0.0
 40
1.0
 40
1.0
 40
1.0
 40
1.0
 10
357.231395925642
 20
154.5843933328385
 30
0.0
 10
357.6765022623363
 20
154.9249410215555
 30
0.0
 10
357.9376405001183
 20
155.4534186689929
 30
0.0
 10
357.9376405001183
 20
156.0137634496688
 30
0.0
  0
SPLINE
  5
571
330
1F
100
AcDbEntity
  8
OBRYS
100
AcDbSpline
210
0.0
220
0.0
230
1.0
 70
     8
 71
     3
 72
     8
 73
     4
 74
     0
 42
0.000000001
 43
0.0000000001
 40
0.0
 40
0.0
 40
0.0
 40
0.0
 40
1.0
 40
1.0
 40
1.0
 40
1.0
 10
357.9376405001183
 20
171.1654656485717
 30
0.0
 10
357.9376405001183
 20
171.7177144548573
 30
0.0
 10
357.4897780870357
 20
172.1654046131655
 30
0.0
 10
356.9375292807503
 20
172.1654046131655
 30
0.0
  0
SPLINE
  5
573
330
1F
100
AcDbEntity
  8
OBRYS
100
AcDbSpline
210
0.0
220
0.0
230
1.0
 70
     8
 71
     3
 72
     8
 73
     4
 74
     0
 42
0.000000001
 43
0.0000000001
 40
0.0
 40
0.0
 40
0.0
 40
0.0
 40
1.0
 40
1.0
 40
1.0
 40
1.0
 10
354.7877896979543
 20
172.1654046131655
 30
0.0
 10
354.2903179098843
 20
172.1654046131655
 30
0.0
 10
353.8875862476585
 20
171.7625006961655
 30
0.0
 10
353.8875862476585
 20
171.2653734176441
 30
0.0
  0
SPLINE
  5
57A
330
1F
100
AcDbEntity
  8
OBRYS
100
AcDbSpline
210
0.0
220
0.0
230
1.0
 70
     8
 71
     3
 72
     8
 73
     4
 74
     0
 42
0.000000001
 43
0.0000000001
 40
0.0
 40
0.0
 40
0.0
 40
0.0
 40
1.0
 40
1.0
 40
1.0
 40
1.0
 10
294.5372037755169
 20
133.9153707143079
 30
0.0
 10
294.2612516271485
 20
133.9153707143079
 30
0.0
 10
294.0373204206071
 20
133.691611762541
 30
0.0
 10
294.0373204206071
 20
133.4154873593981
 30
0.0
  0
SPLINE
  5
57B
330
1F
100
AcDbEntity
  8
OBRYS
100
AcDbSpline
210
0.0
220
0.0
230
1.0
 70
     8
 71
     3
 72
     8
 73
     4
 74
     0
 42
0.000000001
 43
0.0000000001
 40
0.0
 40
0.0
 40
0.0
 40
0.0
 40
1.0
 40
1.0
 40
1.0
 40
1.0
 10
351.5280403498109
 20
155.165408686426
 30
0.0
 10
351.496000961798
 20
155.165408686426
 30
0.0
 10
351.4646505928823
 20
155.1623081004892
 30
0.0
 10
351.4333002239665
 20
155.1564514381643
 30
0.0
  0
SPLINE
  5
57E
330
1F
100
AcDbEntity
  8
OBRYS
100
AcDbSpline
210
0.0
220
0.0
230
1.0
 70
     8
 71
     3
 72
     8
 73
     4
 74
     0
 42
0.000000001
 43
0.0000000001
 40
0.0
 40
0.0
 40
0.0
 40
0.0
 40
1.0
 40
1.0
 40
1.0
 40
1.0
 10
351.7371576457655
 20
119.5837734956686
 30
0.0
 10
351.7371576457655
 20
118.7879564385758
 30
0.0
 10
352.0530729017629
 20
118.0252122981415
 30
0.0
 10
352.6160015040529
 20
117.4622836958518
 30
0.0
  0
SPLINE
  5
581
330
1F
100
AcDbEntity
  8
OBRYS
100
AcDbSpline
210
0.0
220
0.0
230
1.0
 70
     8
 71
     3
 72
     8
 73
     4
 74
     0
 42
0.000000001
 43
0.0000000001
 40
0.0
 40
0.0
 40
0.0
 40
0.0
 40
1.0
 40
1.0
 40
1.0
 40
1.0
 10
351.7371576457655
 20
151.3792487481364
 30
0.0
 10
351.7371576457655
 20
151.5449578409768
 30
0.0
 10
351.6031434313893
 20
151.6793165649016
 30
0.0
 10
351.4370898290003
 20
151.6793165649016
 30
0.0
  0
SPLINE
  5
584
330
1F
100
AcDbEntity
  8
OBRYS
100
AcDbSpline
210
0.0
220
0.0
230
1.0
 70
     8
 71
     3
 72
     8
 73
     4
 74
     0
 42
0.000000001
 43
0.0000000001
 40
0.0
 40
0.0
 40
0.0
 40
0.0
 40
1.0
 40
1.0
 40
1.0
 40
1.0
 10
354.7374913038697
 20
85.15004412059645
 30
0.0
 10
355.8419889164408
 20
85.15004412059645
 30
0.0
 10
356.7373692330573
 20
86.04576894676134
 30
0.0
 10
356.7373692330573
 20
87.15026655933245
 30
0.0
  0
SPLINE
  5
585
330
1F
100
AcDbEntity
  8
OBRYS
100
AcDbSpline
210
0.0
220
0.0
230
1.0
 70
     8
 71
     3
 72
     8
 73
     4
 74
     0
 42
0.000000001
 43
0.0000000001
 40
0.0
 40
0.0
 40
0.0
 40
0.0
 40
1.0
 40
1.0
 40
1.0
 40
1.0
 10
356.7373692330573
 20
112.0982700253177
 30
0.0
 10
356.7373692330573
 20
112.8940870824105
 30
0.0
 10
356.4214539770597
 20
113.6568312228448
 30
0.0
 10
355.85852537477
 20
114.2197598251345
 30
0.0
  0
LWPOLYLINE
  5
58A
330
1F
100
AcDbEntity
  8
OBRYS
100
AcDbPolyline
 90
        2
 70
     0
 43
0.0
 10
347.9375618350836
 20
85.15004412059645
 10
347.9375618350836
 20
85.15004412059645
  0
LWPOLYLINE
  5
58B
330
1F
100
AcDbEntity
  8
OBRYS
100
AcDbPolyline
 90
        2
 70
     0
 43
0.0
 10
347.9375618350836
 20
151.6793165649016
 10
347.9375618350836
 20
151.6793165649016
  0
LWPOLYLINE
  5
58C
330
1F
100
AcDbEntity
  8
OBRYS
100
AcDbPolyline
 90
        2
 70
     0
 43
0.0
 10
355.85852537477
 20
114.2197598251345
 10
352.6160015040529
 20
117.4622836958518
  0
LWPOLYLINE
  5
58D
330
1F
100
AcDbEntity
  8
OBRYS
100
AcDbPolyline
 90
        2
 70
     0
 43
0.0
 10
356.7373692330573
 20
87.15026655933245
 10
356.7373692330573
 20
112.0982700253177
  0
LWPOLYLINE
  5
58E
330
1F
100
AcDbEntity
  8
OBRYS
100
AcDbPolyline
 90
        2
 70
     0
 43
0.0
 10
351.4370898290003
 20
151.6793165649016
 10
347.9375618350836
 20
151.6793165649016
  0
LWPOLYLINE
  5
58F
330
1F
100
AcDbEntity
  8
OBRYS
100
AcDbPolyline
 90
        2
 70
     0
 43
0.0
 10
351.7371576457655
 20
119.5837734956686
 10
351.7371576457655
 20
151.3792487481364
  0
LWPOLYLINE
  5
590
330
1F
100
AcDbEntity
  8
OBRYS
100
AcDbPolyline
 90
        2
 70
     0
 43
0.0
 10
354.7374913038697
 20
85.15004412059645
 10
342.1615147445136
 20
85.15004412059645
  0
LWPOLYLINE
  5
591
330
1F
100
AcDbEntity
  8
OBRYS
100
AcDbPolyline
 90
        2
 70
     0
 43
0.0
 10
342.1615147445136
 20
85.15004412059645
 10
337.5371630746628
 20
89.08916629843105
  0
LWPOLYLINE
  5
592
330
1F
100
AcDbEntity
  8
OBRYS
100
AcDbPolyline
 90
        2
 70
     0
 43
0.0
 10
337.5371630746628
 20
94.50003326756445
 10
337.5371630746628
 20
89.08916629843105
  0
LWPOLYLINE
  5
593
330
1F
100
AcDbEntity
  8
OBRYS
100
AcDbPolyline
 90
        2
 70
     0
 43
0.0
 10
327.6617968661942
 20
97.50002241612005
 10
334.5371739261072
 20
97.50002241612005
  0
LWPOLYLINE
  5
594
330
1F
100
AcDbEntity
  8
OBRYS
100
AcDbPolyline
 90
        2
 70
     0
 43
0.0
 10
327.6617968661942
 20
97.50002241612005
 10
323.0371006867947
 20
101.4391445939547
  0
LWPOLYLINE
  5
595
330
1F
100
AcDbEntity
  8
OBRYS
100
AcDbPolyline
 90
        2
 70
     0
 43
0.0
 10
323.0371006867947
 20
106.8503560726366
 10
323.0371006867947
 20
101.4391445939547
  0
LWPOLYLINE
  5
596
330
1F
100
AcDbEntity
  8
OBRYS
100
AcDbPolyline
 90
        2
 70
     0
 43
0.0
 10
313.1620789878747
 20
109.8503452211923
 10
320.0371115382392
 20
109.8503452211923
  0
LWPOLYLINE
  5
597
330
1F
100
AcDbEntity
  8
OBRYS
100
AcDbPolyline
 90
        2
 70
     0
 43
0.0
 10
313.1620789878747
 20
109.8503452211923
 10
308.5373828084752
 20
113.7891228894783
  0
LWPOLYLINE
  5
598
330
1F
100
AcDbEntity
  8
OBRYS
100
AcDbPolyline
 90
        2
 70
     0
 43
0.0
 10
308.5373828084752
 20
119.2003343681603
 10
308.5373828084752
 20
113.7891228894783
  0
LWPOLYLINE
  5
599
330
1F
100
AcDbEntity
  8
OBRYS
100
AcDbPolyline
 90
        2
 70
     0
 43
0.0
 10
298.6620166000066
 20
122.2003235167158
 10
305.5373936599196
 20
122.2003235167158
  0
LWPOLYLINE
  5
59A
330
1F
100
AcDbEntity
  8
OBRYS
100
AcDbPolyline
 90
        2
 70
     0
 43
0.0
 10
298.6620166000066
 20
122.2003235167158
 10
294.0373204206071
 20
126.139101185002
  0
LWPOLYLINE
  5
59B
330
1F
100
AcDbEntity
  8
OBRYS
100
AcDbPolyline
 90
        2
 70
     0
 43
0.0
 10
294.0373204206071
 20
126.139101185002
 10
294.0373204206071
 20
133.4154873593981
  0
LWPOLYLINE
  5
5A9
330
1F
100
AcDbEntity
  8
OBRYS
100
AcDbPolyline
 90
        2
 70
     0
 43
0.0
 10
353.8875862476585
 20
171.2653734176441
 10
353.8875862476585
 20
168.6663933835716
  0
LWPOLYLINE
  5
5AA
330
1F
100
AcDbEntity
  8
OBRYS
100
AcDbPolyline
 90
        2
 70
     0
 43
0.0
 10
354.7877896979543
 20
172.1654046131655
 10
356.9375292807503
 20
172.1654046131655
  0
LWPOLYLINE
  5
5AB
330
1F
100
AcDbEntity
  8
OBRYS
100
AcDbPolyline
 90
        2
 70
     0
 43
0.0
 10
357.9376405001183
 20
171.1654656485717
 10
357.9376405001183
 20
156.0137634496688
  0
LWPOLYLINE
  5
5AC
330
1F
100
AcDbEntity
  8
OBRYS
100
AcDbPolyline
 90
        2
 70
     0
 43
0.0
 10
354.4253656529061
 20
153.0652784786176
 10
353.6316156531044
 20
153.0652784786176
  0
LWPOLYLINE
  5
5AD
330
1F
100
AcDbEntity
  8
OBRYS
100
AcDbPolyline
 90
        2
 70
     0
 43
0.0
 10
353.4386903059304
 20
153.2135898392576
 10
353.3374044986641
 20
153.5922058330866
  0
LWPOLYLINE
  5
5AE
330
1F
100
AcDbEntity
  8
OBRYS
100
AcDbPolyline
 90
        2
 70
     0
 43
0.0
 10
353.3374044986641
 20
153.5922058330866
 10
353.3479341445682
 20
154.3857983504258
  0
LWPOLYLINE
  5
5AF
330
1F
100
AcDbEntity
  8
OBRYS
100
AcDbPolyline
 90
        2
 70
     0
 43
0.0
 10
353.5372200368087
 20
154.3692471197847
 10
353.5372200368087
 20
155.165408686426
  0
LWPOLYLINE
  5
5B0
330
1F
100
AcDbEntity
  8
OBRYS
100
AcDbPolyline
 90
        2
 70
     0
 43
0.0
 10
353.5372200368087
 20
155.165408686426
 10
351.5280403498109
 20
155.165408686426
  0
LWPOLYLINE
  5
5B1
330
1F
100
AcDbEntity
  8
OBRYS
100
AcDbPolyline
 90
        2
 70
     0
 43
0.0
 10
351.4333002239665
 20
155.1564514381643
 10
345.7206428903253
 20
154.0576382331438
  0
LWPOLYLINE
  5
5B2
330
1F
100
AcDbEntity
  8
OBRYS
100
AcDbPolyline
 90
        2
 70
     0
 43
0.0
 10
345.9473301732547
 20
151.6793165649016
 10
347.9375618350836
 20
151.6793165649016
  0
LWPOLYLINE
  5
5B3
330
1F
100
AcDbEntity
  8
OBRYS
100
AcDbPolyline
 90
        2
 70
     0
 43
0.0
 10
351.2903287613286
 20
156.6564460124421
 10
346.4317105984808
 20
155.721963862068
  0
LWPOLYLINE
  5
5B4
330
1F
100
AcDbEntity
  8
OBRYS
100
AcDbPolyline
 90
        2
 70
     0
 43
0.0
 10
354.3371712084837
 20
156.6654032607037
 10
351.3847243776245
 20
156.6654032607037
  0
LWPOLYLINE
  5
5B5
330
1F
100
AcDbEntity
  8
OBRYS
100
AcDbPolyline
 90
        2
 70
     0
 43
0.0
 10
354.8373990729419
 20
167.0217047989133
 10
354.8373990729419
 20
157.1652866156135
  0
LWPOLYLINE
  5
5B6
330
1F
100
AcDbEntity
  8
OBRYS
100
AcDbPolyline
 90
        2
 70
     0
 43
0.0
 10
348.3303027204021
 20
166.3755771406546
 10
354.2427755921877
 20
167.5128031603356
  0
LWPOLYLINE
  5
5B7
330
1F
100
AcDbEntity
  8
OBRYS
100
AcDbPolyline
 90
        2
 70
     0
 43
0.0
 10
346.5002679986374
 20
161.7241814712445
 10
347.5530891789297
 20
165.6524515983007
  0
LWPOLYLINE
  5
5B8
330
1F
100
AcDbEntity
  8
OBRYS
100
AcDbPolyline
 90
        2
 70
     0
 43
0.0
 10
352.0647862264128
 20
160.4653435809342
 10
347.4662727727014
 20
160.4653435809342
  0
LWPOLYLINE
  5
5B9
330
1F
100
AcDbEntity
  8
OBRYS
100
AcDbPolyline
 90
        2
 70
     0
 43
0.0
 10
352.7751649154714
 20
158.817382155565
 10
352.5574348808035
 20
160.0521043774785
  0
LWPOLYLINE
  5
5BA
330
1F
100
AcDbEntity
  8
OBRYS
100
AcDbPolyline
 90
        2
 70
     0
 43
0.0
 10
346.8371983370947
 20
158.4652933969725
 10
352.4795757228369
 20
158.4652933969725
  0
LWPOLYLINE
  5
5BB
330
1F
100
AcDbEntity
  8
OBRYS
100
AcDbPolyline
 90
        2
 70
     0
 43
0.0
 10
345.8374316272752
 20
156.2128899687161
 10
345.8374316272752
 20
157.4653544323788
  0
LWPOLYLINE
  5
5BC
330
1F
100
AcDbEntity
  8
OBRYS
100
AcDbPolyline
 90
        2
 70
     0
 43
0.0
 10
351.9566102281759
 20
121.6401509908141
 10
351.7371576457655
 20
122.1576043326987
  0
LWPOLYLINE
  5
5BD
330
1F
100
AcDbEntity
  8
OBRYS
100
AcDbPolyline
 90
        2
 70
     0
 43
0.0
 10
351.9428298462349
 20
120.8267639467467
 10
351.7371576457655
 20
120.3861362341832
  0
LWPOLYLINE
  5
5BE
330
1F
100
AcDbEntity
  8
OBRYS
100
AcDbPolyline
 90
        2
 70
     0
 43
0.0
 10
351.9593663045641
 20
118.969857480197
 10
351.7850444730105
 20
119.051161733649
  0
LWPOLYLINE
  5
5BF
330
1F
100
AcDbEntity
  8
OBRYS
100
AcDbPolyline
 90
        2
 70
     0
 43
0.0
 10
352.6676779363315
 20
120.4886278248695
 10
351.9593663045641
 20
118.969857480197
  0
LWPOLYLINE
  5
5C0
330
1F
100
AcDbEntity
  8
OBRYS
100
AcDbPolyline
 90
        2
 70
     0
 43
0.0
 10
352.6931716429224
 20
121.9527934061006
 10
351.7371576457655
 20
124.2050245795827
  0
LWPOLYLINE
  5
5C1
330
1F
100
AcDbEntity
  8
OBRYS
100
AcDbPolyline
 90
        2
 70
     0
 43
0.0
 10
352.2370410006753
 20
154.482935270798
 10
352.2370410006753
 20
146.5459520371051
  0
LWPOLYLINE
  5
5C2
330
1F
100
AcDbEntity
  8
OBRYS
100
AcDbPolyline
 90
        2
 70
     0
 43
0.0
 10
348.7371684972101
 20
151.6793165649016
 10
348.7371684972101
 20
154.63779231286
  0
LWPOLYLINE
  5
5C3
330
1F
100
AcDbEntity
  8
OBRYS
100
AcDbPolyline
 90
        2
 70
     0
 43
0.0
 10
350.7370464263976
 20
157.3158372883188
 10
354.8373990729419
 20
157.3158372883188
  0
LWPOLYLINE
  5
5C4
330
1F
100
AcDbEntity
  8
OBRYS
100
AcDbPolyline
 90
        2
 70
     0
 43
0.0
 10
351.7371576457655
 20
135.9364359807298
 10
352.4392681056596
 20
135.4525723198263
  0
LWPOLYLINE
  5
5C5
330
1F
100
AcDbEntity
  8
OBRYS
100
AcDbPolyline
 90
        2
 70
     0
 43
0.0
 10
353.5372200368087
 20
154.3692471197847
 10
352.2370410006753
 20
154.482935270798
  0
LWPOLYLINE
  5
5C6
330
1F
100
AcDbEntity
  8
OBRYS
100
AcDbPolyline
 90
        2
 70
     0
 43
0.0
 10
353.0239008095064
 20
119.0652866251385
 10
354.439146034847
 20
121.5164720628938
  0
LWPOLYLINE
  5
5C7
330
1F
100
AcDbEntity
  8
OBRYS
100
AcDbPolyline
 90
        2
 70
     0
 43
0.0
 10
353.3026090342631
 20
133.8847093644891
 10
353.4893332095637
 20
129.1556267918867
  0
LWPOLYLINE
  5
5C8
330
1F
100
AcDbEntity
  8
OBRYS
100
AcDbPolyline
 90
        2
 70
     0
 43
0.0
 10
352.7489821897834
 20
128.1503479292908
 10
351.7371576457655
 20
127.8792189146017
  0
LWPOLYLINE
  5
5C9
330
1F
100
AcDbEntity
  8
OBRYS
100
AcDbPolyline
 90
        2
 70
     0
 43
0.0
 10
351.827193943294
 20
118.854123309071
 10
353.0239008095064
 20
119.0652866251385
  0
LWPOLYLINE
  5
5CA
330
1F
100
AcDbEntity
  8
OBRYS
100
AcDbPolyline
 90
        2
 70
     0
 43
0.0
 10
355.2277283914208
 20
121.6181023797086
 10
355.8812630049727
 20
120.9573330656377
  0
LWPOLYLINE
  5
5CB
330
1F
100
AcDbEntity
  8
OBRYS
100
AcDbPolyline
 90
        2
 70
     0
 43
0.0
 10
354.3147780878296
 20
116.4728522724879
 10
353.7552945810249
 20
116.322646109331
  0
LWPOLYLINE
  5
5CC
330
1F
100
AcDbEntity
  8
OBRYS
100
AcDbPolyline
 90
        2
 70
     0
 43
0.0
 10
356.1909770890966
 20
118.5509338691906
 10
355.5291742463801
 20
117.4044060916996
  0
LWPOLYLINE
  5
658
330
1F
100
AcDbEntity
  8
OBRYS
  6
AI-LINETYPE-3
100
AcDbPolyline
 90
        2
 70
     0
 43
0.0
 10
347.9375618350836
 20
151.6793165649016
 10
347.9375618350836
 20
85.15004412059645
  0
LWPOLYLINE
  5
668
330
1F
100
AcDbEntity
  8
OBRYS
100
AcDbPolyline
 90
        2
 70
     0
 43
0.0
 10
317.787464186371
 20
162.1679097697448
 10
317.787464186371
 20
114.1963331758349
  0
LWPOLYLINE
  5
669
330
1F
100
AcDbEntity
  8
OBRYS
100
AcDbPolyline
 90
        2
 70
     0
 43
0.0
 10
334.4052267690221
 20
172.037763825437
 10
334.4052267690221
 20
101.7643616077622
  0
LWPOLYLINE
  5
66A
330
1F
100
AcDbEntity
  8
OBRYS
100
AcDbPolyline
 90
        2
 70
     0
 43
0.0
 10
303.7872851534128
 20
150.0102290070851
 10
303.7872851534128
 20
126.1907776172807
  0
HATCH
  5
66B
330
1F
100
AcDbEntity
  8
OBRYS
100
AcDbHatch
 10
0.0
 20
0.0
 30
0.0
210
0.0
220
0.0
230
1.0
  2
SOLID
 70
     1
 71
     0
 91
        1
 92
        1
 93
        1
 72
     4
 94
        3
 73
     0
 74
     1
 95
       17
 96
       13
 40
0.0
 40
0.0
 40
0.0
 40
0.0
 40
1.0
 40
1.0
 40
1.0
 40
2.0
 40
2.0
 40
2.0
 40
3.0
 40
3.0
 40
3.0
 40
4.0
 40
4.0
 40
4.0
 40
4.0
 10
318.2181011220273
 20
133.4197937287547
 10
318.2181011220273
 20
133.1819098854982
 10
318.0251757748533
 20
132.9891567930985
 10
317.787464186371
 20
132.9891567930985
 10
317.5494080883403
 20
132.9891567930985
 10
317.3568272507148
 20
133.1819098854982
 10
317.3568272507148
 20
133.4197937287547
 10
317.3568272507148
 20
133.6576775720112
 10
317.5494080883403
 20
133.8504306644109
 10
317.787464186371
 20
133.8504306644109
 10
318.0251757748533
 20
133.8504306644109
 10
318.2181011220273
 20
133.6576775720112
 10
318.2181011220273
 20
133.4197937287547
 97
        0
 97
        0
 75
     2
 76
     1
 98
        0
  0
HATCH
  5
66C
330
1F
100
AcDbEntity
  8
OBRYS
100
AcDbHatch
 10
0.0
 20
0.0
 30
0.0
210
0.0
220
0.0
230
1.0
  2
SOLID
 70
     1
 71
     0
 91
        1
 92
        1
 93
        1
 72
     4
 94
        3
 73
     0
 74
     1
 95
       17
 96
       13
 40
0.0
 40
0.0
 40
0.0
 40
0.0
 40
1.0
 40
1.0
 40
1.0
 40
2.0
 40
2.0
 40
2.0
 40
3.0
 40
3.0
 40
3.0
 40
4.0
 40
4.0
 40
4.0
 40
4.0
 10
334.8358637046784
 20
133.4277765944028
 10
334.8358637046784
 20
133.1898927511463
 10
334.6429383575044
 20
132.9971396587466
 10
334.4052267690221
 20
132.9971396587466
 10
334.1671706709914
 20
132.9971396587466
 10
333.9745898333659
 20
133.1898927511463
 10
333.9745898333659
 20
133.4277765944028
 10
333.9745898333659
 20
133.6656604376593
 10
334.1671706709914
 20
133.858413530059
 10
334.4052267690221
 20
133.858413530059
 10
334.6429383575044
 20
133.858413530059
 10
334.8358637046784
 20
133.6656604376593
 10
334.8358637046784
 20
133.4277765944028
 97
        0
 97
        0
 75
     2
 76
     1
 98
        0
  0
LWPOLYLINE
  5
66D
330
1F
100
AcDbEntity
  8
OBRYS
100
AcDbPolyline
 90
        2
 70
     0
 43
0.0
 10
317.7082269902103
 20
133.4197937287547
 10
324.0775195233402
 20
133.4197937287547
  0
LWPOLYLINE
  5
66E
330
1F
100
AcDbEntity
  8
OBRYS
100
AcDbPolyline
 90
        2
 70
     0
 43
0.0
 10
326.0174527910845
 20
133.4197937287547
 10
324.0775195233402
 20
135.3593824869503
  0
LWPOLYLINE
  5
66F
330
1F
100
AcDbEntity
  8
OBRYS
100
AcDbPolyline
 90
        2
 70
     0
 43
0.0
 10
324.0775195233402
 20
135.3593824869503
 10
324.0775195233402
 20
131.4798604610106
  0
LWPOLYLINE
  5
670
330
1F
100
AcDbEntity
  8
OBRYS
100
AcDbPolyline
 90
        2
 70
     0
 43
0.0
 10
326.0174527910845
 20
133.4197937287547
 10
324.0775195233402
 20
131.4798604610106
  0
LWPOLYLINE
  5
671
330
1F
100
AcDbEntity
  8
OBRYS
100
AcDbPolyline
 90
        2
 70
     0
 43
0.0
 10
326.0174527910845
 20
133.4197937287547
 10
327.95704154928
 20
135.3593824869503
  0
LWPOLYLINE
  5
672
330
1F
100
AcDbEntity
  8
OBRYS
100
AcDbPolyline
 90
        2
 70
     0
 43
0.0
 10
327.95704154928
 20
135.3593824869503
 10
327.95704154928
 20
131.4798604610106
  0
LWPOLYLINE
  5
673
330
1F
100
AcDbEntity
  8
OBRYS
100
AcDbPolyline
 90
        2
 70
     0
 43
0.0
 10
326.0174527910845
 20
133.4197937287547
 10
327.95704154928
 20
131.4798604610106
  0
LWPOLYLINE
  5
674
330
1F
100
AcDbEntity
  8
OBRYS
100
AcDbPolyline
 90
        2
 70
     0
 43
0.0
 10
326.0174527910845
 20
134.8743130426271
 10
326.0174527910845
 20
131.9649299053337
  0
LWPOLYLINE
  5
675
330
1F
100
AcDbEntity
  8
OBRYS
100
AcDbPolyline
 90
        2
 70
     0
 43
0.0
 10
327.95704154928
 20
133.4197937287547
 10
334.32633408241
 20
133.4197937287547
  0
SPLINE
  5
676
330
1F
100
AcDbEntity
  8
OBRYS
100
AcDbSpline
210
0.0
220
0.0
230
1.0
 70
     8
 71
     3
 72
     8
 73
     4
 74
     0
 42
0.000000001
 43
0.0000000001
 40
0.0
 40
0.0
 40
0.0
 40
0.0
 40
1.0
 40
1.0
 40
1.0
 40
1.0
 10
326.0174527910845
 20
131.9649299053337
 30
0.0
 10
326.0174527910845
 20
131.6969014765813
 30
0.0
 10
326.2344938066551
 20
131.4798604610106
 30
0.0
 10
326.502177725859
 20
131.4798604610106
 30
0.0
  0
SPLINE
  5
677
330
1F
100
AcDbEntity
  8
OBRYS
100
AcDbSpline
210
0.0
220
0.0
230
1.0
 70
     8
 71
     3
 72
     8
 73
     4
 74
     0
 42
0.000000001
 43
0.0000000001
 40
0.0
 40
0.0
 40
0.0
 40
0.0
 40
1.0
 40
1.0
 40
1.0
 40
1.0
 10
326.0174527910845
 20
134.8743130426271
 30
0.0
 10
326.0174527910845
 20
135.1419969618311
 30
0.0
 10
325.8000672659651
 20
135.3593824869503
 30
0.0
 10
325.5323833467612
 20
135.3593824869503
 30
0.0
  0
ARC
  5
69E
330
1F
100
AcDbEntity
  8
OBRYS
100
AcDbCircle
 10
305.5373936599196
 20
119.2003343681603
 30
0.0
 40
2.999989148555587
100
AcDbArc
 50
0.0
 51
90.0
  0
ARC
  5
69F
330
1F
100
AcDbEntity
  8
OBRYS
100
AcDbCircle
 10
320.0371115382392
 20
106.8503560726366
 30
0.0
 40
2.999989148555587
100
AcDbArc
 50
0.0
 51
90.0000000000011
  0
ARC
  5
6A0
330
1F
100
AcDbEntity
  8
OBRYS
100
AcDbCircle
 10
334.5371739261072
 20
94.50003326756445
 30
0.0
 40
2.999989148555587
100
AcDbArc
 50
359.9999999999998
 51
90.0
  0
CIRCLE
  5
6A7
330
1F
100
AcDbEntity
  8
OBRYS
100
AcDbCircle
 10
303.7872851534128
 20
150.173465328299
 30
0.0
 40
2.909555392067748
  0
CIRCLE
  5
6A8
330
1F
100
AcDbEntity
  8
OBRYS
100
AcDbCircle
 10
317.787464186371
 20
162.1679097697448
 30
0.0
 40
2.909555392067748
  0
CIRCLE
  5
6A9
330
1F
100
AcDbEntity
  8
OBRYS
100
AcDbCircle
 10
334.4052267690221
 20
172.037763825437
 30
0.0
 40
2.909555392067748
  0
CIRCLE
  5
6AA
330
1F
100
AcDbEntity
  8
OBRYS
100
AcDbCircle
 10
303.7872851534128
 20
126.1907776172807
 30
0.0
 40
2.909555392067748
  0
CIRCLE
  5
6AB
330
1F
100
AcDbEntity
  8
OBRYS
100
AcDbCircle
 10
317.787464186371
 20
114.1963331758349
 30
0.0
 40
2.909555392067748
  0
CIRCLE
  5
6AC
330
1F
100
AcDbEntity
  8
OBRYS
100
AcDbCircle
 10
334.4052267690221
 20
101.7643616077622
 30
0.0
 40
2.909555392067748
  0
ARC
  5
6B1
330
1F
100
AcDbEntity
  8
OBRYS
100
AcDbCircle
 10
341.1355130145172
 20
174.036458398271
 30
0.0
 40
2.201049551704926
100
AcDbArc
 50
39.52408170480933
 51
87.41498688189867
  0
LINE
  5
6B3
330
1F
100
AcDbEntity
  8
OBRYS
100
AcDbLine
 10
390.0649374674373
 20
131.1140719771299
 30
0.0
 11
393.8764301735528
 21
131.1161521205964
 31
0.0
  0
LINE
  5
6B4
330
1F
100
AcDbEntity
  8
OBRYS
100
AcDbLine
 10
390.0618833282052
 20
130.3134578925111
 30
0.0
 11
393.8769241735529
 21
130.3161521205964
 31
0.0
  0
LINE
  5
6B6
330
1F
100
AcDbEntity
  8
OBRYS
100
AcDbLine
 10
390.3967111735529
 20
131.9151971205964
 30
0.0
 11
389.9517081735528
 21
131.9151971205964
 31
0.0
  0
LINE
  5
6B8
330
1F
100
AcDbEntity
  8
OBRYS
100
AcDbLine
 10
389.9517081735528
 20
129.5151971205964
 30
0.0
 11
390.3967111735529
 21
129.5151971205964
 31
0.0
  0
LINE
  5
6B9
330
1F
100
AcDbEntity
  8
OBRYS
100
AcDbLine
 10
390.1117081735529
 20
131.6151971205964
 30
0.0
 11
389.9517081735528
 21
131.6151971205964
 31
0.0
  0
LINE
  5
6BA
330
1F
100
AcDbEntity
  8
OBRYS
100
AcDbLine
 10
390.111720173553
 20
129.8151971205965
 30
0.0
 11
389.9517081735528
 21
129.8151971205965
 31
0.0
  0
LINE
  5
6BB
330
1F
100
AcDbEntity
  8
OBRYS
100
AcDbLine
 10
390.1117081735529
 20
129.8151971205965
 30
0.0
 11
390.235950173553
 21
129.7932901205965
 31
0.0
  0
LINE
  5
6BC
330
1F
100
AcDbEntity
  8
OBRYS
100
AcDbLine
 10
390.235950173553
 20
131.6371041205964
 30
0.0
 11
390.1117081735529
 21
131.6151971205964
 31
0.0
  0
LINE
  5
6BD
330
1F
100
AcDbEntity
  8
OBRYS
100
AcDbLine
 10
390.1117081735529
 20
129.8151971205965
 30
0.0
 11
390.1117081735529
 21
130.1113251205964
 31
0.0
  0
LINE
  5
6BE
330
1F
100
AcDbEntity
  8
OBRYS
100
AcDbLine
 10
390.1117081735529
 20
131.3190691205965
 30
0.0
 11
390.1117081735529
 21
131.6151971205964
 31
0.0
  0
LINE
  5
6BF
330
1F
100
AcDbEntity
  8
OBRYS
100
AcDbLine
 10
389.9517081735528
 20
132.0860251205964
 30
0.0
 11
389.9517081735528
 21
129.3443691205964
 31
0.0
  0
LINE
  5
6C4
330
1F
100
AcDbEntity
  8
OBRYS
100
AcDbLine
 10
390.0649374674373
 20
118.7640719771299
 30
0.0
 11
393.8764301735528
 21
118.7661521205964
 31
0.0
  0
LINE
  5
6C5
330
1F
100
AcDbEntity
  8
OBRYS
100
AcDbLine
 10
390.0653740650212
 20
117.9640720917405
 30
0.0
 11
393.8769241735529
 21
117.9661521205964
 31
0.0
  0
LINE
  5
6C7
330
1F
100
AcDbEntity
  8
OBRYS
100
AcDbLine
 10
390.1017201735528
 20
156.2199571205964
 30
0.0
 11
389.9517081735528
 21
156.2199571205964
 31
0.0
  0
LINE
  5
6C9
330
1F
100
AcDbEntity
  8
OBRYS
100
AcDbLine
 10
389.9517081735528
 20
154.5199571205964
 30
0.0
 11
390.1017201735528
 21
154.5199571205964
 31
0.0
  0
LINE
  5
6CA
330
1F
100
AcDbEntity
  8
OBRYS
100
AcDbLine
 10
389.9517081735528
 20
154.8199571205964
 30
0.0
 11
390.0963451735529
 21
154.8199571205964
 31
0.0
  0
LINE
  5
6CB
330
1F
100
AcDbEntity
  8
OBRYS
100
AcDbLine
 10
390.0963451735529
 20
155.9199571205965
 30
0.0
 11
389.9517081735528
 21
155.9199571205965
 31
0.0
  0
LINE
  5
6CC
330
1F
100
AcDbEntity
  8
OBRYS
100
AcDbLine
 10
390.1017081735529
 20
154.4699571205964
 30
0.0
 11
390.1017081735529
 21
154.8005101205964
 31
0.0
  0
LINE
  5
6CD
330
1F
100
AcDbEntity
  8
OBRYS
100
AcDbLine
 10
390.1017081735529
 20
155.9394041205964
 30
0.0
 11
390.1017081735529
 21
156.2699571205964
 31
0.0
  0
LINE
  5
6CE
330
1F
100
AcDbEntity
  8
OBRYS
100
AcDbLine
 10
389.9517081735528
 20
156.7408041205964
 30
0.0
 11
389.9517081735528
 21
153.9991101205964
 31
0.0
  0
LINE
  5
6D2
330
1F
100
AcDbEntity
  8
OBRYS
100
AcDbLine
 10
389.9517081735528
 20
92.44984012059643
 30
0.0
 11
390.3967111735529
 21
92.44984012059643
 31
0.0
  0
LINE
  5
6D4
330
1F
100
AcDbEntity
  8
OBRYS
100
AcDbLine
 10
390.3967111735529
 20
94.84984012059644
 30
0.0
 11
389.9517081735528
 21
94.84984012059644
 31
0.0
  0
LINE
  5
6D5
330
1F
100
AcDbEntity
  8
OBRYS
100
AcDbLine
 10
390.1117081735529
 20
94.54984012059643
 30
0.0
 11
389.9517081735528
 21
94.54984012059643
 31
0.0
  0
LINE
  5
6D6
330
1F
100
AcDbEntity
  8
OBRYS
100
AcDbLine
 10
390.111720173553
 20
92.74984012059643
 30
0.0
 11
389.9517081735528
 21
92.74984012059643
 31
0.0
  0
LINE
  5
6D7
330
1F
100
AcDbEntity
  8
OBRYS
100
AcDbLine
 10
390.235950173553
 20
94.57174712059643
 30
0.0
 11
390.1117081735529
 21
94.54984012059643
 31
0.0
  0
LINE
  5
6D8
330
1F
100
AcDbEntity
  8
OBRYS
100
AcDbLine
 10
390.1117081735529
 20
92.74984012059643
 30
0.0
 11
390.235950173553
 21
92.72793212059644
 31
0.0
  0
LINE
  5
6D9
330
1F
100
AcDbEntity
  8
OBRYS
100
AcDbLine
 10
390.1117081735529
 20
92.74984012059643
 30
0.0
 11
390.1117081735529
 21
93.04596812059643
 31
0.0
  0
LINE
  5
6DA
330
1F
100
AcDbEntity
  8
OBRYS
100
AcDbLine
 10
390.1117081735529
 20
94.25371112059644
 30
0.0
 11
390.1117081735529
 21
94.54984012059643
 31
0.0
  0
LINE
  5
6DB
330
1F
100
AcDbEntity
  8
OBRYS
100
AcDbLine
 10
389.9517081735528
 20
95.02048963740927
 30
0.0
 11
389.9517081735528
 21
92.27901112059644
 31
0.0
  0
LINE
  5
6DE
330
1F
100
AcDbEntity
  8
OBRYS
100
AcDbLine
 10
390.0613465824281
 20
106.4155677301086
 30
0.0
 11
393.8761421735529
 21
106.4175521205964
 31
0.0
  0
LINE
  5
6DF
330
1F
100
AcDbEntity
  8
OBRYS
100
AcDbLine
 10
390.0653740650212
 20
105.6154720917406
 30
0.0
 11
393.877211173553
 21
105.6175521205964
 31
0.0
  0
LINE
  5
6E1
330
1F
100
AcDbEntity
  8
OBRYS
100
AcDbLine
 10
389.9517081735528
 20
104.8165971205964
 30
0.0
 11
390.3967111735529
 21
104.8165971205964
 31
0.0
  0
LINE
  5
6E3
330
1F
100
AcDbEntity
  8
OBRYS
100
AcDbLine
 10
390.3967111735529
 20
107.2165971205964
 30
0.0
 11
389.9517081735528
 21
107.2165971205964
 31
0.0
  0
LINE
  5
6E4
330
1F
100
AcDbEntity
  8
OBRYS
100
AcDbLine
 10
390.1117081735529
 20
106.9165971205964
 30
0.0
 11
389.9517081735528
 21
106.9165971205964
 31
0.0
  0
LINE
  5
6E5
330
1F
100
AcDbEntity
  8
OBRYS
100
AcDbLine
 10
390.111720173553
 20
105.1165971205964
 30
0.0
 11
389.9517081735528
 21
105.1165971205964
 31
0.0
  0
LINE
  5
6E6
330
1F
100
AcDbEntity
  8
OBRYS
100
AcDbLine
 10
390.1117081735529
 20
105.1165971205964
 30
0.0
 11
390.235950173553
 21
105.0946901205964
 31
0.0
  0
LINE
  5
6E7
330
1F
100
AcDbEntity
  8
OBRYS
100
AcDbLine
 10
390.235950173553
 20
106.9385041205964
 30
0.0
 11
390.1117081735529
 21
106.9165971205964
 31
0.0
  0
LINE
  5
6E8
330
1F
100
AcDbEntity
  8
OBRYS
100
AcDbLine
 10
390.1117081735529
 20
105.1165971205964
 30
0.0
 11
390.1117081735529
 21
105.4127251205964
 31
0.0
  0
LINE
  5
6E9
330
1F
100
AcDbEntity
  8
OBRYS
100
AcDbLine
 10
390.1117081735529
 20
106.6204691205964
 30
0.0
 11
390.1117081735529
 21
106.9165971205964
 31
0.0
  0
LINE
  5
6EA
330
1F
100
AcDbEntity
  8
OBRYS
100
AcDbLine
 10
389.9517081735528
 20
107.3874251205964
 30
0.0
 11
389.9517081735528
 21
104.6457691205964
 31
0.0
  0
LINE
  5
6EE
330
1F
100
AcDbEntity
  8
OBRYS
100
AcDbLine
 10
390.1017201735528
 20
143.8699571205964
 30
0.0
 11
389.9517081735528
 21
143.8699571205964
 31
0.0
  0
LINE
  5
6F0
330
1F
100
AcDbEntity
  8
OBRYS
100
AcDbLine
 10
389.9517081735528
 20
142.1699571205965
 30
0.0
 11
390.1017201735528
 21
142.1699571205965
 31
0.0
  0
LINE
  5
6F1
330
1F
100
AcDbEntity
  8
OBRYS
100
AcDbLine
 10
389.9517081735528
 20
142.4699571205964
 30
0.0
 11
390.0963451735529
 21
142.4699571205964
 31
0.0
  0
LINE
  5
6F2
330
1F
100
AcDbEntity
  8
OBRYS
100
AcDbLine
 10
390.0963451735529
 20
143.5699571205964
 30
0.0
 11
389.9517081735528
 21
143.5699571205964
 31
0.0
  0
LINE
  5
6F3
330
1F
100
AcDbEntity
  8
OBRYS
100
AcDbLine
 10
390.1017081735529
 20
142.1199571205964
 30
0.0
 11
390.1017081735529
 21
142.4505101205964
 31
0.0
  0
LINE
  5
6F4
330
1F
100
AcDbEntity
  8
OBRYS
100
AcDbLine
 10
390.1017081735529
 20
143.5894041205964
 30
0.0
 11
390.1017081735529
 21
143.9199571205965
 31
0.0
  0
LINE
  5
6F5
330
1F
100
AcDbEntity
  8
OBRYS
100
AcDbLine
 10
389.9517081735528
 20
144.3908041205964
 30
0.0
 11
389.9517081735528
 21
141.6491101205964
 31
0.0
  0
LINE
  5
6F8
330
1F
100
AcDbEntity
  8
OBRYS
100
AcDbLine
 10
390.0649374674373
 20
143.4188319771299
 30
0.0
 11
393.8764871735528
 21
143.4209121205964
 31
0.0
  0
LINE
  5
6F9
330
1F
100
AcDbEntity
  8
OBRYS
100
AcDbLine
 10
390.0618833282052
 20
142.6182178925111
 30
0.0
 11
393.876866173553
 21
142.6209121205964
 31
0.0
  0
LINE
  5
6FA
330
1F
100
AcDbEntity
  8
OBRYS
100
AcDbLine
 10
390.0613465824281
 20
168.1175277301086
 30
0.0
 11
393.8767751735529
 21
168.1195121205964
 31
0.0
  0
LINE
  5
6FB
330
1F
100
AcDbEntity
  8
OBRYS
100
AcDbLine
 10
390.0618833282052
 20
167.3168178925112
 30
0.0
 11
393.876579173553
 21
167.3195121205964
 31
0.0
  0
LINE
  5
6FC
330
1F
100
AcDbEntity
  8
OBRYS
100
AcDbLine
 10
389.7217081735529
 20
134.5176241205965
 30
0.0
 11
389.7217081735529
 21
139.2175301205965
 31
0.0
  0
LINE
  5
6FE
330
1F
100
AcDbEntity
  8
OBRYS
100
AcDbLine
 10
390.3967111735529
 20
119.5651971205964
 30
0.0
 11
389.9517081735528
 21
119.5651971205964
 31
0.0
  0
LINE
  5
700
330
1F
100
AcDbEntity
  8
OBRYS
100
AcDbLine
 10
389.9517081735528
 20
117.1651971205964
 30
0.0
 11
390.3967111735529
 21
117.1651971205964
 31
0.0
  0
LINE
  5
701
330
1F
100
AcDbEntity
  8
OBRYS
100
AcDbLine
 10
390.1117081735529
 20
119.2651971205964
 30
0.0
 11
389.9517081735528
 21
119.2651971205964
 31
0.0
  0
LINE
  5
702
330
1F
100
AcDbEntity
  8
OBRYS
100
AcDbLine
 10
390.111720173553
 20
117.4651971205964
 30
0.0
 11
389.9517081735528
 21
117.4651971205964
 31
0.0
  0
LINE
  5
703
330
1F
100
AcDbEntity
  8
OBRYS
100
AcDbLine
 10
390.235950173553
 20
119.2871041205964
 30
0.0
 11
390.1117081735529
 21
119.2651971205964
 31
0.0
  0
LINE
  5
704
330
1F
100
AcDbEntity
  8
OBRYS
100
AcDbLine
 10
390.1117081735529
 20
117.4651971205964
 30
0.0
 11
390.235950173553
 21
117.4432901205964
 31
0.0
  0
LINE
  5
705
330
1F
100
AcDbEntity
  8
OBRYS
100
AcDbLine
 10
390.1117081735529
 20
117.4651971205964
 30
0.0
 11
390.1117081735529
 21
117.7613251205964
 31
0.0
  0
LINE
  5
706
330
1F
100
AcDbEntity
  8
OBRYS
100
AcDbLine
 10
390.1117081735529
 20
118.9690691205964
 30
0.0
 11
390.1117081735529
 21
119.2651971205964
 31
0.0
  0
LINE
  5
707
330
1F
100
AcDbEntity
  8
OBRYS
100
AcDbLine
 10
389.9517081735528
 20
119.7360251205964
 30
0.0
 11
389.9517081735528
 21
116.9943691205964
 31
0.0
  0
LINE
  5
70A
330
1F
100
AcDbEntity
  8
OBRYS
100
AcDbLine
 10
390.0613465824281
 20
155.7689277301086
 30
0.0
 11
393.8764871735528
 21
155.7709121205964
 31
0.0
  0
LINE
  5
70B
330
1F
100
AcDbEntity
  8
OBRYS
100
AcDbLine
 10
390.0653740650212
 20
154.9688320917405
 30
0.0
 11
393.876866173553
 21
154.9709121205964
 31
0.0
  0
LINE
  5
70D
330
1F
100
AcDbEntity
  8
OBRYS
100
AcDbLine
 10
390.1017201735528
 20
168.5685571205964
 30
0.0
 11
389.9517081735528
 21
168.5685571205964
 31
0.0
  0
LINE
  5
70F
330
1F
100
AcDbEntity
  8
OBRYS
100
AcDbLine
 10
389.9517081735528
 20
166.8685571205964
 30
0.0
 11
390.1017201735528
 21
166.8685571205964
 31
0.0
  0
LINE
  5
710
330
1F
100
AcDbEntity
  8
OBRYS
100
AcDbLine
 10
389.9517081735528
 20
167.1685571205964
 30
0.0
 11
390.0963451735529
 21
167.1685571205964
 31
0.0
  0
LINE
  5
711
330
1F
100
AcDbEntity
  8
OBRYS
100
AcDbLine
 10
390.0963451735529
 20
168.2685571205964
 30
0.0
 11
389.9517081735528
 21
168.2685571205964
 31
0.0
  0
LINE
  5
712
330
1F
100
AcDbEntity
  8
OBRYS
100
AcDbLine
 10
390.1017081735529
 20
166.8185571205964
 30
0.0
 11
390.1017081735529
 21
167.1491101205964
 31
0.0
  0
LINE
  5
713
330
1F
100
AcDbEntity
  8
OBRYS
100
AcDbLine
 10
390.1017081735529
 20
168.2880041205964
 30
0.0
 11
390.1017081735529
 21
168.6185571205964
 31
0.0
  0
LINE
  5
714
330
1F
100
AcDbEntity
  8
OBRYS
100
AcDbLine
 10
389.9517081735528
 20
169.0894041205964
 30
0.0
 11
389.9517081735528
 21
166.3477101205964
 31
0.0
  0
LINE
  5
717
330
1F
100
AcDbEntity
  8
OBRYS
100
AcDbLine
 10
395.4517081735528
 20
94.50004412059643
 30
0.0
 11
394.5517081735529
 21
94.50004412059643
 31
0.0
  0
LINE
  5
718
330
1F
100
AcDbEntity
  8
OBRYS
100
AcDbLine
 10
395.4517081735528
 20
106.8500441205964
 30
0.0
 11
394.5517081735529
 21
106.8500441205964
 31
0.0
  0
LINE
  5
719
330
1F
100
AcDbEntity
  8
OBRYS
100
AcDbLine
 10
395.4517081735528
 20
119.2000441205964
 30
0.0
 11
394.5517081735529
 21
119.2000441205964
 31
0.0
  0
LINE
  5
71A
330
1F
100
AcDbEntity
  8
OBRYS
100
AcDbLine
 10
389.5517081735529
 20
122.2000441205964
 30
0.0
 11
395.4517081735528
 21
122.2000441205964
 31
0.0
  0
LINE
  5
71B
330
1F
100
AcDbEntity
  8
OBRYS
100
AcDbLine
 10
395.4517081735528
 20
176.2351101205965
 30
0.0
 11
389.5517081735529
 21
176.2351101205965
 31
0.0
  0
LINE
  5
71C
330
1F
100
AcDbEntity
  8
OBRYS
100
AcDbLine
 10
389.5517081735529
 20
126.1389121205964
 30
0.0
 11
395.4517081735528
 21
126.1389121205964
 31
0.0
  0
LINE
  5
71D
330
1F
100
AcDbEntity
  8
OBRYS
100
AcDbLine
 10
395.4517081735528
 20
147.5962421205964
 30
0.0
 11
389.5517081735529
 21
147.5962421205964
 31
0.0
  0
LINE
  5
71E
330
1F
100
AcDbEntity
  8
OBRYS
100
AcDbLine
 10
389.5517081735529
 20
109.8500441205964
 30
0.0
 11
395.4517081735528
 21
109.8500441205964
 31
0.0
  0
LINE
  5
71F
330
1F
100
AcDbEntity
  8
OBRYS
100
AcDbLine
 10
389.5517081735529
 20
113.7889121205964
 30
0.0
 11
395.4517081735528
 21
113.7889121205964
 31
0.0
  0
LINE
  5
720
330
1F
100
AcDbEntity
  8
OBRYS
100
AcDbLine
 10
389.5517081735529
 20
97.50004412059644
 30
0.0
 11
395.4517081735528
 21
97.50004412059644
 31
0.0
  0
LINE
  5
721
330
1F
100
AcDbEntity
  8
OBRYS
100
AcDbLine
 10
389.5517081735529
 20
101.4389121205964
 30
0.0
 11
395.4517081735528
 21
101.4389121205964
 31
0.0
  0
LINE
  5
722
330
1F
100
AcDbEntity
  8
OBRYS
100
AcDbLine
 10
389.5517081735529
 20
89.08891212059643
 30
0.0
 11
395.4517081735528
 21
89.08891212059643
 31
0.0
  0
LINE
  5
723
330
1F
100
AcDbEntity
  8
OBRYS
100
AcDbLine
 10
389.5517081735529
 20
85.15004412059645
 30
0.0
 11
395.4517081735528
 21
85.15004412059645
 31
0.0
  0
LINE
  5
724
330
1F
100
AcDbEntity
  8
OBRYS
100
AcDbLine
 10
389.5517081735529
 20
139.5200171205964
 30
0.0
 11
395.4517081735528
 21
139.5200171205964
 31
0.0
  0
LINE
  5
725
330
1F
100
AcDbEntity
  8
OBRYS
100
AcDbLine
 10
389.5517081735529
 20
134.2151371205964
 30
0.0
 11
395.4517081735528
 21
134.2151371205964
 31
0.0
  0
LINE
  5
726
330
1F
100
AcDbEntity
  8
OBRYS
100
AcDbLine
 10
389.5517081735529
 20
139.8199571205964
 30
0.0
 11
395.4517081735528
 21
139.8199571205964
 31
0.0
  0
LINE
  5
727
330
1F
100
AcDbEntity
  8
OBRYS
100
AcDbLine
 10
389.5517081735529
 20
140.3199571205964
 30
0.0
 11
395.4517081735528
 21
140.3199571205964
 31
0.0
  0
LINE
  5
728
330
1F
100
AcDbEntity
  8
OBRYS
100
AcDbLine
 10
389.5517081735529
 20
133.9151971205964
 30
0.0
 11
395.4517081735528
 21
133.9151971205964
 31
0.0
  0
LINE
  5
729
330
1F
100
AcDbEntity
  8
OBRYS
100
AcDbLine
 10
389.5517081735529
 20
133.4151971205964
 30
0.0
 11
395.4517081735528
 21
133.4151971205964
 31
0.0
  0
LINE
  5
72A
330
1F
100
AcDbEntity
  8
OBRYS
100
AcDbLine
 10
394.9517081735528
 20
162.3044241205964
 30
0.0
 11
389.5517081735529
 21
162.3044241205964
 31
0.0
  0
LINE
  5
72B
330
1F
100
AcDbEntity
  8
OBRYS
100
AcDbLine
 10
394.9517081735528
 20
151.1867071205965
 30
0.0
 11
394.9517081735528
 21
149.9544241205964
 31
0.0
  0
LINE
  5
72C
330
1F
100
AcDbEntity
  8
OBRYS
100
AcDbLine
 10
394.9517081735528
 20
149.1769281205964
 30
0.0
 11
394.9517081735528
 21
147.9446461205964
 31
0.0
  0
LINE
  5
72D
330
1F
100
AcDbEntity
  8
OBRYS
100
AcDbLine
 10
394.9517081735528
 20
162.3044241205964
 30
0.0
 11
394.9517081735528
 21
163.5367071205964
 31
0.0
  0
LINE
  5
72E
330
1F
100
AcDbEntity
  8
OBRYS
100
AcDbLine
 10
394.9517081735528
 20
162.5465911205964
 30
0.0
 11
389.5517081735529
 21
162.5465911205964
 31
0.0
  0
LINE
  5
72F
330
1F
100
AcDbEntity
  8
OBRYS
100
AcDbLine
 10
394.9517081735528
 20
163.5367071205964
 30
0.0
 11
389.5517081735529
 21
163.5367071205964
 31
0.0
  0
LINE
  5
730
330
1F
100
AcDbEntity
  8
OBRYS
100
AcDbLine
 10
389.5517081735529
 20
111.4307301205964
 30
0.0
 11
394.9517081735528
 21
111.4307301205964
 31
0.0
  0
LINE
  5
731
330
1F
100
AcDbEntity
  8
OBRYS
100
AcDbLine
 10
394.9517081735528
 20
147.9446461205964
 30
0.0
 11
389.5517081735529
 21
147.9446461205964
 31
0.0
  0
LINE
  5
732
330
1F
100
AcDbEntity
  8
OBRYS
100
AcDbLine
 10
394.9517081735528
 20
110.1984471205964
 30
0.0
 11
394.9517081735528
 21
111.4307301205964
 31
0.0
  0
LINE
  5
733
330
1F
100
AcDbEntity
  8
OBRYS
100
AcDbLine
 10
394.9517081735528
 20
149.9544241205964
 30
0.0
 11
389.5517081735529
 21
149.9544241205964
 31
0.0
  0
LINE
  5
734
330
1F
100
AcDbEntity
  8
OBRYS
100
AcDbLine
 10
394.9517081735528
 20
99.08073012059643
 30
0.0
 11
394.9517081735528
 21
97.84844812059643
 31
0.0
  0
LINE
  5
735
330
1F
100
AcDbEntity
  8
OBRYS
100
AcDbLine
 10
389.5517081735529
 20
101.0905091205964
 30
0.0
 11
394.9517081735528
 21
101.0905091205964
 31
0.0
  0
LINE
  5
736
330
1F
100
AcDbEntity
  8
OBRYS
100
AcDbLine
 10
394.9517081735528
 20
123.7807301205964
 30
0.0
 11
394.9517081735528
 21
122.5484471205964
 31
0.0
  0
LINE
  5
737
330
1F
100
AcDbEntity
  8
OBRYS
100
AcDbLine
 10
394.9517081735528
 20
101.0905091205964
 30
0.0
 11
394.9517081735528
 21
99.85822612059643
 31
0.0
  0
LINE
  5
738
330
1F
100
AcDbEntity
  8
OBRYS
100
AcDbLine
 10
394.9517081735528
 20
125.7905081205964
 30
0.0
 11
394.9517081735528
 21
124.5582261205964
 31
0.0
  0
LINE
  5
739
330
1F
100
AcDbEntity
  8
OBRYS
100
AcDbLine
 10
389.5517081735529
 20
87.50822612059645
 30
0.0
 11
394.9517081735528
 21
87.50822612059645
 31
0.0
  0
LINE
  5
73A
330
1F
100
AcDbEntity
  8
OBRYS
100
AcDbLine
 10
389.5517081735529
 20
86.73073012059643
 30
0.0
 11
394.9517081735528
 21
86.73073012059643
 31
0.0
  0
LINE
  5
73B
330
1F
100
AcDbEntity
  8
OBRYS
100
AcDbLine
 10
389.5517081735529
 20
99.08073012059643
 30
0.0
 11
394.9517081735528
 21
99.08073012059643
 31
0.0
  0
LINE
  5
73C
330
1F
100
AcDbEntity
  8
OBRYS
100
AcDbLine
 10
394.9517081735528
 20
86.73073012059643
 30
0.0
 11
394.9517081735528
 21
85.49844812059644
 31
0.0
  0
LINE
  5
73D
330
1F
100
AcDbEntity
  8
OBRYS
100
AcDbLine
 10
389.5517081735529
 20
88.74050912059643
 30
0.0
 11
394.9517081735528
 21
88.74050912059643
 31
0.0
  0
LINE
  5
73E
330
1F
100
AcDbEntity
  8
OBRYS
100
AcDbLine
 10
394.9517081735528
 20
88.74050912059643
 30
0.0
 11
394.9517081735528
 21
87.50822612059645
 31
0.0
  0
LINE
  5
73F
330
1F
100
AcDbEntity
  8
OBRYS
100
AcDbLine
 10
389.5517081735529
 20
123.7807301205964
 30
0.0
 11
394.9517081735528
 21
123.7807301205964
 31
0.0
  0
LINE
  5
740
330
1F
100
AcDbEntity
  8
OBRYS
100
AcDbLine
 10
389.5517081735529
 20
125.7905081205964
 30
0.0
 11
394.9517081735528
 21
125.7905081205964
 31
0.0
  0
LINE
  5
741
330
1F
100
AcDbEntity
  8
OBRYS
100
AcDbLine
 10
394.9517081735528
 20
160.2946461205964
 30
0.0
 11
394.9517081735528
 21
161.5269281205964
 31
0.0
  0
LINE
  5
742
330
1F
100
AcDbEntity
  8
OBRYS
100
AcDbLine
 10
394.9517081735528
 20
173.8769281205964
 30
0.0
 11
394.9517081735528
 21
172.6446451205964
 31
0.0
  0
LINE
  5
743
330
1F
100
AcDbEntity
  8
OBRYS
100
AcDbLine
 10
394.9517081735528
 20
160.2946461205964
 30
0.0
 11
389.5517081735529
 21
160.2946461205964
 31
0.0
  0
LINE
  5
744
330
1F
100
AcDbEntity
  8
OBRYS
100
AcDbLine
 10
394.9517081735528
 20
112.2082261205964
 30
0.0
 11
394.9517081735528
 21
113.4405081205964
 31
0.0
  0
LINE
  5
745
330
1F
100
AcDbEntity
  8
OBRYS
100
AcDbLine
 10
394.9517081735528
 20
151.1867071205965
 30
0.0
 11
389.5517081735529
 21
151.1867071205965
 31
0.0
  0
LINE
  5
746
330
1F
100
AcDbEntity
  8
OBRYS
100
AcDbLine
 10
394.9517081735528
 20
175.8867061205964
 30
0.0
 11
394.9517081735528
 21
174.6544241205964
 31
0.0
  0
LINE
  5
747
330
1F
100
AcDbEntity
  8
OBRYS
100
AcDbLine
 10
389.5517081735529
 20
113.4405081205964
 30
0.0
 11
394.9517081735528
 21
113.4405081205964
 31
0.0
  0
LINE
  5
748
330
1F
100
AcDbEntity
  8
OBRYS
100
AcDbLine
 10
394.9517081735528
 20
149.1769281205964
 30
0.0
 11
389.5517081735529
 21
149.1769281205964
 31
0.0
  0
LINE
  5
749
330
1F
100
AcDbEntity
  8
OBRYS
100
AcDbLine
 10
394.9517081735528
 20
150.1965911205965
 30
0.0
 11
389.5517081735529
 21
150.1965911205965
 31
0.0
  0
LINE
  5
74A
330
1F
100
AcDbEntity
  8
OBRYS
100
AcDbLine
 10
394.9517081735528
 20
148.1868131205964
 30
0.0
 11
389.5517081735529
 21
148.1868131205964
 31
0.0
  0
LINE
  5
74B
330
1F
100
AcDbEntity
  8
OBRYS
100
AcDbLine
 10
389.5517081735529
 20
88.49834212059645
 30
0.0
 11
394.9517081735528
 21
88.49834212059645
 31
0.0
  0
LINE
  5
74C
330
1F
100
AcDbEntity
  8
OBRYS
100
AcDbLine
 10
389.5517081735529
 20
113.1983411205964
 30
0.0
 11
394.9517081735528
 21
113.1983411205964
 31
0.0
  0
LINE
  5
74D
330
1F
100
AcDbEntity
  8
OBRYS
100
AcDbLine
 10
389.5517081735529
 20
112.2082261205964
 30
0.0
 11
394.9517081735528
 21
112.2082261205964
 31
0.0
  0
LINE
  5
74E
330
1F
100
AcDbEntity
  8
OBRYS
100
AcDbLine
 10
394.9517081735528
 20
173.8769281205964
 30
0.0
 11
389.5517081735529
 21
173.8769281205964
 31
0.0
  0
LINE
  5
74F
330
1F
100
AcDbEntity
  8
OBRYS
100
AcDbLine
 10
389.5517081735529
 20
100.8483421205964
 30
0.0
 11
394.9517081735528
 21
100.8483421205964
 31
0.0
  0
LINE
  5
750
330
1F
100
AcDbEntity
  8
OBRYS
100
AcDbLine
 10
389.5517081735529
 20
99.85822612059643
 30
0.0
 11
394.9517081735528
 21
99.85822612059643
 31
0.0
  0
LINE
  5
751
330
1F
100
AcDbEntity
  8
OBRYS
100
AcDbLine
 10
389.5517081735529
 20
123.5385631205964
 30
0.0
 11
394.9517081735528
 21
123.5385631205964
 31
0.0
  0
LINE
  5
752
330
1F
100
AcDbEntity
  8
OBRYS
100
AcDbLine
 10
389.5517081735529
 20
122.5484471205964
 30
0.0
 11
394.9517081735528
 21
122.5484471205964
 31
0.0
  0
LINE
  5
753
330
1F
100
AcDbEntity
  8
OBRYS
100
AcDbLine
 10
389.5517081735529
 20
86.48856312059644
 30
0.0
 11
394.9517081735528
 21
86.48856312059644
 31
0.0
  0
LINE
  5
754
330
1F
100
AcDbEntity
  8
OBRYS
100
AcDbLine
 10
389.5517081735529
 20
85.49844812059644
 30
0.0
 11
394.9517081735528
 21
85.49844812059644
 31
0.0
  0
LINE
  5
755
330
1F
100
AcDbEntity
  8
OBRYS
100
AcDbLine
 10
394.9517081735528
 20
172.6446451205964
 30
0.0
 11
389.5517081735529
 21
172.6446451205964
 31
0.0
  0
LINE
  5
756
330
1F
100
AcDbEntity
  8
OBRYS
100
AcDbLine
 10
394.9517081735528
 20
172.8868121205965
 30
0.0
 11
389.5517081735529
 21
172.8868121205965
 31
0.0
  0
LINE
  5
757
330
1F
100
AcDbEntity
  8
OBRYS
100
AcDbLine
 10
389.5517081735529
 20
125.5483411205964
 30
0.0
 11
394.9517081735528
 21
125.5483411205964
 31
0.0
  0
LINE
  5
758
330
1F
100
AcDbEntity
  8
OBRYS
100
AcDbLine
 10
389.5517081735529
 20
124.5582261205964
 30
0.0
 11
394.9517081735528
 21
124.5582261205964
 31
0.0
  0
LINE
  5
759
330
1F
100
AcDbEntity
  8
OBRYS
100
AcDbLine
 10
389.5517081735529
 20
111.1885631205964
 30
0.0
 11
394.9517081735528
 21
111.1885631205964
 31
0.0
  0
LINE
  5
75A
330
1F
100
AcDbEntity
  8
OBRYS
100
AcDbLine
 10
389.5517081735529
 20
110.1984471205964
 30
0.0
 11
394.9517081735528
 21
110.1984471205964
 31
0.0
  0
LINE
  5
75B
330
1F
100
AcDbEntity
  8
OBRYS
100
AcDbLine
 10
394.9517081735528
 20
174.6544241205964
 30
0.0
 11
389.5517081735529
 21
174.6544241205964
 31
0.0
  0
LINE
  5
75C
330
1F
100
AcDbEntity
  8
OBRYS
100
AcDbLine
 10
394.9517081735528
 20
174.8965911205964
 30
0.0
 11
389.5517081735529
 21
174.8965911205964
 31
0.0
  0
LINE
  5
75D
330
1F
100
AcDbEntity
  8
OBRYS
100
AcDbLine
 10
394.9517081735528
 20
175.8867061205964
 30
0.0
 11
389.5517081735529
 21
175.8867061205964
 31
0.0
  0
LINE
  5
75E
330
1F
100
AcDbEntity
  8
OBRYS
100
AcDbLine
 10
394.9517081735528
 20
160.5368131205964
 30
0.0
 11
389.5517081735529
 21
160.5368131205964
 31
0.0
  0
LINE
  5
75F
330
1F
100
AcDbEntity
  8
OBRYS
100
AcDbLine
 10
394.9517081735528
 20
161.5269281205964
 30
0.0
 11
389.5517081735529
 21
161.5269281205964
 31
0.0
  0
LINE
  5
760
330
1F
100
AcDbEntity
  8
OBRYS
100
AcDbLine
 10
389.5517081735529
 20
98.83856312059643
 30
0.0
 11
394.9517081735528
 21
98.83856312059643
 31
0.0
  0
LINE
  5
761
330
1F
100
AcDbEntity
  8
OBRYS
100
AcDbLine
 10
389.5517081735529
 20
97.84844812059643
 30
0.0
 11
394.9517081735528
 21
97.84844812059643
 31
0.0
  0
LINE
  5
762
330
1F
100
AcDbEntity
  8
OBRYS
100
AcDbLine
 10
394.5517081735529
 20
122.2000441205964
 30
0.0
 11
394.5517081735529
 21
119.2000441205964
 31
0.0
  0
LINE
  5
763
330
1F
100
AcDbEntity
  8
OBRYS
100
AcDbLine
 10
394.5517081735529
 20
97.50004412059644
 30
0.0
 11
394.5517081735529
 21
94.50004412059643
 31
0.0
  0
LINE
  5
764
330
1F
100
AcDbEntity
  8
OBRYS
100
AcDbLine
 10
394.5517081735529
 20
109.8500441205964
 30
0.0
 11
394.5517081735529
 21
106.8500441205964
 31
0.0
  0
LINE
  5
765
330
1F
100
AcDbEntity
  8
OBRYS
100
AcDbLine
 10
394.5517081735529
 20
172.2962421205964
 30
0.0
 11
394.5517081735529
 21
163.8851101205964
 31
0.0
  0
LINE
  5
766
330
1F
100
AcDbEntity
  8
OBRYS
100
AcDbLine
 10
394.5517081735529
 20
172.2962421205964
 30
0.0
 11
389.5517081735529
 21
172.2962421205964
 31
0.0
  0
LINE
  5
767
330
1F
100
AcDbEntity
  8
OBRYS
100
AcDbLine
 10
394.5517081735529
 20
159.9462421205964
 30
0.0
 11
394.5517081735529
 21
151.5351101205964
 31
0.0
  0
LINE
  5
768
330
1F
100
AcDbEntity
  8
OBRYS
100
AcDbLine
 10
394.5517081735529
 20
159.9462421205964
 30
0.0
 11
389.5517081735529
 21
159.9462421205964
 31
0.0
  0
LINE
  5
769
330
1F
100
AcDbEntity
  8
OBRYS
100
AcDbLine
 10
394.5517081735529
 20
163.8851101205964
 30
0.0
 11
389.5517081735529
 21
163.8851101205964
 31
0.0
  0
LINE
  5
76A
330
1F
100
AcDbEntity
  8
OBRYS
100
AcDbLine
 10
394.5517081735529
 20
151.5351101205964
 30
0.0
 11
389.5517081735529
 21
151.5351101205964
 31
0.0
  0
LINE
  5
76B
330
1F
100
AcDbEntity
  8
OBRYS
100
AcDbLine
 10
392.1217081735529
 20
116.5651371205964
 30
0.0
 11
389.5517081735529
 21
116.5651371205964
 31
0.0
  0
LINE
  5
76C
330
1F
100
AcDbEntity
  8
OBRYS
100
AcDbLine
 10
392.1217081735529
 20
120.1651371205964
 30
0.0
 11
389.5517081735529
 21
120.1651371205964
 31
0.0
  0
LINE
  5
76D
330
1F
100
AcDbEntity
  8
OBRYS
100
AcDbLine
 10
389.5517081735529
 20
165.9200171205964
 30
0.0
 11
392.1217081735529
 21
165.9200171205964
 31
0.0
  0
LINE
  5
76E
330
1F
100
AcDbEntity
  8
OBRYS
100
AcDbLine
 10
392.1217081735529
 20
107.8151371205964
 30
0.0
 11
389.5517081735529
 21
107.8151371205964
 31
0.0
  0
LINE
  5
76F
330
1F
100
AcDbEntity
  8
OBRYS
100
AcDbLine
 10
392.1217081735529
 20
91.86513712059643
 30
0.0
 11
389.5517081735529
 21
91.86513712059643
 31
0.0
  0
LINE
  5
770
330
1F
100
AcDbEntity
  8
OBRYS
100
AcDbLine
 10
389.5517081735529
 20
157.1700171205964
 30
0.0
 11
392.1217081735529
 21
157.1700171205964
 31
0.0
  0
LINE
  5
771
330
1F
100
AcDbEntity
  8
OBRYS
100
AcDbLine
 10
392.1217081735529
 20
128.9151371205964
 30
0.0
 11
389.5517081735529
 21
128.9151371205964
 31
0.0
  0
LINE
  5
772
330
1F
100
AcDbEntity
  8
OBRYS
100
AcDbLine
 10
392.1217081735529
 20
95.46513712059644
 30
0.0
 11
389.5517081735529
 21
95.46513712059644
 31
0.0
  0
LINE
  5
773
330
1F
100
AcDbEntity
  8
OBRYS
100
AcDbLine
 10
392.1217081735529
 20
139.2175771205964
 30
0.0
 11
389.5517081735529
 21
139.2175771205964
 31
0.0
  0
LINE
  5
774
330
1F
100
AcDbEntity
  8
OBRYS
100
AcDbLine
 10
389.5517081735529
 20
169.5200171205964
 30
0.0
 11
392.1217081735529
 21
169.5200171205964
 31
0.0
  0
LINE
  5
775
330
1F
100
AcDbEntity
  8
OBRYS
100
AcDbLine
 10
389.5517081735529
 20
153.5700171205964
 30
0.0
 11
392.1217081735529
 21
153.5700171205964
 31
0.0
  0
LINE
  5
776
330
1F
100
AcDbEntity
  8
OBRYS
100
AcDbLine
 10
389.5517081735529
 20
144.8200171205964
 30
0.0
 11
392.1217081735529
 21
144.8200171205964
 31
0.0
  0
LINE
  5
777
330
1F
100
AcDbEntity
  8
OBRYS
100
AcDbLine
 10
389.5517081735529
 20
141.2200171205964
 30
0.0
 11
392.1217081735529
 21
141.2200171205964
 31
0.0
  0
LINE
  5
778
330
1F
100
AcDbEntity
  8
OBRYS
100
AcDbLine
 10
392.1217081735529
 20
104.2151371205965
 30
0.0
 11
389.5517081735529
 21
104.2151371205965
 31
0.0
  0
LINE
  5
779
330
1F
100
AcDbEntity
  8
OBRYS
100
AcDbLine
 10
392.1217081735529
 20
132.5151371205964
 30
0.0
 11
389.5517081735529
 21
132.5151371205964
 31
0.0
  0
LINE
  5
77A
330
1F
100
AcDbEntity
  8
OBRYS
100
AcDbLine
 10
389.5517081735529
 20
134.5175771205964
 30
0.0
 11
392.1217081735529
 21
134.5175771205964
 31
0.0
  0
LINE
  5
77B
330
1F
100
AcDbEntity
  8
OBRYS
100
AcDbLine
 10
390.3985361735529
 20
168.9178591205964
 30
0.0
 11
389.5517081735529
 21
169.2429261205965
 31
0.0
  0
LINE
  5
77C
330
1F
100
AcDbEntity
  8
OBRYS
100
AcDbLine
 10
389.5517081735529
 20
141.4955881205964
 30
0.0
 11
390.3985361735529
 21
141.8206551205964
 31
0.0
  0
LINE
  5
77D
330
1F
100
AcDbEntity
  8
OBRYS
100
AcDbLine
 10
390.3985361735529
 20
131.9144991205964
 30
0.0
 11
389.5517081735529
 21
132.2395661205964
 31
0.0
  0
LINE
  5
77E
330
1F
100
AcDbEntity
  8
OBRYS
100
AcDbLine
 10
389.5517081735529
 20
104.4922281205964
 30
0.0
 11
390.3985361735529
 21
104.8172951205964
 31
0.0
  0
LINE
  5
77F
330
1F
100
AcDbEntity
  8
OBRYS
100
AcDbLine
 10
389.5517081735529
 20
92.12547112059643
 30
0.0
 11
390.3985361735529
 21
92.45053812059643
 31
0.0
  0
LINE
  5
780
330
1F
100
AcDbEntity
  8
OBRYS
100
AcDbLine
 10
389.5517081735529
 20
116.8408281205964
 30
0.0
 11
390.3985361735529
 21
117.1658951205964
 31
0.0
  0
LINE
  5
781
330
1F
100
AcDbEntity
  8
OBRYS
100
AcDbLine
 10
390.3985361735529
 20
156.5692591205964
 30
0.0
 11
389.5517081735529
 21
156.8943261205964
 31
0.0
  0
LINE
  5
782
330
1F
100
AcDbEntity
  8
OBRYS
100
AcDbLine
 10
390.3985361735529
 20
129.5158951205964
 30
0.0
 11
389.5517081735529
 21
129.1908281205964
 31
0.0
  0
LINE
  5
783
330
1F
100
AcDbEntity
  8
OBRYS
100
AcDbLine
 10
389.5517081735529
 20
144.5443261205965
 30
0.0
 11
390.3985361735529
 21
144.2192591205964
 31
0.0
  0
LINE
  5
784
330
1F
100
AcDbEntity
  8
OBRYS
100
AcDbLine
 10
390.3985361735529
 20
94.84914212059644
 30
0.0
 11
389.5517081735529
 21
95.17420912059643
 31
0.0
  0
LINE
  5
785
330
1F
100
AcDbEntity
  8
OBRYS
100
AcDbLine
 10
390.3985361735529
 20
119.5644991205964
 30
0.0
 11
389.5517081735529
 21
119.8895661205964
 31
0.0
  0
LINE
  5
786
330
1F
100
AcDbEntity
  8
OBRYS
100
AcDbLine
 10
390.3985361735529
 20
107.2158991205964
 30
0.0
 11
389.5517081735529
 21
107.5409661205964
 31
0.0
  0
LINE
  5
787
330
1F
100
AcDbEntity
  8
OBRYS
100
AcDbLine
 10
389.5517081735529
 20
153.8455881205964
 30
0.0
 11
390.3985361735529
 21
154.1706551205965
 31
0.0
  0
LINE
  5
788
330
1F
100
AcDbEntity
  8
OBRYS
100
AcDbLine
 10
389.5517081735529
 20
166.1941881205964
 30
0.0
 11
390.3985361735529
 21
166.5192551205964
 31
0.0
  0
LINE
  5
789
330
1F
100
AcDbEntity
  8
OBRYS
100
AcDbLine
 10
389.7217241735528
 20
139.1200171205964
 30
0.0
 11
389.5517081735529
 21
139.1200171205964
 31
0.0
  0
LINE
  5
78A
330
1F
100
AcDbEntity
  8
OBRYS
100
AcDbLine
 10
389.5517081735529
 20
134.6151371205964
 30
0.0
 11
389.7217241735528
 21
134.6151371205964
 31
0.0
  0
LINE
  5
78B
330
1F
100
AcDbEntity
  8
OBRYS
100
AcDbLine
 10
389.5517081735529
 20
85.15004412059645
 30
0.0
 11
389.5517081735529
 21
134.6151371205964
 31
0.0
  0
LINE
  5
78C
330
1F
100
AcDbEntity
  8
OBRYS
100
AcDbLine
 10
389.5517081735529
 20
139.1200171205964
 30
0.0
 11
389.5517081735529
 21
176.2351101205965
 31
0.0
  0
LINE
  5
78D
330
1F
100
AcDbEntity
  8
OBRYS
100
AcDbLine
 10
395.4517081735528
 20
85.15004412059645
 30
0.0
 11
395.4517081735528
 21
176.2351101205965
 31
0.0
  0
LINE
  5
78E
330
1F
100
AcDbEntity
  8
OBRYS
100
AcDbLine
 10
420.8054774674374
 20
131.1140719771299
 30
0.0
 11
424.6169701735529
 21
131.1161521205964
 31
0.0
  0
LINE
  5
78F
330
1F
100
AcDbEntity
  8
OBRYS
100
AcDbLine
 10
420.8024233282051
 20
130.3134578925111
 30
0.0
 11
424.6174651735529
 21
130.3161521205964
 31
0.0
  0
LINE
  5
790
330
1F
100
AcDbEntity
  8
OBRYS
100
AcDbLine
 10
420.692248173553
 20
131.9151971205964
 30
0.0
 11
420.692248173553
 21
132.0860251205964
 31
0.0
  0
LINE
  5
791
330
1F
100
AcDbEntity
  8
OBRYS
100
AcDbLine
 10
421.1372521735529
 20
131.9151971205964
 30
0.0
 11
420.692248173553
 21
131.9151971205964
 31
0.0
  0
LINE
  5
792
330
1F
100
AcDbEntity
  8
OBRYS
100
AcDbLine
 10
420.692248173553
 20
129.3443691205964
 30
0.0
 11
420.692248173553
 21
129.5151971205964
 31
0.0
  0
LINE
  5
793
330
1F
100
AcDbEntity
  8
OBRYS
100
AcDbLine
 10
420.692248173553
 20
129.5151971205964
 30
0.0
 11
421.1372521735529
 21
129.5151971205964
 31
0.0
  0
LINE
  5
794
330
1F
100
AcDbEntity
  8
OBRYS
100
AcDbLine
 10
420.8522481735529
 20
131.6151971205964
 30
0.0
 11
420.692248173553
 21
131.6151971205964
 31
0.0
  0
LINE
  5
795
330
1F
100
AcDbEntity
  8
OBRYS
100
AcDbLine
 10
420.8522611735528
 20
129.8151971205965
 30
0.0
 11
420.692248173553
 21
129.8151971205965
 31
0.0
  0
LINE
  5
796
330
1F
100
AcDbEntity
  8
OBRYS
100
AcDbLine
 10
420.8522481735529
 20
129.8151971205965
 30
0.0
 11
420.9764901735529
 21
129.7932901205965
 31
0.0
  0
LINE
  5
797
330
1F
100
AcDbEntity
  8
OBRYS
100
AcDbLine
 10
420.9764901735529
 20
131.6371041205964
 30
0.0
 11
420.8522481735529
 21
131.6151971205964
 31
0.0
  0
LINE
  5
798
330
1F
100
AcDbEntity
  8
OBRYS
100
AcDbLine
 10
420.8522481735529
 20
129.8151971205965
 30
0.0
 11
420.8522481735529
 21
130.1113251205964
 31
0.0
  0
LINE
  5
799
330
1F
100
AcDbEntity
  8
OBRYS
100
AcDbLine
 10
420.8522481735529
 20
131.3190691205965
 30
0.0
 11
420.8522481735529
 21
131.6151971205964
 31
0.0
  0
LINE
  5
79A
330
1F
100
AcDbEntity
  8
OBRYS
100
AcDbLine
 10
420.692248173553
 20
131.6151971205964
 30
0.0
 11
420.692248173553
 21
129.8151971205965
 31
0.0
  0
LINE
  5
79B
330
1F
100
AcDbEntity
  8
OBRYS
100
AcDbLine
 10
420.692248173553
 20
131.9151971205964
 30
0.0
 11
420.692248173553
 21
131.6151971205964
 31
0.0
  0
LINE
  5
79C
330
1F
100
AcDbEntity
  8
OBRYS
100
AcDbLine
 10
420.692248173553
 20
129.8151971205965
 30
0.0
 11
420.692248173553
 21
129.5151971205964
 31
0.0
  0
LINE
  5
79F
330
1F
100
AcDbEntity
  8
OBRYS
100
AcDbLine
 10
420.8054774674374
 20
118.7640719771299
 30
0.0
 11
424.6169701735529
 21
118.7661521205964
 31
0.0
  0
LINE
  5
7A0
330
1F
100
AcDbEntity
  8
OBRYS
100
AcDbLine
 10
420.8059140650211
 20
117.9640720917405
 30
0.0
 11
424.6174651735529
 21
117.9661521205964
 31
0.0
  0
LINE
  5
7A1
330
1F
100
AcDbEntity
  8
OBRYS
100
AcDbLine
 10
420.692248173553
 20
156.2199571205964
 30
0.0
 11
420.692248173553
 21
156.7408041205964
 31
0.0
  0
LINE
  5
7A2
330
1F
100
AcDbEntity
  8
OBRYS
100
AcDbLine
 10
420.8422611735529
 20
156.2199571205964
 30
0.0
 11
420.692248173553
 21
156.2199571205964
 31
0.0
  0
LINE
  5
7A3
330
1F
100
AcDbEntity
  8
OBRYS
100
AcDbLine
 10
420.692248173553
 20
153.9991101205964
 30
0.0
 11
420.692248173553
 21
154.5199571205964
 31
0.0
  0
LINE
  5
7A4
330
1F
100
AcDbEntity
  8
OBRYS
100
AcDbLine
 10
420.692248173553
 20
154.5199571205964
 30
0.0
 11
420.8422611735529
 21
154.5199571205964
 31
0.0
  0
LINE
  5
7A5
330
1F
100
AcDbEntity
  8
OBRYS
100
AcDbLine
 10
420.692248173553
 20
154.8199571205964
 30
0.0
 11
420.8368861735528
 21
154.8199571205964
 31
0.0
  0
LINE
  5
7A6
330
1F
100
AcDbEntity
  8
OBRYS
100
AcDbLine
 10
420.8368861735528
 20
155.9199571205965
 30
0.0
 11
420.692248173553
 21
155.9199571205965
 31
0.0
  0
LINE
  5
7A7
330
1F
100
AcDbEntity
  8
OBRYS
100
AcDbLine
 10
420.8422481735529
 20
154.4699571205964
 30
0.0
 11
420.8422481735529
 21
154.8005101205964
 31
0.0
  0
LINE
  5
7A8
330
1F
100
AcDbEntity
  8
OBRYS
100
AcDbLine
 10
420.8422481735529
 20
155.9394041205964
 30
0.0
 11
420.8422481735529
 21
156.2699571205964
 31
0.0
  0
LINE
  5
7A9
330
1F
100
AcDbEntity
  8
OBRYS
100
AcDbLine
 10
420.692248173553
 20
155.9199571205965
 30
0.0
 11
420.692248173553
 21
154.8199571205964
 31
0.0
  0
LINE
  5
7AA
330
1F
100
AcDbEntity
  8
OBRYS
100
AcDbLine
 10
420.692248173553
 20
154.5199571205964
 30
0.0
 11
420.692248173553
 21
154.8199571205964
 31
0.0
  0
LINE
  5
7AB
330
1F
100
AcDbEntity
  8
OBRYS
100
AcDbLine
 10
420.692248173553
 20
155.9199571205965
 30
0.0
 11
420.692248173553
 21
156.2199571205964
 31
0.0
  0
LINE
  5
7AC
330
1F
100
AcDbEntity
  8
OBRYS
100
AcDbLine
 10
420.692248173553
 20
92.27901112059644
 30
0.0
 11
420.692248173553
 21
92.44984012059643
 31
0.0
  0
LINE
  5
7AD
330
1F
100
AcDbEntity
  8
OBRYS
100
AcDbLine
 10
420.692248173553
 20
92.44984012059643
 30
0.0
 11
421.1372521735529
 21
92.44984012059643
 31
0.0
  0
LINE
  5
7AE
330
1F
100
AcDbEntity
  8
OBRYS
100
AcDbLine
 10
420.692248173553
 20
94.84984012059644
 30
0.0
 11
420.692248173553
 21
95.02066812059644
 31
0.0
  0
LINE
  5
7AF
330
1F
100
AcDbEntity
  8
OBRYS
100
AcDbLine
 10
421.1372521735529
 20
94.84984012059644
 30
0.0
 11
420.692248173553
 21
94.84984012059644
 31
0.0
  0
LINE
  5
7B0
330
1F
100
AcDbEntity
  8
OBRYS
100
AcDbLine
 10
420.8522481735529
 20
94.54984012059643
 30
0.0
 11
420.692248173553
 21
94.54984012059643
 31
0.0
  0
LINE
  5
7B1
330
1F
100
AcDbEntity
  8
OBRYS
100
AcDbLine
 10
420.8522611735528
 20
92.74984012059643
 30
0.0
 11
420.692248173553
 21
92.74984012059643
 31
0.0
  0
LINE
  5
7B2
330
1F
100
AcDbEntity
  8
OBRYS
100
AcDbLine
 10
420.9764901735529
 20
94.57174712059643
 30
0.0
 11
420.8522481735529
 21
94.54984012059643
 31
0.0
  0
LINE
  5
7B3
330
1F
100
AcDbEntity
  8
OBRYS
100
AcDbLine
 10
420.8522481735529
 20
92.74984012059643
 30
0.0
 11
420.9764901735529
 21
92.72793212059644
 31
0.0
  0
LINE
  5
7B4
330
1F
100
AcDbEntity
  8
OBRYS
100
AcDbLine
 10
420.8522481735529
 20
92.74984012059643
 30
0.0
 11
420.8522481735529
 21
93.04596812059643
 31
0.0
  0
LINE
  5
7B5
330
1F
100
AcDbEntity
  8
OBRYS
100
AcDbLine
 10
420.8522481735529
 20
94.25371112059644
 30
0.0
 11
420.8522481735529
 21
94.54984012059643
 31
0.0
  0
LINE
  5
7B6
330
1F
100
AcDbEntity
  8
OBRYS
100
AcDbLine
 10
420.692248173553
 20
94.54984012059643
 30
0.0
 11
420.692248173553
 21
92.74984012059643
 31
0.0
  0
LINE
  5
7B7
330
1F
100
AcDbEntity
  8
OBRYS
100
AcDbLine
 10
420.692248173553
 20
94.84984012059644
 30
0.0
 11
420.692248173553
 21
94.54984012059643
 31
0.0
  0
LINE
  5
7B8
330
1F
100
AcDbEntity
  8
OBRYS
100
AcDbLine
 10
420.692248173553
 20
92.74984012059643
 30
0.0
 11
420.692248173553
 21
92.44984012059643
 31
0.0
  0
LINE
  5
7B9
330
1F
100
AcDbEntity
  8
OBRYS
100
AcDbLine
 10
420.8054774674374
 20
106.4154719771299
 30
0.0
 11
424.6166831735528
 21
106.4175521205964
 31
0.0
  0
LINE
  5
7BA
330
1F
100
AcDbEntity
  8
OBRYS
100
AcDbLine
 10
420.8059140650211
 20
105.6154720917406
 30
0.0
 11
424.6177521735528
 21
105.6175521205964
 31
0.0
  0
LINE
  5
7BB
330
1F
100
AcDbEntity
  8
OBRYS
100
AcDbLine
 10
420.692248173553
 20
104.6457691205964
 30
0.0
 11
420.692248173553
 21
104.8165971205964
 31
0.0
  0
LINE
  5
7BC
330
1F
100
AcDbEntity
  8
OBRYS
100
AcDbLine
 10
420.692248173553
 20
104.8165971205964
 30
0.0
 11
421.1372521735529
 21
104.8165971205964
 31
0.0
  0
LINE
  5
7BD
330
1F
100
AcDbEntity
  8
OBRYS
100
AcDbLine
 10
420.692248173553
 20
107.2165971205964
 30
0.0
 11
420.692248173553
 21
107.3874251205964
 31
0.0
  0
LINE
  5
7BE
330
1F
100
AcDbEntity
  8
OBRYS
100
AcDbLine
 10
421.1372521735529
 20
107.2165971205964
 30
0.0
 11
420.692248173553
 21
107.2165971205964
 31
0.0
  0
LINE
  5
7BF
330
1F
100
AcDbEntity
  8
OBRYS
100
AcDbLine
 10
420.8522481735529
 20
106.9165971205964
 30
0.0
 11
420.692248173553
 21
106.9165971205964
 31
0.0
  0
LINE
  5
7C0
330
1F
100
AcDbEntity
  8
OBRYS
100
AcDbLine
 10
420.8522611735528
 20
105.1165971205964
 30
0.0
 11
420.692248173553
 21
105.1165971205964
 31
0.0
  0
LINE
  5
7C1
330
1F
100
AcDbEntity
  8
OBRYS
100
AcDbLine
 10
420.8522481735529
 20
105.1165971205964
 30
0.0
 11
420.9764901735529
 21
105.0946901205964
 31
0.0
  0
LINE
  5
7C2
330
1F
100
AcDbEntity
  8
OBRYS
100
AcDbLine
 10
420.9764901735529
 20
106.9385041205964
 30
0.0
 11
420.8522481735529
 21
106.9165971205964
 31
0.0
  0
LINE
  5
7C3
330
1F
100
AcDbEntity
  8
OBRYS
100
AcDbLine
 10
420.8522481735529
 20
105.1165971205964
 30
0.0
 11
420.8522481735529
 21
105.4127251205964
 31
0.0
  0
LINE
  5
7C4
330
1F
100
AcDbEntity
  8
OBRYS
100
AcDbLine
 10
420.8522481735529
 20
106.6204691205964
 30
0.0
 11
420.8522481735529
 21
106.9165971205964
 31
0.0
  0
LINE
  5
7C5
330
1F
100
AcDbEntity
  8
OBRYS
100
AcDbLine
 10
420.692248173553
 20
106.9165971205964
 30
0.0
 11
420.692248173553
 21
105.1165971205964
 31
0.0
  0
LINE
  5
7C6
330
1F
100
AcDbEntity
  8
OBRYS
100
AcDbLine
 10
420.692248173553
 20
107.2165971205964
 30
0.0
 11
420.692248173553
 21
106.9165971205964
 31
0.0
  0
LINE
  5
7C7
330
1F
100
AcDbEntity
  8
OBRYS
100
AcDbLine
 10
420.692248173553
 20
105.1165971205964
 30
0.0
 11
420.692248173553
 21
104.8165971205964
 31
0.0
  0
LINE
  5
7C8
330
1F
100
AcDbEntity
  8
OBRYS
100
AcDbLine
 10
420.692248173553
 20
143.8699571205964
 30
0.0
 11
420.692248173553
 21
144.3908041205964
 31
0.0
  0
LINE
  5
7C9
330
1F
100
AcDbEntity
  8
OBRYS
100
AcDbLine
 10
420.8422611735529
 20
143.8699571205964
 30
0.0
 11
420.692248173553
 21
143.8699571205964
 31
0.0
  0
LINE
  5
7CA
330
1F
100
AcDbEntity
  8
OBRYS
100
AcDbLine
 10
420.692248173553
 20
141.6491101205964
 30
0.0
 11
420.692248173553
 21
142.1699571205965
 31
0.0
  0
LINE
  5
7CB
330
1F
100
AcDbEntity
  8
OBRYS
100
AcDbLine
 10
420.692248173553
 20
142.1699571205965
 30
0.0
 11
420.8422611735529
 21
142.1699571205965
 31
0.0
  0
LINE
  5
7CC
330
1F
100
AcDbEntity
  8
OBRYS
100
AcDbLine
 10
420.692248173553
 20
142.4699571205964
 30
0.0
 11
420.8368861735528
 21
142.4699571205964
 31
0.0
  0
LINE
  5
7CD
330
1F
100
AcDbEntity
  8
OBRYS
100
AcDbLine
 10
420.8368861735528
 20
143.5699571205964
 30
0.0
 11
420.692248173553
 21
143.5699571205964
 31
0.0
  0
LINE
  5
7CE
330
1F
100
AcDbEntity
  8
OBRYS
100
AcDbLine
 10
420.8422481735529
 20
142.1199571205964
 30
0.0
 11
420.8422481735529
 21
142.4505101205964
 31
0.0
  0
LINE
  5
7CF
330
1F
100
AcDbEntity
  8
OBRYS
100
AcDbLine
 10
420.8422481735529
 20
143.5894041205964
 30
0.0
 11
420.8422481735529
 21
143.9199571205965
 31
0.0
  0
LINE
  5
7D0
330
1F
100
AcDbEntity
  8
OBRYS
100
AcDbLine
 10
420.692248173553
 20
143.5699571205964
 30
0.0
 11
420.692248173553
 21
142.4699571205964
 31
0.0
  0
LINE
  5
7D1
330
1F
100
AcDbEntity
  8
OBRYS
100
AcDbLine
 10
420.692248173553
 20
142.1699571205965
 30
0.0
 11
420.692248173553
 21
142.4699571205964
 31
0.0
  0
LINE
  5
7D2
330
1F
100
AcDbEntity
  8
OBRYS
100
AcDbLine
 10
420.692248173553
 20
143.5699571205964
 30
0.0
 11
420.692248173553
 21
143.8699571205964
 31
0.0
  0
LINE
  5
7D3
330
1F
100
AcDbEntity
  8
OBRYS
100
AcDbLine
 10
420.8054774674374
 20
143.4188319771299
 30
0.0
 11
424.6170281735529
 21
143.4209121205964
 31
0.0
  0
LINE
  5
7D4
330
1F
100
AcDbEntity
  8
OBRYS
100
AcDbLine
 10
420.8059140650211
 20
142.6188320917406
 30
0.0
 11
424.6174071735529
 21
142.6209121205964
 31
0.0
  0
LINE
  5
7D5
330
1F
100
AcDbEntity
  8
OBRYS
100
AcDbLine
 10
420.8054774674374
 20
168.1174319771299
 30
0.0
 11
424.6173161735529
 21
168.1195121205964
 31
0.0
  0
LINE
  5
7D6
330
1F
100
AcDbEntity
  8
OBRYS
100
AcDbLine
 10
420.8024233282051
 20
167.3168178925112
 30
0.0
 11
424.6171191735529
 21
167.3195121205964
 31
0.0
  0
LINE
  5
7D7
330
1F
100
AcDbEntity
  8
OBRYS
100
AcDbLine
 10
420.462248173553
 20
134.5176241205965
 30
0.0
 11
420.462248173553
 21
139.2175301205965
 31
0.0
  0
LINE
  5
7D8
330
1F
100
AcDbEntity
  8
OBRYS
100
AcDbLine
 10
420.692248173553
 20
119.5651971205964
 30
0.0
 11
420.692248173553
 21
119.7360251205964
 31
0.0
  0
LINE
  5
7D9
330
1F
100
AcDbEntity
  8
OBRYS
100
AcDbLine
 10
421.1372521735529
 20
119.5651971205964
 30
0.0
 11
420.692248173553
 21
119.5651971205964
 31
0.0
  0
LINE
  5
7DA
330
1F
100
AcDbEntity
  8
OBRYS
100
AcDbLine
 10
420.692248173553
 20
116.9943691205964
 30
0.0
 11
420.692248173553
 21
117.1651971205964
 31
0.0
  0
LINE
  5
7DB
330
1F
100
AcDbEntity
  8
OBRYS
100
AcDbLine
 10
420.692248173553
 20
117.1651971205964
 30
0.0
 11
421.1372521735529
 21
117.1651971205964
 31
0.0
  0
LINE
  5
7DC
330
1F
100
AcDbEntity
  8
OBRYS
100
AcDbLine
 10
420.8522481735529
 20
119.2651971205964
 30
0.0
 11
420.692248173553
 21
119.2651971205964
 31
0.0
  0
LINE
  5
7DD
330
1F
100
AcDbEntity
  8
OBRYS
100
AcDbLine
 10
420.8522611735528
 20
117.4651971205964
 30
0.0
 11
420.692248173553
 21
117.4651971205964
 31
0.0
  0
LINE
  5
7DE
330
1F
100
AcDbEntity
  8
OBRYS
100
AcDbLine
 10
420.9764901735529
 20
119.2871041205964
 30
0.0
 11
420.8522481735529
 21
119.2651971205964
 31
0.0
  0
LINE
  5
7DF
330
1F
100
AcDbEntity
  8
OBRYS
100
AcDbLine
 10
420.8522481735529
 20
117.4651971205964
 30
0.0
 11
420.9764901735529
 21
117.4432901205964
 31
0.0
  0
LINE
  5
7E0
330
1F
100
AcDbEntity
  8
OBRYS
100
AcDbLine
 10
420.8522481735529
 20
117.4651971205964
 30
0.0
 11
420.8522481735529
 21
117.7613251205964
 31
0.0
  0
LINE
  5
7E1
330
1F
100
AcDbEntity
  8
OBRYS
100
AcDbLine
 10
420.8522481735529
 20
118.9690691205964
 30
0.0
 11
420.8522481735529
 21
119.2651971205964
 31
0.0
  0
LINE
  5
7E2
330
1F
100
AcDbEntity
  8
OBRYS
100
AcDbLine
 10
420.692248173553
 20
119.2651971205964
 30
0.0
 11
420.692248173553
 21
117.4651971205964
 31
0.0
  0
LINE
  5
7E3
330
1F
100
AcDbEntity
  8
OBRYS
100
AcDbLine
 10
420.692248173553
 20
119.5651971205964
 30
0.0
 11
420.692248173553
 21
119.2651971205964
 31
0.0
  0
LINE
  5
7E4
330
1F
100
AcDbEntity
  8
OBRYS
100
AcDbLine
 10
420.692248173553
 20
117.4651971205964
 30
0.0
 11
420.692248173553
 21
117.1651971205964
 31
0.0
  0
LINE
  5
7E5
330
1F
100
AcDbEntity
  8
OBRYS
100
AcDbLine
 10
420.8054774674374
 20
155.7688319771299
 30
0.0
 11
424.6170281735529
 21
155.7709121205964
 31
0.0
  0
LINE
  5
7E6
330
1F
100
AcDbEntity
  8
OBRYS
100
AcDbLine
 10
420.8024233282051
 20
154.9682178925111
 30
0.0
 11
424.6174071735529
 21
154.9709121205964
 31
0.0
  0
LINE
  5
7E7
330
1F
100
AcDbEntity
  8
OBRYS
100
AcDbLine
 10
420.692248173553
 20
168.5685571205964
 30
0.0
 11
420.692248173553
 21
169.0894041205964
 31
0.0
  0
LINE
  5
7E8
330
1F
100
AcDbEntity
  8
OBRYS
100
AcDbLine
 10
420.8422611735529
 20
168.5685571205964
 30
0.0
 11
420.692248173553
 21
168.5685571205964
 31
0.0
  0
LINE
  5
7E9
330
1F
100
AcDbEntity
  8
OBRYS
100
AcDbLine
 10
420.692248173553
 20
166.3477101205964
 30
0.0
 11
420.692248173553
 21
166.8685571205964
 31
0.0
  0
LINE
  5
7EA
330
1F
100
AcDbEntity
  8
OBRYS
100
AcDbLine
 10
420.692248173553
 20
166.8685571205964
 30
0.0
 11
420.8422611735529
 21
166.8685571205964
 31
0.0
  0
LINE
  5
7EB
330
1F
100
AcDbEntity
  8
OBRYS
100
AcDbLine
 10
420.692248173553
 20
167.1685571205964
 30
0.0
 11
420.8368861735528
 21
167.1685571205964
 31
0.0
  0
LINE
  5
7EC
330
1F
100
AcDbEntity
  8
OBRYS
100
AcDbLine
 10
420.8368861735528
 20
168.2685571205964
 30
0.0
 11
420.692248173553
 21
168.2685571205964
 31
0.0
  0
LINE
  5
7ED
330
1F
100
AcDbEntity
  8
OBRYS
100
AcDbLine
 10
420.8422481735529
 20
166.8185571205964
 30
0.0
 11
420.8422481735529
 21
167.1491101205964
 31
0.0
  0
LINE
  5
7EE
330
1F
100
AcDbEntity
  8
OBRYS
100
AcDbLine
 10
420.8422481735529
 20
168.2880041205964
 30
0.0
 11
420.8422481735529
 21
168.6185571205964
 31
0.0
  0
LINE
  5
7EF
330
1F
100
AcDbEntity
  8
OBRYS
100
AcDbLine
 10
420.692248173553
 20
168.2685571205964
 30
0.0
 11
420.692248173553
 21
167.1685571205964
 31
0.0
  0
LINE
  5
7F0
330
1F
100
AcDbEntity
  8
OBRYS
100
AcDbLine
 10
420.692248173553
 20
166.8685571205964
 30
0.0
 11
420.692248173553
 21
167.1685571205964
 31
0.0
  0
LINE
  5
7F1
330
1F
100
AcDbEntity
  8
OBRYS
100
AcDbLine
 10
420.692248173553
 20
168.2685571205964
 30
0.0
 11
420.692248173553
 21
168.5685571205964
 31
0.0
  0
LINE
  5
7F2
330
1F
100
AcDbEntity
  8
OBRYS
100
AcDbLine
 10
426.192248173553
 20
94.50004412059643
 30
0.0
 11
425.2922481735529
 21
94.50004412059643
 31
0.0
  0
LINE
  5
7F3
330
1F
100
AcDbEntity
  8
OBRYS
100
AcDbLine
 10
426.192248173553
 20
106.8500441205964
 30
0.0
 11
425.2922481735529
 21
106.8500441205964
 31
0.0
  0
LINE
  5
7F4
330
1F
100
AcDbEntity
  8
OBRYS
100
AcDbLine
 10
426.192248173553
 20
119.2000441205964
 30
0.0
 11
425.2922481735529
 21
119.2000441205964
 31
0.0
  0
LINE
  5
7F5
330
1F
100
AcDbEntity
  8
OBRYS
100
AcDbLine
 10
420.2922481735529
 20
122.2000441205964
 30
0.0
 11
426.192248173553
 21
122.2000441205964
 31
0.0
  0
LINE
  5
7F6
330
1F
100
AcDbEntity
  8
OBRYS
100
AcDbLine
 10
426.192248173553
 20
176.2351101205965
 30
0.0
 11
420.2922481735529
 21
176.2351101205965
 31
0.0
  0
LINE
  5
7F7
330
1F
100
AcDbEntity
  8
OBRYS
100
AcDbLine
 10
420.2922481735529
 20
126.1389121205964
 30
0.0
 11
426.192248173553
 21
126.1389121205964
 31
0.0
  0
LINE
  5
7F8
330
1F
100
AcDbEntity
  8
OBRYS
100
AcDbLine
 10
426.192248173553
 20
147.5962421205964
 30
0.0
 11
420.2922481735529
 21
147.5962421205964
 31
0.0
  0
LINE
  5
7F9
330
1F
100
AcDbEntity
  8
OBRYS
100
AcDbLine
 10
420.2922481735529
 20
109.8500441205964
 30
0.0
 11
426.192248173553
 21
109.8500441205964
 31
0.0
  0
LINE
  5
7FA
330
1F
100
AcDbEntity
  8
OBRYS
100
AcDbLine
 10
420.2922481735529
 20
113.7889121205964
 30
0.0
 11
426.192248173553
 21
113.7889121205964
 31
0.0
  0
LINE
  5
7FB
330
1F
100
AcDbEntity
  8
OBRYS
100
AcDbLine
 10
420.2922481735529
 20
97.50004412059644
 30
0.0
 11
426.192248173553
 21
97.50004412059644
 31
0.0
  0
LINE
  5
7FC
330
1F
100
AcDbEntity
  8
OBRYS
100
AcDbLine
 10
420.2922481735529
 20
101.4389121205964
 30
0.0
 11
426.192248173553
 21
101.4389121205964
 31
0.0
  0
LINE
  5
7FD
330
1F
100
AcDbEntity
  8
OBRYS
100
AcDbLine
 10
420.2922481735529
 20
89.08891212059643
 30
0.0
 11
426.192248173553
 21
89.08891212059643
 31
0.0
  0
LINE
  5
7FE
330
1F
100
AcDbEntity
  8
OBRYS
100
AcDbLine
 10
420.2922481735529
 20
85.15004412059645
 30
0.0
 11
426.192248173553
 21
85.15004412059645
 31
0.0
  0
LINE
  5
7FF
330
1F
100
AcDbEntity
  8
OBRYS
100
AcDbLine
 10
420.2922481735529
 20
139.5200171205964
 30
0.0
 11
426.192248173553
 21
139.5200171205964
 31
0.0
  0
LINE
  5
800
330
1F
100
AcDbEntity
  8
OBRYS
100
AcDbLine
 10
420.2922481735529
 20
134.2151371205964
 30
0.0
 11
426.192248173553
 21
134.2151371205964
 31
0.0
  0
LINE
  5
801
330
1F
100
AcDbEntity
  8
OBRYS
100
AcDbLine
 10
420.2922481735529
 20
139.8199571205964
 30
0.0
 11
426.192248173553
 21
139.8199571205964
 31
0.0
  0
LINE
  5
802
330
1F
100
AcDbEntity
  8
OBRYS
100
AcDbLine
 10
420.2922481735529
 20
140.3199571205964
 30
0.0
 11
426.192248173553
 21
140.3199571205964
 31
0.0
  0
LINE
  5
803
330
1F
100
AcDbEntity
  8
OBRYS
100
AcDbLine
 10
420.2922481735529
 20
133.9151971205964
 30
0.0
 11
426.192248173553
 21
133.9151971205964
 31
0.0
  0
LINE
  5
804
330
1F
100
AcDbEntity
  8
OBRYS
100
AcDbLine
 10
420.2922481735529
 20
133.4151971205964
 30
0.0
 11
426.192248173553
 21
133.4151971205964
 31
0.0
  0
LINE
  5
805
330
1F
100
AcDbEntity
  8
OBRYS
100
AcDbLine
 10
425.692248173553
 20
162.3044241205964
 30
0.0
 11
420.2922481735529
 21
162.3044241205964
 31
0.0
  0
LINE
  5
806
330
1F
100
AcDbEntity
  8
OBRYS
100
AcDbLine
 10
425.692248173553
 20
151.1867071205965
 30
0.0
 11
425.692248173553
 21
149.9544241205964
 31
0.0
  0
LINE
  5
807
330
1F
100
AcDbEntity
  8
OBRYS
100
AcDbLine
 10
425.692248173553
 20
149.1769281205964
 30
0.0
 11
425.692248173553
 21
147.9446461205964
 31
0.0
  0
LINE
  5
808
330
1F
100
AcDbEntity
  8
OBRYS
100
AcDbLine
 10
425.692248173553
 20
162.3044241205964
 30
0.0
 11
425.692248173553
 21
163.5367071205964
 31
0.0
  0
LINE
  5
809
330
1F
100
AcDbEntity
  8
OBRYS
100
AcDbLine
 10
425.692248173553
 20
162.5465911205964
 30
0.0
 11
420.2922481735529
 21
162.5465911205964
 31
0.0
  0
LINE
  5
80A
330
1F
100
AcDbEntity
  8
OBRYS
100
AcDbLine
 10
425.692248173553
 20
163.5367071205964
 30
0.0
 11
420.2922481735529
 21
163.5367071205964
 31
0.0
  0
LINE
  5
80B
330
1F
100
AcDbEntity
  8
OBRYS
100
AcDbLine
 10
420.2922481735529
 20
111.4307301205964
 30
0.0
 11
425.692248173553
 21
111.4307301205964
 31
0.0
  0
LINE
  5
80C
330
1F
100
AcDbEntity
  8
OBRYS
100
AcDbLine
 10
425.692248173553
 20
147.9446461205964
 30
0.0
 11
420.2922481735529
 21
147.9446461205964
 31
0.0
  0
LINE
  5
80D
330
1F
100
AcDbEntity
  8
OBRYS
100
AcDbLine
 10
425.692248173553
 20
110.1984471205964
 30
0.0
 11
425.692248173553
 21
111.4307301205964
 31
0.0
  0
LINE
  5
80E
330
1F
100
AcDbEntity
  8
OBRYS
100
AcDbLine
 10
425.692248173553
 20
149.9544241205964
 30
0.0
 11
420.2922481735529
 21
149.9544241205964
 31
0.0
  0
LINE
  5
80F
330
1F
100
AcDbEntity
  8
OBRYS
100
AcDbLine
 10
425.692248173553
 20
99.08073012059643
 30
0.0
 11
425.692248173553
 21
97.84844812059643
 31
0.0
  0
LINE
  5
810
330
1F
100
AcDbEntity
  8
OBRYS
100
AcDbLine
 10
420.2922481735529
 20
101.0905091205964
 30
0.0
 11
425.692248173553
 21
101.0905091205964
 31
0.0
  0
LINE
  5
811
330
1F
100
AcDbEntity
  8
OBRYS
100
AcDbLine
 10
425.692248173553
 20
123.7807301205964
 30
0.0
 11
425.692248173553
 21
122.5484471205964
 31
0.0
  0
LINE
  5
812
330
1F
100
AcDbEntity
  8
OBRYS
100
AcDbLine
 10
425.692248173553
 20
101.0905091205964
 30
0.0
 11
425.692248173553
 21
99.85822612059643
 31
0.0
  0
LINE
  5
813
330
1F
100
AcDbEntity
  8
OBRYS
100
AcDbLine
 10
425.692248173553
 20
125.7905081205964
 30
0.0
 11
425.692248173553
 21
124.5582261205964
 31
0.0
  0
LINE
  5
814
330
1F
100
AcDbEntity
  8
OBRYS
100
AcDbLine
 10
420.2922481735529
 20
87.50822612059645
 30
0.0
 11
425.692248173553
 21
87.50822612059645
 31
0.0
  0
LINE
  5
815
330
1F
100
AcDbEntity
  8
OBRYS
100
AcDbLine
 10
420.2922481735529
 20
86.73073012059643
 30
0.0
 11
425.692248173553
 21
86.73073012059643
 31
0.0
  0
LINE
  5
816
330
1F
100
AcDbEntity
  8
OBRYS
100
AcDbLine
 10
420.2922481735529
 20
99.08073012059643
 30
0.0
 11
425.692248173553
 21
99.08073012059643
 31
0.0
  0
LINE
  5
817
330
1F
100
AcDbEntity
  8
OBRYS
100
AcDbLine
 10
425.692248173553
 20
86.73073012059643
 30
0.0
 11
425.692248173553
 21
85.49844812059644
 31
0.0
  0
LINE
  5
818
330
1F
100
AcDbEntity
  8
OBRYS
100
AcDbLine
 10
420.2922481735529
 20
88.74050912059643
 30
0.0
 11
425.692248173553
 21
88.74050912059643
 31
0.0
  0
LINE
  5
819
330
1F
100
AcDbEntity
  8
OBRYS
100
AcDbLine
 10
425.692248173553
 20
88.74050912059643
 30
0.0
 11
425.692248173553
 21
87.50822612059645
 31
0.0
  0
LINE
  5
81A
330
1F
100
AcDbEntity
  8
OBRYS
100
AcDbLine
 10
420.2922481735529
 20
123.7807301205964
 30
0.0
 11
425.692248173553
 21
123.7807301205964
 31
0.0
  0
LINE
  5
81B
330
1F
100
AcDbEntity
  8
OBRYS
100
AcDbLine
 10
420.2922481735529
 20
125.7905081205964
 30
0.0
 11
425.692248173553
 21
125.7905081205964
 31
0.0
  0
LINE
  5
81C
330
1F
100
AcDbEntity
  8
OBRYS
100
AcDbLine
 10
425.692248173553
 20
160.2946461205964
 30
0.0
 11
425.692248173553
 21
161.5269281205964
 31
0.0
  0
LINE
  5
81D
330
1F
100
AcDbEntity
  8
OBRYS
100
AcDbLine
 10
425.692248173553
 20
173.8769281205964
 30
0.0
 11
425.692248173553
 21
172.6446451205964
 31
0.0
  0
LINE
  5
81E
330
1F
100
AcDbEntity
  8
OBRYS
100
AcDbLine
 10
425.692248173553
 20
160.2946461205964
 30
0.0
 11
420.2922481735529
 21
160.2946461205964
 31
0.0
  0
LINE
  5
81F
330
1F
100
AcDbEntity
  8
OBRYS
100
AcDbLine
 10
425.692248173553
 20
112.2082261205964
 30
0.0
 11
425.692248173553
 21
113.4405081205964
 31
0.0
  0
LINE
  5
820
330
1F
100
AcDbEntity
  8
OBRYS
100
AcDbLine
 10
425.692248173553
 20
151.1867071205965
 30
0.0
 11
420.2922481735529
 21
151.1867071205965
 31
0.0
  0
LINE
  5
821
330
1F
100
AcDbEntity
  8
OBRYS
100
AcDbLine
 10
425.692248173553
 20
175.8867061205964
 30
0.0
 11
425.692248173553
 21
174.6544241205964
 31
0.0
  0
LINE
  5
822
330
1F
100
AcDbEntity
  8
OBRYS
100
AcDbLine
 10
420.2922481735529
 20
113.4405081205964
 30
0.0
 11
425.692248173553
 21
113.4405081205964
 31
0.0
  0
LINE
  5
823
330
1F
100
AcDbEntity
  8
OBRYS
100
AcDbLine
 10
425.692248173553
 20
149.1769281205964
 30
0.0
 11
420.2922481735529
 21
149.1769281205964
 31
0.0
  0
LINE
  5
824
330
1F
100
AcDbEntity
  8
OBRYS
100
AcDbLine
 10
425.692248173553
 20
150.1965911205965
 30
0.0
 11
420.2922481735529
 21
150.1965911205965
 31
0.0
  0
LINE
  5
825
330
1F
100
AcDbEntity
  8
OBRYS
100
AcDbLine
 10
425.692248173553
 20
148.1868131205964
 30
0.0
 11
420.2922481735529
 21
148.1868131205964
 31
0.0
  0
LINE
  5
826
330
1F
100
AcDbEntity
  8
OBRYS
100
AcDbLine
 10
420.2922481735529
 20
88.49834212059645
 30
0.0
 11
425.692248173553
 21
88.49834212059645
 31
0.0
  0
LINE
  5
827
330
1F
100
AcDbEntity
  8
OBRYS
100
AcDbLine
 10
420.2922481735529
 20
113.1983411205964
 30
0.0
 11
425.692248173553
 21
113.1983411205964
 31
0.0
  0
LINE
  5
828
330
1F
100
AcDbEntity
  8
OBRYS
100
AcDbLine
 10
420.2922481735529
 20
112.2082261205964
 30
0.0
 11
425.692248173553
 21
112.2082261205964
 31
0.0
  0
LINE
  5
829
330
1F
100
AcDbEntity
  8
OBRYS
100
AcDbLine
 10
425.692248173553
 20
173.8769281205964
 30
0.0
 11
420.2922481735529
 21
173.8769281205964
 31
0.0
  0
LINE
  5
82A
330
1F
100
AcDbEntity
  8
OBRYS
100
AcDbLine
 10
420.2922481735529
 20
100.8483421205964
 30
0.0
 11
425.692248173553
 21
100.8483421205964
 31
0.0
  0
LINE
  5
82B
330
1F
100
AcDbEntity
  8
OBRYS
100
AcDbLine
 10
420.2922481735529
 20
99.85822612059643
 30
0.0
 11
425.692248173553
 21
99.85822612059643
 31
0.0
  0
LINE
  5
82C
330
1F
100
AcDbEntity
  8
OBRYS
100
AcDbLine
 10
420.2922481735529
 20
123.5385631205964
 30
0.0
 11
425.692248173553
 21
123.5385631205964
 31
0.0
  0
LINE
  5
82D
330
1F
100
AcDbEntity
  8
OBRYS
100
AcDbLine
 10
420.2922481735529
 20
122.5484471205964
 30
0.0
 11
425.692248173553
 21
122.5484471205964
 31
0.0
  0
LINE
  5
82E
330
1F
100
AcDbEntity
  8
OBRYS
100
AcDbLine
 10
420.2922481735529
 20
86.48856312059644
 30
0.0
 11
425.692248173553
 21
86.48856312059644
 31
0.0
  0
LINE
  5
82F
330
1F
100
AcDbEntity
  8
OBRYS
100
AcDbLine
 10
420.2922481735529
 20
85.49844812059644
 30
0.0
 11
425.692248173553
 21
85.49844812059644
 31
0.0
  0
LINE
  5
830
330
1F
100
AcDbEntity
  8
OBRYS
100
AcDbLine
 10
425.692248173553
 20
172.6446451205964
 30
0.0
 11
420.2922481735529
 21
172.6446451205964
 31
0.0
  0
LINE
  5
831
330
1F
100
AcDbEntity
  8
OBRYS
100
AcDbLine
 10
425.692248173553
 20
172.8868121205965
 30
0.0
 11
420.2922481735529
 21
172.8868121205965
 31
0.0
  0
LINE
  5
832
330
1F
100
AcDbEntity
  8
OBRYS
100
AcDbLine
 10
420.2922481735529
 20
125.5483411205964
 30
0.0
 11
425.692248173553
 21
125.5483411205964
 31
0.0
  0
LINE
  5
833
330
1F
100
AcDbEntity
  8
OBRYS
100
AcDbLine
 10
420.2922481735529
 20
124.5582261205964
 30
0.0
 11
425.692248173553
 21
124.5582261205964
 31
0.0
  0
LINE
  5
834
330
1F
100
AcDbEntity
  8
OBRYS
100
AcDbLine
 10
420.2922481735529
 20
111.1885631205964
 30
0.0
 11
425.692248173553
 21
111.1885631205964
 31
0.0
  0
LINE
  5
835
330
1F
100
AcDbEntity
  8
OBRYS
100
AcDbLine
 10
420.2922481735529
 20
110.1984471205964
 30
0.0
 11
425.692248173553
 21
110.1984471205964
 31
0.0
  0
LINE
  5
836
330
1F
100
AcDbEntity
  8
OBRYS
100
AcDbLine
 10
425.692248173553
 20
174.6544241205964
 30
0.0
 11
420.2922481735529
 21
174.6544241205964
 31
0.0
  0
LINE
  5
837
330
1F
100
AcDbEntity
  8
OBRYS
100
AcDbLine
 10
425.692248173553
 20
174.8965911205964
 30
0.0
 11
420.2922481735529
 21
174.8965911205964
 31
0.0
  0
LINE
  5
838
330
1F
100
AcDbEntity
  8
OBRYS
100
AcDbLine
 10
425.692248173553
 20
175.8867061205964
 30
0.0
 11
420.2922481735529
 21
175.8867061205964
 31
0.0
  0
LINE
  5
839
330
1F
100
AcDbEntity
  8
OBRYS
100
AcDbLine
 10
425.692248173553
 20
160.5368131205964
 30
0.0
 11
420.2922481735529
 21
160.5368131205964
 31
0.0
  0
LINE
  5
83A
330
1F
100
AcDbEntity
  8
OBRYS
100
AcDbLine
 10
425.692248173553
 20
161.5269281205964
 30
0.0
 11
420.2922481735529
 21
161.5269281205964
 31
0.0
  0
LINE
  5
83B
330
1F
100
AcDbEntity
  8
OBRYS
100
AcDbLine
 10
420.2922481735529
 20
98.83856312059643
 30
0.0
 11
425.692248173553
 21
98.83856312059643
 31
0.0
  0
LINE
  5
83C
330
1F
100
AcDbEntity
  8
OBRYS
100
AcDbLine
 10
420.2922481735529
 20
97.84844812059643
 30
0.0
 11
425.692248173553
 21
97.84844812059643
 31
0.0
  0
LINE
  5
83D
330
1F
100
AcDbEntity
  8
OBRYS
100
AcDbLine
 10
425.2922481735529
 20
122.2000441205964
 30
0.0
 11
425.2922481735529
 21
119.2000441205964
 31
0.0
  0
LINE
  5
83E
330
1F
100
AcDbEntity
  8
OBRYS
100
AcDbLine
 10
425.2922481735529
 20
97.50004412059644
 30
0.0
 11
425.2922481735529
 21
94.50004412059643
 31
0.0
  0
LINE
  5
83F
330
1F
100
AcDbEntity
  8
OBRYS
100
AcDbLine
 10
425.2922481735529
 20
109.8500441205964
 30
0.0
 11
425.2922481735529
 21
106.8500441205964
 31
0.0
  0
LINE
  5
840
330
1F
100
AcDbEntity
  8
OBRYS
100
AcDbLine
 10
425.2922481735529
 20
172.2962421205964
 30
0.0
 11
425.2922481735529
 21
163.8851101205964
 31
0.0
  0
LINE
  5
841
330
1F
100
AcDbEntity
  8
OBRYS
100
AcDbLine
 10
425.2922481735529
 20
172.2962421205964
 30
0.0
 11
420.2922481735529
 21
172.2962421205964
 31
0.0
  0
LINE
  5
842
330
1F
100
AcDbEntity
  8
OBRYS
100
AcDbLine
 10
425.2922481735529
 20
159.9462421205964
 30
0.0
 11
425.2922481735529
 21
151.5351101205964
 31
0.0
  0
LINE
  5
843
330
1F
100
AcDbEntity
  8
OBRYS
100
AcDbLine
 10
425.2922481735529
 20
159.9462421205964
 30
0.0
 11
420.2922481735529
 21
159.9462421205964
 31
0.0
  0
LINE
  5
844
330
1F
100
AcDbEntity
  8
OBRYS
100
AcDbLine
 10
425.2922481735529
 20
163.8851101205964
 30
0.0
 11
420.2922481735529
 21
163.8851101205964
 31
0.0
  0
LINE
  5
845
330
1F
100
AcDbEntity
  8
OBRYS
100
AcDbLine
 10
425.2922481735529
 20
151.5351101205964
 30
0.0
 11
420.2922481735529
 21
151.5351101205964
 31
0.0
  0
LINE
  5
846
330
1F
100
AcDbEntity
  8
OBRYS
100
AcDbLine
 10
422.8622481735528
 20
116.5651371205964
 30
0.0
 11
420.2922481735529
 21
116.5651371205964
 31
0.0
  0
LINE
  5
847
330
1F
100
AcDbEntity
  8
OBRYS
100
AcDbLine
 10
422.8622481735528
 20
120.1651371205964
 30
0.0
 11
420.2922481735529
 21
120.1651371205964
 31
0.0
  0
LINE
  5
848
330
1F
100
AcDbEntity
  8
OBRYS
100
AcDbLine
 10
420.2922481735529
 20
165.9200171205964
 30
0.0
 11
422.8622481735528
 21
165.9200171205964
 31
0.0
  0
LINE
  5
849
330
1F
100
AcDbEntity
  8
OBRYS
100
AcDbLine
 10
422.8622481735528
 20
107.8151371205964
 30
0.0
 11
420.2922481735529
 21
107.8151371205964
 31
0.0
  0
LINE
  5
84A
330
1F
100
AcDbEntity
  8
OBRYS
100
AcDbLine
 10
422.8622481735528
 20
91.86513712059643
 30
0.0
 11
420.2922481735529
 21
91.86513712059643
 31
0.0
  0
LINE
  5
84B
330
1F
100
AcDbEntity
  8
OBRYS
100
AcDbLine
 10
420.2922481735529
 20
157.1700171205964
 30
0.0
 11
422.8622481735528
 21
157.1700171205964
 31
0.0
  0
LINE
  5
84C
330
1F
100
AcDbEntity
  8
OBRYS
100
AcDbLine
 10
422.8622481735528
 20
128.9151371205964
 30
0.0
 11
420.2922481735529
 21
128.9151371205964
 31
0.0
  0
LINE
  5
84D
330
1F
100
AcDbEntity
  8
OBRYS
100
AcDbLine
 10
422.8622481735528
 20
95.46513712059644
 30
0.0
 11
420.2922481735529
 21
95.46513712059644
 31
0.0
  0
LINE
  5
84E
330
1F
100
AcDbEntity
  8
OBRYS
100
AcDbLine
 10
422.8622481735528
 20
139.2175771205964
 30
0.0
 11
420.2922481735529
 21
139.2175771205964
 31
0.0
  0
LINE
  5
84F
330
1F
100
AcDbEntity
  8
OBRYS
100
AcDbLine
 10
420.2922481735529
 20
169.5200171205964
 30
0.0
 11
422.8622481735528
 21
169.5200171205964
 31
0.0
  0
LINE
  5
850
330
1F
100
AcDbEntity
  8
OBRYS
100
AcDbLine
 10
420.2922481735529
 20
153.5700171205964
 30
0.0
 11
422.8622481735528
 21
153.5700171205964
 31
0.0
  0
LINE
  5
851
330
1F
100
AcDbEntity
  8
OBRYS
100
AcDbLine
 10
420.2922481735529
 20
144.8200171205964
 30
0.0
 11
422.8622481735528
 21
144.8200171205964
 31
0.0
  0
LINE
  5
852
330
1F
100
AcDbEntity
  8
OBRYS
100
AcDbLine
 10
420.2922481735529
 20
141.2200171205964
 30
0.0
 11
422.8622481735528
 21
141.2200171205964
 31
0.0
  0
LINE
  5
853
330
1F
100
AcDbEntity
  8
OBRYS
100
AcDbLine
 10
422.8622481735528
 20
104.2151371205965
 30
0.0
 11
420.2922481735529
 21
104.2151371205965
 31
0.0
  0
LINE
  5
854
330
1F
100
AcDbEntity
  8
OBRYS
100
AcDbLine
 10
422.8622481735528
 20
132.5151371205964
 30
0.0
 11
420.2922481735529
 21
132.5151371205964
 31
0.0
  0
LINE
  5
855
330
1F
100
AcDbEntity
  8
OBRYS
100
AcDbLine
 10
420.2922481735529
 20
134.5175771205964
 30
0.0
 11
422.8622481735528
 21
134.5175771205964
 31
0.0
  0
LINE
  5
856
330
1F
100
AcDbEntity
  8
OBRYS
100
AcDbLine
 10
421.1390771735529
 20
168.9178591205964
 30
0.0
 11
420.2922481735529
 21
169.2429261205965
 31
0.0
  0
LINE
  5
857
330
1F
100
AcDbEntity
  8
OBRYS
100
AcDbLine
 10
420.2922481735529
 20
141.4955881205964
 30
0.0
 11
421.1390771735529
 21
141.8206551205964
 31
0.0
  0
LINE
  5
858
330
1F
100
AcDbEntity
  8
OBRYS
100
AcDbLine
 10
421.1390771735529
 20
131.9144991205964
 30
0.0
 11
420.2922481735529
 21
132.2395661205964
 31
0.0
  0
LINE
  5
859
330
1F
100
AcDbEntity
  8
OBRYS
100
AcDbLine
 10
420.2922481735529
 20
104.4922281205964
 30
0.0
 11
421.1390771735529
 21
104.8172951205964
 31
0.0
  0
LINE
  5
85A
330
1F
100
AcDbEntity
  8
OBRYS
100
AcDbLine
 10
420.2922481735529
 20
92.12547112059643
 30
0.0
 11
421.1390771735529
 21
92.45053812059643
 31
0.0
  0
LINE
  5
85B
330
1F
100
AcDbEntity
  8
OBRYS
100
AcDbLine
 10
420.2922481735529
 20
116.8408281205964
 30
0.0
 11
421.1390771735529
 21
117.1658951205964
 31
0.0
  0
LINE
  5
85C
330
1F
100
AcDbEntity
  8
OBRYS
100
AcDbLine
 10
421.1390771735529
 20
156.5692591205964
 30
0.0
 11
420.2922481735529
 21
156.8943261205964
 31
0.0
  0
LINE
  5
85D
330
1F
100
AcDbEntity
  8
OBRYS
100
AcDbLine
 10
421.1390771735529
 20
129.5158951205964
 30
0.0
 11
420.2922481735529
 21
129.1908281205964
 31
0.0
  0
LINE
  5
85E
330
1F
100
AcDbEntity
  8
OBRYS
100
AcDbLine
 10
420.2922481735529
 20
144.5443261205965
 30
0.0
 11
421.1390771735529
 21
144.2192591205964
 31
0.0
  0
LINE
  5
85F
330
1F
100
AcDbEntity
  8
OBRYS
100
AcDbLine
 10
421.1390771735529
 20
94.84914212059644
 30
0.0
 11
420.2922481735529
 21
95.17420912059643
 31
0.0
  0
LINE
  5
860
330
1F
100
AcDbEntity
  8
OBRYS
100
AcDbLine
 10
421.1390771735529
 20
119.5644991205964
 30
0.0
 11
420.2922481735529
 21
119.8895661205964
 31
0.0
  0
LINE
  5
861
330
1F
100
AcDbEntity
  8
OBRYS
100
AcDbLine
 10
421.1390771735529
 20
107.2158991205964
 30
0.0
 11
420.2922481735529
 21
107.5409661205964
 31
0.0
  0
LINE
  5
862
330
1F
100
AcDbEntity
  8
OBRYS
100
AcDbLine
 10
420.2922481735529
 20
153.8455881205964
 30
0.0
 11
421.1390771735529
 21
154.1706551205965
 31
0.0
  0
LINE
  5
863
330
1F
100
AcDbEntity
  8
OBRYS
100
AcDbLine
 10
420.2922481735529
 20
166.1941881205964
 30
0.0
 11
421.1390771735529
 21
166.5192551205964
 31
0.0
  0
LINE
  5
864
330
1F
100
AcDbEntity
  8
OBRYS
100
AcDbLine
 10
420.4622651735529
 20
139.1200171205964
 30
0.0
 11
420.2922481735529
 21
139.1200171205964
 31
0.0
  0
LINE
  5
865
330
1F
100
AcDbEntity
  8
OBRYS
100
AcDbLine
 10
420.2922481735529
 20
134.6151371205964
 30
0.0
 11
420.4622651735529
 21
134.6151371205964
 31
0.0
  0
LINE
  5
866
330
1F
100
AcDbEntity
  8
OBRYS
100
AcDbLine
 10
420.2922481735529
 20
147.5962421205964
 30
0.0
 11
420.2922481735529
 21
147.5963071205964
 31
0.0
  0
LINE
  5
867
330
1F
100
AcDbEntity
  8
OBRYS
100
AcDbLine
 10
420.2922481735529
 20
139.8199571205964
 30
0.0
 11
420.2922481735529
 21
140.3199571205964
 31
0.0
  0
LINE
  5
868
330
1F
100
AcDbEntity
  8
OBRYS
100
AcDbLine
 10
420.2922481735529
 20
140.3199571205964
 30
0.0
 11
420.2922481735529
 21
141.2200171205964
 31
0.0
  0
LINE
  5
869
330
1F
100
AcDbEntity
  8
OBRYS
100
AcDbLine
 10
420.2922481735529
 20
122.2000441205964
 30
0.0
 11
419.3922481735528
 21
122.2000441205964
 31
0.0
  0
LINE
  5
86A
330
1F
100
AcDbEntity
  8
OBRYS
100
AcDbLine
 10
420.2922481735529
 20
97.50004412059644
 30
0.0
 11
419.3922481735528
 21
97.50004412059644
 31
0.0
  0
LINE
  5
86B
330
1F
100
AcDbEntity
  8
OBRYS
100
AcDbLine
 10
420.2922481735529
 20
109.8500441205964
 30
0.0
 11
419.3922481735528
 21
109.8500441205964
 31
0.0
  0
LINE
  5
86C
330
1F
100
AcDbEntity
  8
OBRYS
100
AcDbLine
 10
420.2922481735529
 20
101.4389121205964
 30
0.0
 11
419.3922481735528
 21
101.4389121205964
 31
0.0
  0
LINE
  5
86D
330
1F
100
AcDbEntity
  8
OBRYS
100
AcDbLine
 10
420.2922481735529
 20
113.7889121205964
 30
0.0
 11
419.3922481735528
 21
113.7889121205964
 31
0.0
  0
LINE
  5
86E
330
1F
100
AcDbEntity
  8
OBRYS
100
AcDbLine
 10
420.2922481735529
 20
89.08891212059643
 30
0.0
 11
419.3922481735528
 21
89.08891212059643
 31
0.0
  0
LINE
  5
86F
330
1F
100
AcDbEntity
  8
OBRYS
100
AcDbLine
 10
419.3922481735528
 20
119.2000441205964
 30
0.0
 11
420.2922481735529
 21
119.2000441205964
 31
0.0
  0
LINE
  5
870
330
1F
100
AcDbEntity
  8
OBRYS
100
AcDbLine
 10
419.3922481735528
 20
106.8500441205964
 30
0.0
 11
420.2922481735529
 21
106.8500441205964
 31
0.0
  0
LINE
  5
871
330
1F
100
AcDbEntity
  8
OBRYS
100
AcDbLine
 10
419.3922481735528
 20
94.50004412059643
 30
0.0
 11
420.2922481735529
 21
94.50004412059643
 31
0.0
  0
LINE
  5
872
330
1F
100
AcDbEntity
  8
OBRYS
100
AcDbLine
 10
420.2922481735529
 20
85.16513712059643
 30
0.0
 11
419.3922481735528
 21
85.16513712059643
 31
0.0
  0
LINE
  5
873
330
1F
100
AcDbEntity
  8
OBRYS
100
AcDbLine
 10
419.3922481735528
 20
126.1389121205964
 30
0.0
 11
420.2922481735529
 21
126.1389121205964
 31
0.0
  0
LINE
  5
874
330
1F
100
AcDbEntity
  8
OBRYS
100
AcDbLine
 10
419.3922481735528
 20
147.5963021205964
 30
0.0
 11
420.2922481735529
 21
147.5963021205964
 31
0.0
  0
LINE
  5
875
330
1F
100
AcDbEntity
  8
OBRYS
100
AcDbLine
 10
420.2922481735529
 20
176.2351081205964
 30
0.0
 11
419.3922481735528
 21
176.2351081205964
 31
0.0
  0
LINE
  5
876
330
1F
100
AcDbEntity
  8
OBRYS
100
AcDbLine
 10
426.192248173553
 20
85.15004412059645
 30
0.0
 11
426.192248173553
 21
89.08891212059643
 31
0.0
  0
LINE
  5
877
330
1F
100
AcDbEntity
  8
OBRYS
100
AcDbLine
 10
426.192248173553
 20
94.50004412059643
 30
0.0
 11
426.192248173553
 21
89.08891212059643
 31
0.0
  0
LINE
  5
878
330
1F
100
AcDbEntity
  8
OBRYS
100
AcDbLine
 10
426.192248173553
 20
97.50004412059644
 30
0.0
 11
426.192248173553
 21
94.50004412059643
 31
0.0
  0
LINE
  5
879
330
1F
100
AcDbEntity
  8
OBRYS
100
AcDbLine
 10
426.192248173553
 20
97.50004412059644
 30
0.0
 11
426.192248173553
 21
101.4389121205964
 31
0.0
  0
LINE
  5
87A
330
1F
100
AcDbEntity
  8
OBRYS
100
AcDbLine
 10
426.192248173553
 20
106.8500441205964
 30
0.0
 11
426.192248173553
 21
101.4389121205964
 31
0.0
  0
LINE
  5
87B
330
1F
100
AcDbEntity
  8
OBRYS
100
AcDbLine
 10
426.192248173553
 20
109.8500441205964
 30
0.0
 11
426.192248173553
 21
106.8500441205964
 31
0.0
  0
LINE
  5
87C
330
1F
100
AcDbEntity
  8
OBRYS
100
AcDbLine
 10
426.192248173553
 20
109.8500441205964
 30
0.0
 11
426.192248173553
 21
113.7889121205964
 31
0.0
  0
LINE
  5
87D
330
1F
100
AcDbEntity
  8
OBRYS
100
AcDbLine
 10
426.192248173553
 20
119.2000441205964
 30
0.0
 11
426.192248173553
 21
113.7889121205964
 31
0.0
  0
LINE
  5
87E
330
1F
100
AcDbEntity
  8
OBRYS
100
AcDbLine
 10
426.192248173553
 20
122.2000441205964
 30
0.0
 11
426.192248173553
 21
119.2000441205964
 31
0.0
  0
LINE
  5
87F
330
1F
100
AcDbEntity
  8
OBRYS
100
AcDbLine
 10
426.192248173553
 20
122.2000441205964
 30
0.0
 11
426.192248173553
 21
126.1389121205964
 31
0.0
  0
LINE
  5
880
330
1F
100
AcDbEntity
  8
OBRYS
100
AcDbLine
 10
426.192248173553
 20
126.1389121205964
 30
0.0
 11
426.192248173553
 21
133.4151971205964
 31
0.0
  0
LINE
  5
881
330
1F
100
AcDbEntity
  8
OBRYS
100
AcDbLine
 10
426.192248173553
 20
133.4151971205964
 30
0.0
 11
426.192248173553
 21
133.9151971205964
 31
0.0
  0
LINE
  5
882
330
1F
100
AcDbEntity
  8
OBRYS
100
AcDbLine
 10
426.192248173553
 20
133.9151971205964
 30
0.0
 11
426.192248173553
 21
134.2151371205964
 31
0.0
  0
LINE
  5
883
330
1F
100
AcDbEntity
  8
OBRYS
100
AcDbLine
 10
426.192248173553
 20
134.2151371205964
 30
0.0
 11
426.192248173553
 21
139.5200171205964
 31
0.0
  0
LINE
  5
884
330
1F
100
AcDbEntity
  8
OBRYS
100
AcDbLine
 10
426.192248173553
 20
139.5200171205964
 30
0.0
 11
426.192248173553
 21
139.8199571205964
 31
0.0
  0
LINE
  5
885
330
1F
100
AcDbEntity
  8
OBRYS
100
AcDbLine
 10
426.192248173553
 20
139.8199571205964
 30
0.0
 11
426.192248173553
 21
140.3199571205964
 31
0.0
  0
LINE
  5
886
330
1F
100
AcDbEntity
  8
OBRYS
100
AcDbLine
 10
426.192248173553
 20
140.3199571205964
 30
0.0
 11
426.192248173553
 21
147.5962421205964
 31
0.0
  0
LINE
  5
887
330
1F
100
AcDbEntity
  8
OBRYS
100
AcDbLine
 10
426.192248173553
 20
176.2351101205965
 30
0.0
 11
426.192248173553
 21
147.5962421205964
 31
0.0
  0
ARC
  5
897
330
1F
100
AcDbEntity
  8
OBRYS
100
AcDbCircle
 10
392.126708173553
 20
130.7151971205964
 30
0.0
 40
1.8839072783412
100
AcDbArc
 50
107.1693550000007
 51
167.7991200000005
  0
ARC
  5
898
330
1F
100
AcDbEntity
  8
OBRYS
100
AcDbCircle
 10
392.126708173553
 20
130.7151971205964
 30
0.0
 40
1.8839072783412
100
AcDbArc
 50
192.263418
 51
252.8421489999997
  0
ARC
  5
89D
330
1F
100
AcDbEntity
  8
OBRYS
100
AcDbCircle
 10
392.126708173553
 20
118.3651971205964
 30
0.0
 40
1.8839072783412
100
AcDbArc
 50
107.1693550000006
 51
167.7991200000001
  0
ARC
  5
89E
330
1F
100
AcDbEntity
  8
OBRYS
100
AcDbCircle
 10
392.126708173553
 20
118.3651971205964
 30
0.0
 40
1.8839072783412
100
AcDbArc
 50
192.263418
 51
252.8421489999994
  0
ARC
  5
89F
330
1F
100
AcDbEntity
  8
OBRYS
100
AcDbCircle
 10
-390.1017081735529
 20
156.5699571205964
 30
0.0
 40
0.3
210
0.0
220
0.0
230
-1.0
100
AcDbArc
 50
242.0308739999983
 51
270.0
  0
ARC
  5
8A0
330
1F
100
AcDbEntity
  8
OBRYS
100
AcDbCircle
 10
-390.1017081735529
 20
154.1699571205965
 30
0.0
 40
0.3
210
0.0
220
0.0
230
-1.0
100
AcDbArc
 50
90.0
 51
117.9691260000017
  0
ARC
  5
8A1
330
1F
100
AcDbEntity
  8
OBRYS
100
AcDbCircle
 10
392.1517081735529
 20
136.8527541205964
 30
0.0
 40
2.649999999999565
100
AcDbArc
 50
156.4931200000012
 51
180.0
  0
ARC
  5
8A2
330
1F
100
AcDbEntity
  8
OBRYS
100
AcDbCircle
 10
392.1517081735529
 20
136.8527541205964
 30
0.0
 40
2.649999999999565
100
AcDbArc
 50
180.0
 51
203.50688
  0
CIRCLE
  5
8A3
330
1F
100
AcDbEntity
  8
OBRYS
100
AcDbCircle
 10
392.1517081735529
 20
136.8527541205964
 30
0.0
 40
0.5299999999997845
  0
ARC
  5
8A5
330
1F
100
AcDbEntity
  8
OBRYS
100
AcDbCircle
 10
392.126708173553
 20
106.0165971205964
 30
0.0
 40
1.8839072783412
100
AcDbArc
 50
107.3127530000011
 51
167.7991200000001
  0
ARC
  5
8A6
330
1F
100
AcDbEntity
  8
OBRYS
100
AcDbCircle
 10
392.126708173553
 20
106.0165971205964
 30
0.0
 40
1.8839072783412
100
AcDbArc
 50
192.263418
 51
252.9879499999991
  0
ARC
  5
8A7
330
1F
100
AcDbEntity
  8
OBRYS
100
AcDbCircle
 10
-390.1017081735529
 20
141.8199571205964
 30
0.0
 40
0.3
210
0.0
220
0.0
230
-1.0
100
AcDbArc
 50
90.0
 51
117.9691260000017
  0
ARC
  5
8A8
330
1F
100
AcDbEntity
  8
OBRYS
100
AcDbCircle
 10
-390.1017081735529
 20
144.2199571205964
 30
0.0
 40
0.3
210
0.0
220
0.0
230
-1.0
100
AcDbArc
 50
242.0308739999983
 51
270.0
  0
ARC
  5
8A9
330
1F
100
AcDbEntity
  8
OBRYS
100
AcDbCircle
 10
392.126708173553
 20
143.0199571205964
 30
0.0
 40
2.09999990375498
100
AcDbArc
 50
169.0506929999999
 51
191.0118449999998
  0
ARC
  5
8AA
330
1F
100
AcDbEntity
  8
OBRYS
100
AcDbCircle
 10
392.126708173553
 20
143.0199571205964
 30
0.0
 40
1.8839072783412
100
AcDbArc
 50
107.15722
 51
167.7991200000005
  0
ARC
  5
8AB
330
1F
100
AcDbEntity
  8
OBRYS
100
AcDbCircle
 10
392.126708173553
 20
143.0199571205964
 30
0.0
 40
1.8839072783412
100
AcDbArc
 50
192.263418
 51
252.8299839999998
  0
ARC
  5
8AD
330
1F
100
AcDbEntity
  8
OBRYS
100
AcDbCircle
 10
392.126708173553
 20
167.7185571205964
 30
0.0
 40
1.8839072783412
100
AcDbArc
 50
107.0113880000011
 51
167.7991200000005
  0
ARC
  5
8AE
330
1F
100
AcDbEntity
  8
OBRYS
100
AcDbCircle
 10
392.126708173553
 20
167.7185571205964
 30
0.0
 40
1.8839072783412
100
AcDbArc
 50
192.263418
 51
252.686615999999
  0
CIRCLE
  5
8AF
330
1F
100
AcDbEntity
  8
OBRYS
100
AcDbCircle
 10
392.1217081735529
 20
136.8675771205964
 30
0.0
 40
1.025
  0
ARC
  5
8B1
330
1F
100
AcDbEntity
  8
OBRYS
100
AcDbCircle
 10
392.126708173553
 20
155.3699571205964
 30
0.0
 40
1.8839072783412
100
AcDbArc
 50
107.15722
 51
167.7991200000005
  0
ARC
  5
8B2
330
1F
100
AcDbEntity
  8
OBRYS
100
AcDbCircle
 10
392.126708173553
 20
155.3699571205964
 30
0.0
 40
1.8839072783412
100
AcDbArc
 50
192.263418
 51
252.8299839999998
  0
ARC
  5
8B3
330
1F
100
AcDbEntity
  8
OBRYS
100
AcDbCircle
 10
-390.1017081735529
 20
166.5185571205964
 30
0.0
 40
0.3
210
0.0
220
0.0
230
-1.0
100
AcDbArc
 50
90.0
 51
117.9691260000017
  0
ARC
  5
8B4
330
1F
100
AcDbEntity
  8
OBRYS
100
AcDbCircle
 10
-390.1017081735529
 20
168.9185571205964
 30
0.0
 40
0.3
210
0.0
220
0.0
230
-1.0
100
AcDbArc
 50
242.0308739999983
 51
270.0
  0
ARC
  5
8B5
330
1F
100
AcDbEntity
  8
OBRYS
100
AcDbCircle
 10
392.1217081735529
 20
136.8675771205964
 30
0.0
 40
2.35
100
AcDbArc
 50
270.0
 51
90.0
  0
ARC
  5
8B6
330
1F
100
AcDbEntity
  8
OBRYS
100
AcDbCircle
 10
-392.1217081735529
 20
93.66513712059643
 30
0.0
 40
1.8
210
0.0
220
0.0
230
-1.0
100
AcDbArc
 50
90.0
 51
270.0
  0
ARC
  5
8B7
330
1F
100
AcDbEntity
  8
OBRYS
100
AcDbCircle
 10
-392.1217081735529
 20
167.7200171205964
 30
0.0000000000000159
 40
1.8
210
6.123233995736766E-17
220
0.0
230
-1.0
100
AcDbArc
 50
90.0
 51
270.0
  0
ARC
  5
8B8
330
1F
100
AcDbEntity
  8
OBRYS
100
AcDbCircle
 10
-392.1217081735529
 20
106.0151371205964
 30
0.0
 40
1.8
210
0.0
220
0.0
230
-1.0
100
AcDbArc
 50
90.0
 51
270.0
  0
ARC
  5
8B9
330
1F
100
AcDbEntity
  8
OBRYS
100
AcDbCircle
 10
-392.1217081735529
 20
130.7151371205964
 30
0.0
 40
1.8
210
0.0
220
0.0
230
-1.0
100
AcDbArc
 50
90.0
 51
270.0
  0
ARC
  5
8BA
330
1F
100
AcDbEntity
  8
OBRYS
100
AcDbCircle
 10
-392.1217081735529
 20
155.3700171205964
 30
0.0000000000000159
 40
1.8
210
6.123233995736766E-17
220
0.0
230
-1.0
100
AcDbArc
 50
90.0
 51
270.0
  0
ARC
  5
8BB
330
1F
100
AcDbEntity
  8
OBRYS
100
AcDbCircle
 10
-392.1217081735529
 20
143.0200171205964
 30
0.0000000000000159
 40
1.8
210
6.123233995736766E-17
220
0.0
230
-1.0
100
AcDbArc
 50
90.0
 51
270.0
  0
ARC
  5
8BC
330
1F
100
AcDbEntity
  8
OBRYS
100
AcDbCircle
 10
-392.1217081735529
 20
118.3651371205964
 30
0.0
 40
1.8
210
0.0
220
0.0
230
-1.0
100
AcDbArc
 50
90.0
 51
270.0
  0
ARC
  5
8BD
330
1F
100
AcDbEntity
  8
OBRYS
100
AcDbCircle
 10
422.8672481735529
 20
130.7151971205964
 30
0.0
 40
2.103543688480952
100
AcDbArc
 50
121.1651649999998
 51
169.0667099999996
  0
ARC
  5
8BE
330
1F
100
AcDbEntity
  8
OBRYS
100
AcDbCircle
 10
422.8672481735529
 20
130.7151971205964
 30
0.0
 40
2.103543688480952
100
AcDbArc
 50
191.0101050000007
 51
238.8409139999986
  0
ARC
  5
8BF
330
1F
100
AcDbEntity
  8
OBRYS
100
AcDbCircle
 10
422.8672481735529
 20
118.3651971205964
 30
0.0
 40
2.103543688480952
100
AcDbArc
 50
121.1651649999996
 51
169.0667099999996
  0
ARC
  5
8C0
330
1F
100
AcDbEntity
  8
OBRYS
100
AcDbCircle
 10
422.8672481735529
 20
118.3651971205964
 30
0.0
 40
2.103543688480952
100
AcDbArc
 50
191.0101049999992
 51
238.8409139999982
  0
ARC
  5
8C1
330
1F
100
AcDbEntity
  8
OBRYS
100
AcDbCircle
 10
422.8672481735529
 20
93.64984012059644
 30
0.0
 40
2.103543688480952
100
AcDbArc
 50
120.3476510000004
 51
169.0667100000004
  0
ARC
  5
8C2
330
1F
100
AcDbEntity
  8
OBRYS
100
AcDbCircle
 10
422.8672481735529
 20
93.64984012059644
 30
0.0
 40
2.103543688480952
100
AcDbArc
 50
191.0101049999999
 51
238.0432289999996
  0
ARC
  5
8C3
330
1F
100
AcDbEntity
  8
OBRYS
100
AcDbCircle
 10
422.8672481735529
 20
106.0165971205964
 30
0.0
 40
2.103543688480952
100
AcDbArc
 50
121.239251000001
 51
169.0667099999996
  0
ARC
  5
8C4
330
1F
100
AcDbEntity
  8
OBRYS
100
AcDbCircle
 10
422.8672481735529
 20
106.0165971205964
 30
0.0
 40
2.103543688480952
100
AcDbArc
 50
191.0101049999992
 51
238.9150010000003
  0
ARC
  5
8C5
330
1F
100
AcDbEntity
  8
OBRYS
100
AcDbCircle
 10
422.8672481735529
 20
143.0199571205964
 30
0.0
 40
2.103543688480952
100
AcDbArc
 50
121.1577560000015
 51
169.0667099999996
  0
ARC
  5
8C6
330
1F
100
AcDbEntity
  8
OBRYS
100
AcDbCircle
 10
422.8672481735529
 20
143.0199571205964
 30
0.0
 40
2.103543688480952
100
AcDbArc
 50
191.0101049999992
 51
238.8359569999995
  0
ARC
  5
8C7
330
1F
100
AcDbEntity
  8
OBRYS
100
AcDbCircle
 10
422.8672481735529
 20
167.7185571205964
 30
0.0
 40
2.103543688480952
100
AcDbArc
 50
121.0836419999997
 51
169.0667099999996
  0
ARC
  5
8C8
330
1F
100
AcDbEntity
  8
OBRYS
100
AcDbCircle
 10
422.8672481735529
 20
167.7185571205964
 30
0.0
 40
2.103543688480952
100
AcDbArc
 50
191.0101049999992
 51
238.7618700000009
  0
ARC
  5
8C9
330
1F
100
AcDbEntity
  8
OBRYS
100
AcDbCircle
 10
422.8672481735529
 20
155.3699571205964
 30
0.0
 40
2.103543688480952
100
AcDbArc
 50
121.1577560000015
 51
169.0667099999996
  0
ARC
  5
8CA
330
1F
100
AcDbEntity
  8
OBRYS
100
AcDbCircle
 10
422.8672481735529
 20
155.3699571205964
 30
0.0
 40
2.103543688480952
100
AcDbArc
 50
191.0101050000007
 51
238.8359569999995
  0
ARC
  5
8CB
330
1F
100
AcDbEntity
  8
OBRYS
100
AcDbCircle
 10
422.8672481735529
 20
130.7151971205964
 30
0.0
 40
2.09999990375498
100
AcDbArc
 50
169.0506929999999
 51
191.0118449999998
  0
ARC
  5
8CC
330
1F
100
AcDbEntity
  8
OBRYS
100
AcDbCircle
 10
422.8672481735529
 20
130.7151971205964
 30
0.0
 40
1.8839072783412
100
AcDbArc
 50
107.1693549999991
 51
167.7991199999996
  0
ARC
  5
8CD
330
1F
100
AcDbEntity
  8
OBRYS
100
AcDbCircle
 10
422.8672481735529
 20
130.7151971205964
 30
0.0
 40
1.8839072783412
100
AcDbArc
 50
192.263418
 51
252.8421489999997
  0
ARC
  5
8CE
330
1F
100
AcDbEntity
  8
OBRYS
100
AcDbCircle
 10
422.8672481735529
 20
93.64984012059644
 30
0.0
 40
2.09999990375498
100
AcDbArc
 50
169.0506930000003
 51
191.0118449999998
  0
ARC
  5
8D1
330
1F
100
AcDbEntity
  8
OBRYS
100
AcDbCircle
 10
422.8672481735529
 20
118.3651971205964
 30
0.0
 40
2.09999990375498
100
AcDbArc
 50
169.0506929999999
 51
191.0118449999994
  0
ARC
  5
8D2
330
1F
100
AcDbEntity
  8
OBRYS
100
AcDbCircle
 10
422.8672481735529
 20
118.3651971205964
 30
0.0
 40
1.8839072783412
100
AcDbArc
 50
107.169354999999
 51
167.7991199999988
  0
ARC
  5
8D3
330
1F
100
AcDbEntity
  8
OBRYS
100
AcDbCircle
 10
422.8672481735529
 20
118.3651971205964
 30
0.0
 40
1.8839072783412
100
AcDbArc
 50
192.263418
 51
252.8421489999994
  0
ARC
  5
8D4
330
1F
100
AcDbEntity
  8
OBRYS
100
AcDbCircle
 10
-420.8422481735529
 20
156.5699571205964
 30
0.0
 40
0.3
210
0.0
220
0.0
230
-1.0
100
AcDbArc
 50
242.0308739999983
 51
270.0
  0
ARC
  5
8D5
330
1F
100
AcDbEntity
  8
OBRYS
100
AcDbCircle
 10
-420.8422481735529
 20
154.1699571205965
 30
0.0
 40
0.3
210
0.0
220
0.0
230
-1.0
100
AcDbArc
 50
90.0
 51
117.9691260000017
  0
ARC
  5
8D6
330
1F
100
AcDbEntity
  8
OBRYS
100
AcDbCircle
 10
422.8922481735528
 20
136.8527541205964
 30
0.0
 40
2.649999999999565
100
AcDbArc
 50
156.49312
 51
168.8568790000001
  0
ARC
  5
8D7
330
1F
100
AcDbEntity
  8
OBRYS
100
AcDbCircle
 10
422.8922481735528
 20
136.8527541205964
 30
0.0
 40
2.649999999999565
100
AcDbArc
 50
191.1431220000005
 51
203.5068809999997
  0
CIRCLE
  5
8D8
330
1F
100
AcDbEntity
  8
OBRYS
100
AcDbCircle
 10
422.8922481735528
 20
136.8527541205964
 30
0.0
 40
0.5299999999997845
  0
ARC
  5
8D9
330
1F
100
AcDbEntity
  8
OBRYS
100
AcDbCircle
 10
422.8672481735529
 20
106.0165971205964
 30
0.0
 40
2.09999990375498
100
AcDbArc
 50
169.0506929999999
 51
191.0118449999994
  0
ARC
  5
8DA
330
1F
100
AcDbEntity
  8
OBRYS
100
AcDbCircle
 10
422.8672481735529
 20
106.0165971205964
 30
0.0
 40
1.8839072783412
100
AcDbArc
 50
107.3127530000011
 51
167.7991199999988
  0
ARC
  5
8DB
330
1F
100
AcDbEntity
  8
OBRYS
100
AcDbCircle
 10
422.8672481735529
 20
106.0165971205964
 30
0.0
 40
1.8839072783412
100
AcDbArc
 50
192.263418
 51
252.9879499999991
  0
ARC
  5
8DC
330
1F
100
AcDbEntity
  8
OBRYS
100
AcDbCircle
 10
-420.8422481735529
 20
141.8199571205964
 30
0.0
 40
0.3
210
0.0
220
0.0
230
-1.0
100
AcDbArc
 50
90.0
 51
117.9691260000017
  0
ARC
  5
8DD
330
1F
100
AcDbEntity
  8
OBRYS
100
AcDbCircle
 10
-420.8422481735529
 20
144.2199571205964
 30
0.0
 40
0.3
210
0.0
220
0.0
230
-1.0
100
AcDbArc
 50
242.0308739999983
 51
270.0
  0
ARC
  5
8DE
330
1F
100
AcDbEntity
  8
OBRYS
100
AcDbCircle
 10
422.8672481735529
 20
143.0199571205964
 30
0.0
 40
2.09999990375498
100
AcDbArc
 50
169.0506929999999
 51
191.0118449999998
  0
ARC
  5
8DF
330
1F
100
AcDbEntity
  8
OBRYS
100
AcDbCircle
 10
422.8672481735529
 20
143.0199571205964
 30
0.0
 40
1.8839072783412
100
AcDbArc
 50
107.1572200000016
 51
167.7991199999996
  0
ARC
  5
8E0
330
1F
100
AcDbEntity
  8
OBRYS
100
AcDbCircle
 10
422.8672481735529
 20
143.0199571205964
 30
0.0
 40
1.8839072783412
100
AcDbArc
 50
192.263418
 51
252.8299839999998
  0
ARC
  5
8E1
330
1F
100
AcDbEntity
  8
OBRYS
100
AcDbCircle
 10
422.8672481735529
 20
167.7185571205964
 30
0.0
 40
2.09999990375498
100
AcDbArc
 50
169.0506929999999
 51
191.0118449999998
  0
ARC
  5
8E2
330
1F
100
AcDbEntity
  8
OBRYS
100
AcDbCircle
 10
422.8672481735529
 20
167.7185571205964
 30
0.0
 40
1.8839072783412
100
AcDbArc
 50
107.0113879999994
 51
167.7991199999996
  0
ARC
  5
8E3
330
1F
100
AcDbEntity
  8
OBRYS
100
AcDbCircle
 10
422.8672481735529
 20
167.7185571205964
 30
0.0
 40
1.8839072783412
100
AcDbArc
 50
192.263418
 51
252.686615999999
  0
CIRCLE
  5
8E4
330
1F
100
AcDbEntity
  8
OBRYS
100
AcDbCircle
 10
422.8622481735528
 20
136.8675771205964
 30
0.0
 40
1.025
  0
ARC
  5
8E5
330
1F
100
AcDbEntity
  8
OBRYS
100
AcDbCircle
 10
422.8672481735529
 20
155.3699571205964
 30
0.0
 40
2.09999990375498
100
AcDbArc
 50
169.0506929999999
 51
191.0118449999998
  0
ARC
  5
8E6
330
1F
100
AcDbEntity
  8
OBRYS
100
AcDbCircle
 10
422.8672481735529
 20
155.3699571205964
 30
0.0
 40
1.8839072783412
100
AcDbArc
 50
107.1572200000016
 51
167.7991199999996
  0
ARC
  5
8E7
330
1F
100
AcDbEntity
  8
OBRYS
100
AcDbCircle
 10
422.8672481735529
 20
155.3699571205964
 30
0.0
 40
1.8839072783412
100
AcDbArc
 50
192.263418
 51
252.8299839999998
  0
ARC
  5
8E8
330
1F
100
AcDbEntity
  8
OBRYS
100
AcDbCircle
 10
-420.8422481735529
 20
166.5185571205964
 30
0.0
 40
0.3
210
0.0
220
0.0
230
-1.0
100
AcDbArc
 50
90.0
 51
117.9691260000017
  0
ARC
  5
8E9
330
1F
100
AcDbEntity
  8
OBRYS
100
AcDbCircle
 10
-420.8422481735529
 20
168.9185571205964
 30
0.0
 40
0.3
210
0.0
220
0.0
230
-1.0
100
AcDbArc
 50
242.0308739999983
 51
270.0
  0
ARC
  5
8EA
330
1F
100
AcDbEntity
  8
OBRYS
100
AcDbCircle
 10
422.8622481735528
 20
136.8675771205964
 30
0.0
 40
2.35
100
AcDbArc
 50
270.0
 51
90.0
  0
ARC
  5
8EB
330
1F
100
AcDbEntity
  8
OBRYS
100
AcDbCircle
 10
-422.8622481735528
 20
93.66513712059643
 30
0.0
 40
1.8
210
0.0
220
0.0
230
-1.0
100
AcDbArc
 50
90.0
 51
270.0
  0
ARC
  5
8EC
330
1F
100
AcDbEntity
  8
OBRYS
100
AcDbCircle
 10
-422.8622481735528
 20
167.7200171205964
 30
0.0000000000000159
 40
1.8
210
6.123233995736766E-17
220
0.0
230
-1.0
100
AcDbArc
 50
90.0
 51
270.0
  0
ARC
  5
8ED
330
1F
100
AcDbEntity
  8
OBRYS
100
AcDbCircle
 10
-422.8622481735528
 20
106.0151371205964
 30
0.0
 40
1.8
210
0.0
220
0.0
230
-1.0
100
AcDbArc
 50
90.0
 51
270.0
  0
ARC
  5
8EE
330
1F
100
AcDbEntity
  8
OBRYS
100
AcDbCircle
 10
-422.8622481735528
 20
130.7151371205964
 30
0.0
 40
1.8
210
0.0
220
0.0
230
-1.0
100
AcDbArc
 50
90.0
 51
270.0
  0
ARC
  5
8EF
330
1F
100
AcDbEntity
  8
OBRYS
100
AcDbCircle
 10
-422.8622481735528
 20
155.3700171205964
 30
0.0000000000000159
 40
1.8
210
6.123233995736766E-17
220
0.0
230
-1.0
100
AcDbArc
 50
90.0
 51
270.0
  0
ARC
  5
8F0
330
1F
100
AcDbEntity
  8
OBRYS
100
AcDbCircle
 10
-422.8622481735528
 20
143.0200171205964
 30
0.0000000000000159
 40
1.8
210
6.123233995736766E-17
220
0.0
230
-1.0
100
AcDbArc
 50
90.0
 51
270.0
  0
ARC
  5
8F1
330
1F
100
AcDbEntity
  8
OBRYS
100
AcDbCircle
 10
-422.8622481735528
 20
118.3651371205964
 30
0.0
 40
1.8
210
0.0
220
0.0
230
-1.0
100
AcDbArc
 50
90.0
 51
270.0
  0
LINE
  5
8F2
330
1F
100
AcDbEntity
  8
OBRYS
100
AcDbLine
 10
419.3922481735528
 20
176.2351081205964
 30
0.0
 11
419.3922481735528
 21
85.16513712059643
 31
0.0
  0
LINE
  5
8F3
330
1F
100
AcDbEntity
  8
OBRYS
100
AcDbLine
 10
420.2922481735529
 20
85.15004412059645
 30
0.0
 11
420.2922481735529
 21
176.2351101205965
 31
0.0
  0
DIMENSION
  5
8F4
330
1F
100
AcDbEntity
  8
KOTY
100
AcDbDimension
280
     0
  2
*D2
 10
395.4517081735528
 20
76.44098373096305
 30
0.0
 11
392.5017081735529
 21
79.48298373096306
 31
0.0
 70
    32
 71
     5
 42
-1.0
 73
     0
 74
     0
 75
     0
  3
STANDARD
100
AcDbAlignedDimension
 13
389.5517081735529
 23
85.15004412059645
 33
0.0
 14
395.4517081735528
 24
85.15004412059645
 34
0.0
100
AcDbRotatedDimension
1001
ACAD
1000
DSTYLE
1002
{
1070
     7
1000

1070
     6
1000

1070
     5
1000

1070
   173
1070
     1
1070
   271
1070
     0
1070
   278
1070
    44
1070
    73
1070
     0
1070
    77
1070
     1
1070
   140
1040
4.0
1070
   147
1040
1.0
1070
    41
1040
4.0
1002
}
  0
DIMENSION
  5
8F5
330
1F
100
AcDbEntity
  8
KOTY
100
AcDbDimension
280
     0
  2
*D3
 10
426.192248173553
 20
76.44098373096305
 30
0.0
 11
422.7922481735529
 21
79.44098373096305
 31
0.0
 70
    32
 71
     5
 42
-1.0
 73
     0
 74
     0
 75
     0
  3
STANDARD
100
AcDbAlignedDimension
 13
419.3922481735528
 23
85.16513712059643
 33
0.0
 14
426.192248173553
 24
85.16513712059643
 34
0.0
100
AcDbRotatedDimension
1001
ACAD
1000
DSTYLE
1002
{
1070
     7
1000

1070
     6
1000

1070
     5
1000

1070
   173
1070
     1
1070
   271
1070
     0
1070
   278
1070
    44
1070
    73
1070
     0
1070
    77
1070
     1
1070
   140
1040
4.0
1070
   147
1040
1.0
1070
    41
1040
4.0
1002
}
  0
MTEXT
  5
8F6
330
1F
100
AcDbEntity
  8
POZNAMKA
100
AcDbMText
 10
382.3420250184183
 20
74.27924115955766
 30
0.0
 40
2.3
 41
21.93504396803471
 46
2.3
 71
     1
 72
     1
  1
{šířka bez víčka}
 73
     1
 44
1.0
1001
ACAD
1000
ACAD_MTEXT_DEFINED_HEIGHT_BEGIN
1070
    46
1040
2.3
1000
ACAD_MTEXT_DEFINED_HEIGHT_END
  0
MTEXT
  5
8F7
330
1F
100
AcDbEntity
  8
POZNAMKA
100
AcDbMText
 10
412.8245274340909
 20
74.45873128553627
 30
0.0
 40
2.3
 41
21.93504396803471
 46
2.3
 71
     1
 72
     1
  1
{šířka s víčkem}
 73
     1
 44
1.0
1001
ACAD
1000
ACAD_MTEXT_DEFINED_HEIGHT_BEGIN
1070
    46
1040
2.3
1000
ACAD_MTEXT_DEFINED_HEIGHT_END
  0
DIMENSION
  5
944
330
1F
100
AcDbEntity
  8
KOTY
100
AcDbDimension
280
     0
  2
*D6
 10
284.5469719553507
 20
85.15004412059645
 30
0.0
 11
281.5049719553507
 21
130.692656142631
 31
0.0
 70
    32
 71
     5
 42
-1.0
 73
     0
 74
     0
 75
     0
  3
STANDARD
100
AcDbAlignedDimension
 13
327.6617968661942
 23
176.2352681646655
 33
0.0
 14
342.1615147445136
 24
85.15004412059645
 34
0.0
 50
90.0
100
AcDbRotatedDimension
1001
ACAD
1000
DSTYLE
1002
{
1070
     7
1000

1070
     6
1000

1070
     5
1000

1070
   173
1070
     1
1070
   271
1070
     0
1070
   278
1070
    44
1070
   140
1040
4.0
1070
    73
1070
     0
1070
    77
1070
     1
1070
   147
1040
1.0
1070
    41
1040
4.0
1002
}
  0
DIMENSION
  5
974
330
1F
100
AcDbEntity
  8
KOTY
100
AcDbDimension
280
     0
  2
*D9
 10
352.2370410006753
 20
189.5181652371337
 30
0.0
 11
323.1371807106412
 21
192.5601652371337
 31
0.0
 70
    32
 71
     5
 42
-1.0
 73
     0
 74
     0
 75
     0
  3
STANDARD
100
AcDbAlignedDimension
 13
294.0373204206071
 23
147.596533905332
 33
0.0
 14
352.2370410006753
 24
154.482935270798
 34
0.0
100
AcDbRotatedDimension
1001
ACAD
1000
DSTYLE
1002
{
1070
     7
1000

1070
     6
1000

1070
     5
1000

1070
   173
1070
     1
1070
   271
1070
     0
1070
   278
1070
    44
1070
   140
1040
4.0
1070
    73
1070
     0
1070
    77
1070
     1
1070
   147
1040
1.0
1070
    41
1040
4.0
1002
}
  0
ARC
  5
ACF
330
1F
100
AcDbEntity
  8
OBRYS
100
AcDbCircle
 10
392.1340717388362
 20
106.016607032717
 30
0.0
 40
2.107363473359335
100
AcDbArc
 50
121.4105667149781
 51
238.7436852850211
  0
ARC
  5
AD3
330
1F
100
AcDbEntity
  8
OBRYS
100
AcDbCircle
 10
392.1340703738971
 20
93.64973673215633
 30
0.0
 40
2.107362049315888
100
AcDbArc
 50
120.5189697300108
 51
237.8719102699892
  0
ARC
  5
AD4
330
1F
100
AcDbEntity
  8
OBRYS
100
AcDbCircle
 10
392.1340717425708
 20
118.3651975112284
 30
0.0
 40
2.107363471892437
100
AcDbArc
 50
121.3364806461099
 51
238.6695983538908
  0
ARC
  5
AD5
330
1F
100
AcDbEntity
  8
OBRYS
100
AcDbCircle
 10
392.1340717425707
 20
130.7151975112284
 30
0.0
 40
2.107363471892384
100
AcDbArc
 50
121.3364806461075
 51
238.6695983538918
  0
ARC
  5
AD6
330
1F
100
AcDbEntity
  8
OBRYS
100
AcDbCircle
 10
392.1340714630871
 20
143.0199567166137
 30
0.0
 40
2.107363191976726
100
AcDbArc
 50
121.3290673832324
 51
238.6646456167688
  0
ARC
  5
AD7
330
1F
100
AcDbEntity
  8
OBRYS
100
AcDbCircle
 10
392.1340714630871
 20
155.3699567166137
 30
0.0
 40
2.107363191976648
100
AcDbArc
 50
121.3290673832289
 51
238.6646456167693
  0
ARC
  5
AD8
330
1F
100
AcDbEntity
  8
OBRYS
100
AcDbCircle
 10
392.1340714779778
 20
167.7185471936622
 30
0.0
 40
2.107363201711733
100
AcDbArc
 50
121.2549539087122
 51
238.5905580912843
  0
MTEXT
  5
B02
330
1F
100
AcDbEntity
  8
POZNAMKA
100
AcDbMText
 10
431.699791349298
 20
169.5518816780124
 30
0.0000000000000089
 40
2.3
 41
6.057468150280044
 46
3.500002
 71
     1
 72
     1
  1
{\H1.52174x;B2}
 73
     1
 44
1.0
1001
ACAD
1000
ACAD_MTEXT_DEFINED_HEIGHT_BEGIN
1070
    46
1040
3.500002
1000
ACAD_MTEXT_DEFINED_HEIGHT_END
  0
MTEXT
  5
B2C
330
1F
100
AcDbEntity
  8
POZNAMKA
100
AcDbMText
 10
431.699791349298
 20
157.1700171205964
 30
0.00000000000001
 40
2.3
 41
6.057468150280044
 46
3.500002
 71
     1
 72
     1
  1
{\H1.52174x;A2}
 73
     1
 44
1.0
1001
ACAD
1000
ACAD_MTEXT_DEFINED_HEIGHT_BEGIN
1070
    46
1040
3.500002
1000
ACAD_MTEXT_DEFINED_HEIGHT_END
  0
MTEXT
  5
B56
330
1F
100
AcDbEntity
  8
POZNAMKA
100
AcDbMText
 10
431.699791349298
 20
144.8200171205964
 30
0.00000000000001
 40
2.3
 41
6.057468150280044
 46
3.500002
 71
     1
 72
     1
  1
{\H1.52174x;SH}
 73
     1
 44
1.0
1001
ACAD
1000
ACAD_MTEXT_DEFINED_HEIGHT_BEGIN
1070
    46
1040
3.500002
1000
ACAD_MTEXT_DEFINED_HEIGHT_END
  0
MTEXT
  5
B80
330
1F
100
AcDbEntity
  8
POZNAMKA
100
AcDbMText
 10
431.699791349298
 20
132.5151371205964
 30
0.0
 40
2.3
 41
6.057468150280044
 46
3.500002
 71
     1
 72
     1
  1
{\H1.52174x;SH}
 73
     1
 44
1.0
1001
ACAD
1000
ACAD_MTEXT_DEFINED_HEIGHT_BEGIN
1070
    46
1040
3.500002
1000
ACAD_MTEXT_DEFINED_HEIGHT_END
  0
MTEXT
  5
BAA
330
1F
100
AcDbEntity
  8
POZNAMKA
100
AcDbMText
 10
431.699791349298
 20
120.1651371205964
 30
0.0
 40
2.3
 41
6.057468150280044
 46
3.500002
 71
     1
 72
     1
  1
{\H1.52174x;A1}
 73
     1
 44
1.0
1001
ACAD
1000
ACAD_MTEXT_DEFINED_HEIGHT_BEGIN
1070
    46
1040
3.500002
1000
ACAD_MTEXT_DEFINED_HEIGHT_END
  0
MTEXT
  5
BD4
330
1F
100
AcDbEntity
  8
POZNAMKA
100
AcDbMText
 10
431.699791349298
 20
107.8151371205964
 30
0.0
 40
2.3
 41
6.057468150280044
 46
3.500002
 71
     1
 72
     1
  1
{\H1.52174x;B1}
 73
     1
 44
1.0
1001
ACAD
1000
ACAD_MTEXT_DEFINED_HEIGHT_BEGIN
1070
    46
1040
3.500002
1000
ACAD_MTEXT_DEFINED_HEIGHT_END
  0
MTEXT
  5
BFE
330
1F
100
AcDbEntity
  8
POZNAMKA
100
AcDbMText
 10
300.6723229605063
 20
162.3758051599928
 30
0.0
 40
2.3
 41
6.057468150280044
 46
3.500002
 71
     1
 72
     1
  1
{\H1.52174x;SH}
 73
     1
 44
1.0
1001
ACAD
1000
ACAD_MTEXT_DEFINED_HEIGHT_BEGIN
1070
    46
1040
3.500002
1000
ACAD_MTEXT_DEFINED_HEIGHT_END
  0
MTEXT
  5
C28
330
1F
100
AcDbEntity
  8
POZNAMKA
100
AcDbMText
 10
314.4306376176729
 20
173.631899279571
 30
0.0
 40
2.3
 41
6.057468150280044
 46
3.500002
 71
     1
 72
     1
  1
{\H1.52174x;A2}
 73
     1
 44
1.0
1001
ACAD
1000
ACAD_MTEXT_DEFINED_HEIGHT_BEGIN
1070
    46
1040
3.500002
1000
ACAD_MTEXT_DEFINED_HEIGHT_END
  0
MTEXT
  5
C52
330
1F
100
AcDbEntity
  8
POZNAMKA
100
AcDbMText
 10
331.6292562412385
 20
180.5415223103274
 30
0.0
 40
2.3
 41
6.057468150280044
 46
3.500002
 71
     1
 72
     1
  1
{\H1.52174x;B2}
 73
     1
 44
1.0
1001
ACAD
1000
ACAD_MTEXT_DEFINED_HEIGHT_BEGIN
1070
    46
1040
3.500002
1000
ACAD_MTEXT_DEFINED_HEIGHT_END
  0
MTEXT
  5
C7C
330
1F
100
AcDbEntity
  8
POZNAMKA
100
AcDbMText
 10
300.8563934768877
 20
121.6978453976206
 30
0.0
 40
2.3
 41
6.057468150280044
 46
3.500002
 71
     1
 72
     1
  1
{\H1.52174x;SH}
 73
     1
 44
1.0
1001
ACAD
1000
ACAD_MTEXT_DEFINED_HEIGHT_BEGIN
1070
    46
1040
3.500002
1000
ACAD_MTEXT_DEFINED_HEIGHT_END
  0
MTEXT
  5
CA6
330
1F
100
AcDbEntity
  8
POZNAMKA
100
AcDbMText
 10
314.6441193736227
 20
109.271583289778
 30
0.0
 40
2.3
 41
6.057468150280044
 46
3.500002
 71
     1
 72
     1
  1
{\H1.52174x;A1}
 73
     1
 44
1.0
1001
ACAD
1000
ACAD_MTEXT_DEFINED_HEIGHT_BEGIN
1070
    46
1040
3.500002
1000
ACAD_MTEXT_DEFINED_HEIGHT_END
  0
MTEXT
  5
CD0
330
1F
100
AcDbEntity
  8
POZNAMKA
100
AcDbMText
 10
331.5699313110594
 20
96.70225143576457
 30
0.0
 40
2.3
 41
6.057468150280044
 46
3.500002
 71
     1
 72
     1
  1
{\H1.52174x;B1}
 73
     1
 44
1.0
1001
ACAD
1000
ACAD_MTEXT_DEFINED_HEIGHT_BEGIN
1070
    46
1040
3.500002
1000
ACAD_MTEXT_DEFINED_HEIGHT_END
  0
LINE
  5
CDA
330
1F
100
AcDbEntity
  8
OBRYS
100
AcDbLine
 10
294.5372037755169
 20
133.9153707143079
 30
0.0
 11
297.5175558798067
 21
133.9153707143079
 31
0.0
  0
LINE
  5
CDB
330
1F
100
AcDbEntity
  8
OBRYS
100
AcDbLine
 10
297.5175558798067
 20
133.9153707143079
 30
0.0
 11
297.6908441827146
 21
134.2154385310732
 31
0.0
  0
LINE
  5
CDC
330
1F
100
AcDbEntity
  8
OBRYS
100
AcDbLine
 10
297.6908441827146
 20
134.2154385310732
 30
0.0
 11
299.033053383768
 21
134.2154385310732
 31
0.0
  0
LINE
  5
CDD
330
1F
100
AcDbEntity
  8
OBRYS
100
AcDbLine
 10
299.033053383768
 20
134.2154385310732
 30
0.0
 11
299.033053383768
 21
139.5201965592609
 31
0.0
  0
LINE
  5
CDE
330
1F
100
AcDbEntity
  8
OBRYS
100
AcDbLine
 10
297.6908441827146
 20
139.5201965592609
 30
0.0
 11
299.033053383768
 21
139.5201965592609
 31
0.0
  0
LINE
  5
CDF
330
1F
100
AcDbEntity
  8
OBRYS
100
AcDbLine
 10
297.5175558798067
 20
139.8202643760262
 30
0.0
 11
297.6908441827146
 21
139.5201965592609
 31
0.0
  0
LINE
  5
CE0
330
1F
100
AcDbEntity
  8
OBRYS
100
AcDbLine
 10
294.5372037755169
 20
139.8202643760262
 30
0.0
 11
297.5175558798067
 21
139.8202643760262
 31
0.0
  0
ARC
  5
CE1
330
1F
100
AcDbEntity
  8
OBRYS
100
AcDbCircle
 10
294.5372545774628
 20
140.3201985328819
 30
0.0
 40
0.4999341594368932
100
AcDbArc
 50
180.0058222408963
 51
269.9941777591265
  0
LINE
  5
CE2
330
1F
100
AcDbEntity
  8
OBRYS
100
AcDbLine
 10
294.0373204206071
 20
140.3201477309358
 30
0.0
 11
294.0373204206071
 21
147.596533905332
 31
0.0
  0
LINE
  5
CE3
330
1F
100
AcDbEntity
  8
OBRYS
100
AcDbLine
 10
294.0373204206071
 20
147.596533905332
 30
0.0
 11
327.6617968661942
 21
176.2352681646655
 31
0.0
  0
LINE
  5
CE4
330
1F
100
AcDbEntity
  8
OBRYS
100
AcDbLine
 10
327.6617968661942
 20
176.2352681646655
 30
0.0
 11
341.2347840589813
 21
176.2352681646654
 31
0.0
  0
LINE
  5
CE5
330
1F
100
AcDbEntity
  8
OBRYS
100
AcDbLine
 10
342.8333083641373
 20
175.4372117955073
 30
0.0
 11
347.5362082110519
 21
169.1822964324876
 31
0.0
  0
ARC
  5
CE6
330
1F
100
AcDbEntity
  8
OBRYS
100
AcDbCircle
 10
345.9213762436532
 20
167.9719977435908
 30
0.0
 40
2.018044895258276
100
AcDbArc
 50
357.5403078783296
 51
36.85115259492236
  0
ARC
  5
CE7
330
1F
100
AcDbEntity
  8
OBRYS
100
AcDbCircle
 10
348.2375438355959
 20
167.8853650276838
 30
0.0
 40
0.2999820015715814
100
AcDbArc
 50
179.9951850739149
 51
280.9398108189986
  0
LINE
  5
CE8
330
1F
100
AcDbEntity
  8
OBRYS
100
AcDbLine
 10
348.2944737273555
 20
167.5908345730766
 30
0.0
 11
353.8875862476585
 21
168.6663933835716
 31
0.0
  0
VIEWPORT
  5
CED
330
CE9
100
AcDbEntity
 67
     1
  8
0
100
AcDbViewport
 10
5.25
 20
3.5
 30
0.0
 40
12.6
 41
8.4
 68
     1
 69
     1
 12
5.25
 22
3.5
 13
0.0
 23
0.0
 14
0.5
 24
0.5
 15
0.0
 25
0.0
 16
0.0
 26
0.0
 36
1.0
 17
0.0
 27
0.0
 37
0.0
 42
50.0
 43
0.0
 44
0.0
 45
8.4
 50
0.0
 51
0.0
 72
   100
 90
   557152
  1

281
     0
 71
     1
 74
     0
110
0.0
120
0.0
130
0.0
111
1.0
121
0.0
131
0.0
112
0.0
122
1.0
132
0.0
 79
     0
146
0.0
170
     0
 61
     5
292
     1
282
     1
141
0.0
142
0.0
 63
   256
361
CEF
  0
VIEWPORT
  5
CEE
330
CE9
100
AcDbEntity
 67
     1
  8
0
100
AcDbViewport
 10
5.25
 20
3.5
 30
0.0
 40
8.4
 41
5.600000000000001
 68
     2
 69
     2
 12
358.6626334153244
 22
133.2705531983457
 13
0.0
 23
0.0
 14
0.5
 24
0.5
 15
0.0
 25
0.0
 16
0.0
 26
0.0
 36
1.0
 17
0.0
 27
0.0
 37
0.0
 42
50.0
 43
0.0
 44
0.0
 45
125.1328085591276
 50
0.0
 51
0.0
 72
   100
 90
   557152
  1

281
     0
 71
     1
 74
     0
110
0.0
120
0.0
130
0.0
111
1.0
121
0.0
131
0.0
112
0.0
122
1.0
132
0.0
 79
     0
146
0.0
170
     0
 61
     5
292
     1
282
     1
141
0.0
142
0.0
 63
   256
  0
ENDSEC
  0
SECTION
  2
OBJECTS
  0
DICTIONARY
  5
C
330
0
100
AcDbDictionary
281
     1
  3
ACAD_DETAILVIEWSTYLE
350
122
  3
ACAD_GROUP
350
D
  3
ACAD_IMAGE_VARS
350
DC
  3
ACAD_LAYOUT
350
AA5
  3
ACAD_MATERIAL
350
AC1
  3
ACAD_MLEADERSTYLE
350
AC7
  3
ACAD_MLINESTYLE
350
17
  3
ACAD_SCALELIST
350
A83
  3
ACAD_SECTIONVIEWSTYLE
350
123
  3
ACAD_TABLESTYLE
350
AC5
  3
ACAD_VISUALSTYLE
350
AA8
  3
ACDB_RECOMPOSE_DATA
350
CF2
  3
ACDBVARIABLEDICTIONARY
350
66
  3
APPDATA
350
E1
  0
SUN
  5
ACA
330
94
100
AcDbSun
 90
        1
290
     0
 63
     7
421
 16777215
 40
1.0
291
     1
 91
  2455826
 92
 54000000
292
     0
 70
     2
 71
   256
280
     1
  0
DICTIONARY
  5
912
330
2
100
AcDbDictionary
280
     1
281
     1
  3
ACAD_LAYERSTATES
360
913
  3
ACLYDICTIONARY
360
AD2
  0
SUN
  5
CEF
330
CED
100
AcDbSun
 90
        1
290
     0
 63
     7
421
 16777215
 40
1.0
291
     1
 91
  2455826
 92
 54000000
292
     0
 70
     2
 71
   256
280
     1
  0
DICTIONARY
  5
122
102
{ACAD_REACTORS
330
C
102
}
330
C
100
AcDbDictionary
281
     1
  0
DICTIONARY
  5
D
102
{ACAD_REACTORS
330
C
102
}
330
C
100
AcDbDictionary
281
     1
  0
RASTERVARIABLES
  5
DC
102
{ACAD_REACTORS
330
C
102
}
330
C
100
AcDbRasterVariables
 90
        0
 70
     1
 71
     1
 72
     5
  0
DICTIONARY
  5
AA5
102
{ACAD_REACTORS
330
C
102
}
330
C
100
AcDbDictionary
281
     1
  3
Model
350
AA6
  3
Sheet1
350
CEA
  0
DICTIONARY
  5
AC1
102
{ACAD_REACTORS
330
C
102
}
330
C
100
AcDbDictionary
281
     1
  3
ByBlock
350
AC3
  3
ByLayer
350
AC2
  3
Global
350
AC4
  0
DICTIONARY
  5
AC7
102
{ACAD_REACTORS
330
C
102
}
330
C
100
AcDbDictionary
281
     1
  3
Standard
350
AC8
  0
DICTIONARY
  5
17
102
{ACAD_REACTORS
330
C
102
}
330
C
100
AcDbDictionary
281
     1
  3
STANDARD
350
18
  0
DICTIONARY
  5
A83
102
{ACAD_REACTORS
330
C
102
}
330
C
100
AcDbDictionary
281
     1
  3
A0
350
A84
  3
A1
350
A85
  3
A2
350
A86
  3
A3
350
A87
  3
A4
350
A88
  3
A5
350
A89
  3
A6
350
A8A
  3
A7
350
A8B
  3
A8
350
A8C
  3
A9
350
A8D
  3
B0
350
A8E
  3
B1
350
A8F
  3
B2
350
A90
  3
B3
350
A91
  3
B4
350
A92
  3
B5
350
A93
  3
B6
350
A94
  3
B7
350
A95
  3
B8
350
A96
  3
B9
350
A97
  3
C0
350
A98
  3
C1
350
A99
  3
C2
350
A9A
  3
C3
350
A9B
  3
C4
350
A9C
  3
C5
350
A9D
  3
C6
350
A9E
  3
C7
350
A9F
  3
C8
350
AA0
  3
C9
350
AA1
  3
D0
350
AA2
  3
D1
350
AA3
  3
D2
350
AA4
  0
DICTIONARY
  5
123
102
{ACAD_REACTORS
330
C
102
}
330
C
100
AcDbDictionary
281
     1
  0
DICTIONARY
  5
AC5
102
{ACAD_REACTORS
330
C
102
}
330
C
100
AcDbDictionary
281
     1
  3
Standard
350
AC6
  0
DICTIONARY
  5
AA8
102
{ACAD_REACTORS
330
C
102
}
330
C
100
AcDbDictionary
281
     1
  3
2dWireframe
350
AAD
  3
Basic
350
AB0
  3
Brighten
350
AB4
  3
ColorChange
350
AB8
  3
Conceptual
350
AB2
  3
Dim
350
AB3
  3
EdgeColorOff
350
ABB
  3
Facepattern
350
AB7
  3
Flat
350
AA9
  3
FlatWithEdges
350
AAA
  3
Gouraud
350
AAB
  3
GouraudWithEdges
350
AAC
  3
Hidden
350
AAF
  3
JitterOff
350
AB9
  3
Linepattern
350
AB6
  3
OverhangOff
350
ABA
  3
Realistic
350
AB1
  3
Shaded
350
AC0
  3
Shaded with edges
350
ABF
  3
Shades of Gray
350
ABC
  3
Sketchy
350
ABD
  3
Thicken
350
AB5
  3
Wireframe
350
AAE
  3
X-Ray
350
ABE
  0
XRECORD
  5
CF2
102
{ACAD_REACTORS
330
C
102
}
330
C
100
AcDbXrecord
280
     1
 90
        1
330
AC6
  0
DICTIONARY
  5
66
102
{ACAD_REACTORS
330
C
102
}
330
C
100
AcDbDictionary
281
     1
  3
CANNOSCALE
350
ACB
  3
CMLEADERSTYLE
350
ACD
  3
CTABLESTYLE
350
ACC
  3
DIMASSOC
350
67
  3
HIDETEXT
350
6B
  3
MSLTSCALE
350
ACE
  0
DICTIONARY
  5
E1
102
{ACAD_REACTORS
330
C
102
}
330
C
100
AcDbDictionary
281
     1
  0
DICTIONARY
  5
913
102
{ACAD_REACTORS
330
912
102
}
330
912
100
AcDbDictionary
281
     1
  3
ARGON_LAYERP_1
350
AD1
  0
DICTIONARY
  5
AD2
102
{ACAD_REACTORS
330
912
102
}
330
912
100
AcDbDictionary
281
     1
1001
ACAD
1000
<All
  0
LAYOUT
  5
AA6
102
{ACAD_REACTORS
330
AA5
102
}
330
AA5
100
AcDbPlotSettings
  1

  2
none_device
  4
Letter_(8.50_x_11.00_Inches)
  6

 40
6.35
 41
6.35
 42
6.35
 43
6.35
 44
215.9
 45
279.4
 46
0.0
 47
0.0
 48
0.0
 49
0.0
140
0.0
141
0.0
142
1.0
143
44.15554963603658
 70
  1712
 72
     0
 73
     0
 74
     0
  7

 75
     0
 76
     0
 77
     2
 78
   300
147
0.0226472098805871
148
-3065.975458704005
149
-612.2815579011645
100
AcDbLayout
  1
Model
 70
     1
 71
     0
 10
0.0
 20
0.0
 11
12.0
 21
9.0
 12
0.0
 22
0.0
 32
0.0
 14
1.000000000000000E+20
 24
1.000000000000000E+20
 34
1.000000000000000E+20
 15
-1.000000000000000E+20
 25
-1.000000000000000E+20
 35
-1.000000000000000E+20
146
0.0
 13
0.0
 23
0.0
 33
0.0
 16
1.0
 26
0.0
 36
0.0
 17
0.0
 27
1.0
 37
0.0
 76
     0
330
1F
331
94
  0
LAYOUT
  5
CEA
102
{ACAD_REACTORS
330
AA5
102
}
330
AA5
100
AcDbPlotSettings
  1

  2
none_device
  4
ANSI_A_(11.00_x_8.50_Inches)
  6

 40
6.35
 41
19.05
 42
6.35
 43
19.05
 44
279.4
 45
215.9
 46
0.0
 47
0.0
 48
0.0
 49
0.0
140
0.0
141
0.0
142
1.0
143
1.0
 70
   688
 72
     0
 73
     0
 74
     5
  7

 75
    16
 76
     0
 77
     2
 78
   300
147
1.0
148
0.0
149
0.0
100
AcDbLayout
  1
Sheet1
 70
     1
 71
     1
 10
0.0
 20
0.0
 11
0.0
 21
0.0
 12
0.0
 22
0.0
 32
0.0
 14
1.05
 24
0.6999999999999997
 34
0.0
 15
9.45
 25
6.300000000000001
 35
0.0
146
0.0
 13
0.0
 23
0.0
 33
0.0
 16
1.0
 26
0.0
 36
0.0
 17
0.0
 27
1.0
 37
0.0
 76
     0
330
CE9
331
CED
  0
MATERIAL
  5
AC3
102
{ACAD_REACTORS
330
AC1
102
}
330
AC1
100
AcDbMaterial
  1
ByBlock
 72
     1
 94
      127
  0
MATERIAL
  5
AC2
102
{ACAD_REACTORS
330
AC1
102
}
330
AC1
100
AcDbMaterial
  1
ByLayer
 72
     1
 94
      127
  0
MATERIAL
  5
AC4
102
{ACAD_REACTORS
330
AC1
102
}
330
AC1
100
AcDbMaterial
  1
Global
 72
     1
 94
      127
  0
MLEADERSTYLE
  5
AC8
102
{ACAD_REACTORS
330
AC7
102
}
330
AC7
100
AcDbMLeaderStyle
179
     2
170
     2
171
     1
172
     0
 90
        2
 40
0.0
 41
0.0
173
     1
 91
-1056964608
340
14
 92
       -2
290
     1
 42
0.09
291
     1
 43
0.36
  3
Standard
341
0
 44
0.18
300

342
11
174
     1
178
     6
175
     1
176
     0
 93
-1056964608
 45
0.18
292
     0
297
     0
 46
0.18
343
0
 94
-1056964608
 47
1.0
 49
1.0
140
1.0
293
     1
141
0.0
294
     1
177
     0
142
1.0
295
     0
296
     0
143
0.125
271
     0
272
     9
273
     9
298
     0
  0
MLINESTYLE
  5
18
102
{ACAD_REACTORS
330
17
102
}
330
17
100
AcDbMlineStyle
  2
STANDARD
 70
     0
  3

 62
   256
 51
90.0
 52
90.0
 71
     2
 49
0.5
 62
   256
  6
BYLAYER
 49
-0.5
 62
   256
  6
BYLAYER
  0
SCALE
  5
A84
102
{ACAD_REACTORS
330
A83
102
}
330
A83
100
AcDbScale
 70
     0
300
1:1
140
1.0
141
1.0
290
     1
  0
SCALE
  5
A85
102
{ACAD_REACTORS
330
A83
102
}
330
A83
100
AcDbScale
 70
     0
300
1:2
140
1.0
141
2.0
290
     0
  0
SCALE
  5
A86
102
{ACAD_REACTORS
330
A83
102
}
330
A83
100
AcDbScale
 70
     0
300
1:4
140
1.0
141
4.0
290
     0
  0
SCALE
  5
A87
102
{ACAD_REACTORS
330
A83
102
}
330
A83
100
AcDbScale
 70
     0
300
1:5
140
1.0
141
5.0
290
     0
  0
SCALE
  5
A88
102
{ACAD_REACTORS
330
A83
102
}
330
A83
100
AcDbScale
 70
     0
300
1:8
140
1.0
141
8.0
290
     0
  0
SCALE
  5
A89
102
{ACAD_REACTORS
330
A83
102
}
330
A83
100
AcDbScale
 70
     0
300
1:10
140
1.0
141
10.0
290
     0
  0
SCALE
  5
A8A
102
{ACAD_REACTORS
330
A83
102
}
330
A83
100
AcDbScale
 70
     0
300
1:16
140
1.0
141
16.0
290
     0
  0
SCALE
  5
A8B
102
{ACAD_REACTORS
330
A83
102
}
330
A83
100
AcDbScale
 70
     0
300
1:20
140
1.0
141
20.0
290
     0
  0
SCALE
  5
A8C
102
{ACAD_REACTORS
330
A83
102
}
330
A83
100
AcDbScale
 70
     0
300
1:30
140
1.0
141
30.0
290
     0
  0
SCALE
  5
A8D
102
{ACAD_REACTORS
330
A83
102
}
330
A83
100
AcDbScale
 70
     0
300
1:40
140
1.0
141
40.0
290
     0
  0
SCALE
  5
A8E
102
{ACAD_REACTORS
330
A83
102
}
330
A83
100
AcDbScale
 70
     0
300
1:50
140
1.0
141
50.0
290
     0
  0
SCALE
  5
A8F
102
{ACAD_REACTORS
330
A83
102
}
330
A83
100
AcDbScale
 70
     0
300
1:100
140
1.0
141
100.0
290
     0
  0
SCALE
  5
A90
102
{ACAD_REACTORS
330
A83
102
}
330
A83
100
AcDbScale
 70
     0
300
2:1
140
2.0
141
1.0
290
     0
  0
SCALE
  5
A91
102
{ACAD_REACTORS
330
A83
102
}
330
A83
100
AcDbScale
 70
     0
300
4:1
140
4.0
141
1.0
290
     0
  0
SCALE
  5
A92
102
{ACAD_REACTORS
330
A83
102
}
330
A83
100
AcDbScale
 70
     0
300
8:1
140
8.0
141
1.0
290
     0
  0
SCALE
  5
A93
102
{ACAD_REACTORS
330
A83
102
}
330
A83
100
AcDbScale
 70
     0
300
10:1
140
10.0
141
1.0
290
     0
  0
SCALE
  5
A94
102
{ACAD_REACTORS
330
A83
102
}
330
A83
100
AcDbScale
 70
     0
300
100:1
140
100.0
141
1.0
290
     0
  0
SCALE
  5
A95
102
{ACAD_REACTORS
330
A83
102
}
330
A83
100
AcDbScale
 70
     0
300
1/128" = 1'-0"
140
0.0078125
141
12.0
290
     0
  0
SCALE
  5
A96
102
{ACAD_REACTORS
330
A83
102
}
330
A83
100
AcDbScale
 70
     0
300
1/64" = 1'-0"
140
0.015625
141
12.0
290
     0
  0
SCALE
  5
A97
102
{ACAD_REACTORS
330
A83
102
}
330
A83
100
AcDbScale
 70
     0
300
1/32" = 1'-0"
140
0.03125
141
12.0
290
     0
  0
SCALE
  5
A98
102
{ACAD_REACTORS
330
A83
102
}
330
A83
100
AcDbScale
 70
     0
300
1/16" = 1'-0"
140
0.0625
141
12.0
290
     0
  0
SCALE
  5
A99
102
{ACAD_REACTORS
330
A83
102
}
330
A83
100
AcDbScale
 70
     0
300
3/32" = 1'-0"
140
0.09375
141
12.0
290
     0
  0
SCALE
  5
A9A
102
{ACAD_REACTORS
330
A83
102
}
330
A83
100
AcDbScale
 70
     0
300
1/8" = 1'-0"
140
0.125
141
12.0
290
     0
  0
SCALE
  5
A9B
102
{ACAD_REACTORS
330
A83
102
}
330
A83
100
AcDbScale
 70
     0
300
3/16" = 1'-0"
140
0.1875
141
12.0
290
     0
  0
SCALE
  5
A9C
102
{ACAD_REACTORS
330
A83
102
}
330
A83
100
AcDbScale
 70
     0
300
1/4" = 1'-0"
140
0.25
141
12.0
290
     0
  0
SCALE
  5
A9D
102
{ACAD_REACTORS
330
A83
102
}
330
A83
100
AcDbScale
 70
     0
300
3/8" = 1'-0"
140
0.375
141
12.0
290
     0
  0
SCALE
  5
A9E
102
{ACAD_REACTORS
330
A83
102
}
330
A83
100
AcDbScale
 70
     0
300
1/2" = 1'-0"
140
0.5
141
12.0
290
     0
  0
SCALE
  5
A9F
102
{ACAD_REACTORS
330
A83
102
}
330
A83
100
AcDbScale
 70
     0
300
3/4" = 1'-0"
140
0.75
141
12.0
290
     0
  0
SCALE
  5
AA0
102
{ACAD_REACTORS
330
A83
102
}
330
A83
100
AcDbScale
 70
     0
300
1" = 1'-0"
140
1.0
141
12.0
290
     0
  0
SCALE
  5
AA1
102
{ACAD_REACTORS
330
A83
102
}
330
A83
100
AcDbScale
 70
     0
300
1-1/2" = 1'-0"
140
1.5
141
12.0
290
     0
  0
SCALE
  5
AA2
102
{ACAD_REACTORS
330
A83
102
}
330
A83
100
AcDbScale
 70
     0
300
3" = 1'-0"
140
3.0
141
12.0
290
     0
  0
SCALE
  5
AA3
102
{ACAD_REACTORS
330
A83
102
}
330
A83
100
AcDbScale
 70
     0
300
6" = 1'-0"
140
6.0
141
12.0
290
     0
  0
SCALE
  5
AA4
102
{ACAD_REACTORS
330
A83
102
}
330
A83
100
AcDbScale
 70
     0
300
1'-0" = 1'-0"
140
12.0
141
12.0
290
     0
  0
TABLESTYLE
  5
AC6
102
{ACAD_REACTORS
330
AC5
102
}
102
{ACAD_XDICTIONARY
360
CF0
102
}
330
AC5
100
AcDbTableStyle
  3
Standard
 70
     0
 71
     0
 40
0.06
 41
0.06
280
     0
281
     0
  7
STANDARD
140
0.18
170
     2
 62
     0
 63
   257
283
     0
 90
        4
 91
        0
  1

274
    -2
284
     1
 64
     0
275
    -2
285
     1
 65
     0
276
    -2
286
     1
 66
     0
277
    -2
287
     1
 67
     0
278
    -2
288
     1
 68
     0
279
    -2
289
     1
 69
     0
  7
STANDARD
140
0.25
170
     5
 62
     0
 63
   257
283
     0
 90
        4
 91
        0
  1

274
    -2
284
     1
 64
     0
275
    -2
285
     1
 65
     0
276
    -2
286
     1
 66
     0
277
    -2
287
     1
 67
     0
278
    -2
288
     1
 68
     0
279
    -2
289
     1
 69
     0
  7
STANDARD
140
0.18
170
     5
 62
     0
 63
   257
283
     0
 90
        4
 91
        0
  1

274
    -2
284
     1
 64
     0
275
    -2
285
     1
 65
     0
276
    -2
286
     1
 66
     0
277
    -2
287
     1
 67
     0
278
    -2
288
     1
 68
     0
279
    -2
289
     1
 69
     0
  0
VISUALSTYLE
  5
AAD
102
{ACAD_REACTORS
330
AA8
102
}
330
AA8
100
AcDbVisualStyle
  2
2dWireframe
 70
     4
177
     3
291
     0
 70
    58
 90
        0
176
     1
 90
        2
176
     1
 90
        0
176
     1
 90
        0
176
     1
 40
0.6
176
     1
 40
30.0
176
     1
 62
     7
420
 16777215
176
     1
 90
        1
176
     1
 90
        4
176
     1
 62
     7
176
     1
 62
   257
176
     1
 90
        1
176
     1
 90
        1
176
     1
 40
1.0
176
     1
 90
        0
176
     1
 62
   257
176
     1
 40
1.0
176
     1
 90
        1
176
     1
 90
        6
176
     1
 90
        2
176
     1
 62
     7
176
     1
 90
        5
176
     1
 90
        0
176
     1
 90
        0
176
     1
290
     0
176
     1
 90
        1
176
     1
 40
0.0
176
     1
 90
        0
176
     1
290
     1
176
     1
290
     1
176
     1
290
     0
176
     1
290
     0
176
     1
290
     0
176
     1
290
     0
176
     1
290
     0
176
     1
290
     0
176
     1
290
     0
176
     1
 90
       50
176
     1
 40
0.0
176
     1
 40
1.0
176
     1
 90
        0
176
     1
 62
    18
420
        0
176
     1
 90
       50
176
     1
 90
        3
176
     1
 62
     5
420
      255
176
     1
290
     0
176
     1
 90
       50
176
     1
 90
       50
176
     1
 90
       50
176
     1
290
     0
176
     1
 90
       50
176
     1
 62
   256
176
     0
 40
1.0
176
     0
 90
        2
176
     1
  1
strokes_ogs.tif
176
     1
290
     0
176
     1
 40
1.0
176
     1
 40
1.0
176
     1
  0
VISUALSTYLE
  5
AB0
102
{ACAD_REACTORS
330
AA8
102
}
330
AA8
100
AcDbVisualStyle
  2
Basic
 70
     7
177
     3
291
     1
 70
    58
 90
        1
176
     1
 90
        0
176
     1
 90
        1
176
     1
 90
        0
176
     1
 40
0.6
176
     1
 40
30.0
176
     1
 62
     7
420
 16777215
176
     1
 90
        0
176
     1
 90
        4
176
     1
 62
     7
176
     1
 62
   257
176
     1
 90
        1
176
     1
 90
        1
176
     1
 40
1.0
176
     1
 90
        8
176
     1
 62
     7
176
     1
 40
1.0
176
     1
 90
        1
176
     1
 90
        6
176
     1
 90
        2
176
     1
 62
     7
176
     1
 90
        5
176
     1
 90
        0
176
     1
 90
        0
176
     1
290
     0
176
     1
 90
        1
176
     1
 40
0.0
176
     1
 90
        0
176
     1
290
     0
176
     1
290
     1
176
     1
290
     1
176
     1
290
     0
176
     1
290
     0
176
     1
290
     0
176
     1
290
     0
176
     1
290
     0
176
     1
290
     0
176
     1
 90
       50
176
     1
 40
0.0
176
     1
 40
1.0
176
     1
 90
        0
176
     1
 62
    18
420
        0
176
     1
 90
       50
176
     1
 90
        3
176
     1
 62
     5
420
      255
176
     1
290
     0
176
     1
 90
       50
176
     1
 90
       50
176
     1
 90
       50
176
     1
290
     0
176
     1
 90
       50
176
     1
 62
   256
176
     0
 40
1.0
176
     0
 90
        2
176
     1
  1
strokes_ogs.tif
176
     1
290
     0
176
     1
 40
1.0
176
     1
 40
1.0
176
     1
  0
VISUALSTYLE
  5
AB4
102
{ACAD_REACTORS
330
AA8
102
}
330
AA8
100
AcDbVisualStyle
  2
Brighten
 70
    12
177
     3
291
     1
 70
    58
 90
        2
176
     1
 90
        2
176
     1
 90
        0
176
     1
 90
        0
176
     1
 40
0.6
176
     1
 40
30.0
176
     1
 62
     7
420
 16777215
176
     1
 90
        1
176
     1
 90
        4
176
     1
 62
     7
176
     1
 62
   257
176
     1
 90
        1
176
     1
 90
        1
176
     1
 40
1.0
176
     1
 90
        8
176
     1
 62
     7
176
     1
 40
1.0
176
     1
 90
        1
176
     1
 90
        6
176
     1
 90
        2
176
     1
 62
     7
176
     1
 90
        5
176
     1
 90
        0
176
     1
 90
        0
176
     1
290
     0
176
     1
 90
        1
176
     1
 40
50.0
176
     1
 90
        0
176
     1
290
     0
176
     1
290
     1
176
     1
290
     1
176
     1
290
     0
176
     1
290
     0
176
     1
290
     0
176
     1
290
     0
176
     1
290
     0
176
     1
290
     0
176
     1
 90
       50
176
     1
 40
0.0
176
     1
 40
1.0
176
     1
 90
        0
176
     1
 62
    18
420
        0
176
     1
 90
       50
176
     1
 90
        3
176
     1
 62
     5
420
      255
176
     1
290
     0
176
     1
 90
       50
176
     1
 90
       50
176
     1
 90
       50
176
     1
290
     0
176
     1
 90
       50
176
     1
 62
   256
176
     0
 40
1.0
176
     0
 90
        2
176
     1
  1
strokes_ogs.tif
176
     1
290
     0
176
     1
 40
1.0
176
     1
 40
1.0
176
     1
  0
VISUALSTYLE
  5
AB8
102
{ACAD_REACTORS
330
AA8
102
}
330
AA8
100
AcDbVisualStyle
  2
ColorChange
 70
    16
177
     3
291
     1
 70
    58
 90
        2
176
     1
 90
        2
176
     1
 90
        3
176
     1
 90
        0
176
     1
 40
0.6
176
     1
 40
30.0
176
     1
 62
     8
420
  8421504
176
     1
 90
        1
176
     1
 90
        4
176
     1
 62
     7
176
     1
 62
   257
176
     1
 90
        1
176
     1
 90
        1
176
     1
 40
1.0
176
     1
 90
        8
176
     1
 62
     8
420
  8421504
176
     1
 40
1.0
176
     1
 90
        1
176
     1
 90
        6
176
     1
 90
        2
176
     1
 62
     7
176
     1
 90
        5
176
     1
 90
        0
176
     1
 90
        0
176
     1
290
     0
176
     1
 90
        1
176
     1
 40
0.0
176
     1
 90
        0
176
     1
290
     0
176
     1
290
     1
176
     1
290
     1
176
     1
290
     0
176
     1
290
     0
176
     1
290
     0
176
     1
290
     0
176
     1
290
     0
176
     1
290
     0
176
     1
 90
       50
176
     1
 40
0.0
176
     1
 40
1.0
176
     1
 90
        0
176
     1
 62
    18
420
        0
176
     1
 90
       50
176
     1
 90
        3
176
     1
 62
     5
420
      255
176
     1
290
     0
176
     1
 90
       50
176
     1
 90
       50
176
     1
 90
       50
176
     1
290
     0
176
     1
 90
       50
176
     1
 62
   256
176
     0
 40
1.0
176
     0
 90
        2
176
     1
  1
strokes_ogs.tif
176
     1
290
     0
176
     1
 40
1.0
176
     1
 40
1.0
176
     1
  0
VISUALSTYLE
  5
AB2
102
{ACAD_REACTORS
330
AA8
102
}
330
AA8
100
AcDbVisualStyle
  2
Conceptual
 70
     9
177
     3
291
     0
 70
    58
 90
        3
176
     1
 90
        2
176
     1
 90
        0
176
     1
 90
        0
176
     1
 40
0.6
176
     1
 40
30.0
176
     1
 62
     7
420
 16777215
176
     1
 90
        2
176
     1
 90
        2
176
     1
 62
     7
176
     1
 62
   257
176
     1
 90
        1
176
     1
 90
        1
176
     1
 40
179.0
176
     1
 90
        8
176
     1
 62
     7
176
     1
 40
1.0
176
     1
 90
        1
176
     1
 90
        6
176
     1
 90
        2
176
     1
 62
     7
176
     1
 90
        3
176
     1
 90
        0
176
     1
 90
        0
176
     1
290
     0
176
     1
 90
        1
176
     1
 40
0.0
176
     1
 90
        0
176
     1
290
     0
176
     1
290
     1
176
     1
290
     1
176
     1
290
     0
176
     1
290
     0
176
     1
290
     0
176
     1
290
     0
176
     1
290
     0
176
     1
290
     0
176
     1
 90
       50
176
     1
 40
0.0
176
     1
 40
1.0
176
     1
 90
        0
176
     1
 62
    18
420
        0
176
     1
 90
       50
176
     1
 90
        3
176
     1
 62
     5
420
      255
176
     1
290
     0
176
     1
 90
       50
176
     1
 90
       50
176
     1
 90
       50
176
     1
290
     0
176
     1
 90
       50
176
     1
 62
   256
176
     0
 40
1.0
176
     0
 90
        2
176
     1
  1
strokes_ogs.tif
176
     1
290
     0
176
     1
 40
1.0
176
     1
 40
1.0
176
     1
  0
VISUALSTYLE
  5
AB3
102
{ACAD_REACTORS
330
AA8
102
}
330
AA8
100
AcDbVisualStyle
  2
Dim
 70
    11
177
     3
291
     1
 70
    58
 90
        2
176
     1
 90
        2
176
     1
 90
        0
176
     1
 90
        0
176
     1
 40
0.6
176
     1
 40
30.0
176
     1
 62
     7
420
 16777215
176
     1
 90
        1
176
     1
 90
        4
176
     1
 62
     7
176
     1
 62
   257
176
     1
 90
        1
176
     1
 90
        1
176
     1
 40
1.0
176
     1
 90
        8
176
     1
 62
     7
176
     1
 40
1.0
176
     1
 90
        1
176
     1
 90
        6
176
     1
 90
        2
176
     1
 62
     7
176
     1
 90
        5
176
     1
 90
        0
176
     1
 90
        0
176
     1
290
     0
176
     1
 90
        1
176
     1
 40
-50.0
176
     1
 90
        0
176
     1
290
     0
176
     1
290
     1
176
     1
290
     1
176
     1
290
     0
176
     1
290
     0
176
     1
290
     0
176
     1
290
     0
176
     1
290
     0
176
     1
290
     0
176
     1
 90
       50
176
     1
 40
0.0
176
     1
 40
1.0
176
     1
 90
        0
176
     1
 62
    18
420
        0
176
     1
 90
       50
176
     1
 90
        3
176
     1
 62
     5
420
      255
176
     1
290
     0
176
     1
 90
       50
176
     1
 90
       50
176
     1
 90
       50
176
     1
290
     0
176
     1
 90
       50
176
     1
 62
   256
176
     0
 40
1.0
176
     0
 90
        2
176
     1
  1
strokes_ogs.tif
176
     1
290
     0
176
     1
 40
1.0
176
     1
 40
1.0
176
     1
  0
VISUALSTYLE
  5
ABB
102
{ACAD_REACTORS
330
AA8
102
}
330
AA8
100
AcDbVisualStyle
  2
EdgeColorOff
 70
    22
177
     3
291
     1
 70
    58
 90
        2
176
     0
 90
        2
176
     0
 90
        0
176
     0
 90
        0
176
     0
 40
0.6
176
     0
 40
30.0
176
     0
 62
     7
420
 16777215
176
     0
 90
        1
176
     0
 90
        4
176
     0
 62
     7
176
     0
 62
   257
176
     0
 90
        1
176
     0
 90
        1
176
     0
 40
1.0
176
     0
 90
        8
176
     2
 62
     7
176
     0
 40
1.0
176
     0
 90
        1
176
     0
 90
        6
176
     0
 90
        2
176
     0
 62
     7
176
     0
 90
        5
176
     0
 90
        0
176
     0
 90
        0
176
     0
290
     0
176
     0
 90
        1
176
     0
 40
0.0
176
     0
 90
        0
176
     0
290
     0
176
     0
290
     1
176
     0
290
     1
176
     0
290
     0
176
     0
290
     0
176
     0
290
     0
176
     0
290
     0
176
     0
290
     0
176
     0
290
     0
176
     0
 90
       50
176
     0
 40
0.0
176
     0
 40
1.0
176
     0
 90
        0
176
     0
 62
    18
420
        0
176
     0
 90
       50
176
     0
 90
        3
176
     0
 62
     5
420
      255
176
     0
290
     0
176
     0
 90
       50
176
     0
 90
       50
176
     0
 90
       50
176
     0
290
     0
176
     0
 90
       50
176
     0
 62
   256
176
     0
 40
1.0
176
     0
 90
        2
176
     0
  1
strokes_ogs.tif
176
     0
290
     0
176
     0
 40
1.0
176
     0
 40
1.0
176
     0
  0
VISUALSTYLE
  5
AB7
102
{ACAD_REACTORS
330
AA8
102
}
330
AA8
100
AcDbVisualStyle
  2
Facepattern
 70
    15
177
     3
291
     1
 70
    58
 90
        2
176
     1
 90
        2
176
     1
 90
        0
176
     1
 90
        0
176
     1
 40
0.6
176
     1
 40
30.0
176
     1
 62
     7
420
 16777215
176
     1
 90
        1
176
     1
 90
        4
176
     1
 62
     7
176
     1
 62
   257
176
     1
 90
        1
176
     1
 90
        1
176
     1
 40
1.0
176
     1
 90
        8
176
     1
 62
     7
176
     1
 40
1.0
176
     1
 90
        1
176
     1
 90
        6
176
     1
 90
        2
176
     1
 62
     7
176
     1
 90
        5
176
     1
 90
        0
176
     1
 90
        0
176
     1
290
     0
176
     1
 90
        1
176
     1
 40
0.0
176
     1
 90
        0
176
     1
290
     0
176
     1
290
     1
176
     1
290
     1
176
     1
290
     0
176
     1
290
     0
176
     1
290
     0
176
     1
290
     0
176
     1
290
     0
176
     1
290
     0
176
     1
 90
       50
176
     1
 40
0.0
176
     1
 40
1.0
176
     1
 90
        0
176
     1
 62
    18
420
        0
176
     1
 90
       50
176
     1
 90
        3
176
     1
 62
     5
420
      255
176
     1
290
     0
176
     1
 90
       50
176
     1
 90
       50
176
     1
 90
       50
176
     1
290
     0
176
     1
 90
       50
176
     1
 62
   256
176
     0
 40
1.0
176
     0
 90
        2
176
     1
  1
strokes_ogs.tif
176
     1
290
     0
176
     1
 40
1.0
176
     1
 40
1.0
176
     1
  0
VISUALSTYLE
  5
AA9
102
{ACAD_REACTORS
330
AA8
102
}
330
AA8
100
AcDbVisualStyle
  2
Flat
 70
     0
177
     3
291
     1
 70
    58
 90
        2
176
     1
 90
        1
176
     1
 90
        1
176
     1
 90
        2
176
     1
 40
0.6
176
     1
 40
30.0
176
     1
 62
     7
420
 16777215
176
     1
 90
        0
176
     1
 90
        0
176
     1
 62
     7
176
     1
 62
   257
176
     1
 90
        1
176
     1
 90
        1
176
     1
 40
1.0
176
     1
 90
        8
176
     1
 62
     7
176
     1
 40
1.0
176
     1
 90
        1
176
     1
 90
        6
176
     1
 90
        2
176
     1
 62
     7
176
     1
 90
        5
176
     1
 90
        0
176
     1
 90
        0
176
     1
290
     0
176
     1
 90
       13
176
     1
 40
0.0
176
     1
 90
        0
176
     1
290
     0
176
     1
290
     1
176
     1
290
     1
176
     1
290
     0
176
     1
290
     0
176
     1
290
     0
176
     1
290
     0
176
     1
290
     0
176
     1
290
     0
176
     1
 90
       50
176
     1
 40
0.0
176
     1
 40
1.0
176
     1
 90
        0
176
     1
 62
    18
420
        0
176
     1
 90
       50
176
     1
 90
        3
176
     1
 62
     5
420
      255
176
     1
290
     0
176
     1
 90
       50
176
     1
 90
       50
176
     1
 90
       50
176
     1
290
     0
176
     1
 90
       50
176
     1
 62
   256
176
     0
 40
1.0
176
     0
 90
        2
176
     1
  1
strokes_ogs.tif
176
     1
290
     0
176
     1
 40
1.0
176
     1
 40
1.0
176
     1
  0
VISUALSTYLE
  5
AAA
102
{ACAD_REACTORS
330
AA8
102
}
330
AA8
100
AcDbVisualStyle
  2
FlatWithEdges
 70
     1
177
     3
291
     1
 70
    58
 90
        2
176
     1
 90
        1
176
     1
 90
        1
176
     1
 90
        2
176
     1
 40
0.6
176
     1
 40
30.0
176
     1
 62
     7
420
 16777215
176
     1
 90
        1
176
     1
 90
        0
176
     1
 62
     7
176
     1
 62
   257
176
     1
 90
        1
176
     1
 90
        1
176
     1
 40
1.0
176
     1
 90
        0
176
     1
 62
   257
176
     1
 40
1.0
176
     1
 90
        1
176
     1
 90
        6
176
     1
 90
        2
176
     1
 62
     7
176
     1
 90
        5
176
     1
 90
        0
176
     1
 90
        0
176
     1
290
     0
176
     1
 90
       13
176
     1
 40
0.0
176
     1
 90
        0
176
     1
290
     0
176
     1
290
     1
176
     1
290
     1
176
     1
290
     0
176
     1
290
     0
176
     1
290
     0
176
     1
290
     0
176
     1
290
     0
176
     1
290
     0
176
     1
 90
       50
176
     1
 40
0.0
176
     1
 40
1.0
176
     1
 90
        0
176
     1
 62
    18
420
        0
176
     1
 90
       50
176
     1
 90
        3
176
     1
 62
     5
420
      255
176
     1
290
     0
176
     1
 90
       50
176
     1
 90
       50
176
     1
 90
       50
176
     1
290
     0
176
     1
 90
       50
176
     1
 62
   256
176
     0
 40
1.0
176
     0
 90
        2
176
     1
  1
strokes_ogs.tif
176
     1
290
     0
176
     1
 40
1.0
176
     1
 40
1.0
176
     1
  0
VISUALSTYLE
  5
AAB
102
{ACAD_REACTORS
330
AA8
102
}
330
AA8
100
AcDbVisualStyle
  2
Gouraud
 70
     2
177
     3
291
     1
 70
    58
 90
        2
176
     1
 90
        2
176
     1
 90
        1
176
     1
 90
        2
176
     1
 40
0.6
176
     1
 40
30.0
176
     1
 62
     7
420
 16777215
176
     1
 90
        0
176
     1
 90
        0
176
     1
 62
     7
176
     1
 62
   257
176
     1
 90
        1
176
     1
 90
        1
176
     1
 40
1.0
176
     1
 90
        0
176
     1
 62
     7
176
     1
 40
1.0
176
     1
 90
        1
176
     1
 90
        6
176
     1
 90
        2
176
     1
 62
     7
176
     1
 90
        5
176
     1
 90
        0
176
     1
 90
        0
176
     1
290
     0
176
     1
 90
       13
176
     1
 40
0.0
176
     1
 90
        0
176
     1
290
     0
176
     1
290
     1
176
     1
290
     1
176
     1
290
     0
176
     1
290
     0
176
     1
290
     0
176
     1
290
     0
176
     1
290
     0
176
     1
290
     0
176
     1
 90
       50
176
     1
 40
0.0
176
     1
 40
1.0
176
     1
 90
        0
176
     1
 62
    18
420
        0
176
     1
 90
       50
176
     1
 90
        3
176
     1
 62
     5
420
      255
176
     1
290
     0
176
     1
 90
       50
176
     1
 90
       50
176
     1
 90
       50
176
     1
290
     0
176
     1
 90
       50
176
     1
 62
   256
176
     0
 40
1.0
176
     0
 90
        2
176
     1
  1
strokes_ogs.tif
176
     1
290
     0
176
     1
 40
1.0
176
     1
 40
1.0
176
     1
  0
VISUALSTYLE
  5
AAC
102
{ACAD_REACTORS
330
AA8
102
}
330
AA8
100
AcDbVisualStyle
  2
GouraudWithEdges
 70
     3
177
     3
291
     1
 70
    58
 90
        2
176
     1
 90
        2
176
     1
 90
        1
176
     1
 90
        2
176
     1
 40
0.6
176
     1
 40
30.0
176
     1
 62
     7
420
 16777215
176
     1
 90
        1
176
     1
 90
        0
176
     1
 62
     7
176
     1
 62
   257
176
     1
 90
        1
176
     1
 90
        1
176
     1
 40
1.0
176
     1
 90
        0
176
     1
 62
   257
176
     1
 40
1.0
176
     1
 90
        1
176
     1
 90
        6
176
     1
 90
        2
176
     1
 62
     7
176
     1
 90
        5
176
     1
 90
        0
176
     1
 90
        0
176
     1
290
     0
176
     1
 90
       13
176
     1
 40
0.0
176
     1
 90
        0
176
     1
290
     0
176
     1
290
     1
176
     1
290
     1
176
     1
290
     0
176
     1
290
     0
176
     1
290
     0
176
     1
290
     0
176
     1
290
     0
176
     1
290
     0
176
     1
 90
       50
176
     1
 40
0.0
176
     1
 40
1.0
176
     1
 90
        0
176
     1
 62
    18
420
        0
176
     1
 90
       50
176
     1
 90
        3
176
     1
 62
     5
420
      255
176
     1
290
     0
176
     1
 90
       50
176
     1
 90
       50
176
     1
 90
       50
176
     1
290
     0
176
     1
 90
       50
176
     1
 62
   256
176
     0
 40
1.0
176
     0
 90
        2
176
     1
  1
strokes_ogs.tif
176
     1
290
     0
176
     1
 40
1.0
176
     1
 40
1.0
176
     1
  0
VISUALSTYLE
  5
AAF
102
{ACAD_REACTORS
330
AA8
102
}
330
AA8
100
AcDbVisualStyle
  2
Hidden
 70
     6
177
     3
291
     0
 70
    58
 90
        1
176
     1
 90
        2
176
     1
 90
        2
176
     1
 90
        0
176
     1
 40
0.6
176
     1
 40
30.0
176
     1
 62
     7
420
 16777215
176
     1
 90
        2
176
     1
 90
        2
176
     1
 62
     7
176
     1
 62
   257
176
     1
 90
        2
176
     1
 90
        1
176
     1
 40
40.0
176
     1
 90
        0
176
     1
 62
   257
176
     1
 40
1.0
176
     1
 90
        1
176
     1
 90
        6
176
     1
 90
        2
176
     1
 62
     7
176
     1
 90
        3
176
     1
 90
        0
176
     1
 90
        0
176
     1
290
     0
176
     1
 90
        1
176
     1
 40
0.0
176
     1
 90
        0
176
     1
290
     0
176
     1
290
     1
176
     1
290
     1
176
     1
290
     0
176
     1
290
     0
176
     1
290
     0
176
     1
290
     0
176
     1
290
     0
176
     1
290
     0
176
     1
 90
       50
176
     1
 40
0.0
176
     1
 40
1.0
176
     1
 90
        0
176
     1
 62
    18
420
        0
176
     1
 90
       50
176
     1
 90
        3
176
     1
 62
     5
420
      255
176
     1
290
     0
176
     1
 90
       50
176
     1
 90
       50
176
     1
 90
       50
176
     1
290
     0
176
     1
 90
       50
176
     1
 62
   256
176
     0
 40
1.0
176
     0
 90
        2
176
     1
  1
strokes_ogs.tif
176
     1
290
     0
176
     1
 40
1.0
176
     1
 40
1.0
176
     1
  0
VISUALSTYLE
  5
AB9
102
{ACAD_REACTORS
330
AA8
102
}
330
AA8
100
AcDbVisualStyle
  2
JitterOff
 70
    20
177
     3
291
     1
 70
    58
 90
        2
176
     0
 90
        2
176
     0
 90
        0
176
     0
 90
        0
176
     0
 40
0.6
176
     0
 40
30.0
176
     0
 62
     7
420
 16777215
176
     0
 90
        1
176
     0
 90
        4
176
     0
 62
     7
176
     0
 62
   257
176
     0
 90
        1
176
     0
 90
        1
176
     0
 40
1.0
176
     0
 90
       10
176
     2
 62
     7
176
     0
 40
1.0
176
     0
 90
        1
176
     0
 90
        6
176
     0
 90
        2
176
     0
 62
     7
176
     0
 90
        5
176
     0
 90
        0
176
     0
 90
        0
176
     0
290
     0
176
     0
 90
        1
176
     0
 40
0.0
176
     0
 90
        0
176
     0
290
     0
176
     0
290
     1
176
     0
290
     1
176
     0
290
     0
176
     0
290
     0
176
     0
290
     0
176
     0
290
     0
176
     0
290
     0
176
     0
290
     0
176
     0
 90
       50
176
     0
 40
0.0
176
     0
 40
1.0
176
     0
 90
        0
176
     0
 62
    18
420
        0
176
     0
 90
       50
176
     0
 90
        3
176
     0
 62
     5
420
      255
176
     0
290
     0
176
     0
 90
       50
176
     0
 90
       50
176
     0
 90
       50
176
     0
290
     0
176
     0
 90
       50
176
     0
 62
   256
176
     0
 40
1.0
176
     0
 90
        2
176
     0
  1
strokes_ogs.tif
176
     0
290
     0
176
     0
 40
1.0
176
     0
 40
1.0
176
     0
  0
VISUALSTYLE
  5
AB6
102
{ACAD_REACTORS
330
AA8
102
}
330
AA8
100
AcDbVisualStyle
  2
Linepattern
 70
    14
177
     3
291
     1
 70
    58
 90
        2
176
     1
 90
        2
176
     1
 90
        0
176
     1
 90
        0
176
     1
 40
0.6
176
     1
 40
30.0
176
     1
 62
     7
420
 16777215
176
     1
 90
        1
176
     1
 90
        4
176
     1
 62
     7
176
     1
 62
   257
176
     1
 90
        7
176
     1
 90
        7
176
     1
 40
1.0
176
     1
 90
        8
176
     1
 62
     7
176
     1
 40
1.0
176
     1
 90
        1
176
     1
 90
        6
176
     1
 90
        2
176
     1
 62
     7
176
     1
 90
        5
176
     1
 90
        0
176
     1
 90
        0
176
     1
290
     0
176
     1
 90
        1
176
     1
 40
0.0
176
     1
 90
        0
176
     1
290
     0
176
     1
290
     1
176
     1
290
     1
176
     1
290
     0
176
     1
290
     0
176
     1
290
     0
176
     1
290
     0
176
     1
290
     0
176
     1
290
     0
176
     1
 90
       50
176
     1
 40
0.0
176
     1
 40
1.0
176
     1
 90
        0
176
     1
 62
    18
420
        0
176
     1
 90
       50
176
     1
 90
        3
176
     1
 62
     5
420
      255
176
     1
290
     0
176
     1
 90
       50
176
     1
 90
       50
176
     1
 90
       50
176
     1
290
     0
176
     1
 90
       50
176
     1
 62
   256
176
     0
 40
1.0
176
     0
 90
        2
176
     1
  1
strokes_ogs.tif
176
     1
290
     0
176
     1
 40
1.0
176
     1
 40
1.0
176
     1
  0
VISUALSTYLE
  5
ABA
102
{ACAD_REACTORS
330
AA8
102
}
330
AA8
100
AcDbVisualStyle
  2
OverhangOff
 70
    21
177
     3
291
     1
 70
    58
 90
        2
176
     0
 90
        2
176
     0
 90
        0
176
     0
 90
        0
176
     0
 40
0.6
176
     0
 40
30.0
176
     0
 62
     7
420
 16777215
176
     0
 90
        1
176
     0
 90
        4
176
     0
 62
     7
176
     0
 62
   257
176
     0
 90
        1
176
     0
 90
        1
176
     0
 40
1.0
176
     0
 90
        9
176
     2
 62
     7
176
     0
 40
1.0
176
     0
 90
        1
176
     0
 90
        6
176
     0
 90
        2
176
     0
 62
     7
176
     0
 90
        5
176
     0
 90
        0
176
     0
 90
        0
176
     0
290
     0
176
     0
 90
        1
176
     0
 40
0.0
176
     0
 90
        0
176
     0
290
     0
176
     0
290
     1
176
     0
290
     1
176
     0
290
     0
176
     0
290
     0
176
     0
290
     0
176
     0
290
     0
176
     0
290
     0
176
     0
290
     0
176
     0
 90
       50
176
     0
 40
0.0
176
     0
 40
1.0
176
     0
 90
        0
176
     0
 62
    18
420
        0
176
     0
 90
       50
176
     0
 90
        3
176
     0
 62
     5
420
      255
176
     0
290
     0
176
     0
 90
       50
176
     0
 90
       50
176
     0
 90
       50
176
     0
290
     0
176
     0
 90
       50
176
     0
 62
   256
176
     0
 40
1.0
176
     0
 90
        2
176
     0
  1
strokes_ogs.tif
176
     0
290
     0
176
     0
 40
1.0
176
     0
 40
1.0
176
     0
  0
VISUALSTYLE
  5
AB1
102
{ACAD_REACTORS
330
AA8
102
}
330
AA8
100
AcDbVisualStyle
  2
Realistic
 70
     8
177
     3
291
     0
 70
    58
 90
        2
176
     1
 90
        3
176
     1
 90
        0
176
     1
 90
        2
176
     1
 40
0.6
176
     1
 40
30.0
176
     1
 62
     7
420
 16777215
176
     1
 90
        0
176
     1
 90
        0
176
     1
 62
     7
176
     1
 62
   257
176
     1
 90
        1
176
     1
 90
        1
176
     1
 40
1.0
176
     1
 90
        8
176
     1
 62
   257
176
     1
 40
1.0
176
     1
 90
        1
176
     1
 90
        6
176
     1
 90
        2
176
     1
 62
     7
176
     1
 90
        3
176
     1
 90
        0
176
     1
 90
        0
176
     1
290
     0
176
     1
 90
       13
176
     1
 40
0.0
176
     1
 90
        0
176
     1
290
     0
176
     1
290
     1
176
     1
290
     1
176
     1
290
     0
176
     1
290
     0
176
     1
290
     0
176
     1
290
     0
176
     1
290
     0
176
     1
290
     0
176
     1
 90
       50
176
     1
 40
0.0
176
     1
 40
1.0
176
     1
 90
        0
176
     1
 62
    18
420
        0
176
     1
 90
       50
176
     1
 90
        3
176
     1
 62
     5
420
      255
176
     1
290
     0
176
     1
 90
       50
176
     1
 90
       50
176
     1
 90
       50
176
     1
290
     0
176
     1
 90
       50
176
     1
 62
   256
176
     0
 40
1.0
176
     0
 90
        2
176
     1
  1
strokes_ogs.tif
176
     1
290
     0
176
     1
 40
1.0
176
     1
 40
1.0
176
     1
  0
VISUALSTYLE
  5
AC0
102
{ACAD_REACTORS
330
AA8
102
}
330
AA8
100
AcDbVisualStyle
  2
Shaded
 70
    27
177
     3
291
     0
 70
    58
 90
        2
176
     1
 90
        2
176
     1
 90
        1
176
     1
 90
        2
176
     1
 40
0.6
176
     1
 40
30.0
176
     1
 62
     7
420
 16777215
176
     1
 90
        0
176
     1
 90
        4
176
     1
 62
     7
176
     1
 62
   257
176
     1
 90
        1
176
     1
 90
        1
176
     1
 40
1.0
176
     1
 90
        8
176
     1
 62
   257
176
     1
 40
1.0
176
     1
 90
        1
176
     1
 90
        6
176
     1
 90
        2
176
     1
 62
     8
420
  7895160
176
     1
 90
        3
176
     1
 90
        0
176
     1
 90
        0
176
     1
290
     0
176
     1
 90
        5
176
     1
 40
0.0
176
     1
 90
        0
176
     1
290
     0
176
     1
290
     1
176
     1
290
     1
176
     1
290
     0
176
     1
290
     0
176
     1
290
     0
176
     1
290
     0
176
     1
290
     0
176
     1
290
     0
176
     1
 90
       50
176
     1
 40
0.0
176
     1
 40
1.0
176
     1
 90
        0
176
     1
 62
    18
420
        0
176
     1
 90
       50
176
     1
 90
        3
176
     1
 62
     5
420
      255
176
     1
290
     0
176
     1
 90
       50
176
     1
 90
       50
176
     1
 90
       50
176
     1
290
     0
176
     1
 90
       50
176
     1
 62
   256
176
     0
 40
1.0
176
     0
 90
        2
176
     1
  1
strokes_ogs.tif
176
     1
290
     0
176
     1
 40
1.0
176
     1
 40
1.0
176
     1
  0
VISUALSTYLE
  5
ABF
102
{ACAD_REACTORS
330
AA8
102
}
330
AA8
100
AcDbVisualStyle
  2
Shaded with edges
 70
    26
177
     3
291
     0
 70
    58
 90
        2
176
     1
 90
        2
176
     1
 90
        1
176
     1
 90
        2
176
     1
 40
0.6
176
     1
 40
30.0
176
     1
 62
     7
420
 16777215
176
     1
 90
        1
176
     1
 90
       10
176
     1
 62
     7
176
     1
 62
   257
176
     1
 90
        2
176
     1
 90
        1
176
     1
 40
1.0
176
     1
 90
        8
176
     1
 62
   257
176
     1
 40
1.0
176
     1
 90
        1
176
     1
 90
        6
176
     1
 90
        2
176
     1
 62
     7
176
     1
 90
        3
176
     1
 90
        0
176
     1
 90
        0
176
     1
290
     0
176
     1
 90
        5
176
     1
 40
0.0
176
     1
 90
        0
176
     1
290
     0
176
     1
290
     1
176
     1
290
     1
176
     1
290
     0
176
     1
290
     0
176
     1
290
     0
176
     1
290
     0
176
     1
290
     0
176
     1
290
     0
176
     1
 90
       50
176
     1
 40
0.0
176
     1
 40
1.0
176
     1
 90
        0
176
     1
 62
    18
420
        0
176
     1
 90
       50
176
     1
 90
        3
176
     1
 62
     5
420
      255
176
     1
290
     0
176
     1
 90
       50
176
     1
 90
       50
176
     1
 90
       50
176
     1
290
     0
176
     1
 90
       50
176
     1
 62
   256
176
     0
 40
1.0
176
     0
 90
        2
176
     1
  1
strokes_ogs.tif
176
     1
290
     0
176
     1
 40
1.0
176
     1
 40
1.0
176
     1
  0
VISUALSTYLE
  5
ABC
102
{ACAD_REACTORS
330
AA8
102
}
330
AA8
100
AcDbVisualStyle
  2
Shades of Gray
 70
    23
177
     3
291
     0
 70
    58
 90
        2
176
     1
 90
        2
176
     1
 90
        3
176
     1
 90
        0
176
     1
 40
0.6
176
     1
 40
30.0
176
     1
 62
     7
420
 16777215
176
     1
 90
        2
176
     1
 90
        2
176
     1
 62
     7
176
     1
 62
     7
176
     1
 90
        1
176
     1
 90
        1
176
     1
 40
40.0
176
     1
 90
        8
176
     1
 62
     7
176
     1
 40
1.0
176
     1
 90
        1
176
     1
 90
        6
176
     1
 90
        2
176
     1
 62
     7
176
     1
 90
        3
176
     1
 90
        0
176
     1
 90
        0
176
     1
290
     0
176
     1
 90
        1
176
     1
 40
0.0
176
     1
 90
        0
176
     1
290
     0
176
     1
290
     1
176
     1
290
     1
176
     1
290
     0
176
     1
290
     0
176
     1
290
     0
176
     1
290
     0
176
     1
290
     0
176
     1
290
     0
176
     1
 90
       50
176
     1
 40
0.0
176
     1
 40
1.0
176
     1
 90
        0
176
     1
 62
    18
420
        0
176
     1
 90
       50
176
     1
 90
        3
176
     1
 62
     5
420
      255
176
     1
290
     0
176
     1
 90
       50
176
     1
 90
       50
176
     1
 90
       50
176
     1
290
     0
176
     1
 90
       50
176
     1
 62
   256
176
     0
 40
1.0
176
     0
 90
        2
176
     1
  1
strokes_ogs.tif
176
     1
290
     0
176
     1
 40
1.0
176
     1
 40
1.0
176
     1
  0
VISUALSTYLE
  5
ABD
102
{ACAD_REACTORS
330
AA8
102
}
330
AA8
100
AcDbVisualStyle
  2
Sketchy
 70
    24
177
     3
291
     0
 70
    58
 90
        1
176
     1
 90
        2
176
     1
 90
        2
176
     1
 90
        0
176
     1
 40
0.6
176
     1
 40
30.0
176
     1
 62
     7
420
 16777215
176
     1
 90
        2
176
     1
 90
        2
176
     1
 62
     7
176
     1
 62
     7
176
     1
 90
        1
176
     1
 90
        1
176
     1
 40
40.0
176
     1
 90
       11
176
     1
 62
     7
176
     1
 40
1.0
176
     1
 90
        1
176
     1
 90
        6
176
     1
 90
        2
176
     1
 62
     7
176
     1
 90
        6
176
     1
 90
        0
176
     1
 90
        0
176
     1
290
     0
176
     1
 90
        1
176
     1
 40
0.0
176
     1
 90
        0
176
     1
290
     0
176
     1
290
     1
176
     1
290
     1
176
     1
290
     0
176
     1
290
     0
176
     1
290
     0
176
     1
290
     0
176
     1
290
     0
176
     1
290
     0
176
     1
 90
       50
176
     1
 40
0.0
176
     1
 40
1.0
176
     1
 90
        0
176
     1
 62
    18
420
        0
176
     1
 90
       50
176
     1
 90
        3
176
     1
 62
     5
420
      255
176
     1
290
     0
176
     1
 90
       50
176
     1
 90
       50
176
     1
 90
       50
176
     1
290
     0
176
     1
 90
       50
176
     1
 62
   256
176
     0
 40
1.0
176
     0
 90
        2
176
     1
  1
strokes_ogs.tif
176
     1
290
     0
176
     1
 40
1.0
176
     1
 40
1.0
176
     1
  0
VISUALSTYLE
  5
AB5
102
{ACAD_REACTORS
330
AA8
102
}
330
AA8
100
AcDbVisualStyle
  2
Thicken
 70
    13
177
     3
291
     1
 70
    58
 90
        2
176
     1
 90
        2
176
     1
 90
        0
176
     1
 90
        0
176
     1
 40
0.6
176
     1
 40
30.0
176
     1
 62
     7
420
 16777215
176
     1
 90
        1
176
     1
 90
        4
176
     1
 62
     7
176
     1
 62
   257
176
     1
 90
        1
176
     1
 90
        1
176
     1
 40
1.0
176
     1
 90
       12
176
     1
 62
     7
176
     1
 40
1.0
176
     1
 90
        1
176
     1
 90
        6
176
     1
 90
        2
176
     1
 62
     7
176
     1
 90
        5
176
     1
 90
        0
176
     1
 90
        0
176
     1
290
     0
176
     1
 90
        1
176
     1
 40
0.0
176
     1
 90
        0
176
     1
290
     0
176
     1
290
     1
176
     1
290
     1
176
     1
290
     0
176
     1
290
     0
176
     1
290
     0
176
     1
290
     0
176
     1
290
     0
176
     1
290
     0
176
     1
 90
       50
176
     1
 40
0.0
176
     1
 40
1.0
176
     1
 90
        0
176
     1
 62
    18
420
        0
176
     1
 90
       50
176
     1
 90
        3
176
     1
 62
     5
420
      255
176
     1
290
     0
176
     1
 90
       50
176
     1
 90
       50
176
     1
 90
       50
176
     1
290
     0
176
     1
 90
       50
176
     1
 62
   256
176
     0
 40
1.0
176
     0
 90
        2
176
     1
  1
strokes_ogs.tif
176
     1
290
     0
176
     1
 40
1.0
176
     1
 40
1.0
176
     1
  0
VISUALSTYLE
  5
AAE
102
{ACAD_REACTORS
330
AA8
102
}
330
AA8
100
AcDbVisualStyle
  2
Wireframe
 70
     5
177
     3
291
     0
 70
    58
 90
        0
176
     1
 90
        2
176
     1
 90
        0
176
     1
 90
        0
176
     1
 40
0.6
176
     1
 40
30.0
176
     1
 62
     7
420
 16777215
176
     1
 90
        1
176
     1
 90
        4
176
     1
 62
     7
176
     1
 62
   257
176
     1
 90
        1
176
     1
 90
        1
176
     1
 40
1.0
176
     1
 90
        0
176
     1
 62
   257
176
     1
 40
1.0
176
     1
 90
        1
176
     1
 90
        6
176
     1
 90
        2
176
     1
 62
     7
176
     1
 90
        3
176
     1
 90
        0
176
     1
 90
        0
176
     1
290
     0
176
     1
 90
        1
176
     1
 40
0.0
176
     1
 90
        0
176
     1
290
     0
176
     1
290
     1
176
     1
290
     1
176
     1
290
     0
176
     1
290
     0
176
     1
290
     0
176
     1
290
     0
176
     1
290
     0
176
     1
290
     0
176
     1
 90
       50
176
     1
 40
0.0
176
     1
 40
1.0
176
     1
 90
        0
176
     1
 62
    18
420
        0
176
     1
 90
       50
176
     1
 90
        3
176
     1
 62
     5
420
      255
176
     1
290
     0
176
     1
 90
       50
176
     1
 90
       50
176
     1
 90
       50
176
     1
290
     0
176
     1
 90
       50
176
     1
 62
   256
176
     0
 40
1.0
176
     0
 90
        2
176
     1
  1
strokes_ogs.tif
176
     1
290
     0
176
     1
 40
1.0
176
     1
 40
1.0
176
     1
  0
VISUALSTYLE
  5
ABE
102
{ACAD_REACTORS
330
AA8
102
}
330
AA8
100
AcDbVisualStyle
  2
X-Ray
 70
    25
177
     3
291
     0
 70
    58
 90
        2
176
     1
 90
        2
176
     1
 90
        1
176
     1
 90
        1
176
     1
 40
0.5
176
     1
 40
30.0
176
     1
 62
     7
420
 16777215
176
     1
 90
        1
176
     1
 90
        0
176
     1
 62
     7
176
     1
 62
   257
176
     1
 90
        1
176
     1
 90
        1
176
     1
 40
1.0
176
     1
 90
        8
176
     1
 62
     7
176
     1
 40
1.0
176
     1
 90
        1
176
     1
 90
        6
176
     1
 90
        2
176
     1
 62
     7
176
     1
 90
        3
176
     1
 90
        0
176
     1
 90
        0
176
     1
290
     0
176
     1
 90
       13
176
     1
 40
0.0
176
     1
 90
        0
176
     1
290
     0
176
     1
290
     1
176
     1
290
     1
176
     1
290
     0
176
     1
290
     0
176
     1
290
     0
176
     1
290
     0
176
     1
290
     0
176
     1
290
     0
176
     1
 90
       50
176
     1
 40
0.0
176
     1
 40
1.0
176
     1
 90
        0
176
     1
 62
    18
420
        0
176
     1
 90
       50
176
     1
 90
        3
176
     1
 62
     5
420
      255
176
     1
290
     0
176
     1
 90
       50
176
     1
 90
       50
176
     1
 90
       50
176
     1
290
     0
176
     1
 90
       50
176
     1
 62
   256
176
     0
 40
1.0
176
     0
 90
        2
176
     1
  1
strokes_ogs.tif
176
     1
290
     0
176
     1
 40
1.0
176
     1
 40
1.0
176
     1
  0
DICTIONARYVAR
  5
ACB
102
{ACAD_REACTORS
330
66
102
}
330
66
100
DictionaryVariables
280
     0
  1
1:1
  0
DICTIONARYVAR
  5
ACD
102
{ACAD_REACTORS
330
66
102
}
330
66
100
DictionaryVariables
280
     0
  1
Standard
  0
DICTIONARYVAR
  5
ACC
102
{ACAD_REACTORS
330
66
102
}
330
66
100
DictionaryVariables
280
     0
  1
Standard
  0
DICTIONARYVAR
  5
67
102
{ACAD_REACTORS
330
66
102
}
330
66
100
DictionaryVariables
280
     0
  1
2
  0
DICTIONARYVAR
  5
6B
102
{ACAD_REACTORS
330
66
102
}
330
66
100
DictionaryVariables
280
     0
  1
1
  0
DICTIONARYVAR
  5
ACE
102
{ACAD_REACTORS
330
66
102
}
330
66
100
DictionaryVariables
280
     0
  1
0
  0
XRECORD
  5
AD1
102
{ACAD_REACTORS
330
913
102
}
330
913
100
AcDbXrecord
280
     1
 91
     1023
301

290
     0
302
KOTY
330
10
 90
        8
 62
     7
370
    -3
331
16
  1
Color_7
330
125
 90
        0
 62
     7
370
    -3
331
16
  1
Color_7
330
12B
 90
        8
 62
     7
370
    -3
331
16
  1
Color_7
330
12C
 90
        8
 62
     1
370
    -3
331
16
  1
Color_1
330
12E
 90
        8
 62
     5
370
    -3
331
16
  1
Color_5
330
12F
 90
        8
 62
     7
370
    -3
331
16
  1
Color_7
  0
DICTIONARY
  5
CF0
330
AC6
100
AcDbDictionary
280
     1
281
     1
  3
ACAD_ROUNDTRIP_2008_TABLESTYLE_CELLSTYLEMAP
360
CF1
  0
CELLSTYLEMAP
  5
CF1
102
{ACAD_REACTORS
330
CF0
102
}
330
CF0
100
AcDbCellStyleMap
 90
        3
300
CELLSTYLE
  1
TABLEFORMAT_BEGIN
 90
        5
170
     1
 91
        0
 92
    32768
 62
   257
 93
        1
300
CONTENTFORMAT
  1
CONTENTFORMAT_BEGIN
 90
        0
 91
        0
 92
        4
 93
        0
300

 40
0.0
140
1.0
 94
        5
 62
     0
340
11
144
0.25
309
CONTENTFORMAT_END
171
     1
301
MARGIN
  1
CELLMARGIN_BEGIN
 40
0.06
 40
0.06
 40
0.06
 40
0.06
 40
0.06
 40
0.06
309
CELLMARGIN_END
 94
        6
 95
        1
302
GRIDFORMAT
  1
GRIDFORMAT_BEGIN
 90
        0
 91
        1
 62
     0
 92
       -2
340
14
 93
        0
 40
0.045
309
GRIDFORMAT_END
 95
        2
302
GRIDFORMAT
  1
GRIDFORMAT_BEGIN
 90
        0
 91
        1
 62
     0
 92
       -2
340
14
 93
        0
 40
0.045
309
GRIDFORMAT_END
 95
        4
302
GRIDFORMAT
  1
GRIDFORMAT_BEGIN
 90
        0
 91
        1
 62
     0
 92
       -2
340
14
 93
        0
 40
0.045
309
GRIDFORMAT_END
 95
        8
302
GRIDFORMAT
  1
GRIDFORMAT_BEGIN
 90
        0
 91
        1
 62
     0
 92
       -2
340
14
 93
        0
 40
0.045
309
GRIDFORMAT_END
 95
       16
302
GRIDFORMAT
  1
GRIDFORMAT_BEGIN
 90
        0
 91
        1
 62
     0
 92
       -2
340
14
 93
        0
 40
0.045
309
GRIDFORMAT_END
 95
       32
302
GRIDFORMAT
  1
GRIDFORMAT_BEGIN
 90
        0
 91
        1
 62
     0
 92
       -2
340
14
 93
        0
 40
0.045
309
GRIDFORMAT_END
309
TABLEFORMAT_END
  1
CELLSTYLE_BEGIN
 90
        1
 91
        1
300
_TITLE
309
CELLSTYLE_END
300
CELLSTYLE
  1
TABLEFORMAT_BEGIN
 90
        5
170
     1
 91
        0
 92
        0
 62
   257
 93
        1
300
CONTENTFORMAT
  1
CONTENTFORMAT_BEGIN
 90
        0
 91
        0
 92
        4
 93
        0
300

 40
0.0
140
1.0
 94
        5
 62
     0
340
11
144
0.18
309
CONTENTFORMAT_END
171
     1
301
MARGIN
  1
CELLMARGIN_BEGIN
 40
0.06
 40
0.06
 40
0.06
 40
0.06
 40
0.06
 40
0.06
309
CELLMARGIN_END
 94
        6
 95
        1
302
GRIDFORMAT
  1
GRIDFORMAT_BEGIN
 90
        0
 91
        1
 62
     0
 92
       -2
340
14
 93
        0
 40
0.045
309
GRIDFORMAT_END
 95
        2
302
GRIDFORMAT
  1
GRIDFORMAT_BEGIN
 90
        0
 91
        1
 62
     0
 92
       -2
340
14
 93
        0
 40
0.045
309
GRIDFORMAT_END
 95
        4
302
GRIDFORMAT
  1
GRIDFORMAT_BEGIN
 90
        0
 91
        1
 62
     0
 92
       -2
340
14
 93
        0
 40
0.045
309
GRIDFORMAT_END
 95
        8
302
GRIDFORMAT
  1
GRIDFORMAT_BEGIN
 90
        0
 91
        1
 62
     0
 92
       -2
340
14
 93
        0
 40
0.045
309
GRIDFORMAT_END
 95
       16
302
GRIDFORMAT
  1
GRIDFORMAT_BEGIN
 90
        0
 91
        1
 62
     0
 92
       -2
340
14
 93
        0
 40
0.045
309
GRIDFORMAT_END
 95
       32
302
GRIDFORMAT
  1
GRIDFORMAT_BEGIN
 90
        0
 91
        1
 62
     0
 92
       -2
340
14
 93
        0
 40
0.045
309
GRIDFORMAT_END
309
TABLEFORMAT_END
  1
CELLSTYLE_BEGIN
 90
        2
 91
        1
300
_HEADER
309
CELLSTYLE_END
300
CELLSTYLE
  1
TABLEFORMAT_BEGIN
 90
        5
170
     1
 91
        0
 92
        0
 62
   257
 93
        1
300
CONTENTFORMAT
  1
CONTENTFORMAT_BEGIN
 90
        0
 91
        0
 92
        4
 93
        0
300

 40
0.0
140
1.0
 94
        2
 62
     0
340
11
144
0.18
309
CONTENTFORMAT_END
171
     1
301
MARGIN
  1
CELLMARGIN_BEGIN
 40
0.06
 40
0.06
 40
0.06
 40
0.06
 40
0.06
 40
0.06
309
CELLMARGIN_END
 94
        6
 95
        1
302
GRIDFORMAT
  1
GRIDFORMAT_BEGIN
 90
        0
 91
        1
 62
     0
 92
       -2
340
14
 93
        0
 40
0.045
309
GRIDFORMAT_END
 95
        2
302
GRIDFORMAT
  1
GRIDFORMAT_BEGIN
 90
        0
 91
        1
 62
     0
 92
       -2
340
14
 93
        0
 40
0.045
309
GRIDFORMAT_END
 95
        4
302
GRIDFORMAT
  1
GRIDFORMAT_BEGIN
 90
        0
 91
        1
 62
     0
 92
       -2
340
14
 93
        0
 40
0.045
309
GRIDFORMAT_END
 95
        8
302
GRIDFORMAT
  1
GRIDFORMAT_BEGIN
 90
        0
 91
        1
 62
     0
 92
       -2
340
14
 93
        0
 40
0.045
309
GRIDFORMAT_END
 95
       16
302
GRIDFORMAT
  1
GRIDFORMAT_BEGIN
 90
        0
 91
        1
 62
     0
 92
       -2
340
14
 93
        0
 40
0.045
309
GRIDFORMAT_END
 95
       32
302
GRIDFORMAT
  1
GRIDFORMAT_BEGIN
 90
        0
 91
        1
 62
     0
 92
       -2
340
14
 93
        0
 40
0.045
309
GRIDFORMAT_END
309
TABLEFORMAT_END
  1
CELLSTYLE_BEGIN
 90
        3
 91
        2
300
_DATA
309
CELLSTYLE_END
  0
ENDSEC
  0
EOF
