  0
SECTION
  2
HEADER
  9
$ACADVER
  1
AC1014
  9
$ACADMAINTVER
 70
     9
  9
$DWGCODEPAGE
  3
ANSI_1250
  9
$INSBASE
 10
0.0
 20
0.0
 30
0.0
  9
$EXTMIN
 10
254.590583818114
 20
234.0092897476862
 30
0.0
  9
$EXTMAX
 10
458.0927371571296
 20
310.8346022901152
 30
0.0
  9
$LIMMIN
 10
0.0
 20
0.0
  9
$LIMMAX
 10
12.0
 20
9.0
  9
$ORTHOMODE
 70
     0
  9
$REGENMODE
 70
     1
  9
$FILLMODE
 70
     1
  9
$QTEXTMODE
 70
     0
  9
$MIRRTEXT
 70
     0
  9
$DRAGMODE
 70
     2
  9
$LTSCALE
 40
1.0
  9
$OSMODE
 70
 15359
  9
$ATTMODE
 70
     1
  9
$TEXTSIZE
 40
0.2
  9
$TRACEWID
 40
0.05
  9
$TEXTSTYLE
  7
STANDARD
  9
$CLAYER
  8
0
  9
$CELTYPE
  6
BYLAYER
  9
$CECOLOR
 62
   256
  9
$CELTSCALE
 40
1.0
  9
$DELOBJ
 70
     1
  9
$DISPSILH
 70
     0
  9
$DIMSCALE
 40
1.0
  9
$DIMASZ
 40
0.18
  9
$DIMEXO
 40
0.0625
  9
$DIMDLI
 40
0.38
  9
$DIMRND
 40
0.0
  9
$DIMDLE
 40
0.0
  9
$DIMEXE
 40
0.18
  9
$DIMTP
 40
0.0
  9
$DIMTM
 40
0.0
  9
$DIMTXT
 40
0.18
  9
$DIMCEN
 40
0.09
  9
$DIMTSZ
 40
0.0
  9
$DIMTOL
 70
     0
  9
$DIMLIM
 70
     0
  9
$DIMTIH
 70
     1
  9
$DIMTOH
 70
     1
  9
$DIMSE1
 70
     0
  9
$DIMSE2
 70
     0
  9
$DIMTAD
 70
     0
  9
$DIMZIN
 70
     0
  9
$DIMBLK
  1

  9
$DIMASO
 70
     1
  9
$DIMSHO
 70
     1
  9
$DIMPOST
  1

  9
$DIMAPOST
  1

  9
$DIMALT
 70
     0
  9
$DIMALTD
 70
     2
  9
$DIMALTF
 40
25.4
  9
$DIMLFAC
 40
1.0
  9
$DIMTOFL
 70
     0
  9
$DIMTVP
 40
0.0
  9
$DIMTIX
 70
     0
  9
$DIMSOXD
 70
     0
  9
$DIMSAH
 70
     0
  9
$DIMBLK1
  1

  9
$DIMBLK2
  1

  9
$DIMSTYLE
  2
STANDARD
  9
$DIMCLRD
 70
     0
  9
$DIMCLRE
 70
     0
  9
$DIMCLRT
 70
     0
  9
$DIMTFAC
 40
1.0
  9
$DIMGAP
 40
0.09
  9
$DIMJUST
 70
     0
  9
$DIMSD1
 70
     0
  9
$DIMSD2
 70
     0
  9
$DIMTOLJ
 70
     1
  9
$DIMTZIN
 70
     0
  9
$DIMALTZ
 70
     0
  9
$DIMALTTZ
 70
     0
  9
$DIMFIT
 70
     3
  9
$DIMUPT
 70
     0
  9
$DIMUNIT
 70
     2
  9
$DIMDEC
 70
     4
  9
$DIMTDEC
 70
     4
  9
$DIMALTU
 70
     2
  9
$DIMALTTD
 70
     2
  9
$DIMTXSTY
  7
STANDARD
  9
$DIMAUNIT
 70
     0
  9
$LUNITS
 70
     2
  9
$LUPREC
 70
     4
  9
$SKETCHINC
 40
0.1
  9
$FILLETRAD
 40
0.0
  9
$AUNITS
 70
     0
  9
$AUPREC
 70
     0
  9
$MENU
  1
.
  9
$ELEVATION
 40
0.0
  9
$PELEVATION
 40
0.0
  9
$THICKNESS
 40
0.0
  9
$LIMCHECK
 70
     0
  9
$CHAMFERA
 40
0.0
  9
$CHAMFERB
 40
0.0
  9
$CHAMFERC
 40
0.0
  9
$CHAMFERD
 40
0.0
  9
$SKPOLY
 70
     0
  9
$TDCREATE
 40
2452643.105050937
  9
$TDUPDATE
 40
2457077.390677396
  9
$TDINDWG
 40
0.0106833796
  9
$TDUSRTIMER
 40
2457077.338327534
  9
$USRTIMER
 70
     1
  9
$ANGBASE
 50
0.0
  9
$ANGDIR
 70
     0
  9
$PDMODE
 70
     0
  9
$PDSIZE
 40
0.0
  9
$PLINEWID
 40
0.0
  9
$COORDS
 70
     2
  9
$SPLFRAME
 70
     0
  9
$SPLINETYPE
 70
     6
  9
$SPLINESEGS
 70
     8
  9
$ATTDIA
 70
     0
  9
$ATTREQ
 70
     1
  9
$HANDLING
 70
     1
  9
$HANDSEED
  5
5BB
  9
$SURFTAB1
 70
     6
  9
$SURFTAB2
 70
     6
  9
$SURFTYPE
 70
     6
  9
$SURFU
 70
     6
  9
$SURFV
 70
     6
  9
$UCSNAME
  2

  9
$UCSORG
 10
0.0
 20
0.0
 30
0.0
  9
$UCSXDIR
 10
1.0
 20
0.0
 30
0.0
  9
$UCSYDIR
 10
0.0
 20
1.0
 30
0.0
  9
$PUCSNAME
  2

  9
$PUCSORG
 10
0.0
 20
0.0
 30
0.0
  9
$PUCSXDIR
 10
1.0
 20
0.0
 30
0.0
  9
$PUCSYDIR
 10
0.0
 20
1.0
 30
0.0
  9
$USERI1
 70
     0
  9
$USERI2
 70
     0
  9
$USERI3
 70
     0
  9
$USERI4
 70
     0
  9
$USERI5
 70
     0
  9
$USERR1
 40
0.0
  9
$USERR2
 40
0.0
  9
$USERR3
 40
0.0
  9
$USERR4
 40
0.0
  9
$USERR5
 40
0.0
  9
$WORLDVIEW
 70
     1
  9
$SHADEDGE
 70
     3
  9
$SHADEDIF
 70
    70
  9
$TILEMODE
 70
     0
  9
$MAXACTVP
 70
    64
  9
$PINSBASE
 10
0.0
 20
0.0
 30
0.0
  9
$PLIMCHECK
 70
     0
  9
$PEXTMIN
 10
0.0
 20
0.0
 30
0.0
  9
$PEXTMAX
 10
0.0
 20
0.0
 30
0.0
  9
$PLIMMIN
 10
-0.25
 20
-0.25
  9
$PLIMMAX
 10
10.75
 20
8.25
  9
$UNITMODE
 70
     0
  9
$VISRETAIN
 70
     1
  9
$PLINEGEN
 70
     0
  9
$PSLTSCALE
 70
     1
  9
$TREEDEPTH
 70
  3020
  9
$PICKSTYLE
 70
     0
  9
$CMLSTYLE
  2
STANDARD
  9
$CMLJUST
 70
     0
  9
$CMLSCALE
 40
1.0
  9
$PROXYGRAPHICS
 70
     1
  9
$MEASUREMENT
 70
     0
  0
ENDSEC
  0
SECTION
  2
CLASSES
  0
CLASS
  1
ACDBDICTIONARYWDFLT
  2
AcDbDictionaryWithDefault
  3
ObjectDBX Classes
 90
        0
280
     0
281
     0
  0
CLASS
  1
ACDBPLACEHOLDER
  2
AcDbPlaceHolder
  3
ObjectDBX Classes
 90
        0
280
     0
281
     0
  0
CLASS
  1
LAYOUT
  2
AcDbLayout
  3
ObjectDBX Classes
 90
        0
280
     0
281
     0
  0
CLASS
  1
DICTIONARYVAR
  2
AcDbDictionaryVar
  3
ObjectDBX Classes
 90
        0
280
     0
281
     0
  0
CLASS
  1
TABLESTYLE
  2
AcDbTableStyle
  3
ObjectDBX Classes
 90
     4095
280
     0
281
     0
  0
CLASS
  1
MATERIAL
  2
AcDbMaterial
  3
ObjectDBX Classes
 90
     1153
280
     0
281
     0
  0
CLASS
  1
VISUALSTYLE
  2
AcDbVisualStyle
  3
ObjectDBX Classes
 90
     4095
280
     0
281
     0
  0
CLASS
  1
SCALE
  2
AcDbScale
  3
ObjectDBX Classes
 90
     1153
280
     0
281
     0
  0
CLASS
  1
CELLSTYLEMAP
  2
AcDbCellStyleMap
  3
ObjectDBX Classes
 90
     1152
280
     0
281
     0
  0
CLASS
  1
RASTERVARIABLES
  2
AcDbRasterVariables
  3
ISM
 90
        0
280
     0
281
     0
  0
CLASS
  1
SUN
  2
AcDbSun
  3
SCENEOE
 90
     1153
280
     0
281
     0
  0
CLASS
  1
XRECORD
  2
AcDbXrecord
  3
ObjectDBX Classes
 90
        0
280
     0
281
     0
  0
CLASS
  1
LWPOLYLINE
  2
AcDbPolyline
  3
ObjectDBX Classes
 90
        0
280
     0
281
     1
  0
CLASS
  1
HATCH
  2
AcDbHatch
  3
ObjectDBX Classes
 90
        0
280
     0
281
     1
  0
ENDSEC
  0
SECTION
  2
TABLES
  0
TABLE
  2
VPORT
  5
8
330
0
100
AcDbSymbolTable
 70
     1
  0
VPORT
  5
94
330
8
100
AcDbSymbolTableRecord
100
AcDbViewportTableRecord
  2
*ACTIVE
 70
     0
 10
0.0
 20
0.0
 11
1.0
 21
1.0
 12
387.1737120564208
 22
293.0555690845838
 13
0.0
 23
0.0
 14
0.5
 24
0.5
 15
0.5
 25
0.5
 16
0.0
 26
0.0
 36
1.0
 17
-27.66959356597982
 27
-19.53870295786226
 37
0.0
 40
200.1927766416747
 41
1.13768115942029
 42
50.0
 43
0.0
 44
0.0
 50
0.0
 51
0.0
 71
    16
 72
  1000
 73
     1
 74
     3
 75
     0
 76
     0
 77
     0
 78
     0
  0
ENDTAB
  0
TABLE
  2
LTYPE
  5
5
330
0
100
AcDbSymbolTable
 70
     1
  0
LTYPE
  5
14
330
5
100
AcDbSymbolTableRecord
100
AcDbLinetypeTableRecord
  2
BYBLOCK
 70
     0
  3

 72
    65
 73
     0
 40
0.0
  0
LTYPE
  5
15
330
5
100
AcDbSymbolTableRecord
100
AcDbLinetypeTableRecord
  2
BYLAYER
 70
     0
  3

 72
    65
 73
     0
 40
0.0
  0
LTYPE
  5
16
330
5
100
AcDbSymbolTableRecord
100
AcDbLinetypeTableRecord
  2
CONTINUOUS
 70
     0
  3
Solid line
 72
    65
 73
     0
 40
0.0
  0
ENDTAB
  0
TABLE
  2
LAYER
  5
2
330
0
100
AcDbSymbolTable
 70
     4
  0
LAYER
  5
10
330
2
100
AcDbSymbolTableRecord
100
AcDbLayerTableRecord
  2
0
 70
     0
 62
     7
  6
CONTINUOUS
  0
LAYER
  5
128
330
2
100
AcDbSymbolTableRecord
100
AcDbLayerTableRecord
  2
DEFPOINTS
 70
     0
 62
     7
  6
CONTINUOUS
  0
LAYER
  5
129
330
2
100
AcDbSymbolTableRecord
100
AcDbLayerTableRecord
  2
OBRYS
 70
     0
 62
     5
  6
CONTINUOUS
  0
LAYER
  5
12B
330
2
100
AcDbSymbolTableRecord
100
AcDbLayerTableRecord
  2
KOTY
 70
     0
 62
     1
  6
CONTINUOUS
  0
ENDTAB
  0
TABLE
  2
STYLE
  5
3
330
0
100
AcDbSymbolTable
 70
     1
  0
STYLE
  5
11
330
3
100
AcDbSymbolTableRecord
100
AcDbTextStyleTableRecord
  2
STANDARD
 70
     0
 40
0.0
 41
1.0
 50
0.0
 71
     0
 42
0.2
  3
arial.ttf
  4

1001
ACAD
1000
Arial
1071
        0
  0
ENDTAB
  0
TABLE
  2
VIEW
  5
6
330
0
100
AcDbSymbolTable
 70
     0
  0
ENDTAB
  0
TABLE
  2
UCS
  5
7
330
0
100
AcDbSymbolTable
 70
     0
  0
ENDTAB
  0
TABLE
  2
APPID
  5
9
330
0
100
AcDbSymbolTable
 70
     1
  0
APPID
  5
12
330
9
100
AcDbSymbolTableRecord
100
AcDbRegAppTableRecord
  2
ACAD
 70
     0
  0
ENDTAB
  0
TABLE
  2
DIMSTYLE
  5
A
330
0
100
AcDbSymbolTable
 70
     2
  0
DIMSTYLE
105
27
330
A
100
AcDbSymbolTableRecord
100
AcDbDimStyleTableRecord
  2
STANDARD
 70
     0
  3

  4

  5

  6

  7

 40
1.0
 41
0.18
 42
0.0625
 43
0.38
 44
0.18
 45
0.0
 46
0.0
 47
0.0
 48
0.0
140
0.18
141
0.09
142
0.0
143
25.4
144
1.0
145
0.0
146
1.0
147
0.09
 71
     0
 72
     0
 73
     1
 74
     1
 75
     0
 76
     0
 77
     0
 78
     0
170
     0
171
     2
172
     0
173
     0
174
     0
175
     0
176
     0
177
     0
178
     0
270
     2
271
     4
272
     4
273
     2
274
     2
340
11
275
     0
280
     0
281
     0
282
     0
283
     1
284
     0
285
     0
286
     0
287
     3
288
     0
  0
DIMSTYLE
105
12E
102
{ACAD_REACTORS
330
201
330
20E
330
21B
330
2E4
330
2E5
330
2E6
330
463
330
5A3
102
}
330
A
100
AcDbSymbolTableRecord
100
AcDbDimStyleTableRecord
  2
ISO-25
 70
     0
  3

  4

  5

  6

  7

 40
1.0
 41
6.0
 42
0.0
 43
3.75
 44
1.25
 45
0.0
 46
0.0
 47
0.0
 48
0.0
140
3.0
141
2.5
142
0.0
143
0.03937007874016
144
1.0
145
0.0
146
1.0
147
0.625
 71
     0
 72
     0
 73
     0
 74
     1
 75
     0
 76
     0
 77
     1
 78
     8
170
     0
171
     3
172
     1
173
     0
174
     0
175
     0
176
     5
177
     5
178
     5
270
     2
271
     4
272
     4
273
     2
274
     2
340
11
275
     0
280
     0
281
     0
282
     0
283
     1
284
     0
285
     0
286
     0
287
     3
288
     0
  0
ENDTAB
  0
TABLE
  2
BLOCK_RECORD
  5
1
330
0
100
AcDbSymbolTable
 70
    12
  0
BLOCK_RECORD
  5
1F
330
1
100
AcDbSymbolTableRecord
100
AcDbBlockTableRecord
  2
*MODEL_SPACE
  0
BLOCK_RECORD
  5
5B3
330
1
100
AcDbSymbolTableRecord
100
AcDbBlockTableRecord
  2
*PAPER_SPACE
  0
BLOCK_RECORD
  5
202
330
1
100
AcDbSymbolTableRecord
100
AcDbBlockTableRecord
  2
*D2
  0
BLOCK_RECORD
  5
20F
330
1
100
AcDbSymbolTableRecord
100
AcDbBlockTableRecord
  2
*D3
  0
BLOCK_RECORD
  5
21C
330
1
100
AcDbSymbolTableRecord
100
AcDbBlockTableRecord
  2
*D4
  0
BLOCK_RECORD
  5
2EB
330
1
100
AcDbSymbolTableRecord
100
AcDbBlockTableRecord
  2
*D5
  0
BLOCK_RECORD
  5
2F7
330
1
100
AcDbSymbolTableRecord
100
AcDbBlockTableRecord
  2
*D6
  0
BLOCK_RECORD
  5
303
330
1
100
AcDbSymbolTableRecord
100
AcDbBlockTableRecord
  2
*D7
  0
BLOCK_RECORD
  5
464
330
1
100
AcDbSymbolTableRecord
100
AcDbBlockTableRecord
  2
*D9
  0
BLOCK_RECORD
  5
5A4
330
1
100
AcDbSymbolTableRecord
100
AcDbBlockTableRecord
  2
*D10
  0
ENDTAB
  0
ENDSEC
  0
SECTION
  2
BLOCKS
  0
BLOCK
  5
20
330
1F
100
AcDbEntity
  8
0
100
AcDbBlockBegin
  2
*MODEL_SPACE
 70
     0
 10
0.0
 20
0.0
 30
0.0
  3
*MODEL_SPACE
  1

  0
ENDBLK
  5
21
330
1F
100
AcDbEntity
  8
0
100
AcDbBlockEnd
  0
BLOCK
  5
5B5
330
5B3
100
AcDbEntity
 67
     1
  8
0
100
AcDbBlockBegin
  2
*PAPER_SPACE
 70
     0
 10
0.0
 20
0.0
 30
0.0
  3
*PAPER_SPACE
  1

  0
ENDBLK
  5
5B6
330
5B3
100
AcDbEntity
 67
     1
  8
0
100
AcDbBlockEnd
  0
BLOCK
  5
203
330
202
100
AcDbEntity
  8
0
100
AcDbBlockBegin
  2
*D2
 70
     1
 10
0.0
 20
0.0
 30
0.0
  3
*D2
  1
*D6
  0
LINE
  5
204
330
202
100
AcDbEntity
  8
KOTY
100
AcDbLine
 10
40.89746256945244
 20
54.05010306808505
 30
0.0
 11
40.89746256945244
 21
72.98331254242905
 31
0.0
  0
LINE
  5
205
330
202
100
AcDbEntity
  8
KOTY
100
AcDbLine
 10
130.4980227141529
 20
54.05010306808505
 30
0.0
 11
130.4980227141529
 21
72.98331254242905
 31
0.0
  0
LINE
  5
206
330
202
100
AcDbEntity
  8
KOTY
100
AcDbLine
 10
44.89746256945244
 20
71.73331254242905
 30
0.0
 11
126.4980227141529
 21
71.73331254242905
 31
0.0
  0
SOLID
  5
207
330
202
100
AcDbEntity
  8
KOTY
100
AcDbTrace
 10
44.89746256945244
 20
72.39997920909572
 30
0.0
 11
44.89746256945244
 21
71.06664587576238
 31
0.0
 12
40.89746256945244
 22
71.73331254242905
 32
0.0
 13
40.89746256945244
 23
71.73331254242905
 33
0.0
  0
SOLID
  5
208
330
202
100
AcDbEntity
  8
KOTY
100
AcDbTrace
 10
126.4980227141529
 20
71.06664587576238
 30
0.0
 11
126.4980227141529
 21
72.39997920909572
 31
0.0
 12
130.4980227141529
 22
71.73331254242905
 32
0.0
 13
130.4980227141529
 23
71.73331254242905
 33
0.0
  0
MTEXT
  5
209
330
202
100
AcDbEntity
  8
KOTY
100
AcDbMText
 10
85.69774264180268
 20
74.77531254242905
 30
0.0
 40
4.0
 41
0.0
 71
     5
 72
     1
  1
\A1;90
  0
POINT
  5
20A
330
202
100
AcDbEntity
  8
DEFPOINTS
 62
     0
100
AcDbPoint
 10
40.89746256945244
 20
54.05010306808505
 30
0.0
  0
POINT
  5
20B
330
202
100
AcDbEntity
  8
DEFPOINTS
 62
     0
100
AcDbPoint
 10
130.4980227141529
 20
54.05010306808505
 30
0.0
  0
POINT
  5
20C
330
202
100
AcDbEntity
  8
DEFPOINTS
 62
     0
100
AcDbPoint
 10
130.4980227141529
 20
71.73331254242905
 30
0.0
  0
ENDBLK
  5
20D
330
202
100
AcDbEntity
  8
0
100
AcDbBlockEnd
  0
BLOCK
  5
210
330
20F
100
AcDbEntity
  8
0
100
AcDbBlockBegin
  2
*D3
 70
     1
 10
0.0
 20
0.0
 30
0.0
  3
*D3
  1
*D7
  0
LINE
  5
211
330
20F
100
AcDbEntity
  8
KOTY
100
AcDbLine
 10
41.69793050545018
 20
54.40046927893395
 30
0.0
 11
22.53153409232828
 21
54.40046927893395
 31
0.0
  0
LINE
  5
212
330
20F
100
AcDbEntity
  8
KOTY
100
AcDbLine
 10
41.69793050545018
 20
6.900354002181068
 30
0.0
 11
22.53153409232828
 21
6.900354002181069
 31
0.0
  0
LINE
  5
213
330
20F
100
AcDbEntity
  8
KOTY
100
AcDbLine
 10
23.78153409232828
 20
50.40046927893395
 30
0.0
 11
23.78153409232828
 21
10.90035400218107
 31
0.0
  0
SOLID
  5
214
330
20F
100
AcDbEntity
  8
KOTY
100
AcDbTrace
 10
24.44820075899495
 20
50.40046927893395
 30
0.0
 11
23.11486742566161
 21
50.40046927893395
 31
0.0
 12
23.78153409232828
 22
54.40046927893395
 32
0.0
 13
23.78153409232828
 23
54.40046927893395
 33
0.0
  0
SOLID
  5
215
330
20F
100
AcDbEntity
  8
KOTY
100
AcDbTrace
 10
23.11486742566161
 20
10.90035400218107
 30
0.0
 11
24.44820075899495
 21
10.90035400218107
 31
0.0
 12
23.78153409232828
 22
6.900354002181069
 32
0.0
 13
23.78153409232828
 23
6.900354002181069
 33
0.0
  0
MTEXT
  5
216
330
20F
100
AcDbEntity
  8
KOTY
100
AcDbMText
 10
20.73953409232828
 20
30.65041164055751
 30
0.0
 40
4.0
 41
0.0
 71
     5
 72
     1
  1
\A1;48
 11
7.479379066979319E-17
 21
1.0
 31
0.0
  0
POINT
  5
217
330
20F
100
AcDbEntity
  8
DEFPOINTS
 62
     0
100
AcDbPoint
 10
41.69793050545018
 20
54.40046927893395
 30
0.0
  0
POINT
  5
218
330
20F
100
AcDbEntity
  8
DEFPOINTS
 62
     0
100
AcDbPoint
 10
41.69793050545018
 20
6.900354002181068
 30
0.0
  0
POINT
  5
219
330
20F
100
AcDbEntity
  8
DEFPOINTS
 62
     0
100
AcDbPoint
 10
23.78153409232828
 20
6.900354002181069
 30
0.0
  0
ENDBLK
  5
21A
330
20F
100
AcDbEntity
  8
0
100
AcDbBlockEnd
  0
BLOCK
  5
21D
330
21C
100
AcDbEntity
  8
0
100
AcDbBlockBegin
  2
*D4
 70
     1
 10
0.0
 20
0.0
 30
0.0
  3
*D4
  1
*D8
  0
LINE
  5
21E
330
21C
100
AcDbEntity
  8
KOTY
100
AcDbLine
 10
41.69793050545018
 20
54.40046927893395
 30
0.0
 11
3.814000000000011
 21
54.40046927893395
 31
0.0
  0
LINE
  5
21F
330
21C
100
AcDbEntity
  8
KOTY
100
AcDbLine
 10
72.4477053459157
 20
0.0
 30
0.0
 11
3.814000000000007
 21
0.0000000000000042
 31
0.0
  0
LINE
  5
220
330
21C
100
AcDbEntity
  8
KOTY
100
AcDbLine
 10
5.064000000000011
 20
50.40046927893395
 30
0.0
 11
5.064000000000007
 21
4.000000000000004
 31
0.0
  0
SOLID
  5
221
330
21C
100
AcDbEntity
  8
KOTY
100
AcDbTrace
 10
5.730666666666678
 20
50.40046927893395
 30
0.0
 11
4.397333333333344
 21
50.40046927893395
 31
0.0
 12
5.064000000000011
 22
54.40046927893395
 32
0.0
 13
5.064000000000011
 23
54.40046927893395
 33
0.0
  0
SOLID
  5
222
330
21C
100
AcDbEntity
  8
KOTY
100
AcDbTrace
 10
4.39733333333334
 20
4.000000000000004
 30
0.0
 11
5.730666666666674
 21
4.000000000000004
 31
0.0
 12
5.064000000000007
 22
0.0000000000000041
 32
0.0
 13
5.064000000000007
 23
0.0000000000000041
 33
0.0
  0
MTEXT
  5
223
330
21C
100
AcDbEntity
  8
KOTY
100
AcDbMText
 10
2.03000000000001
 20
27.20023463946698
 30
0.0
 40
4.0
 41
0.0
 71
     5
 72
     1
  1
\A1;54
 11
6.530667337783895E-17
 21
1.0
 31
0.0
  0
POINT
  5
224
330
21C
100
AcDbEntity
  8
DEFPOINTS
 62
     0
100
AcDbPoint
 10
41.69793050545018
 20
54.40046927893395
 30
0.0
  0
POINT
  5
225
330
21C
100
AcDbEntity
  8
DEFPOINTS
 62
     0
100
AcDbPoint
 10
72.4477053459157
 20
0.0
 30
0.0
  0
POINT
  5
226
330
21C
100
AcDbEntity
  8
DEFPOINTS
 62
     0
100
AcDbPoint
 10
5.064000000000007
 20
0.0000000000000041
 30
0.0
  0
ENDBLK
  5
227
330
21C
100
AcDbEntity
  8
0
100
AcDbBlockEnd
  0
BLOCK
  5
2EC
330
2EB
100
AcDbEntity
  8
0
100
AcDbBlockBegin
  2
*D5
 70
     1
 10
0.0
 20
0.0
 30
0.0
  3
*D5
  1
*D5
  0
LINE
  5
2EE
330
2EB
100
AcDbEntity
  8
KOTY
100
AcDbLine
 10
295.4880463875664
 20
288.0593928157713
 30
0.0
 11
295.4880463875664
 21
306.9926022901153
 31
0.0
  0
LINE
  5
2EF
330
2EB
100
AcDbEntity
  8
KOTY
100
AcDbLine
 10
385.0886065322669
 20
288.0593928157713
 30
0.0
 11
385.0886065322669
 21
306.9926022901153
 31
0.0
  0
LINE
  5
2F0
330
2EB
100
AcDbEntity
  8
KOTY
100
AcDbLine
 10
299.4880463875664
 20
305.7426022901153
 30
0.0
 11
381.0886065322669
 21
305.7426022901153
 31
0.0
  0
SOLID
  5
2F1
330
2EB
100
AcDbEntity
  8
KOTY
100
AcDbTrace
 10
299.4880463875664
 20
306.409268956782
 30
0.0
 11
299.4880463875664
 21
305.0759356234486
 31
0.0
 12
295.4880463875664
 22
305.7426022901153
 32
0.0
 13
295.4880463875664
 23
305.7426022901153
 33
0.0
  0
SOLID
  5
2F2
330
2EB
100
AcDbEntity
  8
KOTY
100
AcDbTrace
 10
381.0886065322669
 20
305.0759356234486
 30
0.0
 11
381.0886065322669
 21
306.409268956782
 31
0.0
 12
385.0886065322669
 22
305.7426022901153
 32
0.0
 13
385.0886065322669
 23
305.7426022901153
 33
0.0
  0
MTEXT
  5
2F3
330
2EB
100
AcDbEntity
  8
KOTY
100
AcDbMText
 10
340.2883264599166
 20
308.7846022901153
 30
0.0
 40
4.0
 41
0.0
 71
     5
 72
     1
  1
\A1;90
  0
POINT
  5
2F4
330
2EB
100
AcDbEntity
  8
DEFPOINTS
 62
     0
100
AcDbPoint
 10
295.4880463875664
 20
288.0593928157713
 30
0.0
  0
POINT
  5
2F5
330
2EB
100
AcDbEntity
  8
DEFPOINTS
 62
     0
100
AcDbPoint
 10
385.0886065322669
 20
288.0593928157713
 30
0.0
  0
POINT
  5
2F6
330
2EB
100
AcDbEntity
  8
DEFPOINTS
 62
     0
100
AcDbPoint
 10
385.0886065322669
 20
305.7426022901153
 30
0.0
  0
ENDBLK
  5
2ED
330
2EB
100
AcDbEntity
  8
0
100
AcDbBlockEnd
  0
BLOCK
  5
2F8
330
2F7
100
AcDbEntity
  8
0
100
AcDbBlockBegin
  2
*D6
 70
     1
 10
0.0
 20
0.0
 30
0.0
  3
*D6
  1
*D6
  0
LINE
  5
2FA
330
2F7
100
AcDbEntity
  8
KOTY
100
AcDbLine
 10
296.2885143235641
 20
288.4094145170724
 30
0.0
 11
277.1221179104422
 21
288.4094145170724
 31
0.0
  0
LINE
  5
2FB
330
2F7
100
AcDbEntity
  8
KOTY
100
AcDbLine
 10
296.2885143235641
 20
240.9096437498673
 30
0.0
 11
277.1221179104422
 21
240.9096437498673
 31
0.0
  0
LINE
  5
2FC
330
2F7
100
AcDbEntity
  8
KOTY
100
AcDbLine
 10
278.3721179104422
 20
284.4094145170724
 30
0.0
 11
278.3721179104422
 21
244.9096437498673
 31
0.0
  0
SOLID
  5
2FD
330
2F7
100
AcDbEntity
  8
KOTY
100
AcDbTrace
 10
279.0387845771089
 20
284.4094145170724
 30
0.0
 11
277.7054512437755
 21
284.4094145170724
 31
0.0
 12
278.3721179104422
 22
288.4094145170724
 32
0.0
 13
278.3721179104422
 23
288.4094145170724
 33
0.0
  0
SOLID
  5
2FE
330
2F7
100
AcDbEntity
  8
KOTY
100
AcDbTrace
 10
277.7054512437755
 20
244.9096437498673
 30
0.0
 11
279.0387845771089
 21
244.9096437498673
 31
0.0
 12
278.3721179104422
 22
240.9096437498673
 32
0.0
 13
278.3721179104422
 23
240.9096437498673
 33
0.0
  0
MTEXT
  5
2FF
330
2F7
100
AcDbEntity
  8
KOTY
100
AcDbMText
 10
275.3721179104422
 20
264.6595291334698
 30
0.0
 40
4.0
 41
0.0
 71
     5
 72
     1
  1
\A1;47
 11
0.0
 21
1.0
 31
0.0
  0
POINT
  5
300
330
2F7
100
AcDbEntity
  8
DEFPOINTS
 62
     0
100
AcDbPoint
 10
296.2885143235641
 20
288.4094145170724
 30
0.0
  0
POINT
  5
301
330
2F7
100
AcDbEntity
  8
DEFPOINTS
 62
     0
100
AcDbPoint
 10
296.2885143235641
 20
240.9096437498673
 30
0.0
  0
POINT
  5
302
330
2F7
100
AcDbEntity
  8
DEFPOINTS
 62
     0
100
AcDbPoint
 10
278.3721179104422
 20
240.9096437498673
 30
0.0
  0
ENDBLK
  5
2F9
330
2F7
100
AcDbEntity
  8
0
100
AcDbBlockEnd
  0
BLOCK
  5
304
330
303
100
AcDbEntity
  8
0
100
AcDbBlockBegin
  2
*D7
 70
     1
 10
0.0
 20
0.0
 30
0.0
  3
*D7
  1
*D7
  0
LINE
  5
306
330
303
100
AcDbEntity
  8
KOTY
100
AcDbLine
 10
296.2885143235641
 20
288.4094145170724
 30
0.0
 11
258.404583818114
 21
288.4094145170724
 31
0.0
  0
LINE
  5
307
330
303
100
AcDbEntity
  8
KOTY
100
AcDbLine
 10
327.0382891640296
 20
234.0092897476862
 30
0.0
 11
258.404583818114
 21
234.0092897476862
 31
0.0
  0
LINE
  5
308
330
303
100
AcDbEntity
  8
KOTY
100
AcDbLine
 10
259.654583818114
 20
284.4094145170724
 30
0.0
 11
259.654583818114
 21
238.0092897476862
 31
0.0
  0
SOLID
  5
309
330
303
100
AcDbEntity
  8
KOTY
100
AcDbTrace
 10
260.3212504847806
 20
284.4094145170724
 30
0.0
 11
258.9879171514473
 21
284.4094145170724
 31
0.0
 12
259.654583818114
 22
288.4094145170724
 32
0.0
 13
259.654583818114
 23
288.4094145170724
 33
0.0
  0
SOLID
  5
30A
330
303
100
AcDbEntity
  8
KOTY
100
AcDbTrace
 10
258.9879171514473
 20
238.0092897476862
 30
0.0
 11
260.3212504847806
 21
238.0092897476862
 31
0.0
 12
259.654583818114
 22
234.0092897476862
 32
0.0
 13
259.654583818114
 23
234.0092897476862
 33
0.0
  0
MTEXT
  5
30B
330
303
100
AcDbEntity
  8
KOTY
100
AcDbMText
 10
256.620583818114
 20
261.2093521323793
 30
0.0
 40
4.0
 41
0.0
 71
     5
 72
     1
  1
\A1;54
 11
0.0
 21
1.0
 31
0.0
  0
POINT
  5
30C
330
303
100
AcDbEntity
  8
DEFPOINTS
 62
     0
100
AcDbPoint
 10
296.2885143235641
 20
288.4094145170724
 30
0.0
  0
POINT
  5
30D
330
303
100
AcDbEntity
  8
DEFPOINTS
 62
     0
100
AcDbPoint
 10
327.0382891640296
 20
234.0092897476862
 30
0.0
  0
POINT
  5
30E
330
303
100
AcDbEntity
  8
DEFPOINTS
 62
     0
100
AcDbPoint
 10
259.654583818114
 20
234.0092897476862
 30
0.0
  0
ENDBLK
  5
305
330
303
100
AcDbEntity
  8
0
100
AcDbBlockEnd
  0
BLOCK
  5
465
330
464
100
AcDbEntity
  8
0
100
AcDbBlockBegin
  2
*D9
 70
     1
 10
0.0
 20
0.0
 30
0.0
  3
*D9
  1
*D6
  0
LINE
  5
466
330
464
100
AcDbEntity
  8
KOTY
100
AcDbLine
 10
0.0
 20
51.39978025983692
 30
0.0
 11
0.0
 21
68.11265362412608
 31
0.0
  0
LINE
  5
467
330
464
100
AcDbEntity
  8
KOTY
100
AcDbLine
 10
25.0499782923489
 20
51.39978025983692
 30
0.0
 11
25.0499782923489
 21
68.11265362412608
 31
0.0
  0
LINE
  5
468
330
464
100
AcDbEntity
  8
KOTY
100
AcDbLine
 10
4.0
 20
66.86265362412608
 30
0.0
 11
21.0499782923489
 21
66.86265362412608
 31
0.0
  0
SOLID
  5
469
330
464
100
AcDbEntity
  8
KOTY
100
AcDbTrace
 10
4.0
 20
67.52932029079275
 30
0.0
 11
4.0
 21
66.19598695745941
 31
0.0
 12
0.0
 22
66.86265362412608
 32
0.0
 13
0.0
 23
66.86265362412608
 33
0.0
  0
SOLID
  5
46A
330
464
100
AcDbEntity
  8
KOTY
100
AcDbTrace
 10
21.0499782923489
 20
66.19598695745941
 30
0.0
 11
21.0499782923489
 21
67.52932029079275
 31
0.0
 12
25.0499782923489
 22
66.86265362412608
 32
0.0
 13
25.0499782923489
 23
66.86265362412608
 33
0.0
  0
MTEXT
  5
46B
330
464
100
AcDbEntity
  8
KOTY
100
AcDbMText
 10
12.52498914617445
 20
69.90465362412608
 30
0.0
 40
4.0
 41
0.0
 71
     5
 72
     1
  1
\A1;25
  0
POINT
  5
46C
330
464
100
AcDbEntity
  8
DEFPOINTS
 62
     0
100
AcDbPoint
 10
0.0
 20
51.39978025983692
 30
0.0
  0
POINT
  5
46D
330
464
100
AcDbEntity
  8
DEFPOINTS
 62
     0
100
AcDbPoint
 10
25.0499782923489
 20
51.39978025983692
 30
0.0
  0
POINT
  5
46E
330
464
100
AcDbEntity
  8
DEFPOINTS
 62
     0
100
AcDbPoint
 10
25.0499782923489
 20
66.86265362412608
 30
0.0
  0
ENDBLK
  5
46F
330
464
100
AcDbEntity
  8
0
100
AcDbBlockEnd
  0
BLOCK
  5
5A5
330
5A4
100
AcDbEntity
  8
0
100
AcDbBlockBegin
  2
*D10
 70
     1
 10
0.0
 20
0.0
 30
0.0
  3
*D10
  1
*D10
  0
LINE
  5
5A7
330
5A4
100
AcDbEntity
  8
KOTY
100
AcDbLine
 10
433.0427588647808
 20
285.4090700075232
 30
0.0
 11
433.0427588647808
 21
302.1219433718123
 31
0.0
  0
LINE
  5
5A8
330
5A4
100
AcDbEntity
  8
KOTY
100
AcDbLine
 10
458.0927371571296
 20
285.4090700075232
 30
0.0
 11
458.0927371571296
 21
302.1219433718123
 31
0.0
  0
LINE
  5
5A9
330
5A4
100
AcDbEntity
  8
KOTY
100
AcDbLine
 10
437.0427588647808
 20
300.8719433718123
 30
0.0
 11
454.0927371571296
 21
300.8719433718123
 31
0.0
  0
SOLID
  5
5AA
330
5A4
100
AcDbEntity
  8
KOTY
100
AcDbTrace
 10
437.0427588647808
 20
301.538610038479
 30
0.0
 11
437.0427588647808
 21
300.2052767051456
 31
0.0
 12
433.0427588647808
 22
300.8719433718123
 32
0.0
 13
433.0427588647808
 23
300.8719433718123
 33
0.0
  0
SOLID
  5
5AB
330
5A4
100
AcDbEntity
  8
KOTY
100
AcDbTrace
 10
454.0927371571296
 20
300.2052767051456
 30
0.0
 11
454.0927371571296
 21
301.538610038479
 31
0.0
 12
458.0927371571296
 22
300.8719433718123
 32
0.0
 13
458.0927371571296
 23
300.8719433718123
 33
0.0
  0
MTEXT
  5
5AC
330
5A4
100
AcDbEntity
  8
KOTY
100
AcDbMText
 10
445.5677480109552
 20
303.9139433718123
 30
0.0
 40
4.0
 41
0.0
 71
     5
 72
     1
  1
\A1;25
  0
POINT
  5
5AD
330
5A4
100
AcDbEntity
  8
DEFPOINTS
 62
     0
100
AcDbPoint
 10
433.0427588647808
 20
285.4090700075232
 30
0.0
  0
POINT
  5
5AE
330
5A4
100
AcDbEntity
  8
DEFPOINTS
 62
     0
100
AcDbPoint
 10
458.0927371571296
 20
285.4090700075232
 30
0.0
  0
POINT
  5
5AF
330
5A4
100
AcDbEntity
  8
DEFPOINTS
 62
     0
100
AcDbPoint
 10
458.0927371571296
 20
300.8719433718123
 30
0.0
  0
ENDBLK
  5
5A6
330
5A4
100
AcDbEntity
  8
0
100
AcDbBlockEnd
  0
ENDSEC
  0
SECTION
  2
ENTITIES
  0
LWPOLYLINE
  5
22F
330
1F
100
AcDbEntity
  8
OBRYS
100
AcDbPolyline
 90
        2
 70
     0
 43
0.0
 10
387.2578109045544
 20
282.0597590282083
 10
387.2500594397127
 20
282.0644099071134
  0
LWPOLYLINE
  5
230
330
1F
100
AcDbEntity
  8
OBRYS
100
AcDbPolyline
 90
        2
 70
     0
 43
0.0
 10
387.2500594397127
 20
285.0544082787613
 10
387.2578109045544
 20
285.0597481767642
  0
LWPOLYLINE
  5
231
330
1F
100
AcDbEntity
  8
OBRYS
100
AcDbPolyline
 90
        7
 70
     0
 43
0.0
 10
385.0886065322669
 20
280.7597522468492
 10
386.502147655645
 20
280.7597522468492
 42
0.277506992092949
 10
386.7229640364907
 20
280.8925339635047
 10
387.0399086151124
 20
281.4895957253992
 10
387.5878119287918
 20
282.9201120329382
 42
0.5248895955304514
 10
387.3551327173357
 20
283.2595291726467
 10
387.2500594397127
 20
283.2598580404953
  0
LWPOLYLINE
  5
232
330
1F
100
AcDbEntity
  8
OBRYS
100
AcDbPolyline
 90
        7
 70
     0
 43
0.0
 10
387.2500594397127
 20
283.8596491644772
 10
387.3543114789461
 20
283.8596491644772
 42
0.5259202862586583
 10
387.5877641269468
 20
284.1990911073309
 10
387.0399086151124
 20
285.6290502057012
 10
386.7226237499092
 20
286.226944021527
 42
0.2775426205144201
 10
386.5017918604128
 20
286.3597549581233
 10
385.0886065322669
 20
286.3597549581233
  0
LWPOLYLINE
  5
233
330
1F
100
AcDbEntity
  8
OBRYS
100
AcDbPolyline
 90
        2
 70
     0
 43
0.0
 10
387.4702010412203
 20
283.2591690213982
 10
387.4702010412203
 20
283.2591690213982
  0
LWPOLYLINE
  5
234
330
1F
100
AcDbEntity
  8
OBRYS
100
AcDbPolyline
 90
        2
 70
     0
 43
0.0
 10
387.2578109045544
 20
282.0597590282083
 10
387.2578109045544
 20
282.0597590282083
  0
LWPOLYLINE
  5
235
330
1F
100
AcDbEntity
  8
OBRYS
100
AcDbPolyline
 90
        2
 70
     0
 43
0.0
 10
387.2500594397127
 20
285.0544082787613
 10
387.2500594397127
 20
285.0544082787613
  0
LWPOLYLINE
  5
236
330
1F
100
AcDbEntity
  8
OBRYS
100
AcDbPolyline
 90
        2
 70
     0
 43
0.0
 10
387.2578109045544
 20
285.0594036672152
 10
387.2578109045544
 20
285.0597481767642
  0
LWPOLYLINE
  5
237
330
1F
100
AcDbEntity
  8
OBRYS
100
AcDbPolyline
 90
        2
 70
     0
 43
0.0
 10
387.4702010412203
 20
283.8596491644772
 10
387.4702010412203
 20
283.8596491644772
  0
LWPOLYLINE
  5
238
330
1F
100
AcDbEntity
  8
OBRYS
100
AcDbPolyline
 90
        2
 70
     0
 43
0.0
 10
387.2578109045544
 20
251.7596274711133
 10
387.2500594397127
 20
251.7642783500183
  0
LWPOLYLINE
  5
239
330
1F
100
AcDbEntity
  8
OBRYS
100
AcDbPolyline
 90
        2
 70
     0
 43
0.0
 10
387.2500594397127
 20
254.7547934859894
 10
387.2578109045544
 20
254.7592721101204
  0
LWPOLYLINE
  5
23A
330
1F
100
AcDbEntity
  8
OBRYS
100
AcDbPolyline
 90
        7
 70
     0
 43
0.0
 10
385.0886065322669
 20
250.4592761802052
 10
386.5017719210293
 20
250.4592761802052
 42
0.2774713465558348
 10
386.7225727816198
 20
250.5920286643994
 10
387.0399086151124
 20
251.1896364230782
 10
387.5878961177531
 20
252.6199400309976
 42
0.5259202862584886
 10
387.3544434697523
 20
252.9593819738512
 10
387.2500594397127
 20
252.9593819738512
  0
LWPOLYLINE
  5
23B
330
1F
100
AcDbEntity
  8
OBRYS
100
AcDbPolyline
 90
        7
 70
     0
 43
0.0
 10
387.2500594397127
 20
253.5595176073822
 10
387.3540127276571
 20
253.5595176073822
 42
0.525823641449903
 10
387.5874924509523
 20
253.8988888488974
 10
387.0399086151124
 20
255.3294354129292
 10
386.7225472630469
 20
255.9269001618212
 42
0.2774356838908463
 10
386.5017619343276
 20
256.0596234010274
 10
385.0886065322669
 20
256.0596234010274
  0
LWPOLYLINE
  5
23C
330
1F
100
AcDbEntity
  8
OBRYS
100
AcDbPolyline
 90
        2
 70
     0
 43
0.0
 10
387.4702010412203
 20
252.9593819738512
 10
387.4702010412203
 20
252.9593819738512
  0
LWPOLYLINE
  5
23D
330
1F
100
AcDbEntity
  8
OBRYS
100
AcDbPolyline
 90
        2
 70
     0
 43
0.0
 10
387.2578109045544
 20
251.7596274711133
 10
387.2578109045544
 20
251.7596274711133
  0
LWPOLYLINE
  5
23E
330
1F
100
AcDbEntity
  8
OBRYS
100
AcDbPolyline
 90
        2
 70
     0
 43
0.0
 10
387.2500594397127
 20
254.7547934859894
 10
387.2500594397127
 20
254.7547934859894
  0
LWPOLYLINE
  5
23F
330
1F
100
AcDbEntity
  8
OBRYS
100
AcDbPolyline
 90
        2
 70
     0
 43
0.0
 10
387.2578109045544
 20
254.7592721101204
 10
387.2578109045544
 20
254.7592721101204
  0
LWPOLYLINE
  5
240
330
1F
100
AcDbEntity
  8
OBRYS
100
AcDbPolyline
 90
        2
 70
     0
 43
0.0
 10
387.4702010412203
 20
253.5595176073822
 10
387.4702010412203
 20
253.5595176073822
  0
LWPOLYLINE
  5
241
330
1F
100
AcDbEntity
  8
OBRYS
100
AcDbPolyline
 90
        2
 70
     0
 43
0.0
 10
293.1064518786131
 20
283.2591690213982
 10
293.1064518786131
 20
283.2591690213982
  0
LWPOLYLINE
  5
242
330
1F
100
AcDbEntity
  8
OBRYS
100
AcDbPolyline
 90
        2
 70
     0
 43
0.0
 10
293.3188420152788
 20
282.0597590282083
 10
293.3188420152788
 20
282.0597590282083
  0
LWPOLYLINE
  5
243
330
1F
100
AcDbEntity
  8
OBRYS
100
AcDbPolyline
 90
        2
 70
     0
 43
0.0
 10
293.3265934801207
 20
285.0544082787613
 10
293.3265934801207
 20
285.0544082787613
  0
LWPOLYLINE
  5
244
330
1F
100
AcDbEntity
  8
OBRYS
100
AcDbPolyline
 90
        2
 70
     0
 43
0.0
 10
293.3188420152788
 20
285.0594036672152
 10
293.3188420152788
 20
285.0597481767642
  0
LWPOLYLINE
  5
245
330
1F
100
AcDbEntity
  8
OBRYS
100
AcDbPolyline
 90
        2
 70
     0
 43
0.0
 10
293.1064518786131
 20
283.8596491644772
 10
293.1064518786131
 20
283.8596491644772
  0
LWPOLYLINE
  5
246
330
1F
100
AcDbEntity
  8
OBRYS
100
AcDbPolyline
 90
        2
 70
     0
 43
0.0
 10
293.1064518786131
 20
252.9593819738512
 10
293.1064518786131
 20
252.9593819738512
  0
LWPOLYLINE
  5
247
330
1F
100
AcDbEntity
  8
OBRYS
100
AcDbPolyline
 90
        2
 70
     0
 43
0.0
 10
293.3188420152788
 20
251.7596274711133
 10
293.3188420152788
 20
251.7596274711133
  0
LWPOLYLINE
  5
248
330
1F
100
AcDbEntity
  8
OBRYS
100
AcDbPolyline
 90
        2
 70
     0
 43
0.0
 10
293.1064518786131
 20
253.5595176073822
 10
293.1064518786131
 20
253.5595176073822
  0
LWPOLYLINE
  5
249
330
1F
100
AcDbEntity
  8
OBRYS
100
AcDbPolyline
 90
        7
 70
     0
 43
0.0
 10
293.3265934801207
 20
283.2598580404953
 10
293.2223840886342
 20
283.2595318765156
 42
0.5247214455279277
 10
292.9896577543901
 20
282.920237866503
 10
293.5367443047208
 20
281.4895957253992
 10
293.8536888833426
 20
280.8925339635047
 42
0.2775069920927901
 10
294.0745052641883
 20
280.7597522468492
 10
295.4880463875664
 20
280.7597522468492
  0
LWPOLYLINE
  5
24A
330
1F
100
AcDbEntity
  8
OBRYS
100
AcDbPolyline
 90
        7
 70
     0
 43
0.0
 10
293.3265934801207
 20
283.8596491644772
 10
293.2232062855616
 20
283.8596491644772
 42
-0.525751955619958
 10
292.9897064917347
 20
284.1989679546772
 10
293.5367443047208
 20
285.6290502057012
 10
293.8540291699238
 20
286.226944021527
 42
-0.2775426205137559
 10
294.0748610594204
 20
286.3597549581233
 10
295.4880463875664
 20
286.3597549581233
  0
LWPOLYLINE
  5
24B
330
1F
100
AcDbEntity
  8
OBRYS
100
AcDbPolyline
 90
        7
 70
     0
 43
0.0
 10
295.4880463875664
 20
250.4592761802052
 10
294.0748809988041
 20
250.4592761802052
 42
-0.2774713465551575
 10
293.854080138214
 20
250.5920286643992
 10
293.5367443047208
 20
251.1896364230782
 10
292.9895747092802
 20
252.6200631836515
 42
-0.5257519556197878
 10
293.2230745031073
 20
252.9593819738512
 10
293.3265934801207
 20
252.9593819738512
  0
LWPOLYLINE
  5
24C
330
1F
100
AcDbEntity
  8
OBRYS
100
AcDbPolyline
 90
        7
 70
     0
 43
0.0
 10
293.3265934801207
 20
253.5595176073822
 10
293.2235046079471
 20
253.5595176073822
 42
-0.5256554378022379
 10
292.9899778078943
 20
253.8987657651063
 10
293.5367443047208
 20
255.3294354129292
 10
293.8541056567865
 20
255.9269001618212
 42
-0.2774356838905651
 10
294.0748909855058
 20
256.0596234010274
 10
295.4880463875664
 20
256.0596234010274
  0
LWPOLYLINE
  5
24D
330
1F
100
AcDbEntity
  8
OBRYS
100
AcDbPolyline
 90
        2
 70
     0
 43
0.0
 10
385.0886065322669
 20
248.6593860439372
 10
384.2881385962693
 20
248.6593860439372
  0
LWPOLYLINE
  5
24E
330
1F
100
AcDbEntity
  8
OBRYS
100
AcDbPolyline
 90
        2
 70
     0
 43
0.0
 10
384.2881385962693
 20
268.3593033024662
 10
384.2881385962693
 20
268.3045262842512
  0
LWPOLYLINE
  5
24F
330
1F
100
AcDbEntity
  8
OBRYS
100
AcDbPolyline
 90
        2
 70
     0
 43
0.0
 10
384.2881385962693
 20
262.2833606499054
 10
384.2881385962693
 20
262.0759659016943
  0
LWPOLYLINE
  5
250
330
1F
100
AcDbEntity
  8
OBRYS
100
AcDbPolyline
 90
        2
 70
     0
 43
0.0
 10
384.2881385962693
 20
261.2496597495564
 10
384.2881385962693
 20
261.0426095108932
  0
LWPOLYLINE
  5
251
330
1F
100
AcDbEntity
  8
OBRYS
100
AcDbPolyline
 90
        2
 70
     0
 43
0.0
 10
385.0886065322669
 20
260.4595271000143
 10
384.2881385962693
 20
260.4595271000143
  0
LWPOLYLINE
  5
252
330
1F
100
AcDbEntity
  8
OBRYS
100
AcDbPolyline
 90
        2
 70
     0
 43
0.0
 10
385.0886065322669
 20
252.9593819738512
 10
384.2881385962693
 20
252.9593819738512
  0
LWPOLYLINE
  5
253
330
1F
100
AcDbEntity
  8
OBRYS
100
AcDbPolyline
 90
        2
 70
     0
 43
0.0
 10
295.4880463875664
 20
288.0593928157713
 10
296.2885143235641
 20
288.0593928157713
  0
LWPOLYLINE
  5
254
330
1F
100
AcDbEntity
  8
OBRYS
100
AcDbPolyline
 90
        2
 70
     0
 43
0.0
 10
296.2885143235641
 20
268.3593033024662
 10
296.2885143235641
 20
268.5141603445282
  0
LWPOLYLINE
  5
255
330
1F
100
AcDbEntity
  8
OBRYS
100
AcDbPolyline
 90
        2
 70
     0
 43
0.0
 10
295.4880463875664
 20
276.2597685240163
 10
296.2885143235641
 20
276.2597685240163
  0
LWPOLYLINE
  5
256
330
1F
100
AcDbEntity
  8
OBRYS
100
AcDbPolyline
 90
        2
 70
     0
 43
0.0
 10
295.4880463875664
 20
288.0593928157713
 10
295.4880463875664
 20
288.0593928157713
  0
LWPOLYLINE
  5
257
330
1F
100
AcDbEntity
  8
OBRYS
100
AcDbPolyline
 90
        2
 70
     0
 43
0.0
 10
295.4880463875664
 20
283.7593968858563
 10
296.2885143235641
 20
283.7593968858563
  0
LWPOLYLINE
  5
258
330
1F
100
AcDbEntity
  8
OBRYS
100
AcDbPolyline
 90
        2
 70
     0
 43
0.0
 10
384.2881385962693
 20
248.4096166212563
 10
296.2885143235641
 20
248.4096166212563
  0
LWPOLYLINE
  5
259
330
1F
100
AcDbEntity
  8
OBRYS
100
AcDbPolyline
 90
        2
 70
     0
 43
0.0
 10
384.2881385962693
 20
288.4094145170724
 10
296.2885143235641
 20
288.4094145170724
  0
LWPOLYLINE
  5
25A
330
1F
100
AcDbEntity
  8
OBRYS
100
AcDbPolyline
 90
        2
 70
     0
 43
0.0
 10
296.2885143235641
 20
261.3456056588203
 10
384.2881385962693
 20
261.3456056588203
  0
LWPOLYLINE
  5
25B
330
1F
100
AcDbEntity
  8
OBRYS
100
AcDbPolyline
 90
        2
 70
     0
 43
0.0
 10
384.2881385962693
 20
260.8493396541702
 10
296.2885143235641
 20
260.8493396541702
  0
LWPOLYLINE
  5
25C
330
1F
100
AcDbEntity
  8
OBRYS
100
AcDbPolyline
 90
        2
 70
     0
 43
0.0
 10
296.2885143235641
 20
262.3867135144632
 10
384.2881385962693
 20
262.3867135144632
  0
LWPOLYLINE
  5
25D
330
1F
100
AcDbEntity
  8
OBRYS
100
AcDbPolyline
 90
        2
 70
     0
 43
0.0
 10
296.2885143235641
 20
262.0759659016943
 10
384.2881385962693
 20
262.0759659016943
  0
LWPOLYLINE
  5
25E
330
1F
100
AcDbEntity
  8
OBRYS
100
AcDbPolyline
 90
        2
 70
     0
 43
0.0
 10
296.2885143235641
 20
263.4295439178483
 10
384.2881385962693
 20
263.4295439178483
  0
LWPOLYLINE
  5
25F
330
1F
100
AcDbEntity
  8
OBRYS
100
AcDbPolyline
 90
        2
 70
     0
 43
0.0
 10
296.2885143235641
 20
263.1105280759142
 10
384.2881385962693
 20
263.1105280759142
  0
LWPOLYLINE
  5
260
330
1F
100
AcDbEntity
  8
OBRYS
100
AcDbPolyline
 90
        2
 70
     0
 43
0.0
 10
296.2885143235641
 20
264.4734078498792
 10
384.2881385962693
 20
264.4734078498792
  0
LWPOLYLINE
  5
261
330
1F
100
AcDbEntity
  8
OBRYS
100
AcDbPolyline
 90
        2
 70
     0
 43
0.0
 10
296.2885143235641
 20
264.1478463265233
 10
384.2881385962693
 20
264.1478463265233
  0
LWPOLYLINE
  5
262
330
1F
100
AcDbEntity
  8
OBRYS
100
AcDbPolyline
 90
        2
 70
     0
 43
0.0
 10
296.2885143235641
 20
265.5189943296522
 10
384.2881385962693
 20
265.5189943296522
  0
LWPOLYLINE
  5
263
330
1F
100
AcDbEntity
  8
OBRYS
100
AcDbPolyline
 90
        2
 70
     0
 43
0.0
 10
296.2885143235641
 20
265.1860258510034
 10
384.2881385962693
 20
265.1860258510034
  0
LWPOLYLINE
  5
264
330
1F
100
AcDbEntity
  8
OBRYS
100
AcDbPolyline
 90
        2
 70
     0
 43
0.0
 10
296.2885143235641
 20
266.5654420832972
 10
384.2881385962693
 20
266.5654420832972
  0
LWPOLYLINE
  5
265
330
1F
100
AcDbEntity
  8
OBRYS
100
AcDbPolyline
 90
        2
 70
     0
 43
0.0
 10
296.2885143235641
 20
266.2248943945802
 10
384.2881385962693
 20
266.2248943945802
  0
LWPOLYLINE
  5
266
330
1F
100
AcDbEntity
  8
OBRYS
100
AcDbPolyline
 90
        2
 70
     0
 43
0.0
 10
296.2885143235641
 20
267.6124066012643
 10
384.2881385962693
 20
267.6124066012643
  0
LWPOLYLINE
  5
267
330
1F
100
AcDbEntity
  8
OBRYS
100
AcDbPolyline
 90
        2
 70
     0
 43
0.0
 10
296.2885143235641
 20
267.2649687215772
 10
384.2881385962693
 20
267.2649687215772
  0
LWPOLYLINE
  5
268
330
1F
100
AcDbEntity
  8
OBRYS
100
AcDbPolyline
 90
        2
 70
     0
 43
0.0
 10
384.2881385962693
 20
276.4092856680762
 10
296.2885143235641
 20
276.4092856680762
  0
LWPOLYLINE
  5
269
330
1F
100
AcDbEntity
  8
OBRYS
100
AcDbPolyline
 90
        2
 70
     0
 43
0.0
 10
296.2885143235641
 20
274.9297894119353
 10
384.2881385962693
 20
274.9297894119353
  0
LWPOLYLINE
  5
26A
330
1F
100
AcDbEntity
  8
OBRYS
100
AcDbPolyline
 90
        2
 70
     0
 43
0.0
 10
384.2881385962693
 20
275.4737699890562
 10
296.2885143235641
 20
275.4737699890562
  0
LWPOLYLINE
  5
26B
330
1F
100
AcDbEntity
  8
OBRYS
100
AcDbPolyline
 90
        2
 70
     0
 43
0.0
 10
296.2885143235641
 20
273.8879925371954
 10
384.2881385962693
 20
273.8879925371954
  0
LWPOLYLINE
  5
26C
330
1F
100
AcDbEntity
  8
OBRYS
100
AcDbPolyline
 90
        2
 70
     0
 43
0.0
 10
296.2885143235641
 20
272.8441286051653
 10
384.2881385962693
 20
272.8441286051653
  0
LWPOLYLINE
  5
26D
330
1F
100
AcDbEntity
  8
OBRYS
100
AcDbPolyline
 90
        2
 70
     0
 43
0.0
 10
296.2885143235641
 20
271.7992311444883
 10
384.2881385962693
 20
271.7992311444883
  0
LWPOLYLINE
  5
26E
330
1F
100
AcDbEntity
  8
OBRYS
100
AcDbPolyline
 90
        2
 70
     0
 43
0.0
 10
296.2885143235641
 20
270.7531279003923
 10
384.2881385962693
 20
270.7531279003923
  0
LWPOLYLINE
  5
26F
330
1F
100
AcDbEntity
  8
OBRYS
100
AcDbPolyline
 90
        2
 70
     0
 43
0.0
 10
296.2885143235641
 20
269.7065078919733
 10
384.2881385962693
 20
269.7065078919733
  0
LWPOLYLINE
  5
270
330
1F
100
AcDbEntity
  8
OBRYS
100
AcDbPolyline
 90
        2
 70
     0
 43
0.0
 10
296.2885143235641
 20
268.6595433740064
 10
384.2881385962693
 20
268.6595433740064
  0
LWPOLYLINE
  5
271
330
1F
100
AcDbEntity
  8
OBRYS
100
AcDbPolyline
 90
        2
 70
     0
 43
0.0
 10
296.2885143235641
 20
260.4094009607044
 10
384.2881385962693
 20
260.4094009607044
  0
LWPOLYLINE
  5
272
330
1F
100
AcDbEntity
  8
OBRYS
100
AcDbPolyline
 90
        2
 70
     0
 43
0.0
 10
296.2885143235641
 20
268.3052153033483
 10
384.2881385962693
 20
268.3052153033483
  0
LWPOLYLINE
  5
273
330
1F
100
AcDbEntity
  8
OBRYS
100
AcDbPolyline
 90
        2
 70
     0
 43
0.0
 10
384.2881385962693
 20
252.9094280893152
 10
296.2885143235641
 20
252.9094280893152
  0
LWPOLYLINE
  5
274
330
1F
100
AcDbEntity
  8
OBRYS
100
AcDbPolyline
 90
        2
 70
     0
 43
0.0
 10
384.2881385962693
 20
283.9092585394643
 10
296.2885143235641
 20
283.9092585394643
  0
LWPOLYLINE
  5
275
330
1F
100
AcDbEntity
  8
OBRYS
100
AcDbPolyline
 90
        2
 70
     0
 43
0.0
 10
296.2885143235641
 20
269.3449451207972
 10
384.2881385962693
 20
269.3449451207972
  0
LWPOLYLINE
  5
276
330
1F
100
AcDbEntity
  8
OBRYS
100
AcDbPolyline
 90
        2
 70
     0
 43
0.0
 10
296.2885143235641
 20
270.3851917025682
 10
384.2881385962693
 20
270.3851917025682
  0
LWPOLYLINE
  5
277
330
1F
100
AcDbEntity
  8
OBRYS
100
AcDbPolyline
 90
        2
 70
     0
 43
0.0
 10
296.2885143235641
 20
271.4245770104673
 10
384.2881385962693
 20
271.4245770104673
  0
LWPOLYLINE
  5
278
330
1F
100
AcDbEntity
  8
OBRYS
100
AcDbPolyline
 90
        2
 70
     0
 43
0.0
 10
296.2885143235641
 20
272.4627565349473
 10
384.2881385962693
 20
272.4627565349473
  0
LWPOLYLINE
  5
279
330
1F
100
AcDbEntity
  8
OBRYS
100
AcDbPolyline
 90
        2
 70
     0
 43
0.0
 10
296.2885143235641
 20
273.4999025307824
 10
384.2881385962693
 20
273.4999025307824
  0
LWPOLYLINE
  5
27A
330
1F
100
AcDbEntity
  8
OBRYS
100
AcDbPolyline
 90
        2
 70
     0
 43
0.0
 10
296.2885143235641
 20
274.5353259788743
 10
384.2881385962693
 20
274.5353259788743
  0
LWPOLYLINE
  5
27B
330
1F
100
AcDbEntity
  8
OBRYS
100
AcDbPolyline
 90
        2
 70
     0
 43
0.0
 10
296.2885143235641
 20
275.7767661369843
 10
384.2881385962693
 20
275.7767661369843
  0
LWPOLYLINE
  5
27C
330
1F
100
AcDbEntity
  8
OBRYS
100
AcDbPolyline
 90
        5
 70
     0
 43
0.0
 10
332.6001652476459
 20
237.7346437506613
 10
332.7698362002947
 20
237.8343792649592
 10
332.9165972679663
 20
237.9656374029472
 10
333.0352808074331
 20
238.1230782666233
 10
333.1202024111444
 20
238.3005006841132
  0
LWPOLYLINE
  5
27D
330
1F
100
AcDbEntity
  8
OBRYS
100
AcDbPolyline
 90
        3
 70
     0
 43
0.0
 10
331.0281681777266
 20
237.1091866653143
 10
331.2431421360061
 20
237.1324410598394
 10
331.44778080783
 20
237.2015152243192
  0
LWPOLYLINE
  5
27E
330
1F
100
AcDbEntity
  8
OBRYS
100
AcDbPolyline
 90
        2
 70
     0
 43
0.0
 10
386.3613970592924
 20
240.9096437498673
 10
386.1889700302559
 20
240.9096437498673
  0
LWPOLYLINE
  5
27F
330
1F
100
AcDbEntity
  8
OBRYS
100
AcDbPolyline
 90
        2
 70
     0
 43
0.0
 10
384.2881385962693
 20
240.9096437498673
 10
384.2881385962693
 20
244.8423925010542
  0
LWPOLYLINE
  5
280
330
1F
100
AcDbEntity
  8
OBRYS
100
AcDbPolyline
 90
        2
 70
     0
 43
0.0
 10
384.2881385962693
 20
248.4096166212563
 10
384.2881385962693
 20
248.4096166212563
  0
LWPOLYLINE
  5
281
330
1F
100
AcDbEntity
  8
OBRYS
100
AcDbPolyline
 90
        3
 70
     0
 43
0.0
 10
384.2881385962693
 20
240.9096437498673
 10
385.7881331705469
 20
242.1679648758542
 10
385.7881331705469
 20
242.2699397022183
  0
LWPOLYLINE
  5
282
330
1F
100
AcDbEntity
  8
OBRYS
100
AcDbPolyline
 90
        2
 70
     0
 43
0.0
 10
322.7880165413317
 20
240.4505847764573
 10
322.8172998529564
 20
240.3797880642363
  0
LWPOLYLINE
  5
283
330
1F
100
AcDbEntity
  8
OBRYS
100
AcDbPolyline
 90
        3
 70
     0
 43
0.0
 10
346.1810761600493
 20
244.4360434885692
 10
346.1914114465052
 20
244.4108942915274
 10
346.2076033952857
 20
244.3893624447434
  0
LWPOLYLINE
  5
284
330
1F
100
AcDbEntity
  8
OBRYS
100
AcDbPolyline
 90
        2
 70
     0
 43
0.0
 10
331.44778080783
 20
237.2015152243192
 10
332.6005097571946
 20
237.7346437506613
  0
LWPOLYLINE
  5
285
330
1F
100
AcDbEntity
  8
OBRYS
100
AcDbPolyline
 90
        2
 70
     0
 43
0.0
 10
333.120546920693
 20
238.3001561745642
 10
335.7625906483311
 20
245.5594891263094
  0
LWPOLYLINE
  5
286
330
1F
100
AcDbEntity
  8
OBRYS
100
AcDbPolyline
 90
       14
 70
     0
 43
0.0
 10
327.5384003833974
 20
241.5092626190752
 10
328.2386160407746
 20
241.5092626190752
 42
-0.414213562373095
 10
328.4886160407746
 20
241.2592626190752
 10
328.4886160407746
 20
240.2592680447973
 42
0.4142135623732282
 10
328.7386160407746
 20
240.0092680447973
 10
329.0383949576756
 20
240.0092680447973
 42
-0.4142135623732282
 10
329.2883949576756
 20
239.7592680447973
 10
329.2883949576756
 20
238.5845912533615
 42
-0.3155564368973375
 10
329.1236797548543
 20
238.3495880547233
 10
328.9528822960388
 20
238.2876041042153
 42
0.315556436897258
 10
328.788167093217
 20
238.0526009055769
 10
328.788167093217
 20
237.3595311748626
 42
0.4142135623729619
 10
329.0381670932169
 20
237.1095311748626
 10
331.0281681777266
 20
237.1095311748624
  0
LWPOLYLINE
  5
287
330
1F
100
AcDbEntity
  8
OBRYS
100
AcDbPolyline
 90
        2
 70
     0
 43
0.0
 10
322.78836105088
 20
240.4505847764573
 10
322.78836105088
 20
240.5094959092552
  0
LWPOLYLINE
  5
288
330
1F
100
AcDbEntity
  8
OBRYS
100
AcDbPolyline
 90
        6
 70
     0
 43
0.0
 10
325.7885224542099
 20
241.5092626190752
 10
327.5384003833974
 20
241.5092626190752
 42
-0.4142135623732282
 10
327.7884003833974
 20
241.2592626190752
 10
327.7884003833974
 20
235.2608622111364
 42
0.4125091737027842
 10
328.0369447287504
 20
235.0108664490332
 10
328.2886282478556
 20
235.0057858824651
  0
LWPOLYLINE
  5
289
330
1F
100
AcDbEntity
  8
OBRYS
100
AcDbPolyline
 90
        7
 70
     0
 43
0.0
 10
359.1883786741587
 20
241.1513171981572
 10
359.1675358464729
 20
241.3533720483673
 10
359.106557656384
 20
241.5475031789612
 10
359.0073389064087
 20
241.7249255964513
 10
358.874358220678
 20
241.8787491098682
 10
358.7131277519684
 20
242.0024280377883
 10
358.5300209269274
 20
242.0911392465342
  0
LWPOLYLINE
  5
28A
330
1F
100
AcDbEntity
  8
OBRYS
100
AcDbPolyline
 90
        2
 70
     0
 43
0.0
 10
358.5300209269274
 20
242.0911392465342
 10
357.846686237428
 20
242.3397028857943
  0
LWPOLYLINE
  5
28B
330
1F
100
AcDbEntity
  8
OBRYS
100
AcDbPolyline
 90
        3
 70
     0
 43
0.0
 10
357.7881196141789
 20
242.3624405159973
 10
357.817058416255
 20
242.3503826817993
 10
357.8463417278796
 20
242.3390138666972
  0
LWPOLYLINE
  5
28C
330
1F
100
AcDbEntity
  8
OBRYS
100
AcDbPolyline
 90
        8
 70
     0
 43
0.0
 10
357.1885007449712
 20
243.4791682175413
 10
357.1885007449712
 20
246.8306810750204
 42
-0.4836672144663662
 10
357.5572411233096
 20
247.1226994997572
 10
362.0570159701251
 20
246.0634641940156
 42
-0.3480111850547431
 10
362.2882755917866
 20
245.7714457692786
 10
362.2882755917865
 20
241.2096437498673
 42
0.414213562373428
 10
362.5882755917866
 20
240.9096437498673
 10
384.2881385962693
 20
240.9096437498673
  0
LWPOLYLINE
  5
28D
330
1F
100
AcDbEntity
  8
OBRYS
100
AcDbPolyline
 90
        7
 70
     0
 43
0.0
 10
344.5565413839801
 20
241.8592843203763
 10
344.8271536343461
 20
241.9111330074292
 10
345.0881196173539
 20
241.9993274518523
 10
345.3344439445492
 20
242.1228341249983
 10
345.5613034822529
 20
242.2787246957054
 10
345.7649086254311
 20
242.4645875971343
 10
345.9404362404047
 20
242.6762887147032
  0
LWPOLYLINE
  5
28E
330
1F
100
AcDbEntity
  8
OBRYS
100
AcDbPolyline
 90
        4
 70
     0
 43
0.0
 10
345.9409530047275
 20
242.6766332242522
 10
346.6208999011618
 20
243.6213447858562
 42
0.3678797016628993
 10
346.5893709114578
 20
244.0088971679369
 10
346.2079479048342
 20
244.3897069542924
  0
LWPOLYLINE
  5
28F
330
1F
100
AcDbEntity
  8
OBRYS
100
AcDbPolyline
 90
       10
 70
     0
 43
0.0
 10
346.1817651791465
 20
244.4363879981173
 10
345.5815795985001
 20
246.8367459559373
 42
-0.4879400266617023
 10
345.872619606944
 20
247.2095176089693
 10
346.6882620322433
 20
247.2095176089693
 42
-0.4142135623728732
 10
346.9882620322434
 20
246.9095176089694
 10
346.9882620322434
 20
246.3094185966821
 42
0.414213562373872
 10
347.2882620322433
 20
246.0094185966822
 10
356.0880328089735
 20
246.0094185966822
 42
-0.414213562373206
 10
356.3880328089735
 20
245.7094185966822
 10
356.3880328089733
 20
243.4791682175413
  0
LWPOLYLINE
  5
290
330
1F
100
AcDbEntity
  8
OBRYS
100
AcDbPolyline
 90
        5
 70
     0
 43
0.0
 10
357.3884885378899
 20
240.4094158854092
 10
357.1972340564191
 20
240.4094158854092
 42
0.4574379185147027
 10
356.9003949508025
 20
240.0659815052855
 10
356.9218503544128
 20
239.9193510526324
 10
357.0181407732255
 20
239.7109227757743
  0
LWPOLYLINE
  5
291
330
1F
100
AcDbEntity
  8
OBRYS
100
AcDbPolyline
 90
        6
 70
     0
 43
0.0
 10
357.0177962636769
 20
239.7105782662262
 10
358.0996877985863
 20
238.0458340067534
 42
0.2538783936153234
 10
358.3512341554069
 20
237.9093100917634
 10
388.2575154106796
 20
237.9093100917634
 42
0.5363848947619309
 10
388.5340058344869
 20
238.3257276400237
 10
384.2881385962693
 20
248.4096166212563
  0
LWPOLYLINE
  5
292
330
1F
100
AcDbEntity
  8
OBRYS
100
AcDbPolyline
 90
       25
 70
     0
 43
0.0
 10
337.0886079006038
 20
245.3260839071833
 10
337.0886079006038
 20
241.8910162329634
 42
0.3381495855721574
 10
337.2727733963021
 20
241.6498403261165
 10
337.5469214945979
 20
241.5750053046896
 42
-0.4141040482018554
 10
337.7222874970705
 20
241.2680850784544
 10
337.4882389768927
 20
240.4094158854092
 10
337.0208143146231
 20
239.9415697401254
 42
0.3521401432927004
 10
336.9871108697374
 20
239.6300967062185
 10
338.0148063632975
 20
238.0245340701832
 42
0.2557209825123939
 10
338.225366150548
 20
237.9093100917634
 10
338.9229286618976
 20
237.9093100917634
 42
0.2689990366824321
 10
339.1399229809863
 20
238.0351591131802
 10
339.4789874030444
 20
238.6277847552122
 10
339.7694089524507
 20
239.0575604169973
 10
340.0908363612247
 20
239.4642539390312
 10
340.4417193363976
 20
239.8463150283452
 10
340.819990820678
 20
240.2008153537773
 10
341.2235837567748
 20
240.5265491319072
 10
341.6504310873974
 20
240.8211047958963
 10
342.0981212457056
 20
241.0827597980013
 10
342.5637259005371
 20
241.3106528643503
 10
343.0453502493749
 20
241.5034059567503
 10
343.5398937062827
 20
241.6596410370063
 10
344.0442556853233
 20
241.7784968312473
 10
344.5565413839801
 20
241.8596288299253
  0
LWPOLYLINE
  5
293
330
1F
100
AcDbEntity
  8
OBRYS
100
AcDbPolyline
 90
        6
 70
     0
 43
0.0
 10
384.6727835071972
 20
244.9195626399243
 10
387.0281004835264
 20
239.3258411751646
 42
-0.5363875911034958
 10
386.7516110347972
 20
238.9094213111313
 10
359.4883786741588
 20
238.9094213111313
 42
-0.414213562373095
 10
359.1883786741587
 20
239.2094213111312
 10
359.1883786741587
 20
241.1513171981572
  0
LWPOLYLINE
  5
294
330
1F
100
AcDbEntity
  8
OBRYS
100
AcDbPolyline
 90
        2
 70
     0
 43
0.0
 10
364.288153520974
 20
248.4096166212563
 10
364.288153520974
 20
248.4096166212563
  0
LWPOLYLINE
  5
295
330
1F
100
AcDbEntity
  8
OBRYS
100
AcDbPolyline
 90
        2
 70
     0
 43
0.0
 10
382.7884885315398
 20
248.4096166212563
 10
382.7884885315398
 20
248.4096166212563
  0
LWPOLYLINE
  5
296
330
1F
100
AcDbEntity
  8
OBRYS
100
AcDbPolyline
 90
        2
 70
     0
 43
0.0
 10
296.2885143235641
 20
248.4096166212563
 10
296.2885143235641
 20
240.9096437498673
  0
LWPOLYLINE
  5
297
330
1F
100
AcDbEntity
  8
OBRYS
100
AcDbPolyline
 90
        2
 70
     0
 43
0.0
 10
297.7881643882935
 20
248.4096166212563
 10
297.7881643882935
 20
248.4096166212563
  0
LWPOLYLINE
  5
298
330
1F
100
AcDbEntity
  8
OBRYS
100
AcDbPolyline
 90
        2
 70
     0
 43
0.0
 10
384.7883664607274
 20
238.9094213111313
 10
386.1889700302559
 20
240.9096437498673
  0
LWPOLYLINE
  5
299
330
1F
100
AcDbEntity
  8
OBRYS
100
AcDbPolyline
 90
       12
 70
     0
 43
0.0
 10
296.2885143235641
 20
240.9096437498673
 10
318.0383773280467
 20
240.9096437498673
 42
-0.4142135623732282
 10
318.2883773280467
 20
240.6596437498673
 10
318.2883773280469
 20
238.1593100917634
 42
0.4142135623732282
 10
318.5383773280469
 20
237.9093100917634
 10
322.0333545750643
 20
237.9093100917634
 42
0.3589784147481687
 10
322.2787515163525
 20
238.1115571734612
 10
322.297380777099
 20
238.2072908745239
 42
-0.358978414747413
 10
322.5427777183874
 20
238.4095379562212
 10
323.3397108426443
 20
238.4095379562212
 42
0.6681786379193959
 10
323.7639749113562
 20
239.4338020249332
 10
322.8176443625048
 20
240.3801325737842
  0
LWPOLYLINE
  5
29A
330
1F
100
AcDbEntity
  8
OBRYS
100
AcDbPolyline
 90
        2
 70
     0
 43
0.0
 10
296.2885143235641
 20
288.4094145170724
 10
296.2885143235641
 20
288.4094145170724
  0
LWPOLYLINE
  5
29B
330
1F
100
AcDbEntity
  8
OBRYS
100
AcDbPolyline
 90
        2
 70
     0
 43
0.0
 10
384.2881385962693
 20
288.4094145170724
 10
384.2881385962693
 20
288.4097590266202
  0
LWPOLYLINE
  5
29C
330
1F
100
AcDbEntity
  8
OBRYS
100
AcDbPolyline
 90
        2
 70
     0
 43
0.0
 10
295.4880463875664
 20
248.6593860439372
 10
296.2885143235641
 20
248.6593860439372
  0
LWPOLYLINE
  5
29D
330
1F
100
AcDbEntity
  8
OBRYS
100
AcDbPolyline
 90
        4
 70
     0
 43
0.0
 10
288.4881291258615
 20
248.8595460916302
 10
287.4883624160422
 20
249.0359349804743
 10
287.4883624160422
 20
249.4831083744604
 10
288.4881291258615
 20
249.6594972633053
  0
LWPOLYLINE
  5
29E
330
1F
100
AcDbEntity
  8
OBRYS
100
AcDbPolyline
 90
        2
 70
     0
 43
0.0
 10
296.2885143235641
 20
268.3593033024662
 10
295.4880463875664
 20
268.3593033024662
  0
LWPOLYLINE
  5
29F
330
1F
100
AcDbEntity
  8
OBRYS
100
AcDbPolyline
 90
        2
 70
     0
 43
0.0
 10
288.4881291258615
 20
248.8595460916302
 10
295.4880463875664
 20
248.8595460916302
  0
LWPOLYLINE
  5
2A0
330
1F
100
AcDbEntity
  8
OBRYS
100
AcDbPolyline
 90
        2
 70
     0
 43
0.0
 10
296.2885143235641
 20
263.1105280759142
 10
296.2885143235641
 20
263.3194731170942
  0
LWPOLYLINE
  5
2A1
330
1F
100
AcDbEntity
  8
OBRYS
100
AcDbPolyline
 90
        2
 70
     0
 43
0.0
 10
296.2885143235641
 20
268.3045262842512
 10
296.2885143235641
 20
268.3593033024662
  0
LWPOLYLINE
  5
2A2
330
1F
100
AcDbEntity
  8
OBRYS
100
AcDbPolyline
 90
        2
 70
     0
 43
0.0
 10
288.9883569903198
 20
249.6594972633053
 10
288.9883569903198
 20
248.8595460916302
  0
LWPOLYLINE
  5
2A3
330
1F
100
AcDbEntity
  8
OBRYS
100
AcDbPolyline
 90
        2
 70
     0
 43
0.0
 10
295.4880463875664
 20
252.9593819738512
 10
296.2885143235641
 20
252.9593819738512
  0
LWPOLYLINE
  5
2A4
330
1F
100
AcDbEntity
  8
OBRYS
100
AcDbPolyline
 90
        2
 70
     0
 43
0.0
 10
295.4880463875664
 20
260.4595271000143
 10
296.2885143235641
 20
260.4595271000143
  0
LWPOLYLINE
  5
2A5
330
1F
100
AcDbEntity
  8
OBRYS
100
AcDbPolyline
 90
        2
 70
     0
 43
0.0
 10
384.2881385962693
 20
268.3593033024662
 10
385.0886065322669
 20
268.3593033024662
  0
LWPOLYLINE
  5
2A6
330
1F
100
AcDbEntity
  8
OBRYS
100
AcDbPolyline
 90
        2
 70
     0
 43
0.0
 10
385.0886065322669
 20
288.0593928157713
 10
384.2881385962693
 20
288.0593928157713
  0
LWPOLYLINE
  5
2A7
330
1F
100
AcDbEntity
  8
OBRYS
100
AcDbPolyline
 90
        2
 70
     0
 43
0.0
 10
384.2881385962693
 20
270.5941367437482
 10
384.2881385962693
 20
270.3851917025682
  0
LWPOLYLINE
  5
2A8
330
1F
100
AcDbEntity
  8
OBRYS
100
AcDbPolyline
 90
        2
 70
     0
 43
0.0
 10
385.0886065322669
 20
276.2597685240163
 10
384.2881385962693
 20
276.2597685240163
  0
LWPOLYLINE
  5
2A9
330
1F
100
AcDbEntity
  8
OBRYS
100
AcDbPolyline
 90
        2
 70
     0
 43
0.0
 10
385.0886065322669
 20
283.7593968858563
 10
384.2881385962693
 20
283.7593968858563
  0
LWPOLYLINE
  5
2AA
330
1F
100
AcDbEntity
  8
OBRYS
100
AcDbPolyline
 90
        2
 70
     0
 43
0.0
 10
385.0886065322669
 20
288.0593928157713
 10
385.0886065322669
 20
288.0593928157713
  0
LWPOLYLINE
  5
2AB
330
1F
100
AcDbEntity
  8
OBRYS
100
AcDbPolyline
 90
        2
 70
     0
 43
0.0
 10
384.2881385962693
 20
288.0593928157713
 10
384.2881385962693
 20
288.0593928157713
  0
LWPOLYLINE
  5
2AC
330
1F
100
AcDbEntity
  8
OBRYS
100
AcDbPolyline
 90
        2
 70
     0
 43
0.0
 10
332.3881196205289
 20
237.6364585293312
 10
332.3881196205289
 20
236.5093955413323
  0
LWPOLYLINE
  5
2AD
330
1F
100
AcDbEntity
  8
OBRYS
100
AcDbPolyline
 90
        2
 70
     0
 43
0.0
 10
337.1881711601275
 20
236.5093955413323
 10
337.1881711601275
 20
239.3157703236162
  0
LWPOLYLINE
  5
2AE
330
1F
100
AcDbEntity
  8
OBRYS
100
AcDbPolyline
 90
        2
 70
     0
 43
0.0
 10
337.1881711601275
 20
240.1091758138692
 10
337.1881711601275
 20
241.5690350257443
  0
LWPOLYLINE
  5
2AF
330
1F
100
AcDbEntity
  8
OBRYS
100
AcDbPolyline
 90
        4
 70
     0
 43
0.0
 10
357.7881196141789
 20
243.4791682175413
 10
357.7881196141789
 20
243.3053631503102
 10
357.7881196141789
 20
241.7488690100744
 10
357.7881196141789
 20
240.5094959092552
  0
LWPOLYLINE
  5
2B0
330
1F
100
AcDbEntity
  8
OBRYS
100
AcDbPolyline
 90
        2
 70
     0
 43
0.0
 10
354.7881304656232
 20
241.7488690100744
 10
354.7881304656232
 20
240.5094959092552
  0
LWPOLYLINE
  5
2B1
330
1F
100
AcDbEntity
  8
OBRYS
100
AcDbPolyline
 90
        2
 70
     0
 43
0.0
 10
354.7881304656232
 20
243.3053631503102
 10
354.7881304656232
 20
241.7488690100744
  0
LWPOLYLINE
  5
2B2
330
1F
100
AcDbEntity
  8
OBRYS
100
AcDbPolyline
 90
        2
 70
     0
 43
0.0
 10
354.7881304656232
 20
243.4791682175413
 10
354.7881304656232
 20
243.3053631503102
  0
LWPOLYLINE
  5
2B3
330
1F
100
AcDbEntity
  8
OBRYS
100
AcDbPolyline
 90
        6
 70
     0
 43
0.0
 10
354.7881304656232
 20
241.5092626190752
 10
353.0882525364357
 20
241.5092626190752
 42
0.414213562373428
 10
352.7882525364357
 20
241.2092626190753
 10
352.7882525364357
 20
235.3101562162241
 42
-0.4131123223598102
 10
352.4893809333585
 20
235.0101583383642
 10
352.2880246719773
 20
235.0094009670544
  0
LWPOLYLINE
  5
2B4
330
1F
100
AcDbEntity
  8
OBRYS
100
AcDbPolyline
 90
        2
 70
     0
 43
0.0
 10
325.7885224542099
 20
240.5094959092552
 10
325.7885224542099
 20
243.4791682175413
  0
LWPOLYLINE
  5
2B5
330
1F
100
AcDbEntity
  8
OBRYS
100
AcDbPolyline
 90
       11
 70
     0
 43
0.0
 10
357.7881196141789
 20
240.5094959092552
 10
354.7881304656232
 20
240.5094959092552
 10
354.0883637558037
 20
240.5094959092552
 42
0.4142135623738721
 10
353.7883637558039
 20
240.2094959092552
 10
353.7883637558039
 20
234.3092897476862
 42
-0.4142135623733169
 10
353.4883637558038
 20
234.0092897476862
 10
327.0382891640295
 20
234.0092897476862
 42
-0.4142135623732282
 10
326.7882891640295
 20
234.2592897476862
 10
326.7882891640296
 20
240.2594959092552
 42
0.4142135623732282
 10
326.5382891640296
 20
240.5094959092552
 10
322.78836105088
 20
240.5094959092552
  0
LWPOLYLINE
  5
2B6
330
1F
100
AcDbEntity
  8
OBRYS
100
AcDbPolyline
 90
        4
 70
     0
 43
0.0
 10
322.78836105088
 20
240.5094959092552
 10
322.78836105088
 20
241.7488690100744
 10
322.78836105088
 20
243.3053631503102
 10
322.78836105088
 20
243.4791682175413
  0
LWPOLYLINE
  5
2B7
330
1F
100
AcDbEntity
  8
OBRYS
100
AcDbPolyline
 90
        2
 70
     0
 43
0.0
 10
348.1883610445302
 20
236.5093955413323
 10
348.1883610445302
 20
241.5690350257443
  0
LWPOLYLINE
  5
2B8
330
1F
100
AcDbEntity
  8
OBRYS
100
AcDbPolyline
 90
        2
 70
     0
 43
0.0
 10
343.3884817597058
 20
241.5690350257443
 10
343.3884817597058
 20
236.5093955413323
  0
LWPOLYLINE
  5
2B9
330
1F
100
AcDbEntity
  8
OBRYS
100
AcDbPolyline
 90
        2
 70
     0
 43
0.0
 10
352.2880246719773
 20
236.5093955413323
 10
328.2886282478556
 20
236.5093955413323
  0
LWPOLYLINE
  5
2BA
330
1F
100
AcDbEntity
  8
OBRYS
100
AcDbPolyline
 90
        2
 70
     0
 43
0.0
 10
352.2880246719773
 20
236.5093955413323
 10
352.2880246719773
 20
234.0092897476862
  0
LWPOLYLINE
  5
2BB
330
1F
100
AcDbEntity
  8
OBRYS
100
AcDbPolyline
 90
        2
 70
     0
 43
0.0
 10
328.2886282478556
 20
234.0092897476862
 10
328.2886282478556
 20
236.5093955413323
  0
LWPOLYLINE
  5
2BC
330
1F
100
AcDbEntity
  8
OBRYS
100
AcDbPolyline
 90
        3
 70
     0
 43
0.0
 10
337.1881711601275
 20
241.5690350257443
 10
336.6881155504434
 20
242.0615114253602
 10
334.4889388474343
 20
242.0615114253602
  0
LWPOLYLINE
  5
2BD
330
1F
100
AcDbEntity
  8
OBRYS
100
AcDbPolyline
 90
        2
 70
     0
 43
0.0
 10
343.3884817597058
 20
241.5690350257443
 10
343.4558333764425
 20
241.6356976233832
  0
LWPOLYLINE
  5
2BE
330
1F
100
AcDbEntity
  8
OBRYS
100
AcDbPolyline
 90
        2
 70
     0
 43
0.0
 10
346.6883664702524
 20
243.0156306200003
 10
348.1883610445302
 20
241.5690350257443
  0
LWPOLYLINE
  5
2BF
330
1F
100
AcDbEntity
  8
OBRYS
100
AcDbPolyline
 90
        2
 70
     0
 43
0.0
 10
347.6884776896203
 20
242.0615114253602
 10
345.2223060865044
 20
242.0615114253602
  0
LWPOLYLINE
  5
2C0
330
1F
100
AcDbEntity
  8
OBRYS
100
AcDbPolyline
 90
        3
 70
     0
 43
0.0
 10
336.6881155504434
 20
242.0615114253602
 10
335.6883488406239
 20
243.0156306200003
 10
334.8365489818959
 20
243.0156306200003
  0
LWPOLYLINE
  5
2C1
330
1F
100
AcDbEntity
  8
OBRYS
100
AcDbPolyline
 90
        2
 70
     0
 43
0.0
 10
357.7881196141789
 20
243.4791682175413
 10
354.7881304656232
 20
243.4791682175413
  0
LWPOLYLINE
  5
2C2
330
1F
100
AcDbEntity
  8
OBRYS
100
AcDbPolyline
 90
        2
 70
     0
 43
0.0
 10
325.7885224542099
 20
243.4791682175413
 10
322.78836105088
 20
243.4791682175413
  0
LWPOLYLINE
  5
2C3
330
1F
100
AcDbEntity
  8
OBRYS
100
AcDbPolyline
 90
        2
 70
     0
 43
0.0
 10
346.6883664702524
 20
243.0156306200003
 10
346.1846935103089
 20
243.0156306200003
  0
LWPOLYLINE
  5
2C4
330
1F
100
AcDbEntity
  8
OBRYS
100
AcDbPolyline
 90
        2
 70
     0
 43
0.0
 10
357.3884885378899
 20
240.4094158854092
 10
357.4248342952592
 20
240.5094959092552
  0
LINE
  5
2C5
330
1F
100
AcDbEntity
  8
OBRYS
100
AcDbLine
 10
288.4881291258615
 20
249.6594972633053
 30
0.0
 11
295.4880463875664
 21
249.6594972633053
 31
0.0
  0
LINE
  5
2C6
330
1F
100
AcDbEntity
  8
OBRYS
100
AcDbLine
 10
293.3265934801207
 20
252.9593819738512
 30
0.0
 11
293.3265934801207
 21
253.5595176073822
 31
0.0
  0
LINE
  5
2C7
330
1F
100
AcDbEntity
  8
OBRYS
100
AcDbLine
 10
293.3265934801207
 20
283.2598580404953
 30
0.0
 11
293.3265934801207
 21
283.8596491644772
 31
0.0
  0
ELLIPSE
  5
2C8
330
1F
100
AcDbEntity
  8
OBRYS
100
AcDbEllipse
 10
336.4255992744676
 20
245.4427865167462
 30
0.0
 11
-0.6630086261363886
 21
0.1167026095631627
 31
0.0
210
0.0
220
0.0
230
1.0
 40
0.5976804459346348
 41
3.14159265359014
 42
6.283185307179586
  0
LINE
  5
2C9
330
1F
100
AcDbEntity
  8
OBRYS
100
AcDbLine
 10
343.7039331500232
 20
242.4897891904701
 30
0.0
 11
343.5405827253797
 21
242.4554580940993
 31
0.0
  0
LINE
  5
2CA
330
1F
100
AcDbEntity
  8
OBRYS
100
AcDbLine
 10
343.5405827253797
 20
242.4554580940993
 30
0.0
 11
343.0177894854929
 21
242.3066299691362
 31
0.0
  0
LINE
  5
2CB
330
1F
100
AcDbEntity
  8
OBRYS
100
AcDbLine
 10
343.0177894854929
 20
242.3066299691362
 30
0.0
 11
342.5068818250303
 21
242.1211115772552
 31
0.0
  0
LINE
  5
2CC
330
1F
100
AcDbEntity
  8
OBRYS
100
AcDbLine
 10
342.5068818250303
 20
242.1211115772552
 30
0.0
 11
342.0102713108316
 21
241.8999364471023
 31
0.0
  0
LINE
  5
2CD
330
1F
100
AcDbEntity
  8
OBRYS
100
AcDbLine
 10
342.0102713108316
 20
241.8999364471023
 30
0.0
 11
341.5303695097364
 21
241.6444826168712
 31
0.0
  0
LINE
  5
2CE
330
1F
100
AcDbEntity
  8
OBRYS
100
AcDbLine
 10
341.5303695097364
 20
241.6444826168712
 30
0.0
 11
341.0701047529069
 21
241.3554391056592
 31
0.0
  0
LINE
  5
2CF
330
1F
100
AcDbEntity
  8
OBRYS
100
AcDbLine
 10
341.0701047529069
 20
241.3554391056592
 30
0.0
 11
340.6308550785376
 21
241.0352174803044
 31
0.0
  0
LINE
  5
2D0
330
1F
100
AcDbEntity
  8
OBRYS
100
AcDbLine
 10
340.6308550785376
 20
241.0352174803044
 30
0.0
 11
340.2155488177906
 21
240.6845067599062
 31
0.0
  0
LINE
  5
2D1
330
1F
100
AcDbEntity
  8
OBRYS
100
AcDbLine
 10
340.2155488177906
 20
240.6845067599062
 30
0.0
 11
339.8262530279576
 21
240.3053740017543
 31
0.0
  0
LINE
  5
2D2
330
1F
100
AcDbEntity
  8
OBRYS
100
AcDbLine
 10
339.8262530279576
 20
240.3053740017543
 30
0.0
 11
339.4641734924577
 21
239.8995417535922
 31
0.0
  0
LINE
  5
2D3
330
1F
100
AcDbEntity
  8
OBRYS
100
AcDbLine
 10
339.4641734924577
 20
239.8995417535922
 30
0.0
 11
339.0361454533377
 21
239.3451266079545
 31
0.0
  0
ARC
  5
2D4
330
1F
100
AcDbEntity
  8
OBRYS
100
AcDbCircle
 10
338.8382579653329
 20
239.4979027254966
 30
0.0
 40
0.250000000000026
100
AcDbArc
 50
180.0
 51
322.330593737153
  0
LINE
  5
2D5
330
1F
100
AcDbEntity
  8
OBRYS
100
AcDbLine
 10
338.5882579653329
 20
239.4979027254966
 30
0.0
 11
338.5882579653329
 21
242.0593860455243
 31
0.0
  0
ARC
  5
2D6
330
1F
100
AcDbEntity
  8
OBRYS
100
AcDbCircle
 10
338.3382579653329
 20
242.0593860455243
 30
0.0
 40
0.2499999999999432
100
AcDbArc
 50
0.0
 51
90.0
  0
LINE
  5
2D7
330
1F
100
AcDbEntity
  8
OBRYS
100
AcDbLine
 10
338.3382579653329
 20
242.3093860455243
 30
0.0
 11
338.1383868175044
 21
242.3093860455243
 31
0.0
  0
ARC
  5
2D8
330
1F
100
AcDbEntity
  8
OBRYS
100
AcDbCircle
 10
338.1383868175044
 20
242.5593860455243
 30
0.0
 40
0.2499999999999432
100
AcDbArc
 50
180.0
 51
270.0
  0
LINE
  5
2D9
330
1F
100
AcDbEntity
  8
OBRYS
100
AcDbLine
 10
337.8883868175044
 20
242.5593860455243
 30
0.0
 11
337.8883868175044
 21
245.7999224857343
 31
0.0
  0
ARC
  5
2DA
330
1F
100
AcDbEntity
  8
OBRYS
100
AcDbCircle
 10
338.1383868175049
 20
245.7999224857341
 30
0.0
 40
0.2500000000002957
100
AcDbArc
 50
100.005630160219
 51
179.9999999999479
  0
LINE
  5
2DB
330
1F
100
AcDbEntity
  8
OBRYS
100
AcDbLine
 10
338.0949505803052
 20
246.0461201569216
 30
0.0
 11
344.435748765547
 21
247.1648164170368
 31
0.0
  0
ARC
  5
2DC
330
1F
100
AcDbEntity
  8
OBRYS
100
AcDbCircle
 10
344.479185002746
 20
246.9186187458494
 30
0.0
 40
0.2500000000002673
100
AcDbArc
 50
14.01937268405249
 51
100.0056301600884
  0
LINE
  5
2DD
330
1F
100
AcDbEntity
  8
OBRYS
100
AcDbLine
 10
344.721738470966
 20
246.9791812346901
 30
0.0
 11
345.233010766278
 21
244.9315297790239
 31
0.0
  0
ARC
  5
2DE
330
1F
100
AcDbEntity
  8
OBRYS
100
AcDbCircle
 10
343.2925830205194
 20
244.4470298683015
 30
0.0
 40
2.000000000000001
100
AcDbArc
 50
281.8690195444081
 51
14.01937268395255
  0
ELLIPSE
  5
2DF
330
1F
100
AcDbEntity
  8
OBRYS
100
AcDbEllipse
 10
384.4804610517331
 20
244.8812359526502
 30
0.0
 11
-0.1923224554639091
 21
-0.03884345159599434
 31
0.0
210
0.0
220
0.0
230
1.0
 40
0.6726905110995991
 41
3.137255986357017
 42
6.285917136582214
  0
LINE
  5
2E0
330
1F
100
AcDbEntity
  8
OBRYS
100
AcDbLine
 10
387.2500594397127
 20
253.5595176073822
 30
0.0
 11
387.2500594397127
 21
252.9593819738512
 31
0.0
  0
LINE
  5
2E1
330
1F
100
AcDbEntity
  8
OBRYS
100
AcDbLine
 10
387.2500594397127
 20
283.8596491644772
 30
0.0
 11
387.2500594397127
 21
283.2598580404953
 31
0.0
  0
CIRCLE
  5
2E2
330
1F
100
AcDbEntity
  8
OBRYS
100
AcDbCircle
 10
334.7911167851843
 20
240.0817442410679
 30
0.0
 40
0.743272328504955
  0
CIRCLE
  5
2E3
330
1F
100
AcDbEntity
  8
OBRYS
100
AcDbCircle
 10
345.7980676694767
 20
240.0694280247084
 30
0.0
 40
0.7080004021513181
  0
DIMENSION
  5
2E4
330
1F
100
AcDbEntity
  8
KOTY
100
AcDbDimension
  2
*D5
 10
385.0886065322669
 20
305.7426022901153
 30
0.0
 11
340.2883264599166
 21
308.7846022901153
 31
0.0
 70
    32
  3
ISO-25
100
AcDbAlignedDimension
 13
295.4880463875664
 23
288.0593928157713
 33
0.0
 14
385.0886065322669
 24
288.0593928157713
 34
0.0
100
AcDbRotatedDimension
1001
ACAD
1000
DSTYLE
1002
{
1070
   287
1070
     5
1070
   271
1070
     0
1070
   278
1070
    44
1070
   140
1040
4.0
1070
   147
1040
1.0
1070
    41
1040
4.0
1070
   178
1070
   256
1070
   176
1070
   256
1070
   177
1070
   256
1070
   279
1070
     2
1002
}
  0
DIMENSION
  5
2E5
330
1F
100
AcDbEntity
  8
KOTY
100
AcDbDimension
  2
*D6
 10
278.3721179104422
 20
240.9096437498673
 30
0.0
 11
275.3721179104422
 21
264.6595291334698
 31
0.0
 70
    32
  3
ISO-25
100
AcDbAlignedDimension
 13
296.2885143235641
 23
288.4094145170724
 33
0.0
 14
296.2885143235641
 24
240.9096437498673
 34
0.0
 50
90.0
100
AcDbRotatedDimension
1001
ACAD
1000
DSTYLE
1002
{
1070
   287
1070
     5
1070
   271
1070
     0
1070
   278
1070
    44
1070
   140
1040
4.0
1070
   147
1040
1.0
1070
    41
1040
4.0
1070
   178
1070
   256
1070
   176
1070
   256
1070
   177
1070
   256
1070
   279
1070
     2
1002
}
  0
DIMENSION
  5
2E6
330
1F
100
AcDbEntity
  8
KOTY
100
AcDbDimension
  2
*D7
 10
259.654583818114
 20
234.0092897476862
 30
0.0
 11
256.620583818114
 21
261.2093521323793
 31
0.0
 70
    32
  3
ISO-25
100
AcDbAlignedDimension
 13
296.2885143235641
 23
288.4094145170724
 33
0.0
 14
327.0382891640296
 24
234.0092897476862
 34
0.0
 50
90.0
100
AcDbRotatedDimension
1001
ACAD
1000
DSTYLE
1002
{
1070
   287
1070
     5
1070
   271
1070
     0
1070
   278
1070
    44
1070
   140
1040
4.0
1070
   147
1040
1.0
1070
    41
1040
4.0
1070
   178
1070
   256
1070
   176
1070
   256
1070
   177
1070
   256
1070
   279
1070
     2
1002
}
  0
LINE
  5
2E7
330
1F
100
AcDbEntity
  8
OBRYS
100
AcDbLine
 10
296.2885143235641
 20
248.4096166212563
 30
0.0
 11
296.2885143235641
 21
288.4094145170724
 31
0.0
  0
LINE
  5
2E8
330
1F
100
AcDbEntity
  8
OBRYS
100
AcDbLine
 10
295.4880463875664
 20
288.0593928157713
 30
0.0
 11
295.4880463875664
 21
248.6593860439372
 31
0.0
  0
LINE
  5
2E9
330
1F
100
AcDbEntity
  8
OBRYS
100
AcDbLine
 10
384.2881385962693
 20
288.4094145170724
 30
0.0
 11
384.2881385962693
 21
248.4096166212563
 31
0.0
  0
LINE
  5
2EA
330
1F
100
AcDbEntity
  8
OBRYS
100
AcDbLine
 10
385.0886065322669
 20
248.6593860439372
 30
0.0
 11
385.0886065322669
 21
288.0593928157713
 31
0.0
  0
LWPOLYLINE
  5
473
330
1F
100
AcDbEntity
  8
OBRYS
100
AcDbPolyline
 90
        2
 70
     0
 43
0.0
 10
454.6927724227365
 20
254.7542767216672
 10
454.6927724227365
 20
254.7542767216672
  0
LWPOLYLINE
  5
474
330
1F
100
AcDbEntity
  8
OBRYS
100
AcDbPolyline
 90
        2
 70
     0
 43
0.0
 10
454.0929812987546
 20
254.7542767216672
 10
454.0929812987546
 20
254.7542767216672
  0
LWPOLYLINE
  5
475
330
1F
100
AcDbEntity
  8
OBRYS
100
AcDbPolyline
 90
        2
 70
     0
 43
0.0
 10
454.0929812987546
 20
251.7639338404703
 10
454.0929812987546
 20
251.7639338404703
  0
LWPOLYLINE
  5
476
330
1F
100
AcDbEntity
  8
OBRYS
100
AcDbPolyline
 90
        2
 70
     0
 43
0.0
 10
454.6927724227365
 20
251.7639338404703
 10
454.6927724227365
 20
251.7639338404703
  0
LWPOLYLINE
  5
477
330
1F
100
AcDbEntity
  8
OBRYS
100
AcDbPolyline
 90
        2
 70
     0
 43
0.0
 10
452.8978776749216
 20
283.2589967666232
 10
452.8978776749216
 20
283.2589967666232
  0
LWPOLYLINE
  5
478
330
1F
100
AcDbEntity
  8
OBRYS
100
AcDbPolyline
 90
        2
 70
     0
 43
0.0
 10
454.6927724227365
 20
285.0542360239873
 10
454.6927724227365
 20
285.0542360239873
  0
LWPOLYLINE
  5
479
330
1F
100
AcDbEntity
  8
OBRYS
100
AcDbPolyline
 90
        2
 70
     0
 43
0.0
 10
454.092636789206
 20
282.0642376523393
 10
454.0929812987546
 20
282.0642376523393
  0
LWPOLYLINE
  5
47A
330
1F
100
AcDbEntity
  8
OBRYS
100
AcDbPolyline
 90
        2
 70
     0
 43
0.0
 10
436.4430681087226
 20
282.0642376523393
 10
436.4430681087226
 20
282.0642376523393
  0
LWPOLYLINE
  5
47B
330
1F
100
AcDbEntity
  8
OBRYS
100
AcDbPolyline
 90
        2
 70
     0
 43
0.0
 10
437.0428592327046
 20
285.0542360239873
 10
437.0428592327046
 20
285.0542360239873
  0
LWPOLYLINE
  5
47C
330
1F
100
AcDbEntity
  8
OBRYS
100
AcDbPolyline
 90
        2
 70
     0
 43
0.0
 10
435.2476199753407
 20
252.9590374643034
 10
435.2476199753407
 20
252.9590374643034
  0
LWPOLYLINE
  5
47D
330
1F
100
AcDbEntity
  8
OBRYS
100
AcDbPolyline
 90
        2
 70
     0
 43
0.0
 10
438.2383073660862
 20
253.5591730978334
 10
438.2383073660862
 20
253.5591730978334
  0
LWPOLYLINE
  5
47E
330
1F
100
AcDbEntity
  8
OBRYS
100
AcDbPolyline
 90
        2
 70
     0
 43
0.0
 10
437.0428592327046
 20
254.7542767216672
 10
437.0428592327046
 20
254.7542767216672
  0
LWPOLYLINE
  5
47F
330
1F
100
AcDbEntity
  8
OBRYS
100
AcDbPolyline
 90
        2
 70
     0
 43
0.0
 10
436.4430681087226
 20
254.7542767216672
 10
436.4430681087226
 20
254.7542767216672
  0
LWPOLYLINE
  5
480
330
1F
100
AcDbEntity
  8
OBRYS
100
AcDbPolyline
 90
        2
 70
     0
 43
0.0
 10
436.4430681087226
 20
251.7639338404703
 10
436.4430681087226
 20
251.7639338404703
  0
LWPOLYLINE
  5
481
330
1F
100
AcDbEntity
  8
OBRYS
100
AcDbPolyline
 90
        2
 70
     0
 43
0.0
 10
437.0428592327046
 20
251.7639338404703
 10
437.0428592327046
 20
251.7639338404703
  0
LWPOLYLINE
  5
482
330
1F
100
AcDbEntity
  8
OBRYS
100
AcDbPolyline
 90
        2
 70
     0
 43
0.0
 10
439.3180002911636
 20
288.4090700075234
 10
439.8178836460735
 20
288.4090700075234
  0
LWPOLYLINE
  5
483
330
1F
100
AcDbEntity
  8
OBRYS
100
AcDbPolyline
 90
        2
 70
     0
 43
0.0
 10
439.3180002911636
 20
288.1093467003074
 10
439.3180002911636
 20
288.4090700075234
  0
LWPOLYLINE
  5
484
330
1F
100
AcDbEntity
  8
OBRYS
100
AcDbPolyline
 90
        2
 70
     0
 43
0.0
 10
451.8178402402956
 20
288.4090700075234
 10
451.8178402402956
 20
288.1093467003074
  0
LWPOLYLINE
  5
485
330
1F
100
AcDbEntity
  8
OBRYS
100
AcDbPolyline
 90
        2
 70
     0
 43
0.0
 10
451.3176123758371
 20
288.4090700075234
 10
451.8178402402956
 20
288.4090700075234
  0
LWPOLYLINE
  5
486
330
1F
100
AcDbEntity
  8
OBRYS
100
AcDbPolyline
 90
        5
 70
     0
 43
0.0
 10
443.5678700817676
 20
263.5292794321464
 10
442.5677588623997
 20
263.5292794321464
 10
442.5677588623997
 20
264.5293906515143
 10
443.5678700817676
 20
264.5293906515143
 10
443.5678700817676
 20
263.5292794321464
  0
LWPOLYLINE
  5
487
330
1F
100
AcDbEntity
  8
OBRYS
100
AcDbPolyline
 90
        3
 70
     0
 43
0.0
 10
448.5680816690594
 20
263.5292794321464
 10
447.5679704496912
 20
263.5292794321464
 10
447.5679704496912
 20
264.5293906515143
  0
LWPOLYLINE
  5
488
330
1F
100
AcDbEntity
  8
OBRYS
100
AcDbPolyline
 90
        2
 70
     0
 43
0.0
 10
448.5680816690594
 20
264.5293906515143
 10
448.5680816690594
 20
264.5293906515143
  0
LWPOLYLINE
  5
489
330
1F
100
AcDbEntity
  8
OBRYS
100
AcDbPolyline
 90
        3
 70
     0
 43
0.0
 10
447.5679704496912
 20
264.5293906515143
 10
448.5680816690594
 20
264.5293906515143
 10
448.5680816690594
 20
263.5292794321464
  0
LWPOLYLINE
  5
48A
330
1F
100
AcDbEntity
  8
OBRYS
100
AcDbPolyline
 90
        2
 70
     0
 43
0.0
 10
442.3696658719979
 20
262.8195897621853
 10
442.3696658719979
 20
262.8195897621853
  0
LWPOLYLINE
  5
48B
330
1F
100
AcDbEntity
  8
OBRYS
100
AcDbPolyline
 90
        2
 70
     0
 43
0.0
 10
442.3682878338037
 20
265.2414918883154
 10
442.3689768529008
 20
265.2401138501212
  0
LWPOLYLINE
  5
48C
330
1F
100
AcDbEntity
  8
OBRYS
100
AcDbPolyline
 90
        2
 70
     0
 43
0.0
 10
450.105972293675
 20
261.8294693197244
 10
450.1076948414175
 20
261.8294693197244
  0
LWPOLYLINE
  5
48D
330
1F
100
AcDbEntity
  8
OBRYS
100
AcDbPolyline
 90
        2
 70
     0
 43
0.0
 10
450.5679595982469
 20
261.8294693197244
 10
450.107350331869
 20
261.8294693197244
  0
LWPOLYLINE
  5
48E
330
1F
100
AcDbEntity
  8
OBRYS
100
AcDbPolyline
 90
        2
 70
     0
 43
0.0
 10
446.0283572773333
 20
261.8294693197244
 10
446.0283572773333
 20
261.8294693197244
  0
LWPOLYLINE
  5
48F
330
1F
100
AcDbEntity
  8
OBRYS
100
AcDbPolyline
 90
        2
 70
     0
 43
0.0
 10
445.1078277636745
 20
261.8294693197244
 10
445.1078277636745
 20
261.8294693197244
  0
LWPOLYLINE
  5
490
330
1F
100
AcDbEntity
  8
OBRYS
100
AcDbPolyline
 90
        2
 70
     0
 43
0.0
 10
446.0283572773333
 20
261.8294693197244
 10
445.1078277636745
 20
261.8294693197244
  0
LWPOLYLINE
  5
491
330
1F
100
AcDbEntity
  8
OBRYS
100
AcDbPolyline
 90
        2
 70
     0
 43
0.0
 10
441.0284901995901
 20
261.8294693197244
 10
440.5678809332122
 20
261.8294693197244
  0
LWPOLYLINE
  5
492
330
1F
100
AcDbEntity
  8
OBRYS
100
AcDbPolyline
 90
        2
 70
     0
 43
0.0
 10
448.6731570813592
 20
267.1225140232624
 10
448.7120866603428
 20
267.1225140232624
  0
LWPOLYLINE
  5
493
330
1F
100
AcDbEntity
  8
OBRYS
100
AcDbPolyline
 90
        2
 70
     0
 43
0.0
 10
447.4243099679564
 20
267.1225140232624
 10
447.4628950373911
 20
267.1225140232624
  0
LWPOLYLINE
  5
494
330
1F
100
AcDbEntity
  8
OBRYS
100
AcDbPolyline
 90
        5
 70
     0
 43
0.0
 10
450.5679595982469
 20
267.1225140232624
 10
443.7118750730511
 20
267.1225140232624
 10
443.672945494068
 20
267.1225140232624
 10
442.4630279596481
 20
267.1225140232624
 10
440.5678809332122
 20
267.1225140232624
  0
LWPOLYLINE
  5
495
330
1F
100
AcDbEntity
  8
OBRYS
100
AcDbPolyline
 90
        2
 70
     0
 43
0.0
 10
450.5679595982469
 20
267.4342951646773
 10
450.5679595982469
 20
261.5290569934112
  0
LWPOLYLINE
  5
496
330
1F
100
AcDbEntity
  8
OBRYS
100
AcDbPolyline
 90
        2
 70
     0
 43
0.0
 10
440.5678809332122
 20
261.5290569934112
 10
440.5678809332122
 20
267.4342951646773
  0
LWPOLYLINE
  5
497
330
1F
100
AcDbEntity
  8
OBRYS
100
AcDbPolyline
 90
        3
 70
     0
 43
0.0
 10
451.2676584913009
 20
260.1589425189273
 10
451.2676584913009
 20
268.2593955333942
 10
451.2676584913009
 20
268.7596233978533
  0
LWPOLYLINE
  5
498
330
1F
100
AcDbEntity
  8
OBRYS
100
AcDbPolyline
 90
        2
 70
     0
 43
0.0
 10
439.868182040158
 20
260.1589425189273
 10
451.2676584913009
 20
260.1589425189273
  0
LWPOLYLINE
  5
499
330
1F
100
AcDbEntity
  8
OBRYS
100
AcDbPolyline
 90
        2
 70
     0
 43
0.0
 10
439.868182040158
 20
268.7596233978533
 10
451.2676584913009
 20
268.7596233978533
  0
LWPOLYLINE
  5
49A
330
1F
100
AcDbEntity
  8
OBRYS
100
AcDbPolyline
 90
        3
 70
     0
 43
0.0
 10
439.868182040158
 20
260.1589425189273
 10
439.868182040158
 20
268.2593955333942
 10
439.868182040158
 20
268.7596233978533
  0
LWPOLYLINE
  5
49B
330
1F
100
AcDbEntity
  8
OBRYS
100
AcDbPolyline
 90
        2
 70
     0
 43
0.0
 10
442.8357872911522
 20
264.2613622227624
 10
443.3001861625638
 20
264.2613622227624
  0
LWPOLYLINE
  5
49C
330
1F
100
AcDbEntity
  8
OBRYS
100
AcDbPolyline
 90
        2
 70
     0
 43
0.0
 10
442.8357872911522
 20
263.7969633513504
 10
442.8357872911522
 20
264.2613622227624
  0
LWPOLYLINE
  5
49D
330
1F
100
AcDbEntity
  8
OBRYS
100
AcDbPolyline
 90
        2
 70
     0
 43
0.0
 10
443.3001861625638
 20
263.7969633513504
 10
442.8357872911522
 20
263.7969633513504
  0
LWPOLYLINE
  5
49E
330
1F
100
AcDbEntity
  8
OBRYS
100
AcDbPolyline
 90
        2
 70
     0
 43
0.0
 10
443.3001861625638
 20
264.2613622227624
 10
443.3001861625638
 20
263.7969633513504
  0
LWPOLYLINE
  5
49F
330
1F
100
AcDbEntity
  8
OBRYS
100
AcDbPolyline
 90
        2
 70
     0
 43
0.0
 10
447.8359988784438
 20
264.2613622227624
 10
448.3000532403067
 20
264.2613622227624
  0
LWPOLYLINE
  5
4A0
330
1F
100
AcDbEntity
  8
OBRYS
100
AcDbPolyline
 90
        2
 70
     0
 43
0.0
 10
447.8359988784438
 20
263.7969633513504
 10
447.8359988784438
 20
264.2613622227624
  0
LWPOLYLINE
  5
4A1
330
1F
100
AcDbEntity
  8
OBRYS
100
AcDbPolyline
 90
        2
 70
     0
 43
0.0
 10
448.3000532403067
 20
263.7969633513504
 10
447.8359988784438
 20
263.7969633513504
  0
LWPOLYLINE
  5
4A2
330
1F
100
AcDbEntity
  8
OBRYS
100
AcDbPolyline
 90
        2
 70
     0
 43
0.0
 10
448.3000532403067
 20
264.2613622227624
 10
448.3000532403067
 20
263.7969633513504
  0
LWPOLYLINE
  5
4A3
330
1F
100
AcDbEntity
  8
OBRYS
100
AcDbPolyline
 90
        2
 70
     0
 43
0.0
 10
443.3001861625638
 20
263.7969633513504
 10
443.5678700817676
 20
263.5292794321464
  0
LWPOLYLINE
  5
4A4
330
1F
100
AcDbEntity
  8
OBRYS
100
AcDbPolyline
 90
        2
 70
     0
 43
0.0
 10
442.5677588623997
 20
263.5292794321464
 10
442.8357872911522
 20
263.7969633513504
  0
LWPOLYLINE
  5
4A5
330
1F
100
AcDbEntity
  8
OBRYS
100
AcDbPolyline
 90
        2
 70
     0
 43
0.0
 10
442.5677588623997
 20
264.5293906515143
 10
442.8357872911522
 20
264.2613622227624
  0
LWPOLYLINE
  5
4A6
330
1F
100
AcDbEntity
  8
OBRYS
100
AcDbPolyline
 90
        2
 70
     0
 43
0.0
 10
443.5678700817676
 20
264.5293906515143
 10
443.3001861625638
 20
264.2613622227624
  0
LWPOLYLINE
  5
4A7
330
1F
100
AcDbEntity
  8
OBRYS
100
AcDbPolyline
 90
        2
 70
     0
 43
0.0
 10
447.5679704496912
 20
263.5292794321464
 10
447.8359988784438
 20
263.7969633513504
  0
LWPOLYLINE
  5
4A8
330
1F
100
AcDbEntity
  8
OBRYS
100
AcDbPolyline
 90
        2
 70
     0
 43
0.0
 10
448.3000532403067
 20
263.7969633513504
 10
448.5680816690594
 20
263.5292794321464
  0
LWPOLYLINE
  5
4A9
330
1F
100
AcDbEntity
  8
OBRYS
100
AcDbPolyline
 90
        2
 70
     0
 43
0.0
 10
447.5679704496912
 20
264.5293906515143
 10
447.8359988784438
 20
264.2613622227624
  0
LWPOLYLINE
  5
4AA
330
1F
100
AcDbEntity
  8
OBRYS
100
AcDbPolyline
 90
        2
 70
     0
 43
0.0
 10
448.5680816690594
 20
264.5293906515143
 10
448.3000532403067
 20
264.2613622227624
  0
LWPOLYLINE
  5
4AB
330
1F
100
AcDbEntity
  8
OBRYS
100
AcDbPolyline
 90
        2
 70
     0
 43
0.0
 10
443.7118750730511
 20
267.1225140232624
 10
444.0432932587321
 20
267.4342951646773
  0
LWPOLYLINE
  5
4AC
330
1F
100
AcDbEntity
  8
OBRYS
100
AcDbPolyline
 90
        2
 70
     0
 43
0.0
 10
447.0928917822755
 20
267.4342951646773
 10
447.4243099679564
 20
267.1225140232624
  0
LWPOLYLINE
  5
4AD
330
1F
100
AcDbEntity
  8
OBRYS
100
AcDbPolyline
 90
        2
 70
     0
 43
0.0
 10
444.0432932587321
 20
267.4342951646773
 10
447.0928917822755
 20
267.4342951646773
  0
LWPOLYLINE
  5
4AE
330
1F
100
AcDbEntity
  8
OBRYS
100
AcDbPolyline
 90
        3
 70
     0
 43
0.0
 10
448.7120866603428
 20
267.1225140232624
 10
449.0431603364752
 20
267.4342951646773
 10
450.5679595982469
 20
267.4342951646773
  0
LWPOLYLINE
  5
4AF
330
1F
100
AcDbEntity
  8
OBRYS
100
AcDbPolyline
 90
        2
 70
     0
 43
0.0
 10
450.5679595982469
 20
261.5290569934112
 10
450.222072011528
 20
261.5290569934112
  0
LWPOLYLINE
  5
4B0
330
1F
100
AcDbEntity
  8
OBRYS
100
AcDbPolyline
 90
        2
 70
     0
 43
0.0
 10
445.9143246167714
 20
261.5290569934112
 10
445.2222049337847
 20
261.5290569934112
  0
LWPOLYLINE
  5
4B1
330
1F
100
AcDbEntity
  8
OBRYS
100
AcDbPolyline
 90
        2
 70
     0
 43
0.0
 10
440.9141130294798
 20
261.5290569934112
 10
440.5678809332122
 20
261.5290569934112
  0
LWPOLYLINE
  5
4B2
330
1F
100
AcDbEntity
  8
OBRYS
100
AcDbPolyline
 90
        2
 70
     0
 43
0.0
 10
442.0930247045322
 20
267.4342951646773
 10
442.4237538711162
 20
267.1225140232624
  0
LWPOLYLINE
  5
4B3
330
1F
100
AcDbEntity
  8
OBRYS
100
AcDbPolyline
 90
        2
 70
     0
 43
0.0
 10
440.5678809332122
 20
267.4342951646773
 10
442.0930247045322
 20
267.4342951646773
  0
LWPOLYLINE
  5
4B4
330
1F
100
AcDbEntity
  8
OBRYS
100
AcDbPolyline
 90
        2
 70
     0
 43
0.0
 10
442.4630279596481
 20
268.7327516530682
 10
442.4630279596481
 20
267.1225140232624
  0
LWPOLYLINE
  5
4B5
330
1F
100
AcDbEntity
  8
OBRYS
100
AcDbPolyline
 90
        2
 70
     0
 43
0.0
 10
442.0930247045322
 20
268.2593955333942
 10
442.4630279596481
 20
268.7327516530682
  0
LWPOLYLINE
  5
4B6
330
1F
100
AcDbEntity
  8
OBRYS
100
AcDbPolyline
 90
        2
 70
     0
 43
0.0
 10
442.0930247045322
 20
267.4342951646773
 10
442.0930247045322
 20
268.2593955333942
  0
LWPOLYLINE
  5
4B7
330
1F
100
AcDbEntity
  8
OBRYS
100
AcDbPolyline
 90
        2
 70
     0
 43
0.0
 10
443.672945494068
 20
268.7327516530682
 10
443.672945494068
 20
267.1225140232624
  0
LWPOLYLINE
  5
4B8
330
1F
100
AcDbEntity
  8
OBRYS
100
AcDbPolyline
 90
        2
 70
     0
 43
0.0
 10
442.4630279596481
 20
268.7327516530682
 10
443.672945494068
 20
268.7327516530682
  0
LWPOLYLINE
  5
4B9
330
1F
100
AcDbEntity
  8
OBRYS
100
AcDbPolyline
 90
        2
 70
     0
 43
0.0
 10
444.0432932587321
 20
268.2593955333942
 10
444.0432932587321
 20
267.4342951646773
  0
LWPOLYLINE
  5
4BA
330
1F
100
AcDbEntity
  8
OBRYS
100
AcDbPolyline
 90
        4
 70
     0
 43
0.0
 10
443.672945494068
 20
268.7327516530682
 10
444.0432932587321
 20
268.2593955333942
 10
447.0928917822755
 20
268.2593955333942
 10
447.0928917822755
 20
267.4342951646773
  0
LWPOLYLINE
  5
4BB
330
1F
100
AcDbEntity
  8
OBRYS
100
AcDbPolyline
 90
        3
 70
     0
 43
0.0
 10
447.0928917822755
 20
268.2593955333942
 10
447.4628950373911
 20
268.7327516530682
 10
447.4628950373911
 20
267.1225140232624
  0
LWPOLYLINE
  5
4BC
330
1F
100
AcDbEntity
  8
OBRYS
100
AcDbPolyline
 90
        2
 70
     0
 43
0.0
 10
448.6731570813592
 20
268.7327516530682
 10
448.6731570813592
 20
267.1225140232624
  0
LWPOLYLINE
  5
4BD
330
1F
100
AcDbEntity
  8
OBRYS
100
AcDbPolyline
 90
        4
 70
     0
 43
0.0
 10
447.4628950373911
 20
268.7327516530682
 10
448.6731570813592
 20
268.7327516530682
 10
449.0431603364752
 20
268.2593955333942
 10
449.0431603364752
 20
267.4342951646773
  0
LWPOLYLINE
  5
4BE
330
1F
100
AcDbEntity
  8
OBRYS
100
AcDbPolyline
 90
        2
 70
     0
 43
0.0
 10
439.868182040158
 20
268.2593955333942
 10
442.0930247045322
 20
268.2593955333942
  0
LWPOLYLINE
  5
4BF
330
1F
100
AcDbEntity
  8
OBRYS
100
AcDbPolyline
 90
        2
 70
     0
 43
0.0
 10
449.0431603364752
 20
268.2593955333942
 10
451.2676584913009
 20
268.2593955333942
  0
LWPOLYLINE
  5
4C0
330
1F
100
AcDbEntity
  8
OBRYS
100
AcDbPolyline
 90
        2
 70
     0
 43
0.0
 10
442.3682878338037
 20
249.7092788930673
 10
443.1682390054785
 20
249.7092788930673
  0
LWPOLYLINE
  5
4C1
330
1F
100
AcDbEntity
  8
OBRYS
100
AcDbPolyline
 90
        2
 70
     0
 43
0.0
 10
447.9679460355289
 20
249.7092788930673
 10
448.7678972072039
 20
249.7092788930673
  0
LWPOLYLINE
  5
4C2
330
1F
100
AcDbEntity
  8
OBRYS
100
AcDbPolyline
 90
        2
 70
     0
 43
0.0
 10
436.0678972103789
 20
236.9090266176214
 10
436.0427588647809
 20
248.4090998569333
  0
LWPOLYLINE
  5
4C3
330
1F
100
AcDbEntity
  8
OBRYS
100
AcDbPolyline
 90
        3
 70
     0
 43
0.0
 10
455.0682878306287
 20
248.4090998569333
 10
455.0682878306287
 20
236.9090266176214
 10
454.5680599661706
 20
236.9090266176214
  0
LWPOLYLINE
  5
4C4
330
1F
100
AcDbEntity
  8
OBRYS
100
AcDbPolyline
 90
        2
 70
     0
 43
0.0
 10
436.5677805652884
 20
236.9090266176214
 10
436.0678972103789
 20
236.9090266176214
  0
LWPOLYLINE
  5
4C5
330
1F
100
AcDbEntity
  8
OBRYS
100
AcDbPolyline
 90
        2
 70
     0
 43
0.0
 10
436.0678972103789
 20
241.5096071286233
 10
455.0682878306287
 20
241.5096071286233
  0
LWPOLYLINE
  5
4C6
330
1F
100
AcDbEntity
  8
OBRYS
100
AcDbPolyline
 90
        2
 70
     0
 43
0.0
 10
455.0682878306287
 20
239.0091568254294
 10
436.0678972103789
 20
239.0091568254294
  0
LWPOLYLINE
  5
4C7
330
1F
100
AcDbEntity
  8
OBRYS
100
AcDbPolyline
 90
        3
 70
     0
 43
0.0
 10
445.7679080586482
 20
271.0096152592704
 10
445.7679080586482
 20
268.9094850514613
 10
451.4182091640066
 20
268.9094850514613
  0
LWPOLYLINE
  5
4C8
330
1F
100
AcDbEntity
  8
OBRYS
100
AcDbPolyline
 90
        4
 70
     0
 43
0.0
 10
447.9679460355289
 20
248.9093277213923
 10
447.4684071901677
 20
248.9093277213923
 10
443.6677778508401
 20
248.9093277213923
 10
443.1682390054785
 20
248.9093277213923
  0
LWPOLYLINE
  5
4C9
330
1F
100
AcDbEntity
  8
OBRYS
100
AcDbPolyline
 90
        3
 70
     0
 43
0.0
 10
443.1682390054785
 20
249.7092788930673
 10
443.6677778508401
 20
249.7092788930673
 10
447.9679460355289
 20
249.7092788930673
  0
LWPOLYLINE
  5
4CA
330
1F
100
AcDbEntity
  8
OBRYS
100
AcDbPolyline
 90
        2
 70
     0
 43
0.0
 10
434.0177208871065
 20
255.4663779584683
 10
434.0177208871065
 20
260.5093087297763
  0
LWPOLYLINE
  5
4CB
330
1F
100
AcDbEntity
  8
OBRYS
100
AcDbPolyline
 90
        2
 70
     0
 43
0.0
 10
457.1181196443524
 20
260.5093087297763
 10
457.1181196443524
 20
255.4663779584683
  0
LWPOLYLINE
  5
4CC
330
1F
100
AcDbEntity
  8
OBRYS
100
AcDbPolyline
 90
        7
 70
     0
 43
0.0
 10
457.1181196443524
 20
255.4663779584683
 10
457.1391347268125
 20
255.0326404368753
 10
457.2035580123865
 20
254.6033815394134
 10
457.3096669533323
 20
254.1820463615674
 10
457.4567725305525
 20
253.7731135274672
 10
457.6434967058531
 20
253.3810616612462
 10
457.8681169314913
 20
253.0093358583873
  0
LWPOLYLINE
  5
4CD
330
1F
100
AcDbEntity
  8
OBRYS
100
AcDbPolyline
 90
        7
 70
     0
 43
0.0
 10
433.2680681095163
 20
253.0093358583873
 10
433.4926883351546
 20
253.3810616612462
 10
433.6794125104551
 20
253.7731135274672
 10
433.8261735781268
 20
254.1820463615674
 10
433.932627028621
 20
254.6033815394134
 10
433.9967058046466
 20
255.0326404368753
 10
434.0177208871065
 20
255.4663779584683
  0
LWPOLYLINE
  5
4CE
330
1F
100
AcDbEntity
  8
OBRYS
100
AcDbPolyline
 90
        2
 70
     0
 43
0.0
 10
434.0177208871065
 20
281.3517919059904
 10
434.0177208871065
 20
276.3092056442293
  0
LWPOLYLINE
  5
4CF
330
1F
100
AcDbEntity
  8
OBRYS
100
AcDbPolyline
 90
        2
 70
     0
 43
0.0
 10
457.1181196443524
 20
276.3092056442293
 10
457.1181196443524
 20
281.3521364155382
  0
LWPOLYLINE
  5
4D0
330
1F
100
AcDbEntity
  8
OBRYS
100
AcDbPolyline
 90
        7
 70
     0
 43
0.0
 10
457.8681169314913
 20
283.8091785156183
 10
457.6434967058531
 20
283.4374527127594
 10
457.4567725305525
 20
283.0450563369903
 10
457.3096669533323
 20
282.6368125219873
 10
457.2035580123865
 20
282.2154773441413
 10
457.1391347268125
 20
281.7862184466793
 10
457.1181196443524
 20
281.3521364155382
  0
LWPOLYLINE
  5
4D1
330
1F
100
AcDbEntity
  8
OBRYS
100
AcDbPolyline
 90
        6
 70
     0
 43
0.0
 10
457.8681169314913
 20
283.8091785156183
 10
457.8681169314913
 20
285.1093467003074
 42
0.4142135623730618
 10
454.8681169314913
 20
288.1093467003074
 10
436.2680681095163
 20
288.1093467003074
 42
0.4142135623731283
 10
433.2680681095163
 20
285.1093467003074
 10
433.2680681095163
 20
283.8091785156183
  0
LWPOLYLINE
  5
4D2
330
1F
100
AcDbEntity
  8
OBRYS
100
AcDbPolyline
 90
        7
 70
     0
 43
0.0
 10
434.0177208871065
 20
281.3517919059904
 10
433.9967058046466
 20
281.7855294275822
 10
433.932627028621
 20
282.2151328345934
 10
433.8261735781268
 20
282.6364680124394
 10
433.6794125104551
 20
283.0447118274413
 10
433.4926883351546
 20
283.4371082032113
 10
433.2680681095163
 20
283.8088340060702
  0
LWPOLYLINE
  5
4D3
330
1F
100
AcDbEntity
  8
OBRYS
100
AcDbPolyline
 90
        7
 70
     0
 43
0.0
 10
433.4678836476609
 20
268.4092571870034
 10
433.4706397240489
 20
267.0880630684093
 10
433.5092247934838
 20
265.7672134593653
 10
433.5832943464166
 20
264.4480863980633
 10
433.6925038732992
 20
263.1313709036002
 10
433.8375423932281
 20
261.8181005046234
 10
434.0177208871065
 20
260.5093087297763
  0
LWPOLYLINE
  5
4D4
330
1F
100
AcDbEntity
  8
OBRYS
100
AcDbPolyline
 90
        7
 70
     0
 43
0.0
 10
457.1181196443524
 20
260.5093087297763
 10
457.2982981382312
 20
261.8181005046234
 10
457.4433366581601
 20
263.1317154131483
 10
457.552890694591
 20
264.4480863980633
 10
457.6269602475239
 20
265.7672134593653
 10
457.6652008074102
 20
267.0880630684093
 10
457.6683013933468
 20
268.4092571870034
  0
LWPOLYLINE
  5
4D5
330
1F
100
AcDbEntity
  8
OBRYS
100
AcDbPolyline
 90
        7
 70
     0
 43
0.0
 10
434.0177208871065
 20
276.3092056442293
 10
433.8375423932281
 20
275.0004138693834
 10
433.6925038732992
 20
273.6871434704063
 10
433.5832943464166
 20
272.3704279759432
 10
433.5092247934838
 20
271.0509564050923
 10
433.4706397240489
 20
269.7307958151454
 10
433.4678836476609
 20
268.4092571870034
  0
LWPOLYLINE
  5
4D6
330
1F
100
AcDbEntity
  8
OBRYS
100
AcDbPolyline
 90
        7
 70
     0
 43
0.0
 10
457.6683013933468
 20
268.4092571870034
 10
457.6652008074102
 20
269.7307958151454
 10
457.6269602475239
 20
271.0509564050923
 10
457.552890694591
 20
272.3704279759432
 10
457.4433366581601
 20
273.6871434704063
 10
457.2982981382312
 20
275.0004138693834
 10
457.1181196443524
 20
276.3092056442293
  0
LWPOLYLINE
  5
4D7
330
1F
100
AcDbEntity
  8
OBRYS
100
AcDbPolyline
 90
        2
 70
     0
 43
0.0
 10
448.7678972072039
 20
250.1092544789043
 10
448.7678972072039
 20
248.7088231641504
  0
LWPOLYLINE
  5
4D8
330
1F
100
AcDbEntity
  8
OBRYS
100
AcDbPolyline
 90
        2
 70
     0
 43
0.0
 10
442.3682878338037
 20
248.7088231641504
 10
442.3682878338037
 20
250.1092544789043
  0
LWPOLYLINE
  5
4D9
330
1F
100
AcDbEntity
  8
OBRYS
100
AcDbPolyline
 90
        4
 70
     0
 43
0.0
 10
443.1682390054785
 20
248.9093277213923
 10
443.1682390054785
 20
249.7092788930673
 10
443.1682390054785
 20
249.9094389407604
 10
443.1682390054785
 20
250.1092544789043
  0
LWPOLYLINE
  5
4DA
330
1F
100
AcDbEntity
  8
OBRYS
100
AcDbPolyline
 90
        2
 70
     0
 43
0.0
 10
447.9679460355289
 20
249.9094389407604
 10
447.9679460355289
 20
250.1092544789043
  0
LWPOLYLINE
  5
4DB
330
1F
100
AcDbEntity
  8
OBRYS
100
AcDbPolyline
 90
        3
 70
     0
 43
0.0
 10
447.9679460355289
 20
249.9094389407604
 10
447.9679460355289
 20
249.7092788930673
 10
447.9679460355289
 20
248.9093277213923
  0
LWPOLYLINE
  5
4DC
330
1F
100
AcDbEntity
  8
OBRYS
100
AcDbPolyline
 90
        4
 70
     0
 43
0.0
 10
457.8681169314913
 20
253.0093358583873
 10
457.8681169314913
 20
251.7088231641504
 42
-0.4142135623730617
 10
454.8681169314913
 20
248.7088231641504
 10
448.7678972072039
 20
248.7088231641504
  0
LWPOLYLINE
  5
4DD
330
1F
100
AcDbEntity
  8
OBRYS
100
AcDbPolyline
 90
        4
 70
     0
 43
0.0
 10
442.3682878338037
 20
248.7088231641504
 10
436.2680681095163
 20
248.7088231641504
 42
-0.4142135623730506
 10
433.2680681095163
 20
251.7088231641504
 10
433.2680681095163
 20
253.0089913488392
  0
LWPOLYLINE
  5
4DE
330
1F
100
AcDbEntity
  8
OBRYS
100
AcDbPolyline
 90
        2
 70
     0
 43
0.0
 10
451.4182091640066
 20
268.9094850514613
 10
451.4182091640066
 20
260.0090808653184
  0
LWPOLYLINE
  5
4DF
330
1F
100
AcDbEntity
  8
OBRYS
100
AcDbPolyline
 90
        2
 70
     0
 43
0.0
 10
447.368154911547
 20
271.0096152592704
 10
447.368154911547
 20
268.9094850514613
  0
LWPOLYLINE
  5
4E0
330
1F
100
AcDbEntity
  8
OBRYS
100
AcDbPolyline
 90
        2
 70
     0
 43
0.0
 10
445.3682769823595
 20
271.0096152592704
 10
447.368154911547
 20
271.0096152592704
  0
LWPOLYLINE
  5
4E1
330
1F
100
AcDbEntity
  8
OBRYS
100
AcDbPolyline
 90
        2
 70
     0
 43
0.0
 10
445.3682769823595
 20
268.9094850514613
 10
445.3682769823595
 20
271.0096152592704
  0
LWPOLYLINE
  5
4E2
330
1F
100
AcDbEntity
  8
OBRYS
100
AcDbPolyline
 90
        2
 70
     0
 43
0.0
 10
439.7176313674524
 20
268.9094850514613
 10
445.3682769823595
 20
268.9094850514613
  0
LWPOLYLINE
  5
4E3
330
1F
100
AcDbEntity
  8
OBRYS
100
AcDbPolyline
 90
        2
 70
     0
 43
0.0
 10
439.7176313674524
 20
260.0090808653184
 10
439.7176313674524
 20
268.9094850514613
  0
LWPOLYLINE
  5
4E4
330
1F
100
AcDbEntity
  8
OBRYS
100
AcDbPolyline
 90
        2
 70
     0
 43
0.0
 10
451.4182091640066
 20
260.0090808653184
 10
439.7176313674524
 20
260.0090808653184
  0
LWPOLYLINE
  5
4E5
330
1F
100
AcDbEntity
  8
OBRYS
100
AcDbPolyline
 90
        2
 70
     0
 43
0.0
 10
447.4684071901677
 20
248.9093277213923
 10
446.4682959707998
 20
249.0853721006882
  0
LWPOLYLINE
  5
4E6
330
1F
100
AcDbEntity
  8
OBRYS
100
AcDbPolyline
 90
        2
 70
     0
 43
0.0
 10
446.4682959707998
 20
249.5332345137714
 10
447.4684071901677
 20
249.7092788930673
  0
LWPOLYLINE
  5
4E7
330
1F
100
AcDbEntity
  8
OBRYS
100
AcDbPolyline
 90
        2
 70
     0
 43
0.0
 10
446.4682959707998
 20
249.0853721006882
 10
446.4682959707998
 20
249.5332345137714
  0
LWPOLYLINE
  5
4E8
330
1F
100
AcDbEntity
  8
OBRYS
100
AcDbPolyline
 90
        2
 70
     0
 43
0.0
 10
443.6677778508401
 20
249.7092788930673
 10
444.667889070208
 20
249.5332345137714
  0
LWPOLYLINE
  5
4E9
330
1F
100
AcDbEntity
  8
OBRYS
100
AcDbPolyline
 90
        2
 70
     0
 43
0.0
 10
444.667889070208
 20
249.0853721006882
 10
443.6677778508401
 20
248.9093277213923
  0
LWPOLYLINE
  5
4EA
330
1F
100
AcDbEntity
  8
OBRYS
100
AcDbPolyline
 90
        2
 70
     0
 43
0.0
 10
444.667889070208
 20
249.5332345137714
 10
444.667889070208
 20
249.0853721006882
  0
LWPOLYLINE
  5
4EB
330
1F
100
AcDbEntity
  8
OBRYS
100
AcDbPolyline
 90
        2
 70
     0
 43
0.0
 10
446.4682959707998
 20
249.5332345137714
 10
444.667889070208
 20
249.5332345137714
  0
LWPOLYLINE
  5
4EC
330
1F
100
AcDbEntity
  8
OBRYS
100
AcDbPolyline
 90
        2
 70
     0
 43
0.0
 10
444.667889070208
 20
249.0853721006882
 10
446.4682959707998
 20
249.0853721006882
  0
LWPOLYLINE
  5
4ED
330
1F
100
AcDbEntity
  8
OBRYS
100
AcDbPolyline
 90
        2
 70
     0
 43
0.0
 10
436.5677805652884
 20
239.0091568254294
 10
436.5677805652884
 20
234.0092897476862
  0
LWPOLYLINE
  5
4EE
330
1F
100
AcDbEntity
  8
OBRYS
100
AcDbPolyline
 90
        2
 70
     0
 43
0.0
 10
433.9774132699292
 20
243.0154583652262
 10
434.3243343852939
 20
242.0611669158124
  0
LWPOLYLINE
  5
4EF
330
1F
100
AcDbEntity
  8
OBRYS
100
AcDbPolyline
 90
        2
 70
     0
 43
0.0
 10
433.3397260956096
 20
242.9031482524073
 10
433.9774132699292
 20
243.0154583652262
  0
LWPOLYLINE
  5
4F0
330
1F
100
AcDbEntity
  8
OBRYS
100
AcDbPolyline
 90
        2
 70
     0
 43
0.0
 10
433.3397260956096
 20
241.8875341033564
 10
433.3397260956096
 20
242.9031482524073
  0
LWPOLYLINE
  5
4F1
330
1F
100
AcDbEntity
  8
OBRYS
100
AcDbPolyline
 90
        2
 70
     0
 43
0.0
 10
455.4152089459934
 20
243.4788237079923
 10
455.1409793453677
 20
241.9223295677574
  0
LWPOLYLINE
  5
4F2
330
1F
100
AcDbEntity
  8
OBRYS
100
AcDbPolyline
 90
        2
 70
     0
 43
0.0
 10
456.4001617452263
 20
243.3051908955364
 10
455.4152089459934
 20
243.4788237079923
  0
LWPOLYLINE
  5
4F3
330
1F
100
AcDbEntity
  8
OBRYS
100
AcDbPolyline
 90
        2
 70
     0
 43
0.0
 10
455.0679433210803
 20
241.7373279401983
 10
455.1402903262706
 20
241.9223295677574
  0
LWPOLYLINE
  5
4F4
330
1F
100
AcDbEntity
  8
OBRYS
100
AcDbPolyline
 90
        2
 70
     0
 43
0.0
 10
435.7206315854659
 20
243.4788237079923
 10
434.7356787862327
 20
243.3051908955364
  0
LWPOLYLINE
  5
4F5
330
1F
100
AcDbEntity
  8
OBRYS
100
AcDbPolyline
 90
        2
 70
     0
 43
0.0
 10
435.9948611860916
 20
241.9223295677574
 10
435.7206315854659
 20
243.4788237079923
  0
LWPOLYLINE
  5
4F6
330
1F
100
AcDbEntity
  8
OBRYS
100
AcDbPolyline
 90
        2
 70
     0
 43
0.0
 10
435.9955502051887
 20
241.9223295677574
 10
436.0682417199274
 20
241.7373279401983
  0
LWPOLYLINE
  5
4F7
330
1F
100
AcDbEntity
  8
OBRYS
100
AcDbPolyline
 90
       13
 70
     0
 43
0.0
 10
454.5680599661706
 20
235.0087119479573
 10
454.6677588592245
 20
235.0087119479573
 42
0.4142135623732061
 10
455.2677588592247
 20
235.6087119479574
 10
455.2677588592247
 20
236.5093955413323
 10
456.2678700785926
 20
236.5093955413323
 10
456.2678700785926
 20
235.8092897476862
 42
-0.4142135623731504
 10
454.4678700785928
 20
234.0092897476862
 10
454.467870078593
 20
234.0092897476862
 10
436.5677805652884
 20
234.0092897476862
 10
436.0678972103789
 20
234.0092897476862
 10
436.2393120788531
 20
234.0092897476862
 42
-0.3639679205102033
 10
434.4666606779099
 20
235.496708541063
 10
433.3397260956096
 20
241.8875341033564
  0
LWPOLYLINE
  5
4F8
330
1F
100
AcDbEntity
  8
OBRYS
100
AcDbPolyline
 90
        5
 70
     0
 43
0.0
 10
436.5677805652884
 20
235.0087119479573
 10
436.0717339813791
 20
235.0087119479573
 42
-0.3639552448362133
 10
435.4808548466037
 20
235.5044917575561
 10
434.4111507915221
 20
241.5692072805183
 10
434.3243343852939
 20
242.0611669158124
  0
LWPOLYLINE
  5
4F9
330
1F
100
AcDbEntity
  8
OBRYS
100
AcDbPolyline
 90
        2
 70
     0
 43
0.0
 10
454.5748535175567
 20
234.0124718538006
 10
454.5680599661706
 20
239.0091568254294
  0
LWPOLYLINE
  5
4FA
330
1F
100
AcDbEntity
  8
OBRYS
100
AcDbPolyline
 90
        2
 70
     0
 43
0.0
 10
434.4111507915221
 20
241.5692072805183
 10
433.4265425018378
 20
241.3952299585143
  0
LWPOLYLINE
  5
4FB
330
1F
100
AcDbEntity
  8
OBRYS
100
AcDbPolyline
 90
        6
 70
     0
 43
0.0
 10
433.7431467769323
 20
281.6249879779704
 10
433.7207536562781
 20
282.0428780603314
 10
433.6556413516071
 20
282.4562895185603
 10
433.5471208438215
 20
282.8610882380773
 10
433.3969146806646
 20
283.2521065756533
 10
433.2067454098787
 20
283.6248659071574
  0
LWPOLYLINE
  5
4FC
330
1F
100
AcDbEntity
  8
OBRYS
100
AcDbPolyline
 90
        6
 70
     0
 43
0.0
 10
433.2067454098787
 20
253.1936484668482
 10
433.3969146806646
 20
253.5664077983523
 10
433.5471208438215
 20
253.9574261359284
 10
433.6556413516071
 20
254.3615358363483
 10
433.7207536562781
 20
254.7752918041273
 10
433.7431467769323
 20
255.1935263960364
  0
LWPOLYLINE
  5
4FD
330
1F
100
AcDbEntity
  8
OBRYS
100
AcDbPolyline
 90
        2
 70
     0
 43
0.0
 10
433.9074778315787
 20
275.5385377841793
 10
433.6246354922397
 20
275.4730809699594
  0
LWPOLYLINE
  5
4FE
330
1F
100
AcDbEntity
  8
OBRYS
100
AcDbPolyline
 90
        2
 70
     0
 43
0.0
 10
433.6852691727802
 20
275.9695192293833
 10
433.9488189774017
 20
275.8355050150072
  0
LWPOLYLINE
  5
4FF
330
1F
100
AcDbEntity
  8
OBRYS
100
AcDbPolyline
 90
        2
 70
     0
 43
0.0
 10
433.7782867508819
 20
274.4991524762794
 10
433.5102583221293
 20
274.4326621334143
  0
LWPOLYLINE
  5
500
330
1F
100
AcDbEntity
  8
OBRYS
100
AcDbPolyline
 90
        2
 70
     0
 43
0.0
 10
433.5629682830537
 20
274.9294449023872
 10
433.8141157439286
 20
274.8067995031123
  0
LWPOLYLINE
  5
501
330
1F
100
AcDbEntity
  8
OBRYS
100
AcDbPolyline
 90
        2
 70
     0
 43
0.0
 10
433.6711442812905
 20
273.4583891301853
 10
433.414829177188
 20
273.3894872204804
  0
LWPOLYLINE
  5
502
330
1F
100
AcDbEntity
  8
OBRYS
100
AcDbPolyline
 90
        2
 70
     0
 43
0.0
 10
433.457548361205
 20
273.8873035180983
 10
433.7014611215607
 20
273.7743043861823
  0
LWPOLYLINE
  5
503
330
1F
100
AcDbEntity
  8
OBRYS
100
AcDbPolyline
 90
        2
 70
     0
 43
0.0
 10
433.5860504228051
 20
272.4165922554454
 10
433.3362810001241
 20
272.3456232884492
  0
LWPOLYLINE
  5
504
330
1F
100
AcDbEntity
  8
OBRYS
100
AcDbPolyline
 90
        2
 70
     0
 43
0.0
 10
433.3714209740739
 20
272.8437840956173
 10
433.6101660912014
 20
272.7376751546714
  0
LWPOLYLINE
  5
505
330
1F
100
AcDbEntity
  8
OBRYS
100
AcDbPolyline
 90
        2
 70
     0
 43
0.0
 10
433.5240387040704
 20
271.3747953807064
 10
433.2766808482295
 20
271.2993477895794
  0
LWPOLYLINE
  5
506
330
1F
100
AcDbEntity
  8
OBRYS
100
AcDbPolyline
 90
        2
 70
     0
 43
0.0
 10
433.3032080834658
 20
271.7988866349402
 10
433.540919671948
 20
271.6979453372222
  0
LWPOLYLINE
  5
507
330
1F
100
AcDbEntity
  8
OBRYS
100
AcDbPolyline
 90
        2
 70
     0
 43
0.0
 10
433.4837310868929
 20
270.3340320346123
 10
433.2353397024063
 20
270.2534168002572
  0
LWPOLYLINE
  5
508
330
1F
100
AcDbEntity
  8
OBRYS
100
AcDbPolyline
 90
        2
 70
     0
 43
0.0
 10
433.2529096893812
 20
270.7529556456183
 10
433.4940663733487
 20
270.6558039529342
  0
LWPOLYLINE
  5
509
330
1F
100
AcDbEntity
  8
OBRYS
100
AcDbPolyline
 90
        2
 70
     0
 43
0.0
 10
433.4661610999182
 20
269.2936131980663
 10
433.2126020722038
 20
269.2061077727413
  0
LWPOLYLINE
  5
50A
330
1F
100
AcDbEntity
  8
OBRYS
100
AcDbPolyline
 90
        2
 70
     0
 43
0.0
 10
433.2212148109169
 20
269.7063356371992
 10
433.4689171763065
 20
269.6109064922583
  0
LWPOLYLINE
  5
50B
330
1F
100
AcDbEntity
  8
OBRYS
100
AcDbPolyline
 90
        2
 70
     0
 43
0.0
 10
433.6852691727802
 20
260.8489951446223
 10
433.7431467769323
 20
260.4090564511563
  0
LWPOLYLINE
  5
50C
330
1F
100
AcDbEntity
  8
OBRYS
100
AcDbPolyline
 90
        2
 70
     0
 43
0.0
 10
433.6246354922397
 20
261.3450888944984
 10
433.6246354922397
 20
261.3450888944984
  0
LWPOLYLINE
  5
50D
330
1F
100
AcDbEntity
  8
OBRYS
100
AcDbPolyline
 90
        2
 70
     0
 43
0.0
 10
433.5629682830537
 20
261.8890694716193
 10
433.6246354922397
 20
261.3450888944984
  0
LWPOLYLINE
  5
50E
330
1F
100
AcDbEntity
  8
OBRYS
100
AcDbPolyline
 90
        2
 70
     0
 43
0.0
 10
433.457548361205
 20
262.9308663463584
 10
433.5102583221293
 20
262.3861967501413
  0
LWPOLYLINE
  5
50F
330
1F
100
AcDbEntity
  8
OBRYS
100
AcDbPolyline
 90
        2
 70
     0
 43
0.0
 10
433.414829177188
 20
263.4286826439774
 10
433.414829177188
 20
263.4286826439774
  0
LWPOLYLINE
  5
510
330
1F
100
AcDbEntity
  8
OBRYS
100
AcDbPolyline
 90
        2
 70
     0
 43
0.0
 10
433.3714209740739
 20
263.9743857688412
 10
433.414829177188
 20
263.4286826439774
  0
LWPOLYLINE
  5
511
330
1F
100
AcDbEntity
  8
OBRYS
100
AcDbPolyline
 90
        2
 70
     0
 43
0.0
 10
433.3362810001241
 20
264.4732355951054
 10
433.3362810001241
 20
264.4732355951054
  0
LWPOLYLINE
  5
512
330
1F
100
AcDbEntity
  8
OBRYS
100
AcDbPolyline
 90
        2
 70
     0
 43
0.0
 10
433.3032080834658
 20
265.0192832295173
 10
433.3362810001241
 20
264.4732355951054
  0
LWPOLYLINE
  5
513
330
1F
100
AcDbEntity
  8
OBRYS
100
AcDbPolyline
 90
        2
 70
     0
 43
0.0
 10
433.2529096893812
 20
266.0655587283883
 10
433.2766808482295
 20
265.5184775653294
  0
LWPOLYLINE
  5
514
330
1F
100
AcDbEntity
  8
OBRYS
100
AcDbPolyline
 90
        2
 70
     0
 43
0.0
 10
433.2353397024063
 20
266.5647530642003
 10
433.2212148109169
 20
267.1118342272583
  0
LWPOLYLINE
  5
515
330
1F
100
AcDbEntity
  8
OBRYS
100
AcDbPolyline
 90
        2
 70
     0
 43
0.0
 10
433.2077789385245
 20
268.1591432547742
 10
433.2126020722038
 20
267.6120620917162
  0
LWPOLYLINE
  5
516
330
1F
100
AcDbEntity
  8
OBRYS
100
AcDbPolyline
 90
        2
 70
     0
 43
0.0
 10
433.7431467769323
 20
276.4091134133013
 10
433.6852691727802
 20
275.9695192293833
  0
LWPOLYLINE
  5
517
330
1F
100
AcDbEntity
  8
OBRYS
100
AcDbPolyline
 90
        2
 70
     0
 43
0.0
 10
433.6246354922397
 20
275.4730809699594
 10
433.5629682830537
 20
274.9294449023872
  0
LWPOLYLINE
  5
518
330
1F
100
AcDbEntity
  8
OBRYS
100
AcDbPolyline
 90
        2
 70
     0
 43
0.0
 10
433.5102583221293
 20
274.4326621334143
 10
433.457548361205
 20
273.8873035180983
  0
LWPOLYLINE
  5
519
330
1F
100
AcDbEntity
  8
OBRYS
100
AcDbPolyline
 90
        2
 70
     0
 43
0.0
 10
433.414829177188
 20
273.3894872204804
 10
433.3714209740739
 20
272.8437840956173
  0
LWPOLYLINE
  5
51A
330
1F
100
AcDbEntity
  8
OBRYS
100
AcDbPolyline
 90
        2
 70
     0
 43
0.0
 10
433.3362810001241
 20
272.3456232884492
 10
433.3032080834658
 20
271.7988866349402
  0
LWPOLYLINE
  5
51B
330
1F
100
AcDbEntity
  8
OBRYS
100
AcDbPolyline
 90
        2
 70
     0
 43
0.0
 10
433.2766808482295
 20
271.2993477895794
 10
433.2529096893812
 20
270.7529556456183
  0
LWPOLYLINE
  5
51C
330
1F
100
AcDbEntity
  8
OBRYS
100
AcDbPolyline
 90
        2
 70
     0
 43
0.0
 10
433.2126020722038
 20
269.2061077727413
 10
433.2077789385245
 20
268.6590266096833
  0
LWPOLYLINE
  5
51D
330
1F
100
AcDbEntity
  8
OBRYS
100
AcDbPolyline
 90
        2
 70
     0
 43
0.0
 10
433.2353397024063
 20
270.2534168002572
 10
433.2212148109169
 20
269.7063356371992
  0
LWPOLYLINE
  5
51E
330
1F
100
AcDbEntity
  8
OBRYS
100
AcDbPolyline
 90
        2
 70
     0
 43
0.0
 10
433.4665056094667
 20
268.2531943615214
 10
433.2077789385245
 20
268.1591432547742
  0
LWPOLYLINE
  5
51F
330
1F
100
AcDbEntity
  8
OBRYS
100
AcDbPolyline
 90
        2
 70
     0
 43
0.0
 10
433.2077789385245
 20
268.6590266096833
 10
433.4665056094667
 20
268.5649755029364
  0
LWPOLYLINE
  5
520
330
1F
100
AcDbEntity
  8
OBRYS
100
AcDbPolyline
 90
        2
 70
     0
 43
0.0
 10
439.2428972095851
 20
288.4090700075234
 10
439.2428972095851
 20
288.1093467003074
  0
LWPOLYLINE
  5
521
330
1F
100
AcDbEntity
  8
OBRYS
100
AcDbPolyline
 90
        4
 70
     0
 43
0.0
 10
433.0427588647809
 20
283.9090862846903
 10
433.0427588647809
 20
285.4090700075234
 42
-0.4142135623730618
 10
436.0427588647809
 20
288.4090700075234
 10
439.2428972095851
 20
288.4090700075234
  0
LWPOLYLINE
  5
522
330
1F
100
AcDbEntity
  8
OBRYS
100
AcDbPolyline
 90
        2
 70
     0
 43
0.0
 10
433.0427588647809
 20
283.9090862846903
 10
433.2067454098787
 20
283.6248659071574
  0
LWPOLYLINE
  5
523
330
1F
100
AcDbEntity
  8
OBRYS
100
AcDbPolyline
 90
        2
 70
     0
 43
0.0
 10
433.7431467769323
 20
281.6249879779704
 10
433.7431467769323
 20
276.4091134133013
  0
LWPOLYLINE
  5
524
330
1F
100
AcDbEntity
  8
OBRYS
100
AcDbPolyline
 90
        2
 70
     0
 43
0.0
 10
433.7431467769323
 20
260.4090564511563
 10
433.7431467769323
 20
255.1935263960364
  0
LWPOLYLINE
  5
525
330
1F
100
AcDbEntity
  8
OBRYS
100
AcDbPolyline
 90
        5
 70
     0
 43
0.0
 10
439.2428972095851
 20
248.4090998569333
 10
436.0427588647809
 20
248.4090998569333
 42
-0.4142135623730617
 10
433.0427588647809
 20
251.4090998569333
 10
433.0427588647809
 20
252.9090835797673
 10
433.2067454098787
 20
253.1936484668482
  0
LWPOLYLINE
  5
526
330
1F
100
AcDbEntity
  8
OBRYS
100
AcDbPolyline
 90
        2
 70
     0
 43
0.0
 10
439.2428972095851
 20
248.7088231641504
 10
439.2428972095851
 20
248.4090998569333
  0
LWPOLYLINE
  5
527
330
1F
100
AcDbEntity
  8
OBRYS
100
AcDbPolyline
 90
        2
 70
     0
 43
0.0
 10
433.2126020722038
 20
267.6120620917162
 10
433.4661610999182
 20
267.5249011759394
  0
LWPOLYLINE
  5
528
330
1F
100
AcDbEntity
  8
OBRYS
100
AcDbPolyline
 90
        2
 70
     0
 43
0.0
 10
433.4689171763065
 20
267.2069188626514
 10
433.2212148109169
 20
267.1118342272583
  0
LWPOLYLINE
  5
529
330
1F
100
AcDbEntity
  8
OBRYS
100
AcDbPolyline
 90
        2
 70
     0
 43
0.0
 10
433.2353397024063
 20
266.5647530642003
 10
433.4837310868929
 20
266.4844823393943
  0
LWPOLYLINE
  5
52A
330
1F
100
AcDbEntity
  8
OBRYS
100
AcDbPolyline
 90
        2
 70
     0
 43
0.0
 10
433.4940663733487
 20
266.1627104210712
 10
433.2529096893812
 20
266.0655587283883
  0
LWPOLYLINE
  5
52B
330
1F
100
AcDbEntity
  8
OBRYS
100
AcDbPolyline
 90
        2
 70
     0
 43
0.0
 10
433.2766808482295
 20
265.5184775653294
 10
433.5240387040704
 20
265.4430299742024
  0
LWPOLYLINE
  5
52C
330
1F
100
AcDbEntity
  8
OBRYS
100
AcDbPolyline
 90
        2
 70
     0
 43
0.0
 10
433.540919671948
 20
265.1205690367834
 10
433.3032080834658
 20
265.0192832295173
  0
LWPOLYLINE
  5
52D
330
1F
100
AcDbEntity
  8
OBRYS
100
AcDbPolyline
 90
        2
 70
     0
 43
0.0
 10
433.3362810001241
 20
264.4732355951054
 10
433.5860504228051
 20
264.4015776090124
  0
LWPOLYLINE
  5
52E
330
1F
100
AcDbEntity
  8
OBRYS
100
AcDbPolyline
 90
        2
 70
     0
 43
0.0
 10
433.6101660912014
 20
264.0804947097864
 10
433.3714209740739
 20
263.9743857688412
  0
LWPOLYLINE
  5
52F
330
1F
100
AcDbEntity
  8
OBRYS
100
AcDbPolyline
 90
        2
 70
     0
 43
0.0
 10
433.414829177188
 20
263.4286826439774
 10
433.6711442812905
 20
263.3601252438212
  0
LWPOLYLINE
  5
530
330
1F
100
AcDbEntity
  8
OBRYS
100
AcDbPolyline
 90
        2
 70
     0
 43
0.0
 10
433.7014611215607
 20
263.0445544973724
 10
433.457548361205
 20
262.9308663463584
  0
LWPOLYLINE
  5
531
330
1F
100
AcDbEntity
  8
OBRYS
100
AcDbPolyline
 90
        2
 70
     0
 43
0.0
 10
433.5102583221293
 20
262.3861967501413
 10
433.7782867508819
 20
262.3193618977274
  0
LWPOLYLINE
  5
532
330
1F
100
AcDbEntity
  8
OBRYS
100
AcDbPolyline
 90
        2
 70
     0
 43
0.0
 10
433.8141157439286
 20
262.0117148708943
 10
433.5629682830537
 20
261.8890694716193
  0
LWPOLYLINE
  5
533
330
1F
100
AcDbEntity
  8
OBRYS
100
AcDbPolyline
 90
        2
 70
     0
 43
0.0
 10
433.6246354922397
 20
261.3450888944984
 10
433.9074778315787
 20
261.2799765898272
  0
LWPOLYLINE
  5
534
330
1F
100
AcDbEntity
  8
OBRYS
100
AcDbPolyline
 90
        2
 70
     0
 43
0.0
 10
433.9488189774017
 20
260.9833538685474
 10
433.6852691727802
 20
260.8489951446223
  0
LWPOLYLINE
  5
535
330
1F
100
AcDbEntity
  8
OBRYS
100
AcDbPolyline
 90
        6
 70
     0
 43
0.0
 10
457.3930382640755
 20
255.1935263960364
 10
457.4150868751809
 20
254.7752918041273
 10
457.4805436894005
 20
254.3615358363483
 10
457.5887196876375
 20
253.9574261359284
 10
457.7389258507944
 20
253.5664077983523
 10
457.9290951215802
 20
253.1936484668482
  0
LWPOLYLINE
  5
536
330
1F
100
AcDbEntity
  8
OBRYS
100
AcDbPolyline
 90
        6
 70
     0
 43
0.0
 10
457.9290951215802
 20
283.6248659071574
 10
457.7389258507944
 20
283.2521065756533
 10
457.5887196876375
 20
282.8610882380773
 10
457.4805436894005
 20
282.4562895185603
 10
457.4150868751809
 20
282.0428780603314
 10
457.3930382640755
 20
281.6249879779704
  0
LWPOLYLINE
  5
537
330
1F
100
AcDbEntity
  8
OBRYS
100
AcDbPolyline
 90
        2
 70
     0
 43
0.0
 10
457.228707209429
 20
261.2799765898272
 10
457.5115495487678
 20
261.3450888944984
  0
LWPOLYLINE
  5
538
330
1F
100
AcDbEntity
  8
OBRYS
100
AcDbPolyline
 90
        2
 70
     0
 43
0.0
 10
457.4509158682276
 20
260.8489951446223
 10
457.1873660636061
 20
260.9833538685474
  0
LWPOLYLINE
  5
539
330
1F
100
AcDbEntity
  8
OBRYS
100
AcDbPolyline
 90
        2
 70
     0
 43
0.0
 10
457.3575537805775
 20
262.3193618977274
 10
457.6259267188782
 20
262.3861967501413
  0
LWPOLYLINE
  5
53A
330
1F
100
AcDbEntity
  8
OBRYS
100
AcDbPolyline
 90
        2
 70
     0
 43
0.0
 10
457.573216757954
 20
261.8890694716193
 10
457.3220692970792
 20
262.0117148708943
  0
LWPOLYLINE
  5
53B
330
1F
100
AcDbEntity
  8
OBRYS
100
AcDbPolyline
 90
        2
 70
     0
 43
0.0
 10
457.4650407597172
 20
263.3601252438212
 10
457.7213558638197
 20
263.4286826439774
  0
LWPOLYLINE
  5
53C
330
1F
100
AcDbEntity
  8
OBRYS
100
AcDbPolyline
 90
        2
 70
     0
 43
0.0
 10
457.6782921702538
 20
262.9308663463584
 10
457.4347239194469
 20
263.0445544973724
  0
LWPOLYLINE
  5
53D
330
1F
100
AcDbEntity
  8
OBRYS
100
AcDbPolyline
 90
        2
 70
     0
 43
0.0
 10
457.5497901086542
 20
264.4015776090124
 10
457.7995595313348
 20
264.4732355951054
  0
LWPOLYLINE
  5
53E
330
1F
100
AcDbEntity
  8
OBRYS
100
AcDbPolyline
 90
        2
 70
     0
 43
0.0
 10
457.7644195573853
 20
263.9743857688412
 10
457.526018949806
 20
264.0804947097864
  0
LWPOLYLINE
  5
53F
330
1F
100
AcDbEntity
  8
OBRYS
100
AcDbPolyline
 90
        2
 70
     0
 43
0.0
 10
457.612146336937
 20
265.4430299742024
 10
457.858815173681
 20
265.5184775653294
  0
LWPOLYLINE
  5
540
330
1F
100
AcDbEntity
  8
OBRYS
100
AcDbPolyline
 90
        2
 70
     0
 43
0.0
 10
457.8329769575417
 20
265.0192832295173
 10
457.5952653690593
 20
265.1205690367834
  0
LWPOLYLINE
  5
541
330
1F
100
AcDbEntity
  8
OBRYS
100
AcDbPolyline
 90
        2
 70
     0
 43
0.0
 10
457.6521094445661
 20
266.4844823393943
 10
457.9005008290526
 20
266.5647530642003
  0
LWPOLYLINE
  5
542
330
1F
100
AcDbEntity
  8
OBRYS
100
AcDbPolyline
 90
        2
 70
     0
 43
0.0
 10
457.8829308420779
 20
266.0655587283883
 10
457.642118667659
 20
266.1627104210712
  0
LWPOLYLINE
  5
543
330
1F
100
AcDbEntity
  8
OBRYS
100
AcDbPolyline
 90
        2
 70
     0
 43
0.0
 10
457.6703684506377
 20
267.5249011759394
 10
457.9235829688039
 20
267.6120620917162
  0
LWPOLYLINE
  5
544
330
1F
100
AcDbEntity
  8
OBRYS
100
AcDbPolyline
 90
        2
 70
     0
 43
0.0
 10
457.9146257205419
 20
267.1118342272583
 10
457.6669233551527
 20
267.2069188626514
  0
LWPOLYLINE
  5
545
330
1F
100
AcDbEntity
  8
OBRYS
100
AcDbPolyline
 90
        2
 70
     0
 43
0.0
 10
457.4509158682276
 20
275.9695192293833
 10
457.3930382640755
 20
276.4091134133013
  0
LWPOLYLINE
  5
546
330
1F
100
AcDbEntity
  8
OBRYS
100
AcDbPolyline
 90
        2
 70
     0
 43
0.0
 10
457.573216757954
 20
274.9294449023872
 10
457.5115495487678
 20
275.4730809699594
  0
LWPOLYLINE
  5
547
330
1F
100
AcDbEntity
  8
OBRYS
100
AcDbPolyline
 90
        2
 70
     0
 43
0.0
 10
457.6782921702538
 20
273.8873035180983
 10
457.6259267188782
 20
274.4326621334143
  0
LWPOLYLINE
  5
548
330
1F
100
AcDbEntity
  8
OBRYS
100
AcDbPolyline
 90
        2
 70
     0
 43
0.0
 10
457.7647640669338
 20
272.8437840956173
 10
457.7213558638197
 20
273.3894872204804
  0
LWPOLYLINE
  5
549
330
1F
100
AcDbEntity
  8
OBRYS
100
AcDbPolyline
 90
        2
 70
     0
 43
0.0
 10
457.8329769575417
 20
271.7988866349402
 10
457.7995595313348
 20
272.3456232884492
  0
LWPOLYLINE
  5
54A
330
1F
100
AcDbEntity
  8
OBRYS
100
AcDbPolyline
 90
        2
 70
     0
 43
0.0
 10
457.8829308420779
 20
270.7529556456183
 10
457.858815173681
 20
271.2993477895794
  0
LWPOLYLINE
  5
54B
330
1F
100
AcDbEntity
  8
OBRYS
100
AcDbPolyline
 90
        2
 70
     0
 43
0.0
 10
457.9146257205419
 20
269.7063356371992
 10
457.9005008290526
 20
270.2534168002572
  0
LWPOLYLINE
  5
54C
330
1F
100
AcDbEntity
  8
OBRYS
100
AcDbPolyline
 90
        2
 70
     0
 43
0.0
 10
457.9280615929347
 20
268.6590266096833
 10
457.9235829688039
 20
269.2061077727413
  0
LWPOLYLINE
  5
54D
330
1F
100
AcDbEntity
  8
OBRYS
100
AcDbPolyline
 90
        2
 70
     0
 43
0.0
 10
457.3930382640755
 20
260.4090564511563
 10
457.4509158682276
 20
260.8489951446223
  0
LWPOLYLINE
  5
54E
330
1F
100
AcDbEntity
  8
OBRYS
100
AcDbPolyline
 90
        2
 70
     0
 43
0.0
 10
457.5115495487678
 20
261.3450888944984
 10
457.573216757954
 20
261.8890694716193
  0
LWPOLYLINE
  5
54F
330
1F
100
AcDbEntity
  8
OBRYS
100
AcDbPolyline
 90
        2
 70
     0
 43
0.0
 10
457.6259267188782
 20
262.3861967501413
 10
457.6782921702538
 20
262.9308663463584
  0
LWPOLYLINE
  5
550
330
1F
100
AcDbEntity
  8
OBRYS
100
AcDbPolyline
 90
        2
 70
     0
 43
0.0
 10
457.7213558638197
 20
263.4286826439774
 10
457.7647640669338
 20
263.9743857688412
  0
LWPOLYLINE
  5
551
330
1F
100
AcDbEntity
  8
OBRYS
100
AcDbPolyline
 90
        2
 70
     0
 43
0.0
 10
457.7995595313348
 20
264.4732355951054
 10
457.8329769575417
 20
265.0192832295173
  0
LWPOLYLINE
  5
552
330
1F
100
AcDbEntity
  8
OBRYS
100
AcDbPolyline
 90
        2
 70
     0
 43
0.0
 10
457.858815173681
 20
265.5184775653294
 10
457.8829308420779
 20
266.0655587283883
  0
LWPOLYLINE
  5
553
330
1F
100
AcDbEntity
  8
OBRYS
100
AcDbPolyline
 90
        2
 70
     0
 43
0.0
 10
457.9235829688039
 20
267.6120620917162
 10
457.9280615929347
 20
268.1591432547742
  0
LWPOLYLINE
  5
554
330
1F
100
AcDbEntity
  8
OBRYS
100
AcDbPolyline
 90
        2
 70
     0
 43
0.0
 10
457.9005008290526
 20
266.5647530642003
 10
457.9146257205419
 20
267.1118342272583
  0
LWPOLYLINE
  5
555
330
1F
100
AcDbEntity
  8
OBRYS
100
AcDbPolyline
 90
        2
 70
     0
 43
0.0
 10
457.669679431541
 20
268.5649755029364
 10
457.9280615929347
 20
268.6590266096833
  0
LWPOLYLINE
  5
556
330
1F
100
AcDbEntity
  8
OBRYS
100
AcDbPolyline
 90
        2
 70
     0
 43
0.0
 10
457.9280615929347
 20
268.1591432547742
 10
457.669679431541
 20
268.2531943615214
  0
LWPOLYLINE
  5
557
330
1F
100
AcDbEntity
  8
OBRYS
100
AcDbPolyline
 90
        2
 70
     0
 43
0.0
 10
448.7678972072039
 20
249.9094389407604
 10
447.9679460355289
 20
249.9094389407604
  0
LWPOLYLINE
  5
558
330
1F
100
AcDbEntity
  8
OBRYS
100
AcDbPolyline
 90
        2
 70
     0
 43
0.0
 10
443.1682390054785
 20
249.9094389407604
 10
442.3682878338037
 20
249.9094389407604
  0
LWPOLYLINE
  5
559
330
1F
100
AcDbEntity
  8
OBRYS
100
AcDbPolyline
 90
        2
 70
     0
 43
0.0
 10
451.8932878314225
 20
248.4090998569333
 10
451.8932878314225
 20
248.7088231641504
  0
LWPOLYLINE
  5
55A
330
1F
100
AcDbEntity
  8
OBRYS
100
AcDbPolyline
 90
        4
 70
     0
 43
0.0
 10
458.0927371571296
 20
252.9090835797673
 10
458.0927371571296
 20
251.4090998569333
 42
-0.4142135623730506
 10
455.0927371571296
 20
248.4090998569333
 10
451.8932878314225
 20
248.4090998569333
  0
LWPOLYLINE
  5
55B
330
1F
100
AcDbEntity
  8
OBRYS
100
AcDbPolyline
 90
        2
 70
     0
 43
0.0
 10
458.0927371571296
 20
252.9090835797673
 10
457.9290951215802
 20
253.1936484668482
  0
LWPOLYLINE
  5
55C
330
1F
100
AcDbEntity
  8
OBRYS
100
AcDbPolyline
 90
        2
 70
     0
 43
0.0
 10
457.3930382640755
 20
255.1935263960364
 10
457.3930382640755
 20
260.4090564511563
  0
LWPOLYLINE
  5
55D
330
1F
100
AcDbEntity
  8
OBRYS
100
AcDbPolyline
 90
        2
 70
     0
 43
0.0
 10
457.3930382640755
 20
276.4091134133013
 10
457.3930382640755
 20
281.6249879779704
  0
LWPOLYLINE
  5
55E
330
1F
100
AcDbEntity
  8
OBRYS
100
AcDbPolyline
 90
        5
 70
     0
 43
0.0
 10
451.892943321874
 20
288.4090700075234
 10
455.0927371571296
 20
288.4090700075234
 42
-0.4142135623730507
 10
458.0927371571296
 20
285.4090700075234
 10
458.0927371571296
 20
283.9090862846903
 10
457.9290951215802
 20
283.6248659071574
  0
LWPOLYLINE
  5
55F
330
1F
100
AcDbEntity
  8
OBRYS
100
AcDbPolyline
 90
        2
 70
     0
 43
0.0
 10
451.892943321874
 20
288.1093467003074
 10
451.892943321874
 20
288.4090700075234
  0
LWPOLYLINE
  5
560
330
1F
100
AcDbEntity
  8
OBRYS
100
AcDbPolyline
 90
        2
 70
     0
 43
0.0
 10
457.9235829688039
 20
269.2061077727413
 10
457.6703684506377
 20
269.2936131980663
  0
LWPOLYLINE
  5
561
330
1F
100
AcDbEntity
  8
OBRYS
100
AcDbPolyline
 90
        2
 70
     0
 43
0.0
 10
457.6669233551527
 20
269.6109064922583
 10
457.9146257205419
 20
269.7063356371992
  0
LWPOLYLINE
  5
562
330
1F
100
AcDbEntity
  8
OBRYS
100
AcDbPolyline
 90
        2
 70
     0
 43
0.0
 10
457.9005008290526
 20
270.2534168002572
 10
457.6521094445661
 20
270.3340320346123
  0
LWPOLYLINE
  5
563
330
1F
100
AcDbEntity
  8
OBRYS
100
AcDbPolyline
 90
        2
 70
     0
 43
0.0
 10
457.642118667659
 20
270.6558039529342
 10
457.8829308420779
 20
270.7529556456183
  0
LWPOLYLINE
  5
564
330
1F
100
AcDbEntity
  8
OBRYS
100
AcDbPolyline
 90
        2
 70
     0
 43
0.0
 10
457.858815173681
 20
271.2993477895794
 10
457.612146336937
 20
271.3747953807064
  0
LWPOLYLINE
  5
565
330
1F
100
AcDbEntity
  8
OBRYS
100
AcDbPolyline
 90
        2
 70
     0
 43
0.0
 10
457.5952653690593
 20
271.6979453372222
 10
457.8329769575417
 20
271.7988866349402
  0
LWPOLYLINE
  5
566
330
1F
100
AcDbEntity
  8
OBRYS
100
AcDbPolyline
 90
        2
 70
     0
 43
0.0
 10
457.7995595313348
 20
272.3456232884492
 10
457.5497901086542
 20
272.4165922554454
  0
LWPOLYLINE
  5
567
330
1F
100
AcDbEntity
  8
OBRYS
100
AcDbPolyline
 90
        2
 70
     0
 43
0.0
 10
457.526018949806
 20
272.7376751546714
 10
457.7647640669338
 20
272.8437840956173
  0
LWPOLYLINE
  5
568
330
1F
100
AcDbEntity
  8
OBRYS
100
AcDbPolyline
 90
        2
 70
     0
 43
0.0
 10
457.7213558638197
 20
273.3894872204804
 10
457.4650407597172
 20
273.4583891301853
  0
LWPOLYLINE
  5
569
330
1F
100
AcDbEntity
  8
OBRYS
100
AcDbPolyline
 90
        2
 70
     0
 43
0.0
 10
457.4347239194469
 20
273.7743043861823
 10
457.6782921702538
 20
273.8873035180983
  0
LWPOLYLINE
  5
56A
330
1F
100
AcDbEntity
  8
OBRYS
100
AcDbPolyline
 90
        2
 70
     0
 43
0.0
 10
457.6259267188782
 20
274.4326621334143
 10
457.3575537805775
 20
274.4991524762794
  0
LWPOLYLINE
  5
56B
330
1F
100
AcDbEntity
  8
OBRYS
100
AcDbPolyline
 90
        2
 70
     0
 43
0.0
 10
457.3220692970792
 20
274.8067995031123
 10
457.573216757954
 20
274.9294449023872
  0
LWPOLYLINE
  5
56C
330
1F
100
AcDbEntity
  8
OBRYS
100
AcDbPolyline
 90
        2
 70
     0
 43
0.0
 10
457.5115495487678
 20
275.4730809699594
 10
457.228707209429
 20
275.5385377841793
  0
LWPOLYLINE
  5
56D
330
1F
100
AcDbEntity
  8
OBRYS
100
AcDbPolyline
 90
        2
 70
     0
 43
0.0
 10
457.1873660636061
 20
275.8355050150072
 10
457.4509158682276
 20
275.9695192293833
  0
LINE
  5
56E
330
1F
100
AcDbEntity
  8
OBRYS
100
AcDbLine
 10
435.2476199753407
 20
253.5591730978334
 30
0.0
 11
435.2476199753407
 21
252.9590374643034
 31
0.0
  0
LINE
  5
56F
330
1F
100
AcDbEntity
  8
OBRYS
100
AcDbLine
 10
436.4430681087226
 20
254.7542767216672
 30
0.0
 11
437.0428592327046
 21
254.7542767216672
 31
0.0
  0
LINE
  5
570
330
1F
100
AcDbEntity
  8
OBRYS
100
AcDbLine
 10
438.2383073660862
 20
253.5591730978334
 30
0.0
 11
438.2383073660862
 21
252.9590374643034
 31
0.0
  0
LINE
  5
571
330
1F
100
AcDbEntity
  8
OBRYS
100
AcDbLine
 10
436.4430681087226
 20
251.7639338404703
 30
0.0
 11
437.0428592327046
 21
251.7639338404703
 31
0.0
  0
LINE
  5
572
330
1F
100
AcDbEntity
  8
OBRYS
100
AcDbLine
 10
436.4430681087226
 20
254.7542767216672
 30
0.0
 11
436.4430681087226
 21
251.7639338404703
 31
0.0
  0
LINE
  5
573
330
1F
100
AcDbEntity
  8
OBRYS
100
AcDbLine
 10
437.0428592327046
 20
254.7542767216672
 30
0.0
 11
437.0428592327046
 21
251.7639338404703
 31
0.0
  0
LINE
  5
574
330
1F
100
AcDbEntity
  8
OBRYS
100
AcDbLine
 10
435.2476199753407
 20
253.5591730978334
 30
0.0
 11
438.2383073660862
 21
253.5591730978334
 31
0.0
  0
LINE
  5
575
330
1F
100
AcDbEntity
  8
OBRYS
100
AcDbLine
 10
435.2476199753407
 20
252.9590374643034
 30
0.0
 11
438.2383073660862
 21
252.9590374643034
 31
0.0
  0
LINE
  5
576
330
1F
100
AcDbEntity
  8
OBRYS
100
AcDbLine
 10
452.8978776749216
 20
253.5591730978334
 30
0.0
 11
452.8978776749216
 21
252.9590374643034
 31
0.0
  0
LINE
  5
577
330
1F
100
AcDbEntity
  8
OBRYS
100
AcDbLine
 10
454.0929812987546
 20
254.7542767216672
 30
0.0
 11
454.6927724227365
 21
254.7542767216672
 31
0.0
  0
LINE
  5
578
330
1F
100
AcDbEntity
  8
OBRYS
100
AcDbLine
 10
455.8882205561182
 20
253.5591730978334
 30
0.0
 11
455.8882205561182
 21
252.9590374643034
 31
0.0
  0
LINE
  5
579
330
1F
100
AcDbEntity
  8
OBRYS
100
AcDbLine
 10
454.0929812987546
 20
251.7639338404703
 30
0.0
 11
454.6927724227365
 21
251.7639338404703
 31
0.0
  0
LINE
  5
57A
330
1F
100
AcDbEntity
  8
OBRYS
100
AcDbLine
 10
454.0929812987546
 20
254.7542767216672
 30
0.0
 11
454.0929812987546
 21
251.7639338404703
 31
0.0
  0
LINE
  5
57B
330
1F
100
AcDbEntity
  8
OBRYS
100
AcDbLine
 10
454.6927724227365
 20
254.7542767216672
 30
0.0
 11
454.6927724227365
 21
251.7639338404703
 31
0.0
  0
LINE
  5
57C
330
1F
100
AcDbEntity
  8
OBRYS
100
AcDbLine
 10
452.8978776749216
 20
253.5591730978334
 30
0.0
 11
455.8882205561182
 21
253.5591730978334
 31
0.0
  0
LINE
  5
57D
330
1F
100
AcDbEntity
  8
OBRYS
100
AcDbLine
 10
452.8978776749216
 20
252.9590374643034
 30
0.0
 11
455.8882205561182
 21
252.9590374643034
 31
0.0
  0
LINE
  5
57E
330
1F
100
AcDbEntity
  8
OBRYS
100
AcDbLine
 10
437.0428592327046
 20
285.0542360239873
 30
0.0
 11
436.4430681087226
 21
285.0542360239873
 31
0.0
  0
LINE
  5
57F
330
1F
100
AcDbEntity
  8
OBRYS
100
AcDbLine
 10
435.2476199753407
 20
283.2589967666232
 30
0.0
 11
435.2476199753407
 21
283.8591324001544
 31
0.0
  0
LINE
  5
580
330
1F
100
AcDbEntity
  8
OBRYS
100
AcDbLine
 10
438.2383073660862
 20
283.8591324001544
 30
0.0
 11
438.2383073660862
 21
283.2589967666232
 31
0.0
  0
LINE
  5
581
330
1F
100
AcDbEntity
  8
OBRYS
100
AcDbLine
 10
437.0428592327046
 20
282.0642376523393
 30
0.0
 11
436.4430681087226
 21
282.0642376523393
 31
0.0
  0
LINE
  5
582
330
1F
100
AcDbEntity
  8
OBRYS
100
AcDbLine
 10
436.4430681087226
 20
285.0542360239873
 30
0.0
 11
436.4430681087226
 21
282.0642376523393
 31
0.0
  0
LINE
  5
583
330
1F
100
AcDbEntity
  8
OBRYS
100
AcDbLine
 10
437.0428592327046
 20
285.0542360239873
 30
0.0
 11
437.0428592327046
 21
282.0642376523393
 31
0.0
  0
LINE
  5
584
330
1F
100
AcDbEntity
  8
OBRYS
100
AcDbLine
 10
435.2476199753407
 20
283.8591324001544
 30
0.0
 11
438.2383073660862
 21
283.8591324001544
 31
0.0
  0
LINE
  5
585
330
1F
100
AcDbEntity
  8
OBRYS
100
AcDbLine
 10
435.2476199753407
 20
283.2589967666232
 30
0.0
 11
438.2383073660862
 21
283.2589967666232
 31
0.0
  0
LINE
  5
586
330
1F
100
AcDbEntity
  8
OBRYS
100
AcDbLine
 10
454.6927724227365
 20
285.0542360239873
 30
0.0
 11
454.092636789206
 21
285.0542360239873
 31
0.0
  0
LINE
  5
587
330
1F
100
AcDbEntity
  8
OBRYS
100
AcDbLine
 10
455.8882205561182
 20
283.8591324001544
 30
0.0
 11
455.8882205561182
 21
283.2589967666232
 31
0.0
  0
LINE
  5
588
330
1F
100
AcDbEntity
  8
OBRYS
100
AcDbLine
 10
452.8978776749216
 20
283.8591324001544
 30
0.0
 11
452.8978776749216
 21
283.2589967666232
 31
0.0
  0
LINE
  5
589
330
1F
100
AcDbEntity
  8
OBRYS
100
AcDbLine
 10
454.0929812987546
 20
282.0642376523393
 30
0.0
 11
454.6927724227365
 21
282.0642376523393
 31
0.0
  0
LINE
  5
58A
330
1F
100
AcDbEntity
  8
OBRYS
100
AcDbLine
 10
454.092636789206
 20
285.0542360239873
 30
0.0
 11
454.092636789206
 21
282.0642376523393
 31
0.0
  0
LINE
  5
58B
330
1F
100
AcDbEntity
  8
OBRYS
100
AcDbLine
 10
454.6927724227365
 20
285.0542360239873
 30
0.0
 11
454.6927724227365
 21
282.0642376523393
 31
0.0
  0
LINE
  5
58C
330
1F
100
AcDbEntity
  8
OBRYS
100
AcDbLine
 10
452.8978776749216
 20
283.8591324001544
 30
0.0
 11
455.8882205561182
 21
283.8591324001544
 31
0.0
  0
LINE
  5
58D
330
1F
100
AcDbEntity
  8
OBRYS
100
AcDbLine
 10
452.8978776749216
 20
283.2589967666232
 30
0.0
 11
455.8882205561182
 21
283.2589967666232
 31
0.0
  0
CIRCLE
  5
58E
330
1F
100
AcDbEntity
  8
OBRYS
100
AcDbCircle
 10
436.7429636707136
 20
283.5592368381634
 30
0.0
 40
2.795438564817086
  0
CIRCLE
  5
58F
330
1F
100
AcDbEntity
  8
OBRYS
100
AcDbCircle
 10
454.3927046059713
 20
283.5592368381634
 30
0.0
 40
2.795350476731755
  0
CIRCLE
  5
590
330
1F
100
AcDbEntity
  8
OBRYS
100
AcDbCircle
 10
436.7429636707136
 20
253.2591052810689
 30
0.0
 40
2.795323788152998
  0
CIRCLE
  5
591
330
1F
100
AcDbEntity
  8
OBRYS
100
AcDbCircle
 10
454.3928768607457
 20
253.2591052810689
 30
0.0
 40
2.795314850290165
  0
CIRCLE
  5
592
330
1F
100
AcDbEntity
  8
OBRYS
100
AcDbCircle
 10
443.0679867268581
 20
264.0291627870564
 30
0.0
 40
1.399742295657006
  0
CIRCLE
  5
593
330
1F
100
AcDbEntity
  8
OBRYS
100
AcDbCircle
 10
448.0680260593754
 20
264.0291627870564
 30
0.0
 40
1.396760562128669
  0
CIRCLE
  5
594
330
1F
100
AcDbEntity
  8
OBRYS
100
AcDbCircle
 10
445.5703318325693
 20
254.709059843423
 30
0.0
 40
0.4965177938866801
  0
ARC
  5
595
330
1F
100
AcDbEntity
  8
OBRYS
100
AcDbCircle
 10
442.7682634196411
 20
250.1092544789041
 30
0.0
 40
0.3999755858374101
100
AcDbArc
 50
0.0000000000325709
 51
180.0000000000326
  0
ARC
  5
596
330
1F
100
AcDbEntity
  8
OBRYS
100
AcDbCircle
 10
448.3679216213666
 20
250.1092544789043
 30
0.0
 40
0.3999755858372964
100
AcDbArc
 50
0.0
 51
180.0
  0
LINE
  5
597
330
1F
100
AcDbEntity
  8
OBRYS
100
AcDbLine
 10
439.8178836460735
 20
288.4090700075234
 30
0.0
 11
441.1966108592703
 21
288.2330256282283
 31
0.0
  0
LINE
  5
598
330
1F
100
AcDbEntity
  8
OBRYS
100
AcDbLine
 10
441.1966108592703
 20
288.2330256282283
 30
0.0
 11
442.5801612061467
 21
288.1055570952734
 31
0.0
  0
LINE
  5
599
330
1F
100
AcDbEntity
  8
OBRYS
100
AcDbLine
 10
448.5560238348611
 20
288.1055570952734
 30
0.0
 11
449.9395741817373
 21
288.2330256282283
 31
0.0
  0
LINE
  5
59A
330
1F
100
AcDbEntity
  8
OBRYS
100
AcDbLine
 10
449.9395741817373
 20
288.2330256282283
 30
0.0
 11
451.3183013949343
 21
288.4090700075234
 31
0.0
  0
LINE
  5
59B
330
1F
100
AcDbEntity
  8
OBRYS
100
AcDbLine
 10
434.7356787862327
 20
243.3051908955364
 30
0.0
 11
435.0725679072949
 21
241.3978412101238
 31
0.0
  0
ARC
  5
59C
330
1F
100
AcDbEntity
  8
OBRYS
100
AcDbCircle
 10
436.054262741803
 20
241.5700657729941
 30
0.0
 40
0.9966875378752273
100
AcDbArc
 50
189.9504794111482
 51
270.7838182406772
  0
ARC
  5
59D
330
1F
100
AcDbEntity
  8
OBRYS
100
AcDbCircle
 10
455.0785925872377
 20
241.5693447559275
 30
0.0
 40
0.9999173988078872
100
AcDbArc
 50
269.4095217117272
 51
349.9973782484241
  0
LINE
  5
59E
330
1F
100
AcDbEntity
  8
OBRYS
100
AcDbLine
 10
456.0633110477532
 20
241.3956658626838
 30
0.0
 11
456.4001617452263
 21
243.3051908955364
 31
0.0
  0
ARC
  5
59F
330
1F
100
AcDbEntity
  8
OBRYS
100
AcDbCircle
 10
443.0681589816323
 20
264.0307499016661
 30
0.0
 40
3.000980663195196
100
AcDbArc
 50
227.1823405393515
 51
312.8176594606485
  0
ARC
  5
5A0
330
1F
100
AcDbEntity
  8
OBRYS
100
AcDbCircle
 10
443.0681589816323
 20
264.0390944374971
 30
0.0
 40
3.30759760773547
100
AcDbArc
 50
229.3647031465391
 51
310.6352968534594
  0
ARC
  5
5A1
330
1F
100
AcDbEntity
  8
OBRYS
100
AcDbCircle
 10
448.067164785504
 20
264.0293354832078
 30
0.0
 40
2.999357796698011
100
AcDbArc
 50
227.1760448267312
 51
312.8239551732689
  0
ARC
  5
5A2
330
1F
100
AcDbEntity
  8
OBRYS
100
AcDbCircle
 10
448.0681983141496
 20
264.0385333587072
 30
0.0
 40
3.307059650541166
100
AcDbArc
 50
229.3606372646632
 51
310.6393627353368
  0
DIMENSION
  5
5A3
330
1F
100
AcDbEntity
  8
KOTY
100
AcDbDimension
  2
*D10
 10
458.0927371571296
 20
300.8719433718123
 30
0.0
 11
445.5677480109552
 21
303.9139433718123
 31
0.0
 70
    32
  3
ISO-25
100
AcDbAlignedDimension
 13
433.0427588647808
 23
285.4090700075232
 33
0.0
 14
458.0927371571296
 24
285.4090700075232
 34
0.0
100
AcDbRotatedDimension
1001
ACAD
1000
DSTYLE
1002
{
1070
   287
1070
     5
1070
   271
1070
     0
1070
   278
1070
    44
1070
   140
1040
4.0
1070
   147
1040
1.0
1070
    41
1040
4.0
1070
   178
1070
   256
1070
   176
1070
   256
1070
   177
1070
   256
1070
   279
1070
     2
1002
}
  0
VIEWPORT
  5
5B7
330
5B3
100
AcDbEntity
 67
     1
  8
0
100
AcDbViewport
 10
5.25
 20
4.0
 30
0.0
 40
12.6
 41
9.6
 68
     1
 69
     1
1001
ACAD
1000
MVIEW
1002
{
1070
    16
1010
0.0
1020
0.0
1030
0.0
1010
0.0
1020
0.0
1030
1.0
1040
0.0
1040
9.6
1040
5.25
1040
4.0
1040
50.0
1040
0.0
1040
0.0
1070
     0
1070
   100
1070
     0
1070
     3
1070
     0
1070
     0
1070
     0
1070
     0
1040
0.0
1040
0.0
1040
0.0
1040
0.5
1040
0.5
1040
0.0
1040
0.0
1070
     0
1002
{
1002
}
1002
}
  0
VIEWPORT
  5
5B8
330
5B3
100
AcDbEntity
 67
     1
  8
0
100
AcDbViewport
 10
5.25
 20
4.0
 30
0.0
 40
8.4
 41
6.4
 68
     2
 69
     2
1001
ACAD
1000
MVIEW
1002
{
1070
    16
1010
0.0
1020
0.0
1030
0.0
1010
0.0
1020
0.0
1030
1.0
1040
0.0
1040
158.1502448806064
1040
356.3416604876218
1040
272.4219460189007
1040
50.0
1040
0.0
1040
0.0
1070
     0
1070
   100
1070
     0
1070
     3
1070
     0
1070
     0
1070
     0
1070
     0
1040
0.0
1040
0.0
1040
0.0
1040
0.5
1040
0.5
1040
0.0
1040
0.0
1070
     0
1002
{
1002
}
1002
}
  0
ENDSEC
  0
SECTION
  2
OBJECTS
  0
DICTIONARY
  5
C
330
0
100
AcDbDictionary
  3
ACAD_DETAILVIEWSTYLE
350
122
  3
ACAD_GROUP
350
D
  3
ACAD_IMAGE_VARS
350
DC
  3
ACAD_MLINESTYLE
350
17
  3
ACAD_SCALELIST
350
B6
  3
ACAD_SECTIONVIEWSTYLE
350
123
  3
ACDBVARIABLEDICTIONARY
350
66
  3
APPDATA
350
E1
  3
DWGPROPS
350
5BA
  0
DICTIONARY
  5
122
102
{ACAD_REACTORS
330
C
102
}
330
C
100
AcDbDictionary
  0
DICTIONARY
  5
D
102
{ACAD_REACTORS
330
C
102
}
330
C
100
AcDbDictionary
  0
RASTERVARIABLES
  5
DC
102
{ACAD_REACTORS
330
C
102
}
330
C
100
AcDbRasterVariables
 90
        0
 70
     1
 71
     1
 72
     5
  0
DICTIONARY
  5
17
102
{ACAD_REACTORS
330
C
102
}
330
C
100
AcDbDictionary
  3
STANDARD
350
18
  0
DICTIONARY
  5
B6
102
{ACAD_REACTORS
330
C
102
}
330
C
100
AcDbDictionary
  0
DICTIONARY
  5
123
102
{ACAD_REACTORS
330
C
102
}
330
C
100
AcDbDictionary
  0
DICTIONARY
  5
66
102
{ACAD_REACTORS
330
C
102
}
330
C
100
AcDbDictionary
  3
DIMASSOC
350
67
  3
HIDETEXT
350
6B
  0
DICTIONARY
  5
E1
102
{ACAD_REACTORS
330
C
102
}
330
C
100
AcDbDictionary
  0
XRECORD
  5
5BA
102
{ACAD_REACTORS
330
C
102
}
330
C
100
AcDbXrecord
  1
DWGPROPS COOKIE
  2

  3

  4

  6

  7

  8
jaromir.podrabsky
  9

300
=
301
=
302
=
303
=
304
=
305
=
306
=
307
=
308
=
309
=
 40
0.0
 41
2452643.063384271
 42
2457077.349010729
  1

 90
        0
  0
MLINESTYLE
  5
18
102
{ACAD_REACTORS
330
17
102
}
330
17
100
AcDbMlineStyle
  2
STANDARD
 70
     0
  3

 62
   256
 51
90.0
 52
90.0
 71
     2
 49
0.5
 62
   256
  6
BYLAYER
 49
-0.5
 62
   256
  6
BYLAYER
  0
DICTIONARYVAR
  5
67
102
{ACAD_REACTORS
330
66
102
}
330
66
100
DictionaryVariables
280
     0
  1
2
  0
DICTIONARYVAR
  5
6B
102
{ACAD_REACTORS
330
66
102
}
330
66
100
DictionaryVariables
280
     0
  1
1
  0
ENDSEC
  0
EOF
