  0
SECTION
  2
HEADER
  9
$ACADVER
  1
AC1014
  9
$ACADMAINTVER
 70
     9
  9
$DWGCODEPAGE
  3
ANSI_1250
  9
$INSBASE
 10
0.0
 20
0.0
 30
0.0
  9
$EXTMIN
 10
192.6120808994112
 20
166.6128484485209
 30
0.0
  9
$EXTMAX
 10
311.425569586283
 20
267.9025198320086
 30
0.0
  9
$LIMMIN
 10
0.0
 20
0.0
  9
$LIMMAX
 10
12.0
 20
9.0
  9
$ORTHOMODE
 70
     0
  9
$REGENMODE
 70
     1
  9
$FILLMODE
 70
     1
  9
$QTEXTMODE
 70
     0
  9
$MIRRTEXT
 70
     0
  9
$DRAGMODE
 70
     2
  9
$LTSCALE
 40
1.0
  9
$OSMODE
 70
 15359
  9
$ATTMODE
 70
     1
  9
$TEXTSIZE
 40
0.2
  9
$TRACEWID
 40
0.05
  9
$TEXTSTYLE
  7
STANDARD
  9
$CLAYER
  8
0
  9
$CELTYPE
  6
BYLAYER
  9
$CECOLOR
 62
   256
  9
$CELTSCALE
 40
1.0
  9
$DELOBJ
 70
     1
  9
$DISPSILH
 70
     0
  9
$DIMSCALE
 40
1.0
  9
$DIMASZ
 40
0.18
  9
$DIMEXO
 40
0.0625
  9
$DIMDLI
 40
0.38
  9
$DIMRND
 40
0.0
  9
$DIMDLE
 40
0.0
  9
$DIMEXE
 40
0.18
  9
$DIMTP
 40
0.0
  9
$DIMTM
 40
0.0
  9
$DIMTXT
 40
0.18
  9
$DIMCEN
 40
0.09
  9
$DIMTSZ
 40
0.0
  9
$DIMTOL
 70
     0
  9
$DIMLIM
 70
     0
  9
$DIMTIH
 70
     1
  9
$DIMTOH
 70
     1
  9
$DIMSE1
 70
     0
  9
$DIMSE2
 70
     0
  9
$DIMTAD
 70
     0
  9
$DIMZIN
 70
     0
  9
$DIMBLK
  1

  9
$DIMASO
 70
     1
  9
$DIMSHO
 70
     1
  9
$DIMPOST
  1

  9
$DIMAPOST
  1

  9
$DIMALT
 70
     0
  9
$DIMALTD
 70
     2
  9
$DIMALTF
 40
25.4
  9
$DIMLFAC
 40
1.0
  9
$DIMTOFL
 70
     0
  9
$DIMTVP
 40
0.0
  9
$DIMTIX
 70
     0
  9
$DIMSOXD
 70
     0
  9
$DIMSAH
 70
     0
  9
$DIMBLK1
  1

  9
$DIMBLK2
  1

  9
$DIMSTYLE
  2
STANDARD
  9
$DIMCLRD
 70
     0
  9
$DIMCLRE
 70
     0
  9
$DIMCLRT
 70
     0
  9
$DIMTFAC
 40
1.0
  9
$DIMGAP
 40
0.09
  9
$DIMJUST
 70
     0
  9
$DIMSD1
 70
     0
  9
$DIMSD2
 70
     0
  9
$DIMTOLJ
 70
     1
  9
$DIMTZIN
 70
     0
  9
$DIMALTZ
 70
     0
  9
$DIMALTTZ
 70
     0
  9
$DIMFIT
 70
     5
  9
$DIMUPT
 70
     0
  9
$DIMUNIT
 70
     2
  9
$DIMDEC
 70
     4
  9
$DIMTDEC
 70
     4
  9
$DIMALTU
 70
     2
  9
$DIMALTTD
 70
     2
  9
$DIMTXSTY
  7
STANDARD
  9
$DIMAUNIT
 70
     0
  9
$LUNITS
 70
     2
  9
$LUPREC
 70
     4
  9
$SKETCHINC
 40
0.1
  9
$FILLETRAD
 40
0.0
  9
$AUNITS
 70
     0
  9
$AUPREC
 70
     0
  9
$MENU
  1
.
  9
$ELEVATION
 40
0.0
  9
$PELEVATION
 40
0.0
  9
$THICKNESS
 40
0.0
  9
$LIMCHECK
 70
     0
  9
$CHAMFERA
 40
0.0
  9
$CHAMFERB
 40
0.0
  9
$CHAMFERC
 40
0.0
  9
$CHAMFERD
 40
0.0
  9
$SKPOLY
 70
     0
  9
$TDCREATE
 40
2452643.146717593
  9
$TDUPDATE
 40
2456765.319368021
  9
$TDINDWG
 40
0.009420544
  9
$TDUSRTIMER
 40
2456765.23501559
  9
$USRTIMER
 70
     1
  9
$ANGBASE
 50
0.0
  9
$ANGDIR
 70
     0
  9
$PDMODE
 70
     0
  9
$PDSIZE
 40
0.0
  9
$PLINEWID
 40
0.0
  9
$COORDS
 70
     2
  9
$SPLFRAME
 70
     0
  9
$SPLINETYPE
 70
     6
  9
$SPLINESEGS
 70
     8
  9
$ATTDIA
 70
     0
  9
$ATTREQ
 70
     1
  9
$HANDLING
 70
     1
  9
$HANDSEED
  5
2B3
  9
$SURFTAB1
 70
     6
  9
$SURFTAB2
 70
     6
  9
$SURFTYPE
 70
     6
  9
$SURFU
 70
     6
  9
$SURFV
 70
     6
  9
$UCSNAME
  2

  9
$UCSORG
 10
0.0
 20
0.0
 30
0.0
  9
$UCSXDIR
 10
1.0
 20
0.0
 30
0.0
  9
$UCSYDIR
 10
0.0
 20
1.0
 30
0.0
  9
$PUCSNAME
  2

  9
$PUCSORG
 10
0.0
 20
0.0
 30
0.0
  9
$PUCSXDIR
 10
1.0
 20
0.0
 30
0.0
  9
$PUCSYDIR
 10
0.0
 20
1.0
 30
0.0
  9
$USERI1
 70
     0
  9
$USERI2
 70
     0
  9
$USERI3
 70
     0
  9
$USERI4
 70
     0
  9
$USERI5
 70
     0
  9
$USERR1
 40
0.0
  9
$USERR2
 40
0.0
  9
$USERR3
 40
0.0
  9
$USERR4
 40
0.0
  9
$USERR5
 40
0.0
  9
$WORLDVIEW
 70
     1
  9
$SHADEDGE
 70
     3
  9
$SHADEDIF
 70
    70
  9
$TILEMODE
 70
     0
  9
$MAXACTVP
 70
    64
  9
$PINSBASE
 10
0.0
 20
0.0
 30
0.0
  9
$PLIMCHECK
 70
     0
  9
$PEXTMIN
 10
0.0
 20
0.0
 30
0.0
  9
$PEXTMAX
 10
0.0
 20
0.0
 30
0.0
  9
$PLIMMIN
 10
-0.25
 20
-0.25
  9
$PLIMMAX
 10
10.75
 20
8.25
  9
$UNITMODE
 70
     0
  9
$VISRETAIN
 70
     1
  9
$PLINEGEN
 70
     0
  9
$PSLTSCALE
 70
     1
  9
$TREEDEPTH
 70
  3020
  9
$PICKSTYLE
 70
     0
  9
$CMLSTYLE
  2
STANDARD
  9
$CMLJUST
 70
     0
  9
$CMLSCALE
 40
1.0
  9
$PROXYGRAPHICS
 70
     1
  9
$MEASUREMENT
 70
     0
  0
ENDSEC
  0
SECTION
  2
CLASSES
  0
CLASS
  1
ACDBDICTIONARYWDFLT
  2
AcDbDictionaryWithDefault
  3
ObjectDBX Classes
 90
        0
280
     0
281
     0
  0
CLASS
  1
ACDBPLACEHOLDER
  2
AcDbPlaceHolder
  3
ObjectDBX Classes
 90
        0
280
     0
281
     0
  0
CLASS
  1
LAYOUT
  2
AcDbLayout
  3
ObjectDBX Classes
 90
        0
280
     0
281
     0
  0
CLASS
  1
DICTIONARYVAR
  2
AcDbDictionaryVar
  3
ObjectDBX Classes
 90
        0
280
     0
281
     0
  0
CLASS
  1
TABLESTYLE
  2
AcDbTableStyle
  3
ObjectDBX Classes
 90
     4095
280
     0
281
     0
  0
CLASS
  1
MATERIAL
  2
AcDbMaterial
  3
ObjectDBX Classes
 90
     1153
280
     0
281
     0
  0
CLASS
  1
VISUALSTYLE
  2
AcDbVisualStyle
  3
ObjectDBX Classes
 90
     4095
280
     0
281
     0
  0
CLASS
  1
SCALE
  2
AcDbScale
  3
ObjectDBX Classes
 90
     1153
280
     0
281
     0
  0
CLASS
  1
CELLSTYLEMAP
  2
AcDbCellStyleMap
  3
ObjectDBX Classes
 90
     1152
280
     0
281
     0
  0
CLASS
  1
RASTERVARIABLES
  2
AcDbRasterVariables
  3
ISM
 90
        0
280
     0
281
     0
  0
CLASS
  1
SUN
  2
AcDbSun
  3
SCENEOE
 90
     1153
280
     0
281
     0
  0
CLASS
  1
XRECORD
  2
AcDbXrecord
  3
ObjectDBX Classes
 90
        0
280
     0
281
     0
  0
CLASS
  1
LWPOLYLINE
  2
AcDbPolyline
  3
ObjectDBX Classes
 90
        0
280
     0
281
     1
  0
CLASS
  1
HATCH
  2
AcDbHatch
  3
ObjectDBX Classes
 90
        0
280
     0
281
     1
  0
ENDSEC
  0
SECTION
  2
TABLES
  0
TABLE
  2
VPORT
  5
8
330
0
100
AcDbSymbolTable
 70
     1
  0
VPORT
  5
94
330
8
100
AcDbSymbolTableRecord
100
AcDbViewportTableRecord
  2
*ACTIVE
 70
     0
 10
0.0
 20
0.0
 11
1.0
 21
1.0
 12
286.049199128806
 22
240.9637189037404
 13
0.0
 23
0.0
 14
0.5
 24
0.5
 15
0.5
 25
0.5
 16
0.0
 26
0.0
 36
1.0
 17
-27.66959356597977
 27
-19.53870295786194
 37
0.0
 40
128.7664052918298
 41
1.260923845193508
 42
50.0
 43
0.0
 44
0.0
 50
0.0
 51
0.0
 71
    16
 72
  1000
 73
     1
 74
     3
 75
     0
 76
     0
 77
     0
 78
     0
  0
ENDTAB
  0
TABLE
  2
LTYPE
  5
5
330
0
100
AcDbSymbolTable
 70
     1
  0
LTYPE
  5
14
330
5
100
AcDbSymbolTableRecord
100
AcDbLinetypeTableRecord
  2
BYBLOCK
 70
     0
  3

 72
    65
 73
     0
 40
0.0
  0
LTYPE
  5
15
330
5
100
AcDbSymbolTableRecord
100
AcDbLinetypeTableRecord
  2
BYLAYER
 70
     0
  3

 72
    65
 73
     0
 40
0.0
  0
LTYPE
  5
16
330
5
100
AcDbSymbolTableRecord
100
AcDbLinetypeTableRecord
  2
CONTINUOUS
 70
     0
  3
Solid line
 72
    65
 73
     0
 40
0.0
  0
ENDTAB
  0
TABLE
  2
LAYER
  5
2
102
{ACAD_XDICTIONARY
360
241
102
}
330
0
100
AcDbSymbolTable
 70
     5
  0
LAYER
  5
10
330
2
100
AcDbSymbolTableRecord
100
AcDbLayerTableRecord
  2
0
 70
     0
 62
     7
  6
CONTINUOUS
  0
LAYER
  5
125
330
2
100
AcDbSymbolTableRecord
100
AcDbLayerTableRecord
  2
DEFPOINTS
 70
     0
 62
     7
  6
CONTINUOUS
  0
LAYER
  5
126
330
2
100
AcDbSymbolTableRecord
100
AcDbLayerTableRecord
  2
OBRYS
 70
     0
 62
     5
  6
CONTINUOUS
  0
LAYER
  5
128
330
2
100
AcDbSymbolTableRecord
100
AcDbLayerTableRecord
  2
KOTY
 70
     0
 62
     1
  6
CONTINUOUS
  0
LAYER
  5
244
330
2
100
AcDbSymbolTableRecord
100
AcDbLayerTableRecord
  2
POTISK
 70
     0
 62
   250
  6
CONTINUOUS
1001
ACAECLAYERSTANDARD
1000

1000

  0
ENDTAB
  0
TABLE
  2
STYLE
  5
3
330
0
100
AcDbSymbolTable
 70
     1
  0
STYLE
  5
11
330
3
100
AcDbSymbolTableRecord
100
AcDbTextStyleTableRecord
  2
STANDARD
 70
     0
 40
0.0
 41
1.0
 50
0.0
 71
     0
 42
0.2
  3
arial.ttf
  4

1001
ACAD
1000
Arial
1071
        0
  0
ENDTAB
  0
TABLE
  2
VIEW
  5
6
330
0
100
AcDbSymbolTable
 70
     0
  0
ENDTAB
  0
TABLE
  2
UCS
  5
7
330
0
100
AcDbSymbolTable
 70
     0
  0
ENDTAB
  0
TABLE
  2
APPID
  5
9
330
0
100
AcDbSymbolTable
 70
     2
  0
APPID
  5
12
330
9
100
AcDbSymbolTableRecord
100
AcDbRegAppTableRecord
  2
ACAD
 70
     0
  0
APPID
  5
245
330
9
100
AcDbSymbolTableRecord
100
AcDbRegAppTableRecord
  2
ACAECLAYERSTANDARD
 70
     0
  0
ENDTAB
  0
TABLE
  2
DIMSTYLE
  5
A
330
0
100
AcDbSymbolTable
 70
     1
  0
DIMSTYLE
105
27
102
{ACAD_REACTORS
330
1E2
330
1E3
330
1E4
330
1F4
102
}
330
A
100
AcDbSymbolTableRecord
100
AcDbDimStyleTableRecord
  2
STANDARD
 70
     0
  3

  4

  5

  6

  7

 40
1.0
 41
0.18
 42
0.0625
 43
0.38
 44
0.18
 45
0.0
 46
0.0
 47
0.0
 48
0.0
140
0.18
141
0.09
142
0.0
143
25.4
144
1.0
145
0.0
146
1.0
147
0.09
 71
     0
 72
     0
 73
     1
 74
     1
 75
     0
 76
     0
 77
     0
 78
     0
170
     0
171
     2
172
     0
173
     0
174
     0
175
     0
176
     0
177
     0
178
     0
270
     2
271
     4
272
     4
273
     2
274
     2
340
11
275
     0
280
     0
281
     0
282
     0
283
     1
284
     0
285
     0
286
     0
287
     3
288
     0
  0
ENDTAB
  0
TABLE
  2
BLOCK_RECORD
  5
1
330
0
100
AcDbSymbolTable
 70
    10
  0
BLOCK_RECORD
  5
1F
330
1
100
AcDbSymbolTableRecord
100
AcDbBlockTableRecord
  2
*MODEL_SPACE
  0
BLOCK_RECORD
  5
2AB
330
1
100
AcDbSymbolTableRecord
100
AcDbBlockTableRecord
  2
*PAPER_SPACE
  0
BLOCK_RECORD
  5
5D
330
1
100
AcDbSymbolTableRecord
100
AcDbBlockTableRecord
  2
*PAPER_SPACE0
  0
BLOCK_RECORD
  5
165
330
1
100
AcDbSymbolTableRecord
100
AcDbBlockTableRecord
  2
*D1
  0
BLOCK_RECORD
  5
172
330
1
100
AcDbSymbolTableRecord
100
AcDbBlockTableRecord
  2
*D2
  0
BLOCK_RECORD
  5
17F
330
1
100
AcDbSymbolTableRecord
100
AcDbBlockTableRecord
  2
*D3
  0
BLOCK_RECORD
  5
19B
330
1
100
AcDbSymbolTableRecord
100
AcDbBlockTableRecord
  2
*D4
  0
BLOCK_RECORD
  5
211
330
1
100
AcDbSymbolTableRecord
100
AcDbBlockTableRecord
  2
*D5
  0
BLOCK_RECORD
  5
21D
330
1
100
AcDbSymbolTableRecord
100
AcDbBlockTableRecord
  2
*D6
  0
BLOCK_RECORD
  5
229
330
1
100
AcDbSymbolTableRecord
100
AcDbBlockTableRecord
  2
*D7
  0
BLOCK_RECORD
  5
235
330
1
100
AcDbSymbolTableRecord
100
AcDbBlockTableRecord
  2
*D8
  0
ENDTAB
  0
ENDSEC
  0
SECTION
  2
BLOCKS
  0
BLOCK
  5
20
330
1F
100
AcDbEntity
  8
0
100
AcDbBlockBegin
  2
*MODEL_SPACE
 70
     0
 10
0.0
 20
0.0
 30
0.0
  3
*MODEL_SPACE
  1

  0
ENDBLK
  5
21
330
1F
100
AcDbEntity
  8
0
100
AcDbBlockEnd
  0
BLOCK
  5
2AD
330
2AB
100
AcDbEntity
 67
     1
  8
0
100
AcDbBlockBegin
  2
*PAPER_SPACE
 70
     0
 10
0.0
 20
0.0
 30
0.0
  3
*PAPER_SPACE
  1

  0
ENDBLK
  5
2AE
330
2AB
100
AcDbEntity
 67
     1
  8
0
100
AcDbBlockEnd
  0
BLOCK
  5
5F
330
5D
100
AcDbEntity
  8
0
100
AcDbBlockBegin
  2
*PAPER_SPACE0
 70
     0
 10
0.0
 20
0.0
 30
0.0
  3
*PAPER_SPACE0
  1
*PAPER_SPACE0
  0
ENDBLK
  5
60
330
5D
100
AcDbEntity
  8
0
100
AcDbBlockEnd
  0
BLOCK
  5
166
330
165
100
AcDbEntity
  8
0
100
AcDbBlockBegin
  2
*D1
 70
     1
 10
0.0
 20
0.0
 30
0.0
  3
*D1
  1
*D14
  0
LINE
  5
167
330
165
100
AcDbEntity
  8
KOTY
 62
     0
100
AcDbLine
 10
24.46835587624716
 20
78.62300471682094
 30
0.0
 11
14.35085587624705
 21
78.62300471682094
 31
0.0
  0
LINE
  5
168
330
165
100
AcDbEntity
  8
KOTY
 62
     0
100
AcDbLine
 10
24.46835587624716
 20
33.62300471682098
 30
0.0
 11
14.35085587624705
 21
33.62300471682098
 31
0.0
  0
LINE
  5
169
330
165
100
AcDbEntity
  8
KOTY
 62
     0
100
AcDbLine
 10
14.53085587624705
 20
75.62300471682094
 30
0.0
 11
14.53085587624705
 21
36.62300471682098
 31
0.0
  0
SOLID
  5
16A
330
165
100
AcDbEntity
  8
KOTY
 62
     0
100
AcDbTrace
 10
15.03085587624705
 20
75.62300471682094
 30
0.0
 11
14.03085587624705
 21
75.62300471682094
 31
0.0
 12
14.53085587624705
 22
78.62300471682094
 32
0.0
 13
14.53085587624705
 23
78.62300471682094
 33
0.0
  0
SOLID
  5
16B
330
165
100
AcDbEntity
  8
KOTY
 62
     0
100
AcDbTrace
 10
14.03085587624705
 20
36.62300471682098
 30
0.0
 11
15.03085587624705
 21
36.62300471682098
 31
0.0
 12
14.53085587624705
 22
33.62300471682098
 32
0.0
 13
14.53085587624705
 23
33.62300471682098
 33
0.0
  0
MTEXT
  5
16C
330
165
100
AcDbEntity
  8
KOTY
 62
     0
100
AcDbMText
 10
11.72935587624705
 20
56.12300471682096
 30
0.0
 40
3.0
 41
0.0
 71
     5
 72
     1
  1
\A1;45,0
 11
7.894919286223342E-17
 21
1.0
 31
0.0
  0
POINT
  5
16D
330
165
100
AcDbEntity
  8
DEFPOINTS
 62
     0
100
AcDbPoint
 10
24.53085587624716
 20
78.62300471682094
 30
0.0
  0
POINT
  5
16E
330
165
100
AcDbEntity
  8
DEFPOINTS
 62
     0
100
AcDbPoint
 10
24.53085587624716
 20
33.62300471682098
 30
0.0
  0
POINT
  5
16F
330
165
100
AcDbEntity
  8
DEFPOINTS
 62
     0
100
AcDbPoint
 10
14.53085587624705
 20
33.62300471682098
 30
0.0
  0
ENDBLK
  5
170
330
165
100
AcDbEntity
  8
0
100
AcDbBlockEnd
  0
BLOCK
  5
173
330
172
100
AcDbEntity
  8
0
100
AcDbBlockBegin
  2
*D2
 70
     1
 10
0.0
 20
0.0
 30
0.0
  3
*D2
  1
*D15
  0
LINE
  5
174
330
172
100
AcDbEntity
  8
KOTY
 62
     0
100
AcDbLine
 10
46.96835587624716
 20
101.1230047168209
 30
0.0
 11
4.429000000000014
 21
101.1230047168209
 31
0.0
  0
LINE
  5
175
330
172
100
AcDbEntity
  8
KOTY
 62
     0
100
AcDbLine
 10
46.96835587624716
 20
11.12300471682098
 30
0.0
 11
4.429000000000009
 21
11.12300471682098
 31
0.0
  0
LINE
  5
176
330
172
100
AcDbEntity
  8
KOTY
 62
     0
100
AcDbLine
 10
4.609000000000014
 20
98.12300471682094
 30
0.0
 11
4.609000000000009
 21
14.12300471682098
 31
0.0
  0
SOLID
  5
177
330
172
100
AcDbEntity
  8
KOTY
 62
     0
100
AcDbTrace
 10
5.109000000000014
 20
98.12300471682094
 30
0.0
 11
4.109000000000014
 21
98.12300471682094
 31
0.0
 12
4.609000000000014
 22
101.1230047168209
 32
0.0
 13
4.609000000000014
 23
101.1230047168209
 33
0.0
  0
SOLID
  5
178
330
172
100
AcDbEntity
  8
KOTY
 62
     0
100
AcDbTrace
 10
4.109000000000009
 20
14.12300471682098
 30
0.0
 11
5.109000000000009
 21
14.12300471682098
 31
0.0
 12
4.609000000000009
 22
11.12300471682098
 32
0.0
 13
4.609000000000009
 23
11.12300471682098
 33
0.0
  0
MTEXT
  5
179
330
172
100
AcDbEntity
  8
KOTY
 62
     0
100
AcDbMText
 10
1.807500000000014
 20
56.12300471682097
 30
0.0
 40
3.0
 41
0.0
 71
     5
 72
     1
  1
\A1;90,0
 11
5.921189464667504E-17
 21
1.0
 31
0.0
  0
POINT
  5
17A
330
172
100
AcDbEntity
  8
DEFPOINTS
 62
     0
100
AcDbPoint
 10
47.03085587624716
 20
101.1230047168209
 30
0.0
  0
POINT
  5
17B
330
172
100
AcDbEntity
  8
DEFPOINTS
 62
     0
100
AcDbPoint
 10
47.03085587624716
 20
11.12300471682098
 30
0.0
  0
POINT
  5
17C
330
172
100
AcDbEntity
  8
DEFPOINTS
 62
     0
100
AcDbPoint
 10
4.609000000000009
 20
11.12300471682098
 30
0.0
  0
ENDBLK
  5
17D
330
172
100
AcDbEntity
  8
0
100
AcDbBlockEnd
  0
BLOCK
  5
180
330
17F
100
AcDbEntity
  8
0
100
AcDbBlockBegin
  2
*D3
 70
     1
 10
0.0
 20
0.0
 30
0.0
  3
*D3
  1
*D16
  0
LINE
  5
181
330
17F
100
AcDbEntity
  8
KOTY
 62
     0
100
AcDbLine
 10
77.53085587624699
 20
36.06050471682098
 30
0.0
 11
77.53085587624699
 21
0.32
 31
0.0
  0
LINE
  5
182
330
17F
100
AcDbEntity
  8
KOTY
 62
     0
100
AcDbLine
 10
24.53085587624716
 20
33.56050471682098
 30
0.0
 11
24.53085587624716
 21
0.32
 31
0.0
  0
LINE
  5
183
330
17F
100
AcDbEntity
  8
KOTY
 62
     0
100
AcDbLine
 10
74.53085587624699
 20
0.5
 30
0.0
 11
27.53085587624716
 21
0.5
 31
0.0
  0
SOLID
  5
184
330
17F
100
AcDbEntity
  8
KOTY
 62
     0
100
AcDbTrace
 10
74.53085587624699
 20
0.0
 30
0.0
 11
74.53085587624699
 21
1.0
 31
0.0
 12
77.53085587624699
 22
0.5
 32
0.0
 13
77.53085587624699
 23
0.5
 33
0.0
  0
SOLID
  5
185
330
17F
100
AcDbEntity
  8
KOTY
 62
     0
100
AcDbTrace
 10
27.53085587624716
 20
1.0
 30
0.0
 11
27.53085587624716
 21
0.0
 31
0.0
 12
24.53085587624716
 22
0.5
 32
0.0
 13
24.53085587624716
 23
0.5
 33
0.0
  0
MTEXT
  5
186
330
17F
100
AcDbEntity
  8
KOTY
 62
     0
100
AcDbMText
 10
51.03085587624707
 20
3.3015
 30
0.0
 40
3.0
 41
0.0
 71
     5
 72
     1
  1
\A1;53,0
  0
POINT
  5
187
330
17F
100
AcDbEntity
  8
DEFPOINTS
 62
     0
100
AcDbPoint
 10
77.53085587624699
 20
36.12300471682098
 30
0.0
  0
POINT
  5
188
330
17F
100
AcDbEntity
  8
DEFPOINTS
 62
     0
100
AcDbPoint
 10
24.53085587624716
 20
33.62300471682098
 30
0.0
  0
POINT
  5
189
330
17F
100
AcDbEntity
  8
DEFPOINTS
 62
     0
100
AcDbPoint
 10
24.53085587624716
 20
0.5
 30
0.0
  0
ENDBLK
  5
18A
330
17F
100
AcDbEntity
  8
0
100
AcDbBlockEnd
  0
BLOCK
  5
19C
330
19B
100
AcDbEntity
  8
0
100
AcDbBlockBegin
  2
*D4
 70
     1
 10
0.0
 20
0.0
 30
0.0
  3
*D4
  1
*D17
  0
LINE
  5
19D
330
19B
100
AcDbEntity
  8
KOTY
 62
     0
100
AcDbLine
 10
100.3304886868718
 20
11.06050471682098
 30
0.0
 11
100.3304886868718
 21
0.32
 31
0.0
  0
LINE
  5
19E
330
19B
100
AcDbEntity
  8
KOTY
 62
     0
100
AcDbLine
 10
118.3304886868718
 20
11.06050471682098
 30
0.0
 11
118.3304886868718
 21
0.32
 31
0.0
  0
LINE
  5
19F
330
19B
100
AcDbEntity
  8
KOTY
 62
     0
100
AcDbLine
 10
103.3304886868718
 20
0.5
 30
0.0
 11
115.3304886868718
 21
0.5
 31
0.0
  0
SOLID
  5
1A0
330
19B
100
AcDbEntity
  8
KOTY
 62
     0
100
AcDbTrace
 10
103.3304886868718
 20
1.0
 30
0.0
 11
103.3304886868718
 21
0.0
 31
0.0
 12
100.3304886868718
 22
0.5
 32
0.0
 13
100.3304886868718
 23
0.5
 33
0.0
  0
SOLID
  5
1A1
330
19B
100
AcDbEntity
  8
KOTY
 62
     0
100
AcDbTrace
 10
115.3304886868718
 20
0.0
 30
0.0
 11
115.3304886868718
 21
1.0
 31
0.0
 12
118.3304886868718
 22
0.5
 32
0.0
 13
118.3304886868718
 23
0.5
 33
0.0
  0
MTEXT
  5
1A2
330
19B
100
AcDbEntity
  8
KOTY
 62
     0
100
AcDbMText
 10
109.3304886868718
 20
3.3015
 30
0.0
 40
3.0
 41
0.0
 71
     5
 72
     1
  1
\A1;18,0
  0
POINT
  5
1A3
330
19B
100
AcDbEntity
  8
DEFPOINTS
 62
     0
100
AcDbPoint
 10
100.3304886868718
 20
11.12300471682098
 30
0.0
  0
POINT
  5
1A4
330
19B
100
AcDbEntity
  8
DEFPOINTS
 62
     0
100
AcDbPoint
 10
118.3304886868718
 20
11.12300471682098
 30
0.0
  0
POINT
  5
1A5
330
19B
100
AcDbEntity
  8
DEFPOINTS
 62
     0
100
AcDbPoint
 10
118.3304886868718
 20
0.5
 30
0.0
  0
ENDBLK
  5
1A6
330
19B
100
AcDbEntity
  8
0
100
AcDbBlockEnd
  0
BLOCK
  5
212
330
211
100
AcDbEntity
  8
0
100
AcDbBlockBegin
  2
*D5
 70
     1
 10
0.0
 20
0.0
 30
0.0
  3
*D5
  1
*D6
  0
LINE
  5
214
330
211
100
AcDbEntity
  8
KOTY
 62
     0
100
AcDbLine
 10
217.5634367756584
 20
245.4025198320086
 30
0.0
 11
207.4459367756583
 21
245.4025198320086
 31
0.0
  0
LINE
  5
215
330
211
100
AcDbEntity
  8
KOTY
 62
     0
100
AcDbLine
 10
217.5634367756584
 20
200.4025198320086
 30
0.0
 11
207.4459367756583
 21
200.4025198320086
 31
0.0
  0
LINE
  5
216
330
211
100
AcDbEntity
  8
KOTY
 62
     0
100
AcDbLine
 10
207.6259367756583
 20
241.4025198320086
 30
0.0
 11
207.6259367756583
 21
204.4025198320086
 31
0.0
  0
SOLID
  5
217
330
211
100
AcDbEntity
  8
KOTY
 62
     0
100
AcDbTrace
 10
208.2926034423249
 20
241.4025198320086
 30
0.0
 11
206.9592701089916
 21
241.4025198320086
 31
0.0
 12
207.6259367756583
 22
245.4025198320086
 32
0.0
 13
207.6259367756583
 23
245.4025198320086
 33
0.0
  0
SOLID
  5
218
330
211
100
AcDbEntity
  8
KOTY
 62
     0
100
AcDbTrace
 10
206.9592701089916
 20
204.4025198320086
 30
0.0
 11
208.2926034423249
 21
204.4025198320086
 31
0.0
 12
207.6259367756583
 22
200.4025198320086
 32
0.0
 13
207.6259367756583
 23
200.4025198320086
 33
0.0
  0
MTEXT
  5
219
330
211
100
AcDbEntity
  8
KOTY
 62
     0
100
AcDbMText
 10
204.5919367756583
 20
222.9025198320086
 30
0.0
 40
4.0
 41
0.0
 71
     5
 72
     1
  1
\A1;45
 11
0.0
 21
1.0
 31
0.0
  0
POINT
  5
21A
330
211
100
AcDbEntity
  8
DEFPOINTS
 62
     0
100
AcDbPoint
 10
217.6259367756584
 20
245.4025198320086
 30
0.0
  0
POINT
  5
21B
330
211
100
AcDbEntity
  8
DEFPOINTS
 62
     0
100
AcDbPoint
 10
217.6259367756584
 20
200.4025198320086
 30
0.0
  0
POINT
  5
21C
330
211
100
AcDbEntity
  8
DEFPOINTS
 62
     0
100
AcDbPoint
 10
207.6259367756583
 20
200.4025198320086
 30
0.0
  0
ENDBLK
  5
213
330
211
100
AcDbEntity
  8
0
100
AcDbBlockEnd
  0
BLOCK
  5
21E
330
21D
100
AcDbEntity
  8
0
100
AcDbBlockBegin
  2
*D6
 70
     1
 10
0.0
 20
0.0
 30
0.0
  3
*D6
  1
*D7
  0
LINE
  5
220
330
21D
100
AcDbEntity
  8
KOTY
 62
     0
100
AcDbLine
 10
240.0634367756584
 20
267.9025198320086
 30
0.0
 11
197.5240808994112
 21
267.9025198320086
 31
0.0
  0
LINE
  5
221
330
21D
100
AcDbEntity
  8
KOTY
 62
     0
100
AcDbLine
 10
240.0634367756584
 20
177.9025198320086
 30
0.0
 11
197.5240808994112
 21
177.9025198320086
 31
0.0
  0
LINE
  5
222
330
21D
100
AcDbEntity
  8
KOTY
 62
     0
100
AcDbLine
 10
197.7040808994112
 20
263.9025198320086
 30
0.0
 11
197.7040808994112
 21
181.9025198320086
 31
0.0
  0
SOLID
  5
223
330
21D
100
AcDbEntity
  8
KOTY
 62
     0
100
AcDbTrace
 10
198.3707475660779
 20
263.9025198320086
 30
0.0
 11
197.0374142327445
 21
263.9025198320086
 31
0.0
 12
197.7040808994112
 22
267.9025198320086
 32
0.0
 13
197.7040808994112
 23
267.9025198320086
 33
0.0
  0
SOLID
  5
224
330
21D
100
AcDbEntity
  8
KOTY
 62
     0
100
AcDbTrace
 10
197.0374142327445
 20
181.9025198320086
 30
0.0
 11
198.3707475660779
 21
181.9025198320086
 31
0.0
 12
197.7040808994112
 22
177.9025198320086
 32
0.0
 13
197.7040808994112
 23
177.9025198320086
 33
0.0
  0
MTEXT
  5
225
330
21D
100
AcDbEntity
  8
KOTY
 62
     0
100
AcDbMText
 10
194.6620808994112
 20
222.9025198320086
 30
0.0
 40
4.0
 41
0.0
 71
     5
 72
     1
  1
\A1;90
 11
0.0
 21
1.0
 31
0.0
  0
POINT
  5
226
330
21D
100
AcDbEntity
  8
DEFPOINTS
 62
     0
100
AcDbPoint
 10
240.1259367756584
 20
267.9025198320086
 30
0.0
  0
POINT
  5
227
330
21D
100
AcDbEntity
  8
DEFPOINTS
 62
     0
100
AcDbPoint
 10
240.1259367756584
 20
177.9025198320086
 30
0.0
  0
POINT
  5
228
330
21D
100
AcDbEntity
  8
DEFPOINTS
 62
     0
100
AcDbPoint
 10
197.7040808994112
 20
177.9025198320086
 30
0.0
  0
ENDBLK
  5
21F
330
21D
100
AcDbEntity
  8
0
100
AcDbBlockEnd
  0
BLOCK
  5
22A
330
229
100
AcDbEntity
  8
0
100
AcDbBlockBegin
  2
*D7
 70
     1
 10
0.0
 20
0.0
 30
0.0
  3
*D7
  1
*D8
  0
LINE
  5
22C
330
229
100
AcDbEntity
  8
KOTY
 62
     0
100
AcDbLine
 10
270.6259367756582
 20
202.8400198320086
 30
0.0
 11
270.6259367756582
 21
167.0995151151876
 31
0.0
  0
LINE
  5
22D
330
229
100
AcDbEntity
  8
KOTY
 62
     0
100
AcDbLine
 10
217.6259367756584
 20
200.3400198320086
 30
0.0
 11
217.6259367756584
 21
167.0995151151876
 31
0.0
  0
LINE
  5
22E
330
229
100
AcDbEntity
  8
KOTY
 62
     0
100
AcDbLine
 10
266.6259367756582
 20
167.2795151151876
 30
0.0
 11
221.6259367756584
 21
167.2795151151876
 31
0.0
  0
SOLID
  5
22F
330
229
100
AcDbEntity
  8
KOTY
 62
     0
100
AcDbTrace
 10
266.6259367756582
 20
166.6128484485209
 30
0.0
 11
266.6259367756582
 21
167.9461817818542
 31
0.0
 12
270.6259367756582
 22
167.2795151151876
 32
0.0
 13
270.6259367756582
 23
167.2795151151876
 33
0.0
  0
SOLID
  5
230
330
229
100
AcDbEntity
  8
KOTY
 62
     0
100
AcDbTrace
 10
221.6259367756584
 20
167.9461817818542
 30
0.0
 11
221.6259367756584
 21
166.6128484485209
 31
0.0
 12
217.6259367756584
 22
167.2795151151876
 32
0.0
 13
217.6259367756584
 23
167.2795151151876
 33
0.0
  0
MTEXT
  5
231
330
229
100
AcDbEntity
  8
KOTY
 62
     0
100
AcDbMText
 10
244.1259367756583
 20
170.3215151151876
 30
0.0
 40
4.0
 41
0.0
 71
     5
 72
     1
  1
\A1;53
  0
POINT
  5
232
330
229
100
AcDbEntity
  8
DEFPOINTS
 62
     0
100
AcDbPoint
 10
270.6259367756582
 20
202.9025198320086
 30
0.0
  0
POINT
  5
233
330
229
100
AcDbEntity
  8
DEFPOINTS
 62
     0
100
AcDbPoint
 10
217.6259367756584
 20
200.4025198320086
 30
0.0
  0
POINT
  5
234
330
229
100
AcDbEntity
  8
DEFPOINTS
 62
     0
100
AcDbPoint
 10
217.6259367756584
 20
167.2795151151876
 30
0.0
  0
ENDBLK
  5
22B
330
229
100
AcDbEntity
  8
0
100
AcDbBlockEnd
  0
BLOCK
  5
236
330
235
100
AcDbEntity
  8
0
100
AcDbBlockBegin
  2
*D8
 70
     1
 10
0.0
 20
0.0
 30
0.0
  3
*D8
  1
*D9
  0
LINE
  5
238
330
235
100
AcDbEntity
  8
KOTY
 62
     0
100
AcDbLine
 10
293.425569586283
 20
177.8400198320086
 30
0.0
 11
293.425569586283
 21
167.0995151151876
 31
0.0
  0
LINE
  5
239
330
235
100
AcDbEntity
  8
KOTY
 62
     0
100
AcDbLine
 10
311.425569586283
 20
177.8400198320086
 30
0.0
 11
311.425569586283
 21
167.0995151151876
 31
0.0
  0
LINE
  5
23A
330
235
100
AcDbEntity
  8
KOTY
 62
     0
100
AcDbLine
 10
297.425569586283
 20
167.2795151151876
 30
0.0
 11
307.425569586283
 21
167.2795151151876
 31
0.0
  0
SOLID
  5
23B
330
235
100
AcDbEntity
  8
KOTY
 62
     0
100
AcDbTrace
 10
297.425569586283
 20
167.9461817818542
 30
0.0
 11
297.425569586283
 21
166.6128484485209
 31
0.0
 12
293.425569586283
 22
167.2795151151876
 32
0.0
 13
293.425569586283
 23
167.2795151151876
 33
0.0
  0
SOLID
  5
23C
330
235
100
AcDbEntity
  8
KOTY
 62
     0
100
AcDbTrace
 10
307.425569586283
 20
166.6128484485209
 30
0.0
 11
307.425569586283
 21
167.9461817818542
 31
0.0
 12
311.425569586283
 22
167.2795151151876
 32
0.0
 13
311.425569586283
 23
167.2795151151876
 33
0.0
  0
MTEXT
  5
23D
330
235
100
AcDbEntity
  8
KOTY
 62
     0
100
AcDbMText
 10
302.425569586283
 20
170.3215151151876
 30
0.0
 40
4.0
 41
0.0
 71
     5
 72
     1
  1
\A1;18
  0
POINT
  5
23E
330
235
100
AcDbEntity
  8
DEFPOINTS
 62
     0
100
AcDbPoint
 10
293.425569586283
 20
177.9025198320086
 30
0.0
  0
POINT
  5
23F
330
235
100
AcDbEntity
  8
DEFPOINTS
 62
     0
100
AcDbPoint
 10
311.425569586283
 20
177.9025198320086
 30
0.0
  0
POINT
  5
240
330
235
100
AcDbEntity
  8
DEFPOINTS
 62
     0
100
AcDbPoint
 10
311.425569586283
 20
167.2795151151876
 30
0.0
  0
ENDBLK
  5
237
330
235
100
AcDbEntity
  8
0
100
AcDbBlockEnd
  0
ENDSEC
  0
SECTION
  2
ENTITIES
  0
LINE
  5
1C6
330
1F
100
AcDbEntity
  8
OBRYS
100
AcDbLine
 10
217.6259367756584
 20
245.4025198320086
 30
0.0
 11
225.6259367756584
 21
245.4025198320086
 31
0.0
  0
LINE
  5
1C7
330
1F
100
AcDbEntity
  8
OBRYS
100
AcDbLine
 10
225.6259367756584
 20
245.4025198320086
 30
0.0
 11
225.6259367756584
 21
253.4025198320086
 31
0.0
  0
LINE
  5
1C8
330
1F
100
AcDbEntity
  8
OBRYS
100
AcDbLine
 10
217.6259367756584
 20
200.4025198320086
 30
0.0
 11
225.6259367756584
 21
200.4025198320086
 31
0.0
  0
LINE
  5
1C9
330
1F
100
AcDbEntity
  8
OBRYS
100
AcDbLine
 10
225.6259367756584
 20
200.4025198320086
 30
0.0
 11
225.6259367756584
 21
192.4025198320086
 31
0.0
  0
LINE
  5
1CA
330
1F
100
AcDbEntity
  8
OBRYS
100
AcDbLine
 10
217.6259367756584
 20
245.4025198320086
 30
0.0
 11
217.6259367756584
 21
200.4025198320086
 31
0.0
  0
ARC
  5
1CB
330
1F
100
AcDbEntity
  8
OBRYS
100
AcDbCircle
 10
238.9698769630317
 20
254.5585796446355
 30
0.0
 40
1.166545736560447
100
AcDbArc
 50
277.6880456197283
 51
352.3119543802828
  0
ARC
  5
1CC
330
1F
100
AcDbEntity
  8
OBRYS
100
AcDbCircle
 10
239.1259367756584
 20
191.4025198320086
 30
0.0
 40
1.0
100
AcDbArc
 50
0.0
 51
90.0
  0
LINE
  5
1CD
330
1F
100
AcDbEntity
  8
OBRYS
100
AcDbLine
 10
225.6259367756584
 20
192.4025198320086
 30
0.0
 11
239.1259367756584
 21
192.4025198320086
 31
0.0
  0
LINE
  5
1CE
330
1F
100
AcDbEntity
  8
OBRYS
100
AcDbLine
 10
240.1259367756584
 20
191.4025198320086
 30
0.0
 11
240.1259367756584
 21
177.9025198320086
 31
0.0
  0
LINE
  5
1CF
330
1F
100
AcDbEntity
  8
OBRYS
100
AcDbLine
 10
225.6259367756584
 20
253.4025198320086
 30
0.0
 11
239.1259367756584
 21
253.4025198320086
 31
0.0
  0
LINE
  5
1D0
330
1F
100
AcDbEntity
  8
OBRYS
100
AcDbLine
 10
240.1259367756583
 20
254.4025198320086
 30
0.0
 11
240.1259367756584
 21
267.9025198320086
 31
0.0
  0
LINE
  5
1D1
330
1F
100
AcDbEntity
  8
OBRYS
100
AcDbLine
 10
270.6259367756582
 20
242.9025198320086
 30
0.0
 11
270.6259367756582
 21
202.9025198320086
 31
0.0
  0
LINE
  5
1D2
330
1F
100
AcDbEntity
  8
OBRYS
100
AcDbLine
 10
239.1259367756584
 20
192.4025198320086
 30
0.0
 11
244.1259367756584
 21
192.4025198320086
 31
0.0
  0
LINE
  5
1D3
330
1F
100
AcDbEntity
  8
OBRYS
100
AcDbLine
 10
244.1259367756584
 20
192.4025198320086
 30
0.0
 11
244.1259367756584
 21
177.9025198320086
 31
0.0
  0
LINE
  5
1D4
330
1F
100
AcDbEntity
  8
OBRYS
100
AcDbLine
 10
239.1259367756585
 20
253.4025198320086
 30
0.0
 11
244.1259367756585
 21
253.4025198320086
 31
0.0
  0
LINE
  5
1D5
330
1F
100
AcDbEntity
  8
OBRYS
100
AcDbLine
 10
244.1259367756585
 20
253.4025198320086
 30
0.0
 11
244.1259367756585
 21
267.9025198320086
 31
0.0
  0
LINE
  5
1D6
330
1F
100
AcDbEntity
  8
OBRYS
100
AcDbLine
 10
270.6259367756582
 20
202.9025198320086
 30
0.0
 11
275.6259367756584
 21
202.9025198320086
 31
0.0
  0
LINE
  5
1D7
330
1F
100
AcDbEntity
  8
OBRYS
100
AcDbLine
 10
240.1259367756584
 20
177.9025198320086
 30
0.0
 11
275.6259367756584
 21
177.9025198320086
 31
0.0
  0
LINE
  5
1D8
330
1F
100
AcDbEntity
  8
OBRYS
100
AcDbLine
 10
275.6259367756584
 20
177.9025198320086
 30
0.0
 11
275.6259367756584
 21
202.9025198320086
 31
0.0
  0
LINE
  5
1D9
330
1F
100
AcDbEntity
  8
OBRYS
100
AcDbLine
 10
272.2844170095696
 20
202.9025198320086
 30
0.0
 11
272.2844170095696
 21
207.0232667118966
 31
0.0
  0
LINE
  5
1DA
330
1F
100
AcDbEntity
  8
OBRYS
100
AcDbLine
 10
272.2844170095696
 20
207.0232667118966
 30
0.0
 11
273.5895007412645
 21
207.0232667118966
 31
0.0
  0
LINE
  5
1DB
330
1F
100
AcDbEntity
  8
OBRYS
100
AcDbLine
 10
275.6259367756584
 20
202.9025198320086
 30
0.0
 11
275.6259367756584
 21
202.9025198320086
 31
0.0
  0
LINE
  5
1DC
330
1F
100
AcDbEntity
  8
OBRYS
100
AcDbLine
 10
275.6259367756584
 20
202.9025198320086
 30
0.0
 11
273.5895007412645
 21
207.0232667118966
 31
0.0
  0
LINE
  5
1DD
330
1F
100
AcDbEntity
  8
OBRYS
100
AcDbLine
 10
270.6259367756582
 20
242.9025198320086
 30
0.0
 11
273.1259367756584
 21
242.9025198320086
 31
0.0
  0
LINE
  5
1DE
330
1F
100
AcDbEntity
  8
OBRYS
100
AcDbLine
 10
273.1259367756584
 20
242.9025198320086
 30
0.0
 11
274.8915507624188
 21
241.1326025317495
 31
0.0
  0
LINE
  5
1DF
330
1F
100
AcDbEntity
  8
OBRYS
100
AcDbLine
 10
274.8915507624188
 20
241.1326025317495
 30
0.0
 11
275.6259367756584
 21
241.1326025317495
 31
0.0
  0
LINE
  5
1E0
330
1F
100
AcDbEntity
  8
OBRYS
100
AcDbLine
 10
240.1259367756584
 20
267.9025198320086
 30
0.0
 11
275.6259367756584
 21
267.9025198320086
 31
0.0
  0
LINE
  5
1E1
330
1F
100
AcDbEntity
  8
OBRYS
100
AcDbLine
 10
275.6259367756584
 20
267.9025198320086
 30
0.0
 11
275.6259367756584
 21
241.1326025317495
 31
0.0
  0
DIMENSION
  5
1E2
330
1F
100
AcDbEntity
  8
KOTY
100
AcDbDimension
  2
*D5
 10
207.6259367756583
 20
200.4025198320086
 30
0.0
 11
204.5919367756583
 21
222.9025198320086
 31
0.0
 70
    32
  3
STANDARD
100
AcDbAlignedDimension
 13
217.6259367756584
 23
245.4025198320086
 33
0.0
 14
217.6259367756584
 24
200.4025198320086
 34
0.0
 50
90.0
100
AcDbRotatedDimension
1001
ACAD
1000
DSTYLE
1002
{
1070
   271
1070
     0
1070
   278
1070
    44
1070
    73
1070
     0
1070
    77
1070
     1
1070
   140
1040
4.0
1070
   147
1040
1.0
1070
    41
1040
4.0
1002
}
  0
DIMENSION
  5
1E3
330
1F
100
AcDbEntity
  8
KOTY
100
AcDbDimension
  2
*D6
 10
197.7040808994112
 20
177.9025198320086
 30
0.0
 11
194.6620808994112
 21
222.9025198320086
 31
0.0
 70
    32
  3
STANDARD
100
AcDbAlignedDimension
 13
240.1259367756584
 23
267.9025198320086
 33
0.0
 14
240.1259367756584
 24
177.9025198320086
 34
0.0
 50
90.0
100
AcDbRotatedDimension
1001
ACAD
1000
DSTYLE
1002
{
1070
   271
1070
     0
1070
   278
1070
    44
1070
    73
1070
     0
1070
    77
1070
     1
1070
   140
1040
4.0
1070
   147
1040
1.0
1070
    41
1040
4.0
1002
}
  0
DIMENSION
  5
1E4
330
1F
100
AcDbEntity
  8
KOTY
100
AcDbDimension
  2
*D7
 10
217.6259367756584
 20
167.2795151151876
 30
0.0
 11
244.1259367756583
 21
170.3215151151876
 31
0.0
 70
    32
  3
STANDARD
100
AcDbAlignedDimension
 13
270.6259367756582
 23
202.9025198320086
 33
0.0
 14
217.6259367756584
 24
200.4025198320086
 34
0.0
100
AcDbRotatedDimension
1001
ACAD
1000
DSTYLE
1002
{
1070
   271
1070
     0
1070
   278
1070
    44
1070
    73
1070
     0
1070
    77
1070
     1
1070
   140
1040
4.0
1070
   147
1040
1.0
1070
    41
1040
4.0
1002
}
  0
LINE
  5
1E5
330
1F
100
AcDbEntity
  8
OBRYS
100
AcDbLine
 10
275.6259367756584
 20
177.9025198320086
 30
0.0
 11
275.6259367756584
 21
174.9025198320086
 31
0.0
  0
LINE
  5
1E6
330
1F
100
AcDbEntity
  8
OBRYS
100
AcDbLine
 10
272.2844170095696
 20
174.9025198320086
 30
0.0
 11
275.6259367756584
 21
174.9025198320086
 31
0.0
  0
LINE
  5
1E7
330
1F
100
AcDbEntity
  8
OBRYS
100
AcDbLine
 10
272.2844170095696
 20
174.9025198320086
 30
0.0
 11
272.2844170095696
 21
177.9025198320086
 31
0.0
  0
LWPOLYLINE
  5
1E8
330
1F
100
AcDbEntity
  8
OBRYS
100
AcDbPolyline
 90
        4
 70
     1
 43
0.0
 10
293.425569586283
 20
177.9025198320086
 10
311.425569586283
 20
177.9025198320086
 10
311.425569586283
 20
267.9025198320086
 10
293.425569586283
 20
267.9025198320086
  0
LINE
  5
1E9
330
1F
100
AcDbEntity
  8
OBRYS
100
AcDbLine
 10
311.425569586283
 20
253.4025198320086
 30
0.0
 11
293.425569586283
 21
253.4025198320086
 31
0.0
  0
LINE
  5
1EA
330
1F
100
AcDbEntity
  8
OBRYS
100
AcDbLine
 10
311.425569586283
 20
245.4025198320086
 30
0.0
 11
293.425569586283
 21
245.4025198320086
 31
0.0
  0
LINE
  5
1EB
330
1F
100
AcDbEntity
  8
OBRYS
100
AcDbLine
 10
311.425569586283
 20
200.4025198320086
 30
0.0
 11
293.425569586283
 21
200.4025198320086
 31
0.0
  0
LINE
  5
1EC
330
1F
100
AcDbEntity
  8
OBRYS
100
AcDbLine
 10
311.425569586283
 20
192.4025198320086
 30
0.0
 11
293.425569586283
 21
192.4025198320086
 31
0.0
  0
LWPOLYLINE
  5
1ED
330
1F
100
AcDbEntity
  8
OBRYS
100
AcDbPolyline
 90
        4
 70
     1
 43
0.0
 10
294.9599059249854
 20
202.8011023371324
 10
309.9599059249854
 20
202.8011023371324
 10
309.9599059249854
 20
242.8011023371325
 10
294.9599059249854
 20
242.8011023371325
  0
LINE
  5
1EE
330
1F
100
AcDbEntity
  8
OBRYS
100
AcDbLine
 10
299.425569586283
 20
177.9025198320086
 30
0.0
 11
299.425569586283
 21
174.9025198320086
 31
0.0
  0
LINE
  5
1EF
330
1F
100
AcDbEntity
  8
OBRYS
100
AcDbLine
 10
299.425569586283
 20
174.9025198320086
 30
0.0
 11
305.425569586283
 21
174.9025198320086
 31
0.0
  0
LINE
  5
1F0
330
1F
100
AcDbEntity
  8
OBRYS
100
AcDbLine
 10
305.425569586283
 20
174.9025198320086
 30
0.0
 11
305.425569586283
 21
177.9025198320086
 31
0.0
  0
LINE
  5
1F1
330
1F
100
AcDbEntity
  8
OBRYS
100
AcDbLine
 10
300.425569586283
 20
177.9025198320086
 30
0.0
 11
300.425569586283
 21
175.9025198320086
 31
0.0
  0
LINE
  5
1F2
330
1F
100
AcDbEntity
  8
OBRYS
100
AcDbLine
 10
300.425569586283
 20
175.9025198320086
 30
0.0
 11
304.425569586283
 21
175.9025198320086
 31
0.0
  0
LINE
  5
1F3
330
1F
100
AcDbEntity
  8
OBRYS
100
AcDbLine
 10
304.425569586283
 20
175.9025198320086
 30
0.0
 11
304.425569586283
 21
177.9025198320086
 31
0.0
  0
DIMENSION
  5
1F4
330
1F
100
AcDbEntity
  8
KOTY
100
AcDbDimension
  2
*D8
 10
311.425569586283
 20
167.2795151151876
 30
0.0
 11
302.425569586283
 21
170.3215151151876
 31
0.0
 70
    32
  3
STANDARD
100
AcDbAlignedDimension
 13
293.425569586283
 23
177.9025198320086
 33
0.0
 14
311.425569586283
 24
177.9025198320086
 34
0.0
100
AcDbRotatedDimension
1001
ACAD
1000
DSTYLE
1002
{
1070
   271
1070
     0
1070
   278
1070
    44
1070
    73
1070
     0
1070
    77
1070
     1
1070
   140
1040
4.0
1070
   147
1040
1.0
1070
    41
1040
4.0
1002
}
  0
CIRCLE
  5
1F5
330
1F
100
AcDbEntity
  8
OBRYS
100
AcDbCircle
 10
302.4418203619671
 20
260.0165071508126
 30
0.0
 40
2.5
  0
CIRCLE
  5
1F6
330
1F
100
AcDbEntity
  8
OBRYS
100
AcDbCircle
 10
308.4418203619669
 20
260.0165071508126
 30
0.0
 40
2.5
  0
CIRCLE
  5
1F7
330
1F
100
AcDbEntity
  8
OBRYS
100
AcDbCircle
 10
296.4418203619669
 20
260.0165071508126
 30
0.0
 40
2.5
  0
CIRCLE
  5
1F8
330
1F
100
AcDbEntity
  8
OBRYS
100
AcDbCircle
 10
302.4883722671314
 20
186.0079635024976
 30
0.0
 40
2.5
  0
CIRCLE
  5
1F9
330
1F
100
AcDbEntity
  8
OBRYS
100
AcDbCircle
 10
308.4883722671312
 20
186.0079635024976
 30
0.0
 40
2.5
  0
CIRCLE
  5
1FA
330
1F
100
AcDbEntity
  8
OBRYS
100
AcDbCircle
 10
296.4883722671312
 20
186.0079635024976
 30
0.0
 40
2.5
  0
LINE
  5
1FB
330
1F
100
AcDbEntity
  8
OBRYS
100
AcDbLine
 10
293.9923306191839
 20
260.5165071508126
 30
0.0
 11
298.8913101047502
 21
260.5165071508126
 31
0.0
  0
LINE
  5
1FC
330
1F
100
AcDbEntity
  8
OBRYS
100
AcDbLine
 10
293.9923306191839
 20
259.5165071508126
 30
0.0
 11
298.8913101047502
 21
259.5165071508126
 31
0.0
  0
LINE
  5
1FD
330
1F
100
AcDbEntity
  8
OBRYS
100
AcDbLine
 10
299.9923306191839
 20
260.5165071508126
 30
0.0
 11
304.8913101047502
 21
260.5165071508126
 31
0.0
  0
LINE
  5
1FE
330
1F
100
AcDbEntity
  8
OBRYS
100
AcDbLine
 10
299.9923306191839
 20
259.5165071508126
 30
0.0
 11
304.8913101047502
 21
259.5165071508126
 31
0.0
  0
LINE
  5
1FF
330
1F
100
AcDbEntity
  8
OBRYS
100
AcDbLine
 10
305.9923306191839
 20
260.5165071508126
 30
0.0
 11
310.8913101047502
 21
260.5165071508126
 31
0.0
  0
LINE
  5
200
330
1F
100
AcDbEntity
  8
OBRYS
100
AcDbLine
 10
305.9923306191839
 20
259.5165071508126
 30
0.0
 11
310.8913101047502
 21
259.5165071508126
 31
0.0
  0
LINE
  5
201
330
1F
100
AcDbEntity
  8
OBRYS
100
AcDbLine
 10
294.0388825243481
 20
186.5079635024976
 30
0.0
 11
298.9378620099145
 21
186.5079635024976
 31
0.0
  0
LINE
  5
202
330
1F
100
AcDbEntity
  8
OBRYS
100
AcDbLine
 10
294.0388825243482
 20
185.5079635024967
 30
0.0
 11
298.9378620099145
 21
185.5079635024967
 31
0.0
  0
LINE
  5
203
330
1F
100
AcDbEntity
  8
OBRYS
100
AcDbLine
 10
300.0388825243482
 20
186.5079635024976
 30
0.0
 11
304.9378620099145
 21
186.5079635024976
 31
0.0
  0
LINE
  5
204
330
1F
100
AcDbEntity
  8
OBRYS
100
AcDbLine
 10
300.0388825243482
 20
185.5079635024967
 30
0.0
 11
304.9378620099145
 21
185.5079635024967
 31
0.0
  0
LINE
  5
205
330
1F
100
AcDbEntity
  8
OBRYS
100
AcDbLine
 10
306.0388825243482
 20
186.5079635024976
 30
0.0
 11
310.9378620099145
 21
186.5079635024976
 31
0.0
  0
LINE
  5
206
330
1F
100
AcDbEntity
  8
OBRYS
100
AcDbLine
 10
306.0388825243482
 20
185.5079635024967
 30
0.0
 11
310.9378620099145
 21
185.5079635024967
 31
0.0
  0
MTEXT
  5
207
330
1F
100
AcDbEntity
  8
POTISK
100
AcDbMText
 10
295.247186478848
 20
250.0502862904996
 30
0.0
 40
0.2
 41
1.083639560439565
 71
     1
 72
     1
  1
{\H8.75x;a}
1001
ACAD
1000
ACAD_MTEXT_DEFINED_HEIGHT_BEGIN
1070
    46
1040
1.75
1000
ACAD_MTEXT_DEFINED_HEIGHT_END
  0
MTEXT
  5
208
330
1F
100
AcDbEntity
  8
POTISK
100
AcDbMText
 10
296.5939833314804
 20
248.950628893807
 30
0.0
 40
0.2
 41
1.138927293115074
 71
     1
 72
     1
  1
{\H5x;1}
1001
ACAD
1000
ACAD_MTEXT_DEFINED_HEIGHT_BEGIN
1070
    46
1040
1.0
1000
ACAD_MTEXT_DEFINED_HEIGHT_END
  0
MTEXT
  5
209
330
1F
100
AcDbEntity
  8
POTISK
100
AcDbMText
 10
307.1884469932152
 20
250.0502862904996
 30
0.0
 40
2.0
 41
1.083639560439565
 71
     1
 72
     1
  1
{b}
1001
ACAD
1000
ACAD_MTEXT_DEFINED_HEIGHT_BEGIN
1070
    46
1040
2.0
1000
ACAD_MTEXT_DEFINED_HEIGHT_END
  0
MTEXT
  5
20A
330
1F
100
AcDbEntity
  8
POTISK
100
AcDbMText
 10
308.6231398941285
 20
248.963369289861
 30
0.0
 40
0.2
 41
1.138927293115074
 71
     1
 72
     1
  1
{\H5x;1}
1001
ACAD
1000
ACAD_MTEXT_DEFINED_HEIGHT_BEGIN
1070
    46
1040
1.0
1000
ACAD_MTEXT_DEFINED_HEIGHT_END
  0
MTEXT
  5
20B
330
1F
100
AcDbEntity
  8
POTISK
100
AcDbMText
 10
301.1850031049698
 20
250.0502862904996
 30
0.0
 40
0.2
 41
2.616502747252753
 71
     1
 72
     1
  1
{\H10x;PE}
1001
ACAD
1000
ACAD_MTEXT_DEFINED_HEIGHT_BEGIN
1070
    46
1040
2.0
1000
ACAD_MTEXT_DEFINED_HEIGHT_END
  0
MTEXT
  5
20C
330
1F
100
AcDbEntity
  8
POTISK
100
AcDbMText
 10
295.247186478848
 20
197.2604860090399
 30
0.0
 40
0.2
 41
1.083639560439565
 71
     1
 72
     1
  1
{\H8.75x;a}
1001
ACAD
1000
ACAD_MTEXT_DEFINED_HEIGHT_BEGIN
1070
    46
1040
1.75
1000
ACAD_MTEXT_DEFINED_HEIGHT_END
  0
MTEXT
  5
20D
330
1F
100
AcDbEntity
  8
POTISK
100
AcDbMText
 10
296.5939833314804
 20
196.1608286123473
 30
0.0
 40
0.2
 41
1.138927293115074
 71
     1
 72
     1
  1
{\H5x;2}
1001
ACAD
1000
ACAD_MTEXT_DEFINED_HEIGHT_BEGIN
1070
    46
1040
1.0
1000
ACAD_MTEXT_DEFINED_HEIGHT_END
  0
MTEXT
  5
20E
330
1F
100
AcDbEntity
  8
POTISK
100
AcDbMText
 10
307.1884469932152
 20
197.2604860090399
 30
0.0
 40
2.0
 41
1.083639560439565
 71
     1
 72
     1
  1
{b}
1001
ACAD
1000
ACAD_MTEXT_DEFINED_HEIGHT_BEGIN
1070
    46
1040
2.0
1000
ACAD_MTEXT_DEFINED_HEIGHT_END
  0
MTEXT
  5
20F
330
1F
100
AcDbEntity
  8
POTISK
100
AcDbMText
 10
308.6231398941285
 20
196.1735690084013
 30
0.0
 40
0.2
 41
1.138927293115074
 71
     1
 72
     1
  1
{\H5x;2}
1001
ACAD
1000
ACAD_MTEXT_DEFINED_HEIGHT_BEGIN
1070
    46
1040
1.0
1000
ACAD_MTEXT_DEFINED_HEIGHT_END
  0
MTEXT
  5
210
330
1F
100
AcDbEntity
  8
POTISK
100
AcDbMText
 10
301.1850031049698
 20
197.2604860090399
 30
0.0
 40
0.2
 41
2.616502747252753
 71
     1
 72
     1
  1
{\H10x;PE}
1001
ACAD
1000
ACAD_MTEXT_DEFINED_HEIGHT_BEGIN
1070
    46
1040
2.0
1000
ACAD_MTEXT_DEFINED_HEIGHT_END
  0
VIEWPORT
  5
2AF
330
2AB
100
AcDbEntity
 67
     1
  8
0
100
AcDbViewport
 10
5.25
 20
4.0
 30
0.0
 40
12.6
 41
9.6
 68
     1
 69
     1
1001
ACAD
1000
MVIEW
1002
{
1070
    16
1010
0.0
1020
0.0
1030
0.0
1010
0.0
1020
0.0
1030
1.0
1040
0.0
1040
9.6
1040
5.25
1040
4.0
1040
50.0
1040
0.0
1040
0.0
1070
     0
1070
   100
1070
     0
1070
     3
1070
     0
1070
     0
1070
     0
1070
     0
1040
0.0
1040
0.0
1040
0.0
1040
0.5
1040
0.5
1040
0.0
1040
0.0
1070
     0
1002
{
1002
}
1002
}
  0
VIEWPORT
  5
2B0
330
2AB
100
AcDbEntity
 67
     1
  8
0
100
AcDbViewport
 10
5.25
 20
4.0
 30
0.0
 40
8.4
 41
6.4
 68
     2
 69
     2
1001
ACAD
1000
MVIEW
1002
{
1070
    16
1010
0.0
1020
0.0
1030
0.0
1010
0.0
1020
0.0
1030
1.0
1040
0.0
1040
103.3154648111574
1040
252.0188252428471
1040
217.2576841402648
1040
50.0
1040
0.0
1040
0.0
1070
     0
1070
   100
1070
     0
1070
     3
1070
     0
1070
     0
1070
     0
1070
     0
1040
0.0
1040
0.0
1040
0.0
1040
0.5
1040
0.5
1040
0.0
1040
0.0
1070
     0
1002
{
1002
}
1002
}
  0
ENDSEC
  0
SECTION
  2
OBJECTS
  0
DICTIONARY
  5
C
330
0
100
AcDbDictionary
  3
ACAD_DETAILVIEWSTYLE
350
122
  3
ACAD_GROUP
350
D
  3
ACAD_IMAGE_VARS
350
DC
  3
ACAD_MLINESTYLE
350
17
  3
ACAD_SCALELIST
350
263
  3
ACAD_SECTIONVIEWSTYLE
350
123
  3
ACDBVARIABLEDICTIONARY
350
66
  3
APPDATA
350
E1
  3
DWGPROPS
350
2B2
  0
DICTIONARY
  5
241
330
2
100
AcDbDictionary
280
     1
  3
ACAD_LAYERSTATES
360
242
  3
ACLYDICTIONARY
360
24C
  0
DICTIONARY
  5
122
102
{ACAD_REACTORS
330
C
102
}
330
C
100
AcDbDictionary
  0
DICTIONARY
  5
D
102
{ACAD_REACTORS
330
C
102
}
330
C
100
AcDbDictionary
  0
RASTERVARIABLES
  5
DC
102
{ACAD_REACTORS
330
C
102
}
330
C
100
AcDbRasterVariables
 90
        0
 70
     1
 71
     1
 72
     5
  0
DICTIONARY
  5
17
102
{ACAD_REACTORS
330
C
102
}
330
C
100
AcDbDictionary
  3
STANDARD
350
18
  0
DICTIONARY
  5
263
102
{ACAD_REACTORS
330
C
102
}
330
C
100
AcDbDictionary
  0
DICTIONARY
  5
123
102
{ACAD_REACTORS
330
C
102
}
330
C
100
AcDbDictionary
  0
DICTIONARY
  5
66
102
{ACAD_REACTORS
330
C
102
}
330
C
100
AcDbDictionary
  3
DIMASSOC
350
67
  3
HIDETEXT
350
6B
  0
DICTIONARY
  5
E1
102
{ACAD_REACTORS
330
C
102
}
330
C
100
AcDbDictionary
  0
XRECORD
  5
2B2
102
{ACAD_REACTORS
330
C
102
}
330
C
100
AcDbXrecord
  1
DWGPROPS COOKIE
  2

  3

  4

  6

  7

  8
jaromir.podrabsky
  9

300
=
301
=
302
=
303
=
304
=
305
=
306
=
307
=
308
=
309
=
 40
0.0
 41
2452643.063384259
 42
2456765.236034688
  1

 90
        0
  0
DICTIONARY
  5
242
102
{ACAD_REACTORS
330
241
102
}
330
241
100
AcDbDictionary
  0
DICTIONARY
  5
24C
102
{ACAD_REACTORS
330
241
102
}
330
241
100
AcDbDictionary
1001
ACAD
1000
<All
  0
MLINESTYLE
  5
18
102
{ACAD_REACTORS
330
17
102
}
330
17
100
AcDbMlineStyle
  2
STANDARD
 70
     0
  3

 62
   256
 51
90.0
 52
90.0
 71
     2
 49
0.5
 62
   256
  6
BYLAYER
 49
-0.5
 62
   256
  6
BYLAYER
  0
DICTIONARYVAR
  5
67
102
{ACAD_REACTORS
330
66
102
}
330
66
100
DictionaryVariables
280
     0
  1
2
  0
DICTIONARYVAR
  5
6B
102
{ACAD_REACTORS
330
66
102
}
330
66
100
DictionaryVariables
280
     0
  1
1
  0
ENDSEC
  0
EOF
