  0
SECTION
  2
HEADER
  9
$ACADVER
  1
AC1014
  9
$ACADMAINTVER
 70
     9
  9
$DWGCODEPAGE
  3
ANSI_1250
  9
$INSBASE
 10
0.0
 20
0.0
 30
0.0
  9
$EXTMIN
 10
71.06806266466255
 20
96.99212292919565
 30
0.0
  9
$EXTMAX
 10
214.0134997591791
 20
203.0106598114841
 30
0.0
  9
$LIMMIN
 10
0.0
 20
0.0
  9
$LIMMAX
 10
12.0
 20
9.0
  9
$ORTHOMODE
 70
     0
  9
$REGENMODE
 70
     1
  9
$FILLMODE
 70
     1
  9
$QTEXTMODE
 70
     0
  9
$MIRRTEXT
 70
     0
  9
$DRAGMODE
 70
     2
  9
$LTSCALE
 40
1.0
  9
$OSMODE
 70
 15359
  9
$ATTMODE
 70
     1
  9
$TEXTSIZE
 40
0.2
  9
$TRACEWID
 40
0.05
  9
$TEXTSTYLE
  7
STANDARD
  9
$CLAYER
  8
KOTY
  9
$CELTYPE
  6
BYLAYER
  9
$CECOLOR
 62
   256
  9
$CELTSCALE
 40
1.0
  9
$DELOBJ
 70
     1
  9
$DISPSILH
 70
     0
  9
$DIMSCALE
 40
1.0
  9
$DIMASZ
 40
0.18
  9
$DIMEXO
 40
0.0625
  9
$DIMDLI
 40
0.38
  9
$DIMRND
 40
0.0
  9
$DIMDLE
 40
0.0
  9
$DIMEXE
 40
0.18
  9
$DIMTP
 40
0.0
  9
$DIMTM
 40
0.0
  9
$DIMTXT
 40
0.18
  9
$DIMCEN
 40
0.09
  9
$DIMTSZ
 40
0.0
  9
$DIMTOL
 70
     0
  9
$DIMLIM
 70
     0
  9
$DIMTIH
 70
     1
  9
$DIMTOH
 70
     1
  9
$DIMSE1
 70
     0
  9
$DIMSE2
 70
     0
  9
$DIMTAD
 70
     0
  9
$DIMZIN
 70
     0
  9
$DIMBLK
  1

  9
$DIMASO
 70
     1
  9
$DIMSHO
 70
     1
  9
$DIMPOST
  1

  9
$DIMAPOST
  1

  9
$DIMALT
 70
     0
  9
$DIMALTD
 70
     2
  9
$DIMALTF
 40
25.4
  9
$DIMLFAC
 40
1.0
  9
$DIMTOFL
 70
     0
  9
$DIMTVP
 40
0.0
  9
$DIMTIX
 70
     0
  9
$DIMSOXD
 70
     0
  9
$DIMSAH
 70
     0
  9
$DIMBLK1
  1

  9
$DIMBLK2
  1

  9
$DIMSTYLE
  2
STANDARD
  9
$DIMCLRD
 70
     0
  9
$DIMCLRE
 70
     0
  9
$DIMCLRT
 70
     0
  9
$DIMTFAC
 40
1.0
  9
$DIMGAP
 40
0.09
  9
$DIMJUST
 70
     0
  9
$DIMSD1
 70
     0
  9
$DIMSD2
 70
     0
  9
$DIMTOLJ
 70
     1
  9
$DIMTZIN
 70
     0
  9
$DIMALTZ
 70
     0
  9
$DIMALTTZ
 70
     0
  9
$DIMFIT
 70
     5
  9
$DIMUPT
 70
     0
  9
$DIMUNIT
 70
     2
  9
$DIMDEC
 70
     4
  9
$DIMTDEC
 70
     4
  9
$DIMALTU
 70
     2
  9
$DIMALTTD
 70
     2
  9
$DIMTXSTY
  7
STANDARD
  9
$DIMAUNIT
 70
     0
  9
$LUNITS
 70
     2
  9
$LUPREC
 70
     4
  9
$SKETCHINC
 40
0.1
  9
$FILLETRAD
 40
0.0
  9
$AUNITS
 70
     0
  9
$AUPREC
 70
     0
  9
$MENU
  1
.
  9
$ELEVATION
 40
0.0
  9
$PELEVATION
 40
0.0
  9
$THICKNESS
 40
0.0
  9
$LIMCHECK
 70
     0
  9
$CHAMFERA
 40
0.0
  9
$CHAMFERB
 40
0.0
  9
$CHAMFERC
 40
0.0
  9
$CHAMFERD
 40
0.0
  9
$SKPOLY
 70
     0
  9
$TDCREATE
 40
2452643.105050926
  9
$TDUPDATE
 40
2456738.39005838
  9
$TDINDWG
 40
0.0504541088
  9
$TDUSRTIMER
 40
2456738.344070266
  9
$USRTIMER
 70
     1
  9
$ANGBASE
 50
0.0
  9
$ANGDIR
 70
     0
  9
$PDMODE
 70
     0
  9
$PDSIZE
 40
0.0
  9
$PLINEWID
 40
0.0
  9
$COORDS
 70
     2
  9
$SPLFRAME
 70
     0
  9
$SPLINETYPE
 70
     6
  9
$SPLINESEGS
 70
     8
  9
$ATTDIA
 70
     0
  9
$ATTREQ
 70
     1
  9
$HANDLING
 70
     1
  9
$HANDSEED
  5
4E0
  9
$SURFTAB1
 70
     6
  9
$SURFTAB2
 70
     6
  9
$SURFTYPE
 70
     6
  9
$SURFU
 70
     6
  9
$SURFV
 70
     6
  9
$UCSNAME
  2

  9
$UCSORG
 10
0.0
 20
0.0
 30
0.0
  9
$UCSXDIR
 10
1.0
 20
0.0
 30
0.0
  9
$UCSYDIR
 10
0.0
 20
1.0
 30
0.0
  9
$PUCSNAME
  2

  9
$PUCSORG
 10
0.0
 20
0.0
 30
0.0
  9
$PUCSXDIR
 10
1.0
 20
0.0
 30
0.0
  9
$PUCSYDIR
 10
0.0
 20
1.0
 30
0.0
  9
$USERI1
 70
     0
  9
$USERI2
 70
     0
  9
$USERI3
 70
     0
  9
$USERI4
 70
     0
  9
$USERI5
 70
     0
  9
$USERR1
 40
0.0
  9
$USERR2
 40
0.0
  9
$USERR3
 40
0.0
  9
$USERR4
 40
0.0
  9
$USERR5
 40
0.0
  9
$WORLDVIEW
 70
     1
  9
$SHADEDGE
 70
     3
  9
$SHADEDIF
 70
    70
  9
$TILEMODE
 70
     0
  9
$MAXACTVP
 70
    64
  9
$PINSBASE
 10
0.0
 20
0.0
 30
0.0
  9
$PLIMCHECK
 70
     0
  9
$PEXTMIN
 10
1.05
 20
0.7999999999999998
 30
0.0
  9
$PEXTMAX
 10
9.45
 20
7.2
 30
0.0
  9
$PLIMMIN
 10
0.8500000000000006
 20
0.5999999999999998
  9
$PLIMMAX
 10
9.650000000000002
 20
7.4
  9
$UNITMODE
 70
     0
  9
$VISRETAIN
 70
     1
  9
$PLINEGEN
 70
     0
  9
$PSLTSCALE
 70
     1
  9
$TREEDEPTH
 70
  3020
  9
$PICKSTYLE
 70
     0
  9
$CMLSTYLE
  2
STANDARD
  9
$CMLJUST
 70
     0
  9
$CMLSCALE
 40
1.0
  9
$PROXYGRAPHICS
 70
     1
  9
$MEASUREMENT
 70
     0
  0
ENDSEC
  0
SECTION
  2
CLASSES
  0
CLASS
  1
ACDBDICTIONARYWDFLT
  2
AcDbDictionaryWithDefault
  3
ObjectDBX Classes
 90
        0
280
     0
281
     0
  0
CLASS
  1
ACDBPLACEHOLDER
  2
AcDbPlaceHolder
  3
ObjectDBX Classes
 90
        0
280
     0
281
     0
  0
CLASS
  1
LAYOUT
  2
AcDbLayout
  3
ObjectDBX Classes
 90
        0
280
     0
281
     0
  0
CLASS
  1
DICTIONARYVAR
  2
AcDbDictionaryVar
  3
ObjectDBX Classes
 90
        0
280
     0
281
     0
  0
CLASS
  1
TABLESTYLE
  2
AcDbTableStyle
  3
ObjectDBX Classes
 90
     4095
280
     0
281
     0
  0
CLASS
  1
MATERIAL
  2
AcDbMaterial
  3
ObjectDBX Classes
 90
     1153
280
     0
281
     0
  0
CLASS
  1
VISUALSTYLE
  2
AcDbVisualStyle
  3
ObjectDBX Classes
 90
     4095
280
     0
281
     0
  0
CLASS
  1
SCALE
  2
AcDbScale
  3
ObjectDBX Classes
 90
     1153
280
     0
281
     0
  0
CLASS
  1
CELLSTYLEMAP
  2
AcDbCellStyleMap
  3
ObjectDBX Classes
 90
     1152
280
     0
281
     0
  0
CLASS
  1
RASTERVARIABLES
  2
AcDbRasterVariables
  3
ISM
 90
        0
280
     0
281
     0
  0
CLASS
  1
SUN
  2
AcDbSun
  3
SCENEOE
 90
     1153
280
     0
281
     0
  0
CLASS
  1
DIMASSOC
  2
AcDbDimAssoc
  3
"AcDbDimAssoc|Product Desc:     AcDim ARX App For Dimension|Company:          Autodesk, Inc.|WEB Address:      www.autodesk.com"
 90
        0
280
     0
281
     0
  0
CLASS
  1
XRECORD
  2
AcDbXrecord
  3
ObjectDBX Classes
 90
        0
280
     0
281
     0
  0
CLASS
  1
LWPOLYLINE
  2
AcDbPolyline
  3
ObjectDBX Classes
 90
        0
280
     0
281
     1
  0
CLASS
  1
HATCH
  2
AcDbHatch
  3
ObjectDBX Classes
 90
        0
280
     0
281
     1
  0
ENDSEC
  0
SECTION
  2
TABLES
  0
TABLE
  2
VPORT
  5
8
330
0
100
AcDbSymbolTable
 70
     1
  0
VPORT
  5
94
330
8
100
AcDbSymbolTableRecord
100
AcDbViewportTableRecord
  2
*ACTIVE
 70
     0
 10
0.0
 20
0.0
 11
1.0
 21
1.0
 12
183.7757668612429
 22
180.5501504209388
 13
0.0
 23
0.0
 14
0.5
 24
0.5
 15
0.5
 25
0.5
 16
0.0
 26
0.0
 36
1.0
 17
-27.66959356597965
 27
-19.53870295786191
 37
0.0
 40
142.8461046651946
 41
1.267252195734003
 42
50.0
 43
0.0
 44
0.0
 50
0.0
 51
0.0
 71
    16
 72
  1000
 73
     1
 74
     3
 75
     0
 76
     0
 77
     0
 78
     0
  0
ENDTAB
  0
TABLE
  2
LTYPE
  5
5
330
0
100
AcDbSymbolTable
 70
     1
  0
LTYPE
  5
14
330
5
100
AcDbSymbolTableRecord
100
AcDbLinetypeTableRecord
  2
BYBLOCK
 70
     0
  3

 72
    65
 73
     0
 40
0.0
  0
LTYPE
  5
15
330
5
100
AcDbSymbolTableRecord
100
AcDbLinetypeTableRecord
  2
BYLAYER
 70
     0
  3
Solid line
 72
    65
 73
     0
 40
0.0
  0
LTYPE
  5
16
330
5
100
AcDbSymbolTableRecord
100
AcDbLinetypeTableRecord
  2
CONTINUOUS
 70
     0
  3
Solid line
 72
    65
 73
     0
 40
0.0
  0
ENDTAB
  0
TABLE
  2
LAYER
  5
2
102
{ACAD_XDICTIONARY
360
248
102
}
330
0
100
AcDbSymbolTable
 70
     4
  0
LAYER
  5
10
330
2
100
AcDbSymbolTableRecord
100
AcDbLayerTableRecord
  2
0
 70
     0
 62
     7
  6
CONTINUOUS
  0
LAYER
  5
125
330
2
100
AcDbSymbolTableRecord
100
AcDbLayerTableRecord
  2
KOTY
 70
     0
 62
     1
  6
CONTINUOUS
  0
LAYER
  5
127
330
2
100
AcDbSymbolTableRecord
100
AcDbLayerTableRecord
  2
OBRYS
 70
     0
 62
     5
  6
CONTINUOUS
  0
LAYER
  5
253
330
2
100
AcDbSymbolTableRecord
100
AcDbLayerTableRecord
  2
DEFPOINTS
 70
     0
 62
     7
  6
CONTINUOUS
  0
ENDTAB
  0
TABLE
  2
STYLE
  5
3
330
0
100
AcDbSymbolTable
 70
     1
  0
STYLE
  5
11
330
3
100
AcDbSymbolTableRecord
100
AcDbTextStyleTableRecord
  2
STANDARD
 70
     0
 40
0.0
 41
1.0
 50
0.0
 71
     0
 42
0.2
  3
arial.ttf
  4

1001
ACAD
1000
Arial
1071
        0
  0
ENDTAB
  0
TABLE
  2
VIEW
  5
6
330
0
100
AcDbSymbolTable
 70
     0
  0
ENDTAB
  0
TABLE
  2
UCS
  5
7
330
0
100
AcDbSymbolTable
 70
     0
  0
ENDTAB
  0
TABLE
  2
APPID
  5
9
330
0
100
AcDbSymbolTable
 70
     1
  0
APPID
  5
12
330
9
100
AcDbSymbolTableRecord
100
AcDbRegAppTableRecord
  2
ACAD
 70
     0
  0
ENDTAB
  0
TABLE
  2
DIMSTYLE
  5
A
330
0
100
AcDbSymbolTable
 70
     2
  0
DIMSTYLE
105
27
102
{ACAD_REACTORS
330
254
330
267
330
277
330
287
102
}
330
A
100
AcDbSymbolTableRecord
100
AcDbDimStyleTableRecord
  2
STANDARD
 70
     0
  3

  4

  5

  6

  7

 40
1.0
 41
0.18
 42
0.0625
 43
0.38
 44
0.18
 45
0.0
 46
0.0
 47
0.0
 48
0.0
140
0.18
141
0.09
142
0.0
143
25.4
144
1.0
145
0.0
146
1.0
147
0.09
 71
     0
 72
     0
 73
     1
 74
     1
 75
     0
 76
     0
 77
     0
 78
     0
170
     0
171
     2
172
     0
173
     0
174
     0
175
     0
176
     0
177
     0
178
     0
270
     2
271
     4
272
     4
273
     2
274
     2
340
11
275
     0
280
     0
281
     0
282
     0
283
     1
284
     0
285
     0
286
     0
287
     3
288
     0
  0
DIMSTYLE
105
128
330
A
100
AcDbSymbolTableRecord
100
AcDbDimStyleTableRecord
  2
ISO-25
 70
     0
  3

  4

  5

  6

  7

 40
1.0
 41
6.0
 42
0.0
 43
3.75
 44
1.25
 45
0.0
 46
0.0
 47
0.0
 48
0.0
140
3.0
141
2.5
142
0.0
143
0.03937007874016
144
1.0
145
0.0
146
1.0
147
0.625
 71
     0
 72
     0
 73
     0
 74
     1
 75
     0
 76
     0
 77
     1
 78
     8
170
     0
171
     3
172
     1
173
     0
174
     0
175
     0
176
     5
177
     5
178
     5
270
     2
271
     4
272
     4
273
     2
274
     2
340
11
275
     0
280
     0
281
     0
282
     0
283
     1
284
     0
285
     0
286
     0
287
     3
288
     0
  0
ENDTAB
  0
TABLE
  2
BLOCK_RECORD
  5
1
330
0
100
AcDbSymbolTable
 70
    10
  0
BLOCK_RECORD
  5
1F
330
1
100
AcDbSymbolTableRecord
100
AcDbBlockTableRecord
  2
*MODEL_SPACE
  0
BLOCK_RECORD
  5
2BD
330
1
100
AcDbSymbolTableRecord
100
AcDbBlockTableRecord
  2
*PAPER_SPACE
  0
BLOCK_RECORD
  5
257
330
1
100
AcDbSymbolTableRecord
100
AcDbBlockTableRecord
  2
*D0
  0
BLOCK_RECORD
  5
26A
330
1
100
AcDbSymbolTableRecord
100
AcDbBlockTableRecord
  2
*D1
  0
BLOCK_RECORD
  5
27A
330
1
100
AcDbSymbolTableRecord
100
AcDbBlockTableRecord
  2
*D2
  0
BLOCK_RECORD
  5
28A
330
1
100
AcDbSymbolTableRecord
100
AcDbBlockTableRecord
  2
*D3
  0
BLOCK_RECORD
  5
297
330
1
100
AcDbSymbolTableRecord
100
AcDbBlockTableRecord
  2
_CLOSEDBLANK
  0
BLOCK_RECORD
  5
29D
330
1
100
AcDbSymbolTableRecord
100
AcDbBlockTableRecord
  2
_CLOSED
  0
BLOCK_RECORD
  5
2A4
330
1
100
AcDbSymbolTableRecord
100
AcDbBlockTableRecord
  2
_DOT
  0
BLOCK_RECORD
  5
2A9
330
1
100
AcDbSymbolTableRecord
100
AcDbBlockTableRecord
  2
_ARCHTICK
  0
BLOCK_RECORD
  5
2AD
330
1
100
AcDbSymbolTableRecord
100
AcDbBlockTableRecord
  2
_OBLIQUE
  0
BLOCK_RECORD
  5
2B1
330
1
100
AcDbSymbolTableRecord
100
AcDbBlockTableRecord
  2
_OPEN
  0
ENDTAB
  0
ENDSEC
  0
SECTION
  2
BLOCKS
  0
BLOCK
  5
20
330
1F
100
AcDbEntity
  8
0
100
AcDbBlockBegin
  2
*MODEL_SPACE
 70
     0
 10
0.0
 20
0.0
 30
0.0
  3
*MODEL_SPACE
  1

  0
ENDBLK
  5
21
330
1F
100
AcDbEntity
  8
0
100
AcDbBlockEnd
  0
BLOCK
  5
2BF
330
2BD
100
AcDbEntity
 67
     1
  8
0
100
AcDbBlockBegin
  2
*PAPER_SPACE
 70
     0
 10
0.0
 20
0.0
 30
0.0
  3
*PAPER_SPACE
  1

  0
ENDBLK
  5
2C0
330
2BD
100
AcDbEntity
 67
     1
  8
0
100
AcDbBlockEnd
  0
BLOCK
  5
258
330
257
100
AcDbEntity
  8
0
100
AcDbBlockBegin
  2
*D0
 70
     1
 10
0.0
 20
0.0
 30
0.0
  3
*D0
  1
*D1
  0
LINE
  5
25A
330
257
100
AcDbEntity
  8
KOTY
 62
     0
100
AcDbLine
 10
104.8791044413949
 20
180.5107411973171
 30
0.0
 11
92.31141876823838
 21
180.5107411973171
 31
0.0
  0
LINE
  5
25B
330
257
100
AcDbEntity
  8
KOTY
 62
     0
100
AcDbLine
 10
104.8791044413949
 20
135.5107317142101
 30
0.0
 11
92.31141876823838
 21
135.5107317142101
 31
0.0
  0
LINE
  5
25C
330
257
100
AcDbEntity
  8
KOTY
 62
     0
100
AcDbLine
 10
92.49141876823839
 20
176.5107411973171
 30
0.0
 11
92.49141876823839
 21
139.5107317142101
 31
0.0
  0
SOLID
  5
25D
330
257
100
AcDbEntity
  8
KOTY
 62
     0
100
AcDbTrace
 10
93.15808543490506
 20
176.5107411973171
 30
0.0
 11
91.82475210157172
 21
176.5107411973171
 31
0.0
 12
92.49141876823839
 22
180.5107411973171
 32
0.0
 13
92.49141876823839
 23
180.5107411973171
 33
0.0
  0
SOLID
  5
25E
330
257
100
AcDbEntity
  8
KOTY
 62
     0
100
AcDbTrace
 10
91.82475210157172
 20
139.5107317142101
 30
0.0
 11
93.15808543490506
 21
139.5107317142101
 31
0.0
 12
92.49141876823839
 22
135.5107317142101
 32
0.0
 13
92.49141876823839
 23
135.5107317142101
 33
0.0
  0
MTEXT
  5
25F
330
257
100
AcDbEntity
  8
KOTY
 62
     0
100
AcDbMText
 10
89.4574187682384
 20
158.0107364557636
 30
0.0
 40
4.0
 41
0.0
 71
     5
 72
     1
  1
\A1;45
 11
0.0
 21
1.0
 31
0.0
  0
POINT
  5
260
330
257
100
AcDbEntity
  8
DEFPOINTS
 62
     0
100
AcDbPoint
 10
104.9416044413949
 20
180.5107411973171
 30
0.0
  0
POINT
  5
261
330
257
100
AcDbEntity
  8
DEFPOINTS
 62
     0
100
AcDbPoint
 10
104.9416044413949
 20
135.5107317142101
 30
0.0
  0
POINT
  5
262
330
257
100
AcDbEntity
  8
DEFPOINTS
 62
     0
100
AcDbPoint
 10
92.49141876823839
 20
135.5107317142101
 30
0.0
  0
ENDBLK
  5
259
330
257
100
AcDbEntity
  8
0
100
AcDbBlockEnd
  0
BLOCK
  5
26B
330
26A
100
AcDbEntity
  8
0
100
AcDbBlockBegin
  2
*D1
 70
     1
 10
0.0
 20
0.0
 30
0.0
  3
*D1
  1
*D2
  0
LINE
  5
26D
330
26A
100
AcDbEntity
  8
KOTY
 62
     0
100
AcDbLine
 10
129.8791288492074
 20
203.0106598114841
 30
0.0
 11
75.98006266466257
 21
203.0106598114841
 31
0.0
  0
LINE
  5
26E
330
26A
100
AcDbEntity
  8
KOTY
 62
     0
100
AcDbLine
 10
129.8791288492074
 20
113.0108131000431
 30
0.0
 11
75.98006266466257
 21
113.0108131000431
 31
0.0
  0
LINE
  5
26F
330
26A
100
AcDbEntity
  8
KOTY
 62
     0
100
AcDbLine
 10
76.16006266466258
 20
199.0106598114841
 30
0.0
 11
76.16006266466258
 21
117.0108131000431
 31
0.0
  0
SOLID
  5
270
330
26A
100
AcDbEntity
  8
KOTY
 62
     0
100
AcDbTrace
 10
76.82672933132925
 20
199.0106598114841
 30
0.0
 11
75.4933959979959
 21
199.0106598114841
 31
0.0
 12
76.16006266466258
 22
203.0106598114841
 32
0.0
 13
76.16006266466258
 23
203.0106598114841
 33
0.0
  0
SOLID
  5
271
330
26A
100
AcDbEntity
  8
KOTY
 62
     0
100
AcDbTrace
 10
75.4933959979959
 20
117.0108131000431
 30
0.0
 11
76.82672933132925
 21
117.0108131000431
 31
0.0
 12
76.16006266466258
 22
113.0108131000431
 32
0.0
 13
76.16006266466258
 23
113.0108131000431
 33
0.0
  0
MTEXT
  5
272
330
26A
100
AcDbEntity
  8
KOTY
 62
     0
100
AcDbMText
 10
73.11806266466257
 20
158.0107364557636
 30
0.0
 40
4.0
 41
0.0
 71
     5
 72
     1
  1
\A1;90
 11
0.0
 21
1.0
 31
0.0
  0
POINT
  5
273
330
26A
100
AcDbEntity
  8
DEFPOINTS
 62
     0
100
AcDbPoint
 10
129.9416288492074
 20
203.0106598114841
 30
0.0
  0
POINT
  5
274
330
26A
100
AcDbEntity
  8
DEFPOINTS
 62
     0
100
AcDbPoint
 10
129.9416288492074
 20
113.0108131000431
 30
0.0
  0
POINT
  5
275
330
26A
100
AcDbEntity
  8
DEFPOINTS
 62
     0
100
AcDbPoint
 10
76.16006266466258
 20
113.0108131000431
 30
0.0
  0
ENDBLK
  5
26C
330
26A
100
AcDbEntity
  8
0
100
AcDbBlockEnd
  0
BLOCK
  5
27B
330
27A
100
AcDbEntity
  8
0
100
AcDbBlockBegin
  2
*D2
 70
     1
 10
0.0
 20
0.0
 30
0.0
  3
*D2
  1
*D3
  0
LINE
  5
27D
330
27A
100
AcDbEntity
  8
KOTY
 62
     0
100
AcDbLine
 10
178.487393535614
 20
112.9483131000431
 30
0.0
 11
178.487393535614
 21
97.47878959586231
 31
0.0
  0
LINE
  5
27E
330
27A
100
AcDbEntity
  8
KOTY
 62
     0
100
AcDbLine
 10
214.0364565227127
 20
112.9483131000431
 30
0.0
 11
214.0364565227127
 21
97.47878959586231
 31
0.0
  0
LINE
  5
27F
330
27A
100
AcDbEntity
  8
KOTY
 62
     0
100
AcDbLine
 10
182.487393535614
 20
97.65878959586232
 30
0.0
 11
210.0364565227127
 21
97.65878959586232
 31
0.0
  0
SOLID
  5
280
330
27A
100
AcDbEntity
  8
KOTY
 62
     0
100
AcDbTrace
 10
182.487393535614
 20
98.32545626252899
 30
0.0
 11
182.487393535614
 21
96.99212292919565
 31
0.0
 12
178.487393535614
 22
97.65878959586232
 32
0.0
 13
178.487393535614
 23
97.65878959586232
 33
0.0
  0
SOLID
  5
281
330
27A
100
AcDbEntity
  8
KOTY
 62
     0
100
AcDbTrace
 10
210.0364565227127
 20
96.99212292919565
 30
0.0
 11
210.0364565227127
 21
98.32545626252899
 31
0.0
 12
214.0364565227127
 22
97.65878959586232
 32
0.0
 13
214.0364565227127
 23
97.65878959586232
 33
0.0
  0
MTEXT
  5
282
330
27A
100
AcDbEntity
  8
KOTY
 62
     0
100
AcDbMText
 10
196.2619250291634
 20
100.7007895958623
 30
0.0
 40
4.0
 41
0.0
 71
     5
 72
     1
  1
\A1;36
  0
POINT
  5
283
330
27A
100
AcDbEntity
  8
DEFPOINTS
 62
     0
100
AcDbPoint
 10
178.487393535614
 20
113.0108131000431
 30
0.0
  0
POINT
  5
284
330
27A
100
AcDbEntity
  8
DEFPOINTS
 62
     0
100
AcDbPoint
 10
214.0364565227127
 20
113.0108131000431
 30
0.0
  0
POINT
  5
285
330
27A
100
AcDbEntity
  8
DEFPOINTS
 62
     0
100
AcDbPoint
 10
214.0364565227127
 20
97.65878959586232
 30
0.0
  0
ENDBLK
  5
27C
330
27A
100
AcDbEntity
  8
0
100
AcDbBlockEnd
  0
BLOCK
  5
28B
330
28A
100
AcDbEntity
  8
0
100
AcDbBlockBegin
  2
*D3
 70
     1
 10
0.0
 20
0.0
 30
0.0
  3
*D3
  1
*D4
  0
LINE
  5
28D
330
28A
100
AcDbEntity
  8
KOTY
 62
     0
100
AcDbLine
 10
104.9416044413949
 20
135.4482317142101
 30
0.0
 11
104.9416044413949
 21
97.47878959586231
 31
0.0
  0
LINE
  5
28E
330
28A
100
AcDbEntity
  8
KOTY
 62
     0
100
AcDbLine
 10
157.9416424055755
 20
139.9482154370432
 30
0.0
 11
157.9416424055755
 21
97.47878959586231
 31
0.0
  0
LINE
  5
28F
330
28A
100
AcDbEntity
  8
KOTY
 62
     0
100
AcDbLine
 10
108.9416044413949
 20
97.65878959586232
 30
0.0
 11
153.9416424055755
 21
97.65878959586232
 31
0.0
  0
SOLID
  5
290
330
28A
100
AcDbEntity
  8
KOTY
 62
     0
100
AcDbTrace
 10
108.9416044413949
 20
98.32545626252899
 30
0.0
 11
108.9416044413949
 21
96.99212292919565
 31
0.0
 12
104.9416044413949
 22
97.65878959586232
 32
0.0
 13
104.9416044413949
 23
97.65878959586232
 33
0.0
  0
SOLID
  5
291
330
28A
100
AcDbEntity
  8
KOTY
 62
     0
100
AcDbTrace
 10
153.9416424055755
 20
96.99212292919565
 30
0.0
 11
153.9416424055755
 21
98.32545626252899
 31
0.0
 12
157.9416424055755
 22
97.65878959586232
 32
0.0
 13
157.9416424055755
 23
97.65878959586232
 33
0.0
  0
MTEXT
  5
292
330
28A
100
AcDbEntity
  8
KOTY
 62
     0
100
AcDbMText
 10
131.4416234234852
 20
100.7007895958623
 30
0.0
 40
4.0
 41
0.0
 71
     5
 72
     1
  1
\A1;53
  0
POINT
  5
293
330
28A
100
AcDbEntity
  8
DEFPOINTS
 62
     0
100
AcDbPoint
 10
104.9416044413949
 20
135.5107317142101
 30
0.0
  0
POINT
  5
294
330
28A
100
AcDbEntity
  8
DEFPOINTS
 62
     0
100
AcDbPoint
 10
157.9416424055755
 20
140.0107154370432
 30
0.0
  0
POINT
  5
295
330
28A
100
AcDbEntity
  8
DEFPOINTS
 62
     0
100
AcDbPoint
 10
157.9416424055755
 20
97.65878959586232
 30
0.0
  0
ENDBLK
  5
28C
330
28A
100
AcDbEntity
  8
0
100
AcDbBlockEnd
  0
BLOCK
  5
298
330
297
100
AcDbEntity
  8
0
100
AcDbBlockBegin
  2
_CLOSEDBLANK
 70
     0
 10
0.0
 20
0.0
 30
0.0
  3
_CLOSEDBLANK
  1
_CLOSEDBLANK
  0
LINE
  5
29A
330
297
100
AcDbEntity
  8
0
  6
BYBLOCK
 62
     0
100
AcDbLine
 10
-1.0
 20
0.166667
 30
0.0
 11
0.0
 21
0.0
 31
0.0
  0
LINE
  5
29B
330
297
100
AcDbEntity
  8
0
  6
BYBLOCK
 62
     0
100
AcDbLine
 10
0.0
 20
0.0
 30
0.0
 11
-1.0
 21
-0.166667
 31
0.0
  0
LINE
  5
29C
330
297
100
AcDbEntity
  8
0
  6
BYBLOCK
 62
     0
100
AcDbLine
 10
-1.0
 20
0.166667
 30
0.0
 11
-1.0
 21
-0.166667
 31
0.0
  0
ENDBLK
  5
299
330
297
100
AcDbEntity
  8
0
100
AcDbBlockEnd
  0
BLOCK
  5
29E
330
29D
100
AcDbEntity
  8
0
100
AcDbBlockBegin
  2
_CLOSED
 70
     0
 10
0.0
 20
0.0
 30
0.0
  3
_CLOSED
  1
_CLOSED
  0
LINE
  5
2A0
330
29D
100
AcDbEntity
  8
0
  6
BYBLOCK
 62
     0
100
AcDbLine
 10
-1.0
 20
0.166667
 30
0.0
 11
0.0
 21
0.0
 31
0.0
  0
LINE
  5
2A1
330
29D
100
AcDbEntity
  8
0
  6
BYBLOCK
 62
     0
100
AcDbLine
 10
0.0
 20
0.0
 30
0.0
 11
-1.0
 21
-0.166667
 31
0.0
  0
LINE
  5
2A2
330
29D
100
AcDbEntity
  8
0
  6
BYBLOCK
 62
     0
100
AcDbLine
 10
-1.0
 20
0.166667
 30
0.0
 11
-1.0
 21
-0.166667
 31
0.0
  0
LINE
  5
2A3
330
29D
100
AcDbEntity
  8
0
  6
BYBLOCK
 62
     0
100
AcDbLine
 10
0.0
 20
0.0
 30
0.0
 11
-1.0
 21
0.0
 31
0.0
  0
ENDBLK
  5
29F
330
29D
100
AcDbEntity
  8
0
100
AcDbBlockEnd
  0
BLOCK
  5
2A5
330
2A4
100
AcDbEntity
  8
0
100
AcDbBlockBegin
  2
_DOT
 70
     0
 10
0.0
 20
0.0
 30
0.0
  3
_DOT
  1
_DOT
  0
LWPOLYLINE
  5
2A7
330
2A4
100
AcDbEntity
  8
0
  6
BYBLOCK
 62
     0
100
AcDbPolyline
 90
        2
 70
     1
 43
0.5
 10
-0.25
 20
0.0
 42
1.0
 10
0.25
 20
0.0
 42
1.0
  0
LINE
  5
2A8
330
2A4
100
AcDbEntity
  8
0
  6
BYBLOCK
 62
     0
100
AcDbLine
 10
-0.5
 20
0.0
 30
0.0
 11
-1.0
 21
0.0
 31
0.0
  0
ENDBLK
  5
2A6
330
2A4
100
AcDbEntity
  8
0
100
AcDbBlockEnd
  0
BLOCK
  5
2AA
330
2A9
100
AcDbEntity
  8
0
100
AcDbBlockBegin
  2
_ARCHTICK
 70
     0
 10
0.0
 20
0.0
 30
0.0
  3
_ARCHTICK
  1
_ARCHTICK
  0
LWPOLYLINE
  5
2AC
330
2A9
100
AcDbEntity
  8
0
  6
BYBLOCK
 62
     0
100
AcDbPolyline
 90
        2
 70
     0
 43
0.15
 10
-0.5
 20
-0.5
 10
0.5
 20
0.5
  0
ENDBLK
  5
2AB
330
2A9
100
AcDbEntity
  8
0
100
AcDbBlockEnd
  0
BLOCK
  5
2AE
330
2AD
100
AcDbEntity
  8
0
100
AcDbBlockBegin
  2
_OBLIQUE
 70
     0
 10
0.0
 20
0.0
 30
0.0
  3
_OBLIQUE
  1
_OBLIQUE
  0
LINE
  5
2B0
330
2AD
100
AcDbEntity
  8
0
  6
BYBLOCK
 62
     0
100
AcDbLine
 10
-0.5
 20
-0.5
 30
0.0
 11
0.5
 21
0.5
 31
0.0
  0
ENDBLK
  5
2AF
330
2AD
100
AcDbEntity
  8
0
100
AcDbBlockEnd
  0
BLOCK
  5
2B2
330
2B1
100
AcDbEntity
  8
0
100
AcDbBlockBegin
  2
_OPEN
 70
     0
 10
0.0
 20
0.0
 30
0.0
  3
_OPEN
  1
_OPEN
  0
LINE
  5
2B4
330
2B1
100
AcDbEntity
  8
0
  6
BYBLOCK
 62
     0
100
AcDbLine
 10
-1.0
 20
0.166667
 30
0.0
 11
0.0
 21
0.0
 31
0.0
  0
LINE
  5
2B5
330
2B1
100
AcDbEntity
  8
0
  6
BYBLOCK
 62
     0
100
AcDbLine
 10
-1.0
 20
-0.166667
 30
0.0
 11
0.0
 21
0.0
 31
0.0
  0
LINE
  5
2B6
330
2B1
100
AcDbEntity
  8
0
  6
BYBLOCK
 62
     0
100
AcDbLine
 10
0.0
 20
0.0
 30
0.0
 11
-1.0
 21
0.0
 31
0.0
  0
ENDBLK
  5
2B3
330
2B1
100
AcDbEntity
  8
0
100
AcDbBlockEnd
  0
ENDSEC
  0
SECTION
  2
ENTITIES
  0
LWPOLYLINE
  5
1CD
330
1F
100
AcDbEntity
  8
OBRYS
100
AcDbPolyline
 90
        2
 70
     0
 43
0.0
 10
181.7019492030208
 20
185.9177897576041
 10
185.8262452631879
 20
185.9177897576041
  0
LWPOLYLINE
  5
1CE
330
1F
100
AcDbEntity
  8
OBRYS
100
AcDbPolyline
 90
        2
 70
     0
 43
0.0
 10
182.4671049102949
 20
185.279758073736
 10
185.0607450463653
 20
185.279758073736
  0
LWPOLYLINE
  5
1CF
330
1F
100
AcDbEntity
  8
OBRYS
100
AcDbPolyline
 90
        2
 70
     0
 43
0.0
 10
183.7638388509429
 20
187.404520714263
 10
183.7641833604914
 20
185.93742680187
  0
LWPOLYLINE
  5
1D0
330
1F
100
AcDbEntity
  8
OBRYS
100
AcDbPolyline
 90
        2
 70
     0
 43
0.0
 10
183.2405288467336
 20
184.6420708994162
 10
184.2874933647008
 20
184.6420708994162
  0
LINE
  5
1D1
330
1F
100
AcDbEntity
  8
OBRYS
100
AcDbLine
 10
208.6787694002697
 20
187.3580407290262
 30
0.0
 11
208.6787694002697
 21
187.2167918141312
 31
0.0
  0
LINE
  5
1D2
330
1F
100
AcDbEntity
  8
OBRYS
100
AcDbLine
 10
191.9635106153862
 20
113.0108131000431
 30
0.0
 11
191.9635106153862
 21
110.0108239514881
 31
0.0
  0
LINE
  5
1D3
330
1F
100
AcDbEntity
  8
OBRYS
100
AcDbLine
 10
161.9415705187249
 20
113.0108131000431
 30
0.0
 11
161.9415705187249
 21
138.0108375078552
 31
0.0
  0
LINE
  5
1D4
330
1F
100
AcDbEntity
  8
OBRYS
100
AcDbLine
 10
161.9415705187249
 20
177.5107520487622
 30
0.0
 11
161.9415705187249
 21
203.0106598114841
 31
0.0
  0
LINE
  5
1D5
330
1F
100
AcDbEntity
  8
OBRYS
100
AcDbLine
 10
155.9415922216136
 20
138.0108375078552
 30
0.0
 11
155.9415922216136
 21
177.5107520487622
 31
0.0
  0
LINE
  5
1D6
330
1F
100
AcDbEntity
  8
OBRYS
100
AcDbLine
 10
161.9415705187249
 20
138.0108375078552
 30
0.0
 11
155.9415922216136
 21
138.0108375078552
 31
0.0
  0
LINE
  5
1D7
330
1F
100
AcDbEntity
  8
OBRYS
100
AcDbLine
 10
155.9415922216136
 20
177.5107520487622
 30
0.0
 11
161.9415705187249
 21
177.5107520487622
 31
0.0
  0
LINE
  5
1D8
330
1F
100
AcDbEntity
  8
OBRYS
100
AcDbLine
 10
159.4416369798533
 20
113.0108131000431
 30
0.0
 11
159.4416369798533
 21
110.0108239514881
 31
0.0
  0
LINE
  5
1D9
330
1F
100
AcDbEntity
  8
OBRYS
100
AcDbLine
 10
161.9415705187249
 20
113.0108131000431
 30
0.0
 11
161.9415705187249
 21
110.0108239514881
 31
0.0
  0
LINE
  5
1DA
330
1F
100
AcDbEntity
  8
OBRYS
100
AcDbLine
 10
161.9415705187249
 20
110.0108239514881
 30
0.0
 11
159.4416369798533
 21
110.0108239514881
 31
0.0
  0
LINE
  5
1DB
330
1F
100
AcDbEntity
  8
OBRYS
100
AcDbLine
 10
159.4416369798533
 20
142.0105933662311
 30
0.0
 11
159.4416369798533
 21
140.0107154370432
 31
0.0
  0
LINE
  5
1DC
330
1F
100
AcDbEntity
  8
OBRYS
100
AcDbLine
 10
160.4415759444471
 20
142.0105933662311
 30
0.0
 11
159.4416369798533
 21
142.0105933662311
 31
0.0
  0
LINE
  5
1DD
330
1F
100
AcDbEntity
  8
OBRYS
100
AcDbLine
 10
161.9415705187249
 20
140.0107154370432
 30
0.0
 11
160.4415759444471
 21
142.0105933662311
 31
0.0
  0
LINE
  5
1DE
330
1F
100
AcDbEntity
  8
OBRYS
100
AcDbLine
 10
162.9416817380929
 20
140.0107154370432
 30
0.0
 11
157.9416424055755
 21
140.0107154370432
 31
0.0
  0
LINE
  5
1DF
330
1F
100
AcDbEntity
  8
OBRYS
100
AcDbLine
 10
157.9416424055755
 20
140.0107154370432
 30
0.0
 11
157.9416424055755
 21
175.5107018648002
 31
0.0
  0
LINE
  5
1E0
330
1F
100
AcDbEntity
  8
OBRYS
100
AcDbLine
 10
162.9416817380929
 20
113.0108131000431
 30
0.0
 11
162.9416817380929
 21
140.0107154370432
 31
0.0
  0
LINE
  5
1E1
330
1F
100
AcDbEntity
  8
OBRYS
100
AcDbLine
 10
104.9416044413949
 20
135.5107317142101
 30
0.0
 11
104.9416044413949
 21
180.5107411973171
 31
0.0
  0
LINE
  5
1E2
330
1F
100
AcDbEntity
  8
OBRYS
100
AcDbLine
 10
136.4416627560026
 20
113.0108131000431
 30
0.0
 11
136.4416627560026
 21
127.0106476234532
 31
0.0
  0
LINE
  5
1E3
330
1F
100
AcDbEntity
  8
OBRYS
100
AcDbLine
 10
136.4416627560026
 20
189.0106530333002
 30
0.0
 11
136.4416627560026
 21
203.0106598114841
 31
0.0
  0
LINE
  5
1E4
330
1F
100
AcDbEntity
  8
OBRYS
100
AcDbLine
 10
114.9416831064298
 20
127.0106476234532
 30
0.0
 11
114.9416831064298
 21
135.5107317142101
 31
0.0
  0
LINE
  5
1E5
330
1F
100
AcDbEntity
  8
OBRYS
100
AcDbLine
 10
114.9416831064298
 20
180.5107411973171
 30
0.0
 11
114.9416831064298
 21
189.0106530333002
 31
0.0
  0
LINE
  5
1E6
330
1F
100
AcDbEntity
  8
OBRYS
100
AcDbLine
 10
157.9416424055755
 20
175.5107018648002
 30
0.0
 11
159.9416925895374
 21
175.5107018648002
 31
0.0
  0
LINE
  5
1E7
330
1F
100
AcDbEntity
  8
OBRYS
100
AcDbLine
 10
162.9416817380929
 20
173.5106516808382
 30
0.0
 11
160.941631554131
 21
173.5106516808382
 31
0.0
  0
LINE
  5
1E8
330
1F
100
AcDbEntity
  8
OBRYS
100
AcDbLine
 10
159.9416925895374
 20
175.5107018648002
 30
0.0
 11
160.941631554131
 21
173.5106516808382
 31
0.0
  0
LINE
  5
1E9
330
1F
100
AcDbEntity
  8
OBRYS
100
AcDbLine
 10
162.9416817380929
 20
173.5106516808382
 30
0.0
 11
162.9416817380929
 21
203.0106598114841
 31
0.0
  0
LINE
  5
1EA
330
1F
100
AcDbEntity
  8
OBRYS
100
AcDbLine
 10
162.9416817380929
 20
113.0108131000431
 30
0.0
 11
129.9416288492074
 21
113.0108131000431
 31
0.0
  0
LINE
  5
1EB
330
1F
100
AcDbEntity
  8
OBRYS
100
AcDbLine
 10
162.9416817380929
 20
203.0106598114841
 30
0.0
 11
129.9416288492074
 21
203.0106598114841
 31
0.0
  0
LINE
  5
1EC
330
1F
100
AcDbEntity
  8
OBRYS
100
AcDbLine
 10
178.5138578409707
 20
113.0108131000431
 30
0.0
 11
178.5138578409707
 21
203.0106598114841
 31
0.0
  0
LINE
  5
1ED
330
1F
100
AcDbEntity
  8
OBRYS
100
AcDbLine
 10
114.9416831064298
 20
180.5107411973171
 30
0.0
 11
104.9416044413949
 21
180.5107411973171
 31
0.0
  0
LINE
  5
1EE
330
1F
100
AcDbEntity
  8
OBRYS
100
AcDbLine
 10
114.9416831064298
 20
135.5107317142101
 30
0.0
 11
104.9416044413949
 21
135.5107317142101
 31
0.0
  0
LINE
  5
1EF
330
1F
100
AcDbEntity
  8
OBRYS
100
AcDbLine
 10
179.9139446461761
 20
136.9108185194152
 30
0.0
 11
179.9139446461761
 21
179.1106543921123
 31
0.0
  0
LINE
  5
1F0
330
1F
100
AcDbEntity
  8
OBRYS
100
AcDbLine
 10
136.4416627560026
 20
127.0106476234532
 30
0.0
 11
129.9416288492074
 21
127.0106476234532
 31
0.0
  0
LINE
  5
1F1
330
1F
100
AcDbEntity
  8
OBRYS
100
AcDbLine
 10
136.4416627560026
 20
189.0106530333002
 30
0.0
 11
129.9416288492074
 21
189.0106530333002
 31
0.0
  0
LINE
  5
1F2
330
1F
100
AcDbEntity
  8
OBRYS
100
AcDbLine
 10
129.9416288492074
 20
189.0106530333002
 30
0.0
 11
114.9416831064298
 21
189.0106530333002
 31
0.0
  0
LINE
  5
1F3
330
1F
100
AcDbEntity
  8
OBRYS
100
AcDbLine
 10
129.9416288492074
 20
127.0106476234532
 30
0.0
 11
114.9416831064298
 21
127.0106476234532
 31
0.0
  0
LINE
  5
1F4
330
1F
100
AcDbEntity
  8
OBRYS
100
AcDbLine
 10
129.9416288492074
 20
189.0106530333002
 30
0.0
 11
129.9416288492074
 21
203.0106598114841
 31
0.0
  0
LINE
  5
1F5
330
1F
100
AcDbEntity
  8
OBRYS
100
AcDbLine
 10
129.9416288492074
 20
113.0108131000431
 30
0.0
 11
129.9416288492074
 21
127.0106476234532
 31
0.0
  0
LINE
  5
1F6
330
1F
100
AcDbEntity
  8
OBRYS
100
AcDbLine
 10
214.0134997591791
 20
113.0108131000431
 30
0.0
 11
214.0134997591791
 21
203.0106598114841
 31
0.0
  0
LINE
  5
1F7
330
1F
100
AcDbEntity
  8
OBRYS
100
AcDbLine
 10
178.5138578409707
 20
113.0108131000431
 30
0.0
 11
214.0134997591791
 21
113.0108131000431
 31
0.0
  0
LINE
  5
1F8
330
1F
100
AcDbEntity
  8
OBRYS
100
AcDbLine
 10
214.0134997591791
 20
127.0106476234532
 30
0.0
 11
178.5138578409707
 21
127.0106476234532
 31
0.0
  0
LINE
  5
1F9
330
1F
100
AcDbEntity
  8
OBRYS
100
AcDbLine
 10
214.0134997591791
 20
135.5107317142101
 30
0.0
 11
178.5138578409707
 21
135.5107317142101
 31
0.0
  0
LINE
  5
1FA
330
1F
100
AcDbEntity
  8
OBRYS
100
AcDbLine
 10
214.0134997591791
 20
180.5107411973171
 30
0.0
 11
178.5138578409707
 21
180.5107411973171
 31
0.0
  0
LINE
  5
1FB
330
1F
100
AcDbEntity
  8
OBRYS
100
AcDbLine
 10
214.0134997591791
 20
189.0106530333002
 30
0.0
 11
178.5138578409707
 21
189.0106530333002
 31
0.0
  0
LINE
  5
1FC
330
1F
100
AcDbEntity
  8
OBRYS
100
AcDbLine
 10
178.5138578409707
 20
203.0106598114841
 30
0.0
 11
214.0134997591791
 21
203.0106598114841
 31
0.0
  0
LINE
  5
1FD
330
1F
100
AcDbEntity
  8
OBRYS
100
AcDbLine
 10
200.5635024752154
 20
113.0108131000431
 30
0.0
 11
200.5635024752154
 21
110.0108239514881
 31
0.0
  0
LINE
  5
1FE
330
1F
100
AcDbEntity
  8
OBRYS
100
AcDbLine
 10
191.9635106153862
 20
110.0108239514881
 30
0.0
 11
200.5635024752154
 21
110.0108239514881
 31
0.0
  0
LINE
  5
1FF
330
1F
100
AcDbEntity
  8
OBRYS
100
AcDbLine
 10
193.4635051896639
 20
113.0108131000431
 30
0.0
 11
193.4635051896639
 21
111.5108185257652
 31
0.0
  0
LINE
  5
200
330
1F
100
AcDbEntity
  8
OBRYS
100
AcDbLine
 10
193.4635051896639
 20
111.5108185257652
 30
0.0
 11
199.0635079009373
 21
111.5108185257652
 31
0.0
  0
LINE
  5
201
330
1F
100
AcDbEntity
  8
OBRYS
100
AcDbLine
 10
199.0635079009373
 20
111.5108185257652
 30
0.0
 11
199.0635079009373
 21
113.0108131000431
 31
0.0
  0
LINE
  5
202
330
1F
100
AcDbEntity
  8
OBRYS
100
AcDbLine
 10
212.6137574635222
 20
136.9108185194152
 30
0.0
 11
179.9139446461761
 21
136.9108185194152
 31
0.0
  0
LINE
  5
203
330
1F
100
AcDbEntity
  8
OBRYS
100
AcDbLine
 10
212.6137574635222
 20
179.1106543921123
 30
0.0
 11
179.9139446461761
 21
179.1106543921123
 31
0.0
  0
LINE
  5
204
330
1F
100
AcDbEntity
  8
OBRYS
100
AcDbLine
 10
212.6137574635222
 20
179.1106543921123
 30
0.0
 11
212.6137574635222
 21
136.9108185194152
 31
0.0
  0
LINE
  5
205
330
1F
100
AcDbEntity
  8
OBRYS
100
AcDbLine
 10
201.8040813594536
 20
195.7106747330142
 30
0.0
 11
205.7232219834739
 21
195.7106747330142
 31
0.0
  0
LINE
  5
206
330
1F
100
AcDbEntity
  8
OBRYS
100
AcDbLine
 10
201.8040813594536
 20
194.9107235613391
 30
0.0
 11
205.7232219834739
 21
194.9107235613391
 31
0.0
  0
LINE
  5
207
330
1F
100
AcDbEntity
  8
OBRYS
100
AcDbLine
 10
196.8042142817105
 20
194.9107235613391
 30
0.0
 11
200.7233549057308
 21
194.9107235613391
 31
0.0
  0
LINE
  5
208
330
1F
100
AcDbEntity
  8
OBRYS
100
AcDbLine
 10
196.8042142817105
 20
195.7106747330142
 30
0.0
 11
200.7233549057308
 21
195.7106747330142
 31
0.0
  0
LINE
  5
209
330
1F
100
AcDbEntity
  8
OBRYS
100
AcDbLine
 10
186.8044801262245
 20
195.7106747330142
 30
0.0
 11
190.723276240696
 21
195.7106747330142
 31
0.0
  0
LINE
  5
20A
330
1F
100
AcDbEntity
  8
OBRYS
100
AcDbLine
 10
186.8044801262245
 20
194.9107235613391
 30
0.0
 11
190.723276240696
 21
194.9107235613391
 31
0.0
  0
LINE
  5
20B
330
1F
100
AcDbEntity
  8
OBRYS
100
AcDbLine
 10
185.723409162953
 20
194.9107235613391
 30
0.0
 11
181.8042685389327
 21
194.9107235613391
 31
0.0
  0
LINE
  5
20C
330
1F
100
AcDbEntity
  8
OBRYS
100
AcDbLine
 10
185.723409162953
 20
195.7106747330142
 30
0.0
 11
181.8042685389327
 21
195.7106747330142
 31
0.0
  0
LINE
  5
20D
330
1F
100
AcDbEntity
  8
OBRYS
100
AcDbLine
 10
201.8040813594536
 20
121.1105770954143
 30
0.0
 11
205.7232219834739
 21
121.1105770954143
 31
0.0
  0
LINE
  5
20E
330
1F
100
AcDbEntity
  8
OBRYS
100
AcDbLine
 10
201.8040813594536
 20
120.3106259237392
 30
0.0
 11
205.7232219834739
 21
120.3106259237392
 31
0.0
  0
LINE
  5
20F
330
1F
100
AcDbEntity
  8
OBRYS
100
AcDbLine
 10
196.8042142817105
 20
120.3106259237392
 30
0.0
 11
200.7233549057308
 21
120.3106259237392
 31
0.0
  0
LINE
  5
210
330
1F
100
AcDbEntity
  8
OBRYS
100
AcDbLine
 10
196.8042142817105
 20
121.1105770954143
 30
0.0
 11
200.7233549057308
 21
121.1105770954143
 31
0.0
  0
LINE
  5
211
330
1F
100
AcDbEntity
  8
OBRYS
100
AcDbLine
 10
186.8044801262245
 20
121.1105770954143
 30
0.0
 11
190.723276240696
 21
121.1105770954143
 31
0.0
  0
LINE
  5
212
330
1F
100
AcDbEntity
  8
OBRYS
100
AcDbLine
 10
186.8044801262245
 20
120.3106259237392
 30
0.0
 11
190.723276240696
 21
120.3106259237392
 31
0.0
  0
CIRCLE
  5
225
330
1F
100
AcDbEntity
  8
OBRYS
100
AcDbCircle
 10
183.7638388509429
 20
195.3106991471765
 30
0.0
 40
1.999974069076389
  0
CIRCLE
  5
226
330
1F
100
AcDbEntity
  8
OBRYS
100
AcDbCircle
 10
188.7638781834603
 20
195.3106991471765
 30
0.0
 40
1.99980529451387
  0
CIRCLE
  5
227
330
1F
100
AcDbEntity
  8
OBRYS
100
AcDbCircle
 10
198.7637845937206
 20
195.3106991471765
 30
0.0
 40
1.999974069076233
  0
CIRCLE
  5
228
330
1F
100
AcDbEntity
  8
OBRYS
100
AcDbCircle
 10
203.7636516714638
 20
195.3106991471765
 30
0.0
 40
1.999974069076389
  0
CIRCLE
  5
22B
330
1F
100
AcDbEntity
  8
OBRYS
100
AcDbCircle
 10
203.7636516714638
 20
120.7106015095766
 30
0.0
 40
1.999974069076389
  0
CIRCLE
  5
22C
330
1F
100
AcDbEntity
  8
OBRYS
100
AcDbCircle
 10
198.7637845937206
 20
120.7106015095766
 30
0.0
 40
1.999974069076344
  0
CIRCLE
  5
22D
330
1F
100
AcDbEntity
  8
OBRYS
100
AcDbCircle
 10
188.7638781834603
 20
120.7106015095766
 30
0.0
 40
1.99980529451387
  0
LINE
  5
245
330
1F
100
AcDbEntity
  8
OBRYS
100
AcDbLine
 10
208.060077878753
 20
135.0837959255923
 30
0.0
 11
208.060077878753
 21
134.9425470106973
 31
0.0
  0
DIMENSION
  5
254
330
1F
100
AcDbEntity
  8
KOTY
100
AcDbDimension
  2
*D0
 10
92.49141876823839
 20
135.5107317142101
 30
0.0
 11
89.4574187682384
 21
158.0107364557636
 31
0.0
 70
    32
  3
STANDARD
100
AcDbAlignedDimension
 13
104.9416044413949
 23
180.5107411973171
 33
0.0
 14
104.9416044413949
 24
135.5107317142101
 34
0.0
 50
90.0
100
AcDbRotatedDimension
1001
ACAD
1000
DSTYLE
1002
{
1070
     7
1000

1070
     6
1000

1070
     5
1000

1070
   271
1070
     0
1070
   278
1070
    44
1070
   140
1040
4.0
1070
    73
1070
     0
1070
    77
1070
     1
1070
   147
1040
1.0
1070
   173
1070
     1
1070
    41
1040
4.0
1002
}
  0
DIMENSION
  5
267
330
1F
100
AcDbEntity
  8
KOTY
100
AcDbDimension
  2
*D1
 10
76.16006266466258
 20
113.0108131000431
 30
0.0
 11
73.11806266466257
 21
158.0107364557636
 31
0.0
 70
    32
  3
STANDARD
100
AcDbAlignedDimension
 13
129.9416288492074
 23
203.0106598114841
 33
0.0
 14
129.9416288492074
 24
113.0108131000431
 34
0.0
 50
90.0
100
AcDbRotatedDimension
1001
ACAD
1000
DSTYLE
1002
{
1070
     7
1000

1070
     6
1000

1070
     5
1000

1070
   271
1070
     0
1070
   278
1070
    44
1070
   140
1040
4.0
1070
    73
1070
     0
1070
    77
1070
     1
1070
   147
1040
1.0
1070
   173
1070
     1
1070
    41
1040
4.0
1002
}
  0
DIMENSION
  5
277
330
1F
100
AcDbEntity
  8
KOTY
100
AcDbDimension
  2
*D2
 10
214.0364565227127
 20
97.65878959586232
 30
0.0
 11
196.2619250291634
 21
100.7007895958623
 31
0.0
 70
    32
  3
STANDARD
100
AcDbAlignedDimension
 13
178.487393535614
 23
113.0108131000431
 33
0.0
 14
214.0364565227127
 24
113.0108131000431
 34
0.0
100
AcDbRotatedDimension
1001
ACAD
1000
DSTYLE
1002
{
1070
     7
1000

1070
     6
1000

1070
     5
1000

1070
   271
1070
     0
1070
   278
1070
    44
1070
   140
1040
4.0
1070
    73
1070
     0
1070
    77
1070
     1
1070
   147
1040
1.0
1070
   173
1070
     1
1070
    41
1040
4.0
1002
}
  0
DIMENSION
  5
287
330
1F
100
AcDbEntity
  8
KOTY
100
AcDbDimension
  2
*D3
 10
157.9416424055755
 20
97.65878959586232
 30
0.0
 11
131.4416234234852
 21
100.7007895958623
 31
0.0
 70
    32
  3
STANDARD
100
AcDbAlignedDimension
 13
104.9416044413949
 23
135.5107317142101
 33
0.0
 14
157.9416424055755
 24
140.0107154370432
 34
0.0
100
AcDbRotatedDimension
1001
ACAD
1000
DSTYLE
1002
{
1070
     7
1000

1070
     6
1000

1070
     5
1000

1070
   271
1070
     0
1070
   278
1070
    44
1070
   140
1040
4.0
1070
    73
1070
     0
1070
    77
1070
     1
1070
   147
1040
1.0
1070
   173
1070
     1
1070
    41
1040
4.0
1002
}
  0
LINE
  5
352
330
1F
100
AcDbEntity
  8
OBRYS
100
AcDbLine
 10
210.3126784614582
 20
194.9107235613386
 30
0.0
 11
210.7229893337512
 21
194.9107235613386
 31
0.0
  0
LINE
  5
353
330
1F
100
AcDbEntity
  8
OBRYS
100
AcDbLine
 10
210.3126784614582
 20
195.7106747330137
 30
0.0
 11
210.7229893337512
 21
195.7106747330137
 31
0.0
  0
LINE
  5
354
330
1F
100
AcDbEntity
  8
OBRYS
100
AcDbLine
 10
207.642384950841
 20
196.4524037909886
 30
0.0
 11
207.4374017694687
 21
196.8077653902916
 31
0.0
  0
LINE
  5
355
330
1F
100
AcDbEntity
  8
OBRYS
100
AcDbLine
 10
208.3351936529248
 20
193.7690189175268
 30
0.0
 11
208.1302104715522
 21
193.4136573182226
 31
0.0
  0
LINE
  5
356
330
1F
100
AcDbEntity
  8
OBRYS
100
AcDbLine
 10
208.3351936529248
 20
196.8523793768258
 30
0.0
 11
208.1302104715522
 21
197.2077409761288
 31
0.0
  0
LINE
  5
357
330
1F
100
AcDbEntity
  8
OBRYS
100
AcDbLine
 10
207.642384950841
 20
194.1689945033646
 30
0.0
 11
207.4374017694687
 21
193.8136329040607
 31
0.0
  0
ARC
  5
358
330
1F
100
AcDbEntity
  8
OBRYS
100
AcDbCircle
 10
208.7633536132321
 20
195.3108710459641
 30
0.0
 40
2.000072540331208
100
AcDbArc
 50
251.5449793308072
 51
348.4591530288506
  0
ARC
  5
359
330
1F
100
AcDbEntity
  8
OBRYS
100
AcDbCircle
 10
208.7632381723214
 20
195.3110256930098
 30
0.0
 40
1.600314658503492
100
AcDbArc
 50
254.485917044727
 51
345.5142245204393
  0
ARC
  5
35A
330
1F
100
AcDbEntity
  8
OBRYS
100
AcDbCircle
 10
208.7637932729707
 20
195.310699147176
 30
0.0
 40
2.000130434956301
100
AcDbArc
 50
131.5407460574399
 51
228.4592539425578
  0
ARC
  5
35B
330
1F
100
AcDbEntity
  8
OBRYS
100
AcDbCircle
 10
208.7635187492068
 20
195.3106991471765
 30
0.0
 40
1.600134521701294
100
AcDbArc
 50
134.4791540849355
 51
225.5208459150529
  0
ARC
  5
35C
330
1F
100
AcDbEntity
  8
OBRYS
100
AcDbCircle
 10
208.7632370352042
 20
195.3103706318037
 30
0.0
 40
1.600316252131931
100
AcDbArc
 50
14.48583356917163
 51
105.5140248656492
  0
ARC
  5
35D
330
1F
100
AcDbEntity
  8
OBRYS
100
AcDbCircle
 10
208.7633533886965
 20
195.3105268595122
 30
0.0
 40
2.000072838128245
100
AcDbArc
 50
11.54085659912111
 51
108.4550110412549
  0
LINE
  5
35F
330
1F
100
AcDbEntity
  8
OBRYS
100
AcDbLine
 10
191.8039940997734
 20
195.7106747330142
 30
0.0
 11
195.7227902142449
 21
195.7106747330142
 31
0.0
  0
LINE
  5
360
330
1F
100
AcDbEntity
  8
OBRYS
100
AcDbLine
 10
191.8039940997734
 20
194.9107235613391
 30
0.0
 11
195.7227902142449
 21
194.9107235613391
 31
0.0
  0
CIRCLE
  5
361
330
1F
100
AcDbEntity
  8
OBRYS
100
AcDbCircle
 10
193.7633921570092
 20
195.3106991471765
 30
0.0
 40
1.99980529451387
  0
LINE
  5
373
330
1F
100
AcDbEntity
  8
OBRYS
100
AcDbLine
 10
191.8042610765802
 20
121.1105770954143
 30
0.0
 11
195.7234017006006
 21
121.1105770954143
 31
0.0
  0
LINE
  5
374
330
1F
100
AcDbEntity
  8
OBRYS
100
AcDbLine
 10
191.8042610765802
 20
120.3106259237392
 30
0.0
 11
195.7234017006006
 21
120.3106259237392
 31
0.0
  0
CIRCLE
  5
375
330
1F
100
AcDbEntity
  8
OBRYS
100
AcDbCircle
 10
193.7638313885905
 20
120.7106015095766
 30
0.0
 40
1.999974069076389
  0
LINE
  5
376
330
1F
100
AcDbEntity
  8
OBRYS
100
AcDbLine
 10
185.3132791400797
 20
120.3102993779054
 30
0.0
 11
185.7235900123727
 21
120.3102993779054
 31
0.0
  0
LINE
  5
377
330
1F
100
AcDbEntity
  8
OBRYS
100
AcDbLine
 10
185.3132791400797
 20
121.1102505495805
 30
0.0
 11
185.7235900123727
 21
121.1102505495805
 31
0.0
  0
LINE
  5
378
330
1F
100
AcDbEntity
  8
OBRYS
100
AcDbLine
 10
182.6429856294625
 20
121.8519796075554
 30
0.0
 11
182.4380024480902
 21
122.2073412068584
 31
0.0
  0
LINE
  5
379
330
1F
100
AcDbEntity
  8
OBRYS
100
AcDbLine
 10
183.3357943315463
 20
119.1685947340936
 30
0.0
 11
183.1308111501737
 21
118.8132331347894
 31
0.0
  0
LINE
  5
37A
330
1F
100
AcDbEntity
  8
OBRYS
100
AcDbLine
 10
183.3357943315463
 20
122.2519551933926
 30
0.0
 11
183.1308111501737
 21
122.6073167926956
 31
0.0
  0
LINE
  5
37B
330
1F
100
AcDbEntity
  8
OBRYS
100
AcDbLine
 10
182.6429856294625
 20
119.5685703199314
 30
0.0
 11
182.4380024480902
 21
119.2132087206275
 31
0.0
  0
ARC
  5
37C
330
1F
100
AcDbEntity
  8
OBRYS
100
AcDbCircle
 10
183.7639542918536
 20
120.7104468625309
 30
0.0
 40
2.000072540331208
100
AcDbArc
 50
251.5449793308072
 51
348.4591530288506
  0
ARC
  5
37D
330
1F
100
AcDbEntity
  8
OBRYS
100
AcDbCircle
 10
183.7638388509429
 20
120.7106015095766
 30
0.0
 40
1.600314658503492
100
AcDbArc
 50
254.485917044727
 51
345.5142245204393
  0
ARC
  5
37E
330
1F
100
AcDbEntity
  8
OBRYS
100
AcDbCircle
 10
183.7643939515922
 20
120.7102749637428
 30
0.0
 40
2.000130434956301
100
AcDbArc
 50
131.5407460574399
 51
228.4592539425578
  0
ARC
  5
37F
330
1F
100
AcDbEntity
  8
OBRYS
100
AcDbCircle
 10
183.7641194278283
 20
120.7102749637433
 30
0.0
 40
1.600134521701294
100
AcDbArc
 50
134.4791540849355
 51
225.5208459150529
  0
ARC
  5
380
330
1F
100
AcDbEntity
  8
OBRYS
100
AcDbCircle
 10
183.7638377138257
 20
120.7099464483705
 30
0.0
 40
1.600316252131931
100
AcDbArc
 50
14.48583356917163
 51
105.5140248656492
  0
ARC
  5
381
330
1F
100
AcDbEntity
  8
OBRYS
100
AcDbCircle
 10
183.763954067318
 20
120.710102676079
 30
0.0
 40
2.000072838128245
100
AcDbArc
 50
11.54085659912111
 51
108.4550110412549
  0
LINE
  5
382
330
1F
100
AcDbEntity
  8
OBRYS
100
AcDbLine
 10
210.3129590383436
 20
120.3102993779054
 30
0.0
 11
210.7232699106366
 21
120.3102993779054
 31
0.0
  0
LINE
  5
383
330
1F
100
AcDbEntity
  8
OBRYS
100
AcDbLine
 10
210.3129590383436
 20
121.1102505495805
 30
0.0
 11
210.7232699106366
 21
121.1102505495805
 31
0.0
  0
LINE
  5
384
330
1F
100
AcDbEntity
  8
OBRYS
100
AcDbLine
 10
207.6426655277264
 20
121.8519796075554
 30
0.0
 11
207.4376823463541
 21
122.2073412068584
 31
0.0
  0
LINE
  5
385
330
1F
100
AcDbEntity
  8
OBRYS
100
AcDbLine
 10
208.3354742298102
 20
119.1685947340936
 30
0.0
 11
208.1304910484376
 21
118.8132331347894
 31
0.0
  0
LINE
  5
386
330
1F
100
AcDbEntity
  8
OBRYS
100
AcDbLine
 10
208.3354742298102
 20
122.2519551933926
 30
0.0
 11
208.1304910484376
 21
122.6073167926956
 31
0.0
  0
LINE
  5
387
330
1F
100
AcDbEntity
  8
OBRYS
100
AcDbLine
 10
207.6426655277264
 20
119.5685703199314
 30
0.0
 11
207.4376823463541
 21
119.2132087206275
 31
0.0
  0
ARC
  5
388
330
1F
100
AcDbEntity
  8
OBRYS
100
AcDbCircle
 10
208.7636341901175
 20
120.7104468625309
 30
0.0
 40
2.000072540331208
100
AcDbArc
 50
251.5449793308072
 51
348.4591530288506
  0
ARC
  5
389
330
1F
100
AcDbEntity
  8
OBRYS
100
AcDbCircle
 10
208.7635187492068
 20
120.7106015095766
 30
0.0
 40
1.600314658503492
100
AcDbArc
 50
254.485917044727
 51
345.5142245204393
  0
ARC
  5
38A
330
1F
100
AcDbEntity
  8
OBRYS
100
AcDbCircle
 10
208.7640738498561
 20
120.7102749637428
 30
0.0
 40
2.000130434956301
100
AcDbArc
 50
131.5407460574399
 51
228.4592539425578
  0
ARC
  5
38B
330
1F
100
AcDbEntity
  8
OBRYS
100
AcDbCircle
 10
208.7637993260922
 20
120.7102749637433
 30
0.0
 40
1.600134521701294
100
AcDbArc
 50
134.4791540849355
 51
225.5208459150529
  0
ARC
  5
38C
330
1F
100
AcDbEntity
  8
OBRYS
100
AcDbCircle
 10
208.7635176120896
 20
120.7099464483705
 30
0.0
 40
1.600316252131931
100
AcDbArc
 50
14.48583356917163
 51
105.5140248656492
  0
ARC
  5
38D
330
1F
100
AcDbEntity
  8
OBRYS
100
AcDbCircle
 10
208.7636339655819
 20
120.710102676079
 30
0.0
 40
2.000072838128245
100
AcDbArc
 50
11.54085659912111
 51
108.4550110412549
  0
MTEXT
  5
3BD
330
1F
100
AcDbEntity
  8
OBRYS
100
AcDbMText
 10
186.827574458757
 20
187.4153474133655
 30
0.0
 40
2.5
 41
1.66062159751084
 71
     1
 72
     1
  1
{\fTahoma|b0|i0|c0|p0;R}
1001
ACAD
1000
ACAD_MTEXT_DEFINED_HEIGHT_BEGIN
1070
    46
1040
2.5
1000
ACAD_MTEXT_DEFINED_HEIGHT_END
  0
MTEXT
  5
3BE
330
1F
100
AcDbEntity
  8
OBRYS
100
AcDbMText
 10
188.7596181380559
 20
185.9969478538496
 30
0.0
 40
1.5
 41
2.398033232564671
 71
     1
 72
     1
  1
{\fTahoma|b0|i0|c0|p0;x+}
1001
ACAD
1000
ACAD_MTEXT_DEFINED_HEIGHT_BEGIN
1070
    46
1040
1.5
1000
ACAD_MTEXT_DEFINED_HEIGHT_END
  0
MTEXT
  5
3E7
330
1F
100
AcDbEntity
  8
OBRYS
100
AcDbMText
 10
191.829742870957
 20
187.4153474133655
 30
0.0
 40
2.5
 41
1.66062159751084
 71
     1
 72
     1
  1
{\fTahoma|b0|i0|c0|p0;R}
1001
ACAD
1000
ACAD_MTEXT_DEFINED_HEIGHT_BEGIN
1070
    46
1040
2.5
1000
ACAD_MTEXT_DEFINED_HEIGHT_END
  0
MTEXT
  5
3E8
330
1F
100
AcDbEntity
  8
OBRYS
100
AcDbMText
 10
193.7617865502559
 20
185.9969478538496
 30
0.0
 40
2.0
 41
2.138778428438201
 71
     1
 72
     1
  1
{\fTahoma|b0|i0|c0|p0;\H0.75x;x-}
1001
ACAD
1000
ACAD_MTEXT_DEFINED_HEIGHT_BEGIN
1070
    46
1040
2.0
1000
ACAD_MTEXT_DEFINED_HEIGHT_END
  0
MTEXT
  5
438
330
1F
100
AcDbEntity
  8
OBRYS
100
AcDbMText
 10
198.8201388294137
 20
186.0285451057049
 30
0.0
 40
2.0
 41
2.932449080430899
 71
     1
 72
     1
  1
{\fTahoma|b0|i0|c0|p0;\H0.75x;x+}
1001
ACAD
1000
ACAD_MTEXT_DEFINED_HEIGHT_BEGIN
1070
    46
1040
2.0
1000
ACAD_MTEXT_DEFINED_HEIGHT_END
  0
MTEXT
  5
439
330
1F
100
AcDbEntity
  8
OBRYS
100
AcDbMText
 10
196.7513186143972
 20
187.4153474133655
 30
0.0
 40
2.5
 41
2.099476233185442
 71
     1
 72
     1
  1
{\fTahoma|b0|i0|c0|p0;T}
1001
ACAD
1000
ACAD_MTEXT_DEFINED_HEIGHT_BEGIN
1070
    46
1040
2.5
1000
ACAD_MTEXT_DEFINED_HEIGHT_END
  0
MTEXT
  5
462
330
1F
100
AcDbEntity
  8
OBRYS
100
AcDbMText
 10
203.8199445549127
 20
186.0285451057049
 30
0.0
 40
2.0
 41
2.07093230536924
 71
     1
 72
     1
  1
{\fTahoma|b0|i0|c0|p0;\H0.875x;x-}
1001
ACAD
1000
ACAD_MTEXT_DEFINED_HEIGHT_BEGIN
1070
    46
1040
2.0
1000
ACAD_MTEXT_DEFINED_HEIGHT_END
  0
MTEXT
  5
463
330
1F
100
AcDbEntity
  8
OBRYS
100
AcDbMText
 10
201.7511243398962
 20
187.4153474133655
 30
0.0
 40
2.5
 41
2.099476233185442
 71
     1
 72
     1
  1
{\fTahoma|b0|i0|c0|p0;T}
1001
ACAD
1000
ACAD_MTEXT_DEFINED_HEIGHT_BEGIN
1070
    46
1040
2.5
1000
ACAD_MTEXT_DEFINED_HEIGHT_END
  0
MTEXT
  5
48D
330
1F
100
AcDbEntity
  8
OBRYS
100
AcDbMText
 10
186.827574458757
 20
131.803396231858
 30
0.0
 40
2.5
 41
1.66062159751084
 71
     1
 72
     1
  1
{\fTahoma|b0|i0|c0|p0;R}
1001
ACAD
1000
ACAD_MTEXT_DEFINED_HEIGHT_BEGIN
1070
    46
1040
2.5
1000
ACAD_MTEXT_DEFINED_HEIGHT_END
  0
MTEXT
  5
48E
330
1F
100
AcDbEntity
  8
OBRYS
100
AcDbMText
 10
188.7596181380559
 20
130.3849966723421
 30
0.0
 40
1.5
 41
2.398033232564671
 71
     1
 72
     1
  1
{\fTahoma|b0|i0|c0|p0;x+}
1001
ACAD
1000
ACAD_MTEXT_DEFINED_HEIGHT_BEGIN
1070
    46
1040
1.5
1000
ACAD_MTEXT_DEFINED_HEIGHT_END
  0
MTEXT
  5
48F
330
1F
100
AcDbEntity
  8
OBRYS
100
AcDbMText
 10
191.829742870957
 20
131.803396231858
 30
0.0
 40
2.5
 41
1.66062159751084
 71
     1
 72
     1
  1
{\fTahoma|b0|i0|c0|p0;R}
1001
ACAD
1000
ACAD_MTEXT_DEFINED_HEIGHT_BEGIN
1070
    46
1040
2.5
1000
ACAD_MTEXT_DEFINED_HEIGHT_END
  0
MTEXT
  5
490
330
1F
100
AcDbEntity
  8
OBRYS
100
AcDbMText
 10
193.7617865502559
 20
130.3849966723421
 30
0.0
 40
2.0
 41
2.138778428438201
 71
     1
 72
     1
  1
{\fTahoma|b0|i0|c0|p0;\H0.75x;x-}
1001
ACAD
1000
ACAD_MTEXT_DEFINED_HEIGHT_BEGIN
1070
    46
1040
2.0
1000
ACAD_MTEXT_DEFINED_HEIGHT_END
  0
MTEXT
  5
491
330
1F
100
AcDbEntity
  8
OBRYS
100
AcDbMText
 10
198.8201388294137
 20
130.4165939241974
 30
0.0
 40
2.0
 41
2.932449080430899
 71
     1
 72
     1
  1
{\fTahoma|b0|i0|c0|p0;\H0.75x;x+}
1001
ACAD
1000
ACAD_MTEXT_DEFINED_HEIGHT_BEGIN
1070
    46
1040
2.0
1000
ACAD_MTEXT_DEFINED_HEIGHT_END
  0
MTEXT
  5
492
330
1F
100
AcDbEntity
  8
OBRYS
100
AcDbMText
 10
196.7513186143972
 20
131.803396231858
 30
0.0
 40
2.5
 41
2.099476233185442
 71
     1
 72
     1
  1
{\fTahoma|b0|i0|c0|p0;T}
1001
ACAD
1000
ACAD_MTEXT_DEFINED_HEIGHT_BEGIN
1070
    46
1040
2.5
1000
ACAD_MTEXT_DEFINED_HEIGHT_END
  0
MTEXT
  5
493
330
1F
100
AcDbEntity
  8
OBRYS
100
AcDbMText
 10
203.8199445549127
 20
130.4165939241974
 30
0.0
 40
2.0
 41
2.07093230536924
 71
     1
 72
     1
  1
{\fTahoma|b0|i0|c0|p0;\H0.875x;x-}
1001
ACAD
1000
ACAD_MTEXT_DEFINED_HEIGHT_BEGIN
1070
    46
1040
2.0
1000
ACAD_MTEXT_DEFINED_HEIGHT_END
  0
MTEXT
  5
494
330
1F
100
AcDbEntity
  8
OBRYS
100
AcDbMText
 10
201.7511243398962
 20
131.803396231858
 30
0.0
 40
2.5
 41
2.099476233185442
 71
     1
 72
     1
  1
{\fTahoma|b0|i0|c0|p0;T}
1001
ACAD
1000
ACAD_MTEXT_DEFINED_HEIGHT_BEGIN
1070
    46
1040
2.5
1000
ACAD_MTEXT_DEFINED_HEIGHT_END
  0
VIEWPORT
  5
2C1
330
2BD
100
AcDbEntity
 67
     1
  8
0
100
AcDbViewport
 10
0.0
 20
0.0
 30
0.0
 40
8.976
 41
6.936000000000001
 68
     1
 69
     1
1001
ACAD
1000
MVIEW
1002
{
1070
    16
1010
0.0
1020
0.0
1030
0.0
1010
0.0
1020
0.0
1030
1.0
1040
0.0
1040
6.936000000000001
1040
5.25
1040
4.0
1040
50.0
1040
0.0
1040
0.0
1070
     0
1070
   100
1070
     0
1070
     3
1070
     0
1070
     0
1070
     0
1070
     0
1040
0.0
1040
0.0
1040
0.0
1040
0.5
1040
0.5
1040
0.0
1040
0.0
1070
     0
1002
{
1002
}
1002
}
  0
VIEWPORT
  5
2C2
330
2BD
100
AcDbEntity
 67
     1
  8
0
100
AcDbViewport
 10
5.25
 20
4.0
 30
0.0
 40
8.4
 41
6.4
 68
     2
 69
     2
1001
ACAD
1000
MVIEW
1002
{
1070
    16
1010
0.0
1020
0.0
1030
0.0
1010
0.0
1020
0.0
1030
1.0
1040
0.0
1040
111.0890253991672
1040
142.5407812119208
1040
150.0013913703399
1040
50.0
1040
0.0
1040
0.0
1070
     0
1070
   100
1070
     0
1070
     3
1070
     0
1070
     0
1070
     0
1070
     0
1040
0.0
1040
0.0
1040
0.0
1040
0.5
1040
0.5
1040
0.0
1040
0.0
1070
     0
1002
{
1002
}
1002
}
  0
ENDSEC
  0
SECTION
  2
OBJECTS
  0
DICTIONARY
  5
C
330
0
100
AcDbDictionary
  3
ACAD_DETAILVIEWSTYLE
350
122
  3
ACAD_GROUP
350
D
  3
ACAD_IMAGE_VARS
350
DC
  3
ACAD_MLINESTYLE
350
17
  3
ACAD_SCALELIST
350
499
  3
ACAD_SECTIONVIEWSTYLE
350
123
  3
ACDBVARIABLEDICTIONARY
350
66
  3
APPDATA
350
E1
  3
DWGPROPS
350
4DF
  0
DICTIONARY
  5
248
330
2
100
AcDbDictionary
280
     1
  3
ACAD_LAYERSTATES
360
24B
  3
ACLYDICTIONARY
360
266
  0
DICTIONARY
  5
122
102
{ACAD_REACTORS
330
C
102
}
330
C
100
AcDbDictionary
  0
DICTIONARY
  5
D
102
{ACAD_REACTORS
330
C
102
}
330
C
100
AcDbDictionary
  0
RASTERVARIABLES
  5
DC
102
{ACAD_REACTORS
330
C
102
}
330
C
100
AcDbRasterVariables
 90
        0
 70
     1
 71
     1
 72
     5
  0
DICTIONARY
  5
17
102
{ACAD_REACTORS
330
C
102
}
330
C
100
AcDbDictionary
  3
STANDARD
350
18
  0
DICTIONARY
  5
499
102
{ACAD_REACTORS
330
C
102
}
330
C
100
AcDbDictionary
  0
DICTIONARY
  5
123
102
{ACAD_REACTORS
330
C
102
}
330
C
100
AcDbDictionary
  0
DICTIONARY
  5
66
102
{ACAD_REACTORS
330
C
102
}
330
C
100
AcDbDictionary
  3
DIMASSOC
350
67
  3
HIDETEXT
350
6B
  0
DICTIONARY
  5
E1
102
{ACAD_REACTORS
330
C
102
}
330
C
100
AcDbDictionary
  0
XRECORD
  5
4DF
102
{ACAD_REACTORS
330
C
102
}
330
C
100
AcDbXrecord
  1
DWGPROPS COOKIE
  2

  3

  4

  6

  7

  8
jaromir.podrabsky
  9

300
=
301
=
302
=
303
=
304
=
305
=
306
=
307
=
308
=
309
=
 40
0.0
 41
2452643.063384259
 42
2456738.348391713
  1

 90
        0
  0
DICTIONARY
  5
24B
102
{ACAD_REACTORS
330
248
102
}
330
248
100
AcDbDictionary
  0
DICTIONARY
  5
266
102
{ACAD_REACTORS
330
248
102
}
330
248
100
AcDbDictionary
1001
ACAD
1000
<All
  0
MLINESTYLE
  5
18
102
{ACAD_REACTORS
330
17
102
}
330
17
100
AcDbMlineStyle
  2
STANDARD
 70
     0
  3

 62
   256
 51
90.0
 52
90.0
 71
     2
 49
0.5
 62
   256
  6
BYLAYER
 49
-0.5
 62
   256
  6
BYLAYER
  0
DICTIONARYVAR
  5
67
102
{ACAD_REACTORS
330
66
102
}
330
66
100
DictionaryVariables
280
     0
  1
2
  0
DICTIONARYVAR
  5
6B
102
{ACAD_REACTORS
330
66
102
}
330
66
100
DictionaryVariables
280
     0
  1
1
  0
ENDSEC
  0
EOF
