  0
SECTION
  2
HEADER
  9
$ACADVER
  1
AC1014
  9
$ACADMAINTVER
 70
     9
  9
$DWGCODEPAGE
  3
ANSI_1250
  9
$INSBASE
 10
0.0
 20
0.0
 30
0.0
  9
$EXTMIN
 10
1.000000000000000E+20
 20
1.000000000000000E+20
 30
1.000000000000000E+20
  9
$EXTMAX
 10
-1.000000000000000E+20
 20
-1.000000000000000E+20
 30
-1.000000000000000E+20
  9
$LIMMIN
 10
0.0
 20
0.0
  9
$LIMMAX
 10
12.0
 20
9.0
  9
$ORTHOMODE
 70
     0
  9
$REGENMODE
 70
     1
  9
$FILLMODE
 70
     1
  9
$QTEXTMODE
 70
     0
  9
$MIRRTEXT
 70
     0
  9
$DRAGMODE
 70
     2
  9
$LTSCALE
 40
1.0
  9
$OSMODE
 70
   511
  9
$ATTMODE
 70
     1
  9
$TEXTSIZE
 40
0.2
  9
$TRACEWID
 40
0.05
  9
$TEXTSTYLE
  7
STANDARD
  9
$CLAYER
  8
KOTY
  9
$CELTYPE
  6
BYLAYER
  9
$CECOLOR
 62
   256
  9
$CELTSCALE
 40
1.0
  9
$DELOBJ
 70
     1
  9
$DISPSILH
 70
     0
  9
$DIMSCALE
 40
1.0
  9
$DIMASZ
 40
0.18
  9
$DIMEXO
 40
0.0625
  9
$DIMDLI
 40
0.38
  9
$DIMRND
 40
0.0
  9
$DIMDLE
 40
0.0
  9
$DIMEXE
 40
0.18
  9
$DIMTP
 40
0.0
  9
$DIMTM
 40
0.0
  9
$DIMTXT
 40
0.18
  9
$DIMCEN
 40
0.09
  9
$DIMTSZ
 40
0.0
  9
$DIMTOL
 70
     0
  9
$DIMLIM
 70
     0
  9
$DIMTIH
 70
     1
  9
$DIMTOH
 70
     1
  9
$DIMSE1
 70
     0
  9
$DIMSE2
 70
     0
  9
$DIMTAD
 70
     0
  9
$DIMZIN
 70
     0
  9
$DIMBLK
  1

  9
$DIMASO
 70
     1
  9
$DIMSHO
 70
     1
  9
$DIMPOST
  1

  9
$DIMAPOST
  1

  9
$DIMALT
 70
     0
  9
$DIMALTD
 70
     2
  9
$DIMALTF
 40
25.4
  9
$DIMLFAC
 40
1.0
  9
$DIMTOFL
 70
     0
  9
$DIMTVP
 40
0.0
  9
$DIMTIX
 70
     0
  9
$DIMSOXD
 70
     0
  9
$DIMSAH
 70
     0
  9
$DIMBLK1
  1

  9
$DIMBLK2
  1

  9
$DIMSTYLE
  2
STANDARD
  9
$DIMCLRD
 70
     0
  9
$DIMCLRE
 70
     0
  9
$DIMCLRT
 70
     0
  9
$DIMTFAC
 40
1.0
  9
$DIMGAP
 40
0.09
  9
$DIMJUST
 70
     0
  9
$DIMSD1
 70
     0
  9
$DIMSD2
 70
     0
  9
$DIMTOLJ
 70
     1
  9
$DIMTZIN
 70
     0
  9
$DIMALTZ
 70
     0
  9
$DIMALTTZ
 70
     0
  9
$DIMFIT
 70
     5
  9
$DIMUPT
 70
     0
  9
$DIMUNIT
 70
     2
  9
$DIMDEC
 70
     4
  9
$DIMTDEC
 70
     4
  9
$DIMALTU
 70
     2
  9
$DIMALTTD
 70
     2
  9
$DIMTXSTY
  7
STANDARD
  9
$DIMAUNIT
 70
     0
  9
$LUNITS
 70
     2
  9
$LUPREC
 70
     4
  9
$SKETCHINC
 40
0.1
  9
$FILLETRAD
 40
0.0
  9
$AUNITS
 70
     0
  9
$AUPREC
 70
     0
  9
$MENU
  1
.
  9
$ELEVATION
 40
0.0
  9
$PELEVATION
 40
0.0
  9
$THICKNESS
 40
0.0
  9
$LIMCHECK
 70
     0
  9
$CHAMFERA
 40
0.0
  9
$CHAMFERB
 40
0.0
  9
$CHAMFERC
 40
0.0
  9
$CHAMFERD
 40
0.0
  9
$SKPOLY
 70
     0
  9
$TDCREATE
 40
2452643.146717593
  9
$TDUPDATE
 40
2457675.408493935
  9
$TDINDWG
 40
0.0318015856
  9
$TDUSRTIMER
 40
2457675.317582326
  9
$USRTIMER
 70
     1
  9
$ANGBASE
 50
0.0
  9
$ANGDIR
 70
     0
  9
$PDMODE
 70
     0
  9
$PDSIZE
 40
0.0
  9
$PLINEWID
 40
0.0
  9
$COORDS
 70
     1
  9
$SPLFRAME
 70
     0
  9
$SPLINETYPE
 70
     6
  9
$SPLINESEGS
 70
     8
  9
$ATTDIA
 70
     0
  9
$ATTREQ
 70
     1
  9
$HANDLING
 70
     1
  9
$HANDSEED
  5
8DC
  9
$SURFTAB1
 70
     6
  9
$SURFTAB2
 70
     6
  9
$SURFTYPE
 70
     6
  9
$SURFU
 70
     6
  9
$SURFV
 70
     6
  9
$UCSNAME
  2

  9
$UCSORG
 10
0.0
 20
0.0
 30
0.0
  9
$UCSXDIR
 10
1.0
 20
0.0
 30
0.0
  9
$UCSYDIR
 10
0.0
 20
1.0
 30
0.0
  9
$PUCSNAME
  2

  9
$PUCSORG
 10
0.0
 20
0.0
 30
0.0
  9
$PUCSXDIR
 10
1.0
 20
0.0
 30
0.0
  9
$PUCSYDIR
 10
0.0
 20
1.0
 30
0.0
  9
$USERI1
 70
     0
  9
$USERI2
 70
     0
  9
$USERI3
 70
     0
  9
$USERI4
 70
     0
  9
$USERI5
 70
     0
  9
$USERR1
 40
0.0
  9
$USERR2
 40
0.0
  9
$USERR3
 40
0.0
  9
$USERR4
 40
0.0
  9
$USERR5
 40
0.0
  9
$WORLDVIEW
 70
     1
  9
$SHADEDGE
 70
     3
  9
$SHADEDIF
 70
    70
  9
$TILEMODE
 70
     0
  9
$MAXACTVP
 70
    64
  9
$PINSBASE
 10
0.0
 20
0.0
 30
0.0
  9
$PLIMCHECK
 70
     0
  9
$PEXTMIN
 10
1.05
 20
0.6999999999999997
 30
0.0
  9
$PEXTMAX
 10
9.45
 20
6.300000000000001
 30
0.0
  9
$PLIMMIN
 10
0.8499999999999998
 20
0.0999999999999991
  9
$PLIMMAX
 10
9.650000000000002
 20
6.900000000000001
  9
$UNITMODE
 70
     0
  9
$VISRETAIN
 70
     1
  9
$PLINEGEN
 70
     0
  9
$PSLTSCALE
 70
     1
  9
$TREEDEPTH
 70
  3020
  9
$PICKSTYLE
 70
     1
  9
$CMLSTYLE
  2
STANDARD
  9
$CMLJUST
 70
     0
  9
$CMLSCALE
 40
1.0
  9
$PROXYGRAPHICS
 70
     1
  9
$MEASUREMENT
 70
     0
  0
ENDSEC
  0
SECTION
  2
CLASSES
  0
CLASS
  1
ACDBDICTIONARYWDFLT
  2
AcDbDictionaryWithDefault
  3
ObjectDBX Classes
 90
        0
280
     0
281
     0
  0
CLASS
  1
ACDBPLACEHOLDER
  2
AcDbPlaceHolder
  3
ObjectDBX Classes
 90
        0
280
     0
281
     0
  0
CLASS
  1
LAYOUT
  2
AcDbLayout
  3
ObjectDBX Classes
 90
        0
280
     0
281
     0
  0
CLASS
  1
DICTIONARYVAR
  2
AcDbDictionaryVar
  3
ObjectDBX Classes
 90
        0
280
     0
281
     0
  0
CLASS
  1
TABLESTYLE
  2
AcDbTableStyle
  3
ObjectDBX Classes
 90
     4095
280
     0
281
     0
  0
CLASS
  1
MATERIAL
  2
AcDbMaterial
  3
ObjectDBX Classes
 90
     1153
280
     0
281
     0
  0
CLASS
  1
VISUALSTYLE
  2
AcDbVisualStyle
  3
ObjectDBX Classes
 90
     4095
280
     0
281
     0
  0
CLASS
  1
SCALE
  2
AcDbScale
  3
ObjectDBX Classes
 90
     1153
280
     0
281
     0
  0
CLASS
  1
CELLSTYLEMAP
  2
AcDbCellStyleMap
  3
ObjectDBX Classes
 90
     1152
280
     0
281
     0
  0
CLASS
  1
RASTERVARIABLES
  2
AcDbRasterVariables
  3
ISM
 90
        0
280
     0
281
     0
  0
CLASS
  1
SUN
  2
AcDbSun
  3
SCENEOE
 90
     1153
280
     0
281
     0
  0
CLASS
  1
MLEADERSTYLE
  2
AcDbMLeaderStyle
  3
ACDB_MLEADERSTYLE_CLASS
 90
     4095
280
     0
281
     0
  0
CLASS
  1
DIMASSOC
  2
AcDbDimAssoc
  3
"AcDbDimAssoc|Product Desc:     AcDim ARX App For Dimension|Company:          Autodesk, Inc.|WEB Address:      www.autodesk.com"
 90
        0
280
     0
281
     0
  0
CLASS
  1
XRECORD
  2
AcDbXrecord
  3
ObjectDBX Classes
 90
        0
280
     0
281
     0
  0
CLASS
  1
LWPOLYLINE
  2
AcDbPolyline
  3
ObjectDBX Classes
 90
        0
280
     0
281
     1
  0
CLASS
  1
HATCH
  2
AcDbHatch
  3
ObjectDBX Classes
 90
        0
280
     0
281
     1
  0
ENDSEC
  0
SECTION
  2
TABLES
  0
TABLE
  2
VPORT
  5
8
330
0
100
AcDbSymbolTable
 70
     1
  0
VPORT
  5
94
330
8
100
AcDbSymbolTableRecord
100
AcDbViewportTableRecord
  2
*ACTIVE
 70
     0
 10
0.0
 20
0.0
 11
1.0
 21
1.0
 12
1678.007631982439
 22
812.037177843988
 13
0.0
 23
0.0
 14
0.5
 24
0.5
 15
0.5
 25
0.5
 16
0.0
 26
0.0
 36
1.0
 17
-27.66959356597999
 27
-19.53870295786203
 37
0.0
 40
128.1233770506716
 41
1.944153577661431
 42
50.0
 43
0.0
 44
0.0
 50
0.0
 51
0.0
 71
    16
 72
  1000
 73
     1
 74
     3
 75
     0
 76
     0
 77
     0
 78
     0
  0
ENDTAB
  0
TABLE
  2
LTYPE
  5
5
330
0
100
AcDbSymbolTable
 70
     1
  0
LTYPE
  5
14
330
5
100
AcDbSymbolTableRecord
100
AcDbLinetypeTableRecord
  2
BYBLOCK
 70
     0
  3

 72
    65
 73
     0
 40
0.0
  0
LTYPE
  5
15
330
5
100
AcDbSymbolTableRecord
100
AcDbLinetypeTableRecord
  2
BYLAYER
 70
     0
  3
Solid line
 72
    65
 73
     0
 40
0.0
  0
LTYPE
  5
16
330
5
100
AcDbSymbolTableRecord
100
AcDbLinetypeTableRecord
  2
CONTINUOUS
 70
     0
  3
Solid line
 72
    65
 73
     0
 40
0.0
  0
ENDTAB
  0
TABLE
  2
LAYER
  5
2
102
{ACAD_XDICTIONARY
360
771
102
}
330
0
100
AcDbSymbolTable
 70
     5
  0
LAYER
  5
10
330
2
100
AcDbSymbolTableRecord
100
AcDbLayerTableRecord
  2
0
 70
     0
 62
     7
  6
CONTINUOUS
  0
LAYER
  5
126
330
2
100
AcDbSymbolTableRecord
100
AcDbLayerTableRecord
  2
1
 70
     0
 62
     7
  6
CONTINUOUS
  0
LAYER
  5
774
330
2
100
AcDbSymbolTableRecord
100
AcDbLayerTableRecord
  2
KOTY
 70
     0
 62
     1
  6
CONTINUOUS
1001
ACAECLAYERSTANDARD
1000

1000

  0
LAYER
  5
776
330
2
100
AcDbSymbolTableRecord
100
AcDbLayerTableRecord
  2
OBRYS
 70
     0
 62
     5
  6
CONTINUOUS
1001
ACAECLAYERSTANDARD
1000

1000

  0
LAYER
  5
77F
330
2
100
AcDbSymbolTableRecord
100
AcDbLayerTableRecord
  2
DEFPOINTS
 70
     0
 62
     7
  6
CONTINUOUS
  0
ENDTAB
  0
TABLE
  2
STYLE
  5
3
330
0
100
AcDbSymbolTable
 70
     1
  0
STYLE
  5
11
330
3
100
AcDbSymbolTableRecord
100
AcDbTextStyleTableRecord
  2
STANDARD
 70
     0
 40
0.0
 41
1.0
 50
0.0
 71
     0
 42
0.2
  3
arial.ttf
  4

1001
ACAD
1000
Arial
1071
        0
  0
ENDTAB
  0
TABLE
  2
VIEW
  5
6
330
0
100
AcDbSymbolTable
 70
     0
  0
ENDTAB
  0
TABLE
  2
UCS
  5
7
330
0
100
AcDbSymbolTable
 70
     0
  0
ENDTAB
  0
TABLE
  2
APPID
  5
9
330
0
100
AcDbSymbolTable
 70
     2
  0
APPID
  5
12
330
9
100
AcDbSymbolTableRecord
100
AcDbRegAppTableRecord
  2
ACAD
 70
     0
  0
APPID
  5
775
330
9
100
AcDbSymbolTableRecord
100
AcDbRegAppTableRecord
  2
ACAECLAYERSTANDARD
 70
     0
  0
ENDTAB
  0
TABLE
  2
DIMSTYLE
  5
A
330
0
100
AcDbSymbolTable
 70
     1
  0
DIMSTYLE
105
27
102
{ACAD_REACTORS
330
780
330
790
330
7A0
330
7B0
102
}
330
A
100
AcDbSymbolTableRecord
100
AcDbDimStyleTableRecord
  2
STANDARD
 70
     0
  3

  4

  5

  6

  7

 40
1.0
 41
0.18
 42
0.0625
 43
0.38
 44
0.18
 45
0.0
 46
0.0
 47
0.0
 48
0.0
140
0.18
141
0.09
142
0.0
143
25.4
144
1.0
145
0.0
146
1.0
147
0.09
 71
     0
 72
     0
 73
     1
 74
     1
 75
     0
 76
     0
 77
     0
 78
     0
170
     0
171
     2
172
     0
173
     0
174
     0
175
     0
176
     0
177
     0
178
     0
270
     2
271
     4
272
     4
273
     2
274
     2
340
11
275
     0
280
     0
281
     0
282
     0
283
     1
284
     0
285
     0
286
     0
287
     3
288
     0
  0
ENDTAB
  0
TABLE
  2
BLOCK_RECORD
  5
1
330
0
100
AcDbSymbolTable
 70
     7
  0
BLOCK_RECORD
  5
1F
330
1
100
AcDbSymbolTableRecord
100
AcDbBlockTableRecord
  2
*MODEL_SPACE
  0
BLOCK_RECORD
  5
7C6
330
1
100
AcDbSymbolTableRecord
100
AcDbBlockTableRecord
  2
*PAPER_SPACE
  0
BLOCK_RECORD
  5
783
330
1
100
AcDbSymbolTableRecord
100
AcDbBlockTableRecord
  2
*D0
  0
BLOCK_RECORD
  5
793
330
1
100
AcDbSymbolTableRecord
100
AcDbBlockTableRecord
  2
*D1
  0
BLOCK_RECORD
  5
7A3
330
1
100
AcDbSymbolTableRecord
100
AcDbBlockTableRecord
  2
*D2
  0
BLOCK_RECORD
  5
7B3
330
1
100
AcDbSymbolTableRecord
100
AcDbBlockTableRecord
  2
*D3
  0
ENDTAB
  0
ENDSEC
  0
SECTION
  2
BLOCKS
  0
BLOCK
  5
20
330
1F
100
AcDbEntity
  8
0
100
AcDbBlockBegin
  2
*MODEL_SPACE
 70
     0
 10
0.0
 20
0.0
 30
0.0
  3
*MODEL_SPACE
  1

  0
ENDBLK
  5
21
330
1F
100
AcDbEntity
  8
0
100
AcDbBlockEnd
  0
BLOCK
  5
7C8
330
7C6
100
AcDbEntity
 67
     1
  8
0
100
AcDbBlockBegin
  2
*PAPER_SPACE
 70
     0
 10
0.0
 20
0.0
 30
0.0
  3
*PAPER_SPACE
  1

  0
ENDBLK
  5
7C9
330
7C6
100
AcDbEntity
 67
     1
  8
0
100
AcDbBlockEnd
  0
BLOCK
  5
784
330
783
100
AcDbEntity
  8
0
100
AcDbBlockBegin
  2
*D0
 70
     1
 10
0.0
 20
0.0
 30
0.0
  3
*D0
  1
*D2
  0
LINE
  5
786
330
783
100
AcDbEntity
  8
KOTY
 62
     0
100
AcDbLine
 10
1659.941317521383
 20
740.3475192472198
 30
0.0
 11
1659.941317521383
 21
731.7598986611409
 31
0.0
  0
LINE
  5
787
330
783
100
AcDbEntity
  8
KOTY
 62
     0
100
AcDbLine
 10
1666.092317521383
 20
740.2475192472198
 30
0.0
 11
1666.092317521383
 21
731.7598986611409
 31
0.0
  0
LINE
  5
788
330
783
100
AcDbEntity
  8
KOTY
 62
     0
100
AcDbLine
 10
1656.941317521383
 20
731.9398986611409
 30
0.0
 11
1653.941317521383
 21
731.9398986611409
 31
0.0
  0
LINE
  5
789
330
783
100
AcDbEntity
  8
KOTY
 62
     0
100
AcDbLine
 10
1669.092317521383
 20
731.9398986611409
 30
0.0
 11
1672.092317521383
 21
731.9398986611409
 31
0.0
  0
SOLID
  5
78A
330
783
100
AcDbEntity
  8
KOTY
 62
     0
100
AcDbTrace
 10
1656.941317521383
 20
731.4398986611409
 30
0.0
 11
1656.941317521383
 21
732.4398986611409
 31
0.0
 12
1659.941317521383
 22
731.9398986611409
 32
0.0
 13
1659.941317521383
 23
731.9398986611409
 33
0.0
  0
SOLID
  5
78B
330
783
100
AcDbEntity
  8
KOTY
 62
     0
100
AcDbTrace
 10
1669.092317521383
 20
732.4398986611409
 30
0.0
 11
1669.092317521383
 21
731.4398986611409
 31
0.0
 12
1666.092317521383
 22
731.9398986611409
 32
0.0
 13
1666.092317521383
 23
731.9398986611409
 33
0.0
  0
MTEXT
  5
78C
330
783
100
AcDbEntity
  8
KOTY
 62
     0
100
AcDbMText
 10
1663.016817521383
 20
734.4713986611409
 30
0.0
 40
3.0
 41
0.0
 71
     5
 72
     1
  1
\A1;6
  0
POINT
  5
78D
330
783
100
AcDbEntity
  8
DEFPOINTS
 62
     0
100
AcDbPoint
 10
1659.941317521383
 20
740.4100192472198
 30
0.0
  0
POINT
  5
78E
330
783
100
AcDbEntity
  8
DEFPOINTS
 62
     0
100
AcDbPoint
 10
1666.092317521383
 20
740.3100192472198
 30
0.0
  0
POINT
  5
78F
330
783
100
AcDbEntity
  8
DEFPOINTS
 62
     0
100
AcDbPoint
 10
1666.092317521383
 20
731.9398986611409
 30
0.0
  0
ENDBLK
  5
785
330
783
100
AcDbEntity
  8
0
100
AcDbBlockEnd
  0
BLOCK
  5
794
330
793
100
AcDbEntity
  8
0
100
AcDbBlockBegin
  2
*D1
 70
     1
 10
0.0
 20
0.0
 30
0.0
  3
*D1
  1
*D3
  0
LINE
  5
796
330
793
100
AcDbEntity
  8
KOTY
 62
     0
100
AcDbLine
 10
1697.142995521383
 20
740.4755772472198
 30
0.0
 11
1697.142995521383
 21
731.7598986611409
 31
0.0
  0
LINE
  5
797
330
793
100
AcDbEntity
  8
KOTY
 62
     0
100
AcDbLine
 10
1705.493995521383
 20
740.3755772472198
 30
0.0
 11
1705.493995521383
 21
731.7598986611409
 31
0.0
  0
LINE
  5
798
330
793
100
AcDbEntity
  8
KOTY
 62
     0
100
AcDbLine
 10
1697.142995521383
 20
731.9398986611409
 30
0.0
 11
1705.493995521383
 21
731.9398986611409
 31
0.0
  0
LINE
  5
799
330
793
100
AcDbEntity
  8
KOTY
 62
     0
100
AcDbLine
 10
1694.142995521383
 20
731.9398986611409
 30
0.0
 11
1691.142995521383
 21
731.9398986611409
 31
0.0
  0
LINE
  5
79A
330
793
100
AcDbEntity
  8
KOTY
 62
     0
100
AcDbLine
 10
1708.493995521383
 20
731.9398986611409
 30
0.0
 11
1711.493995521383
 21
731.9398986611409
 31
0.0
  0
SOLID
  5
79B
330
793
100
AcDbEntity
  8
KOTY
 62
     0
100
AcDbTrace
 10
1694.142995521383
 20
731.4398986611409
 30
0.0
 11
1694.142995521383
 21
732.4398986611409
 31
0.0
 12
1697.142995521383
 22
731.9398986611409
 32
0.0
 13
1697.142995521383
 23
731.9398986611409
 33
0.0
  0
SOLID
  5
79C
330
793
100
AcDbEntity
  8
KOTY
 62
     0
100
AcDbTrace
 10
1708.493995521383
 20
732.4398986611409
 30
0.0
 11
1708.493995521383
 21
731.4398986611409
 31
0.0
 12
1705.493995521383
 22
731.9398986611409
 32
0.0
 13
1705.493995521383
 23
731.9398986611409
 33
0.0
  0
MTEXT
  5
79D
330
793
100
AcDbEntity
  8
KOTY
 62
     0
100
AcDbMText
 10
1701.318495521383
 20
734.4713986611409
 30
0.0
 40
3.0
 41
0.0
 71
     5
 72
     1
  1
\A1;8
  0
POINT
  5
79E
330
793
100
AcDbEntity
  8
DEFPOINTS
 62
     0
100
AcDbPoint
 10
1697.142995521383
 20
740.5380772472198
 30
0.0
  0
POINT
  5
7CD
330
793
100
AcDbEntity
  8
DEFPOINTS
 62
     0
100
AcDbPoint
 10
1705.493995521383
 20
740.4380772472198
 30
0.0
  0
POINT
  5
7CE
330
793
100
AcDbEntity
  8
DEFPOINTS
 62
     0
100
AcDbPoint
 10
1705.493995521383
 20
731.9398986611409
 30
0.0
  0
ENDBLK
  5
795
330
793
100
AcDbEntity
  8
0
100
AcDbBlockEnd
  0
BLOCK
  5
7A4
330
7A3
100
AcDbEntity
  8
0
100
AcDbBlockBegin
  2
*D2
 70
     1
 10
0.0
 20
0.0
 30
0.0
  3
*D2
  1
*D4
  0
LINE
  5
7A6
330
7A3
100
AcDbEntity
  8
KOTY
 62
     0
100
AcDbLine
 10
1575.551592521383
 20
829.6365522472198
 30
0.0
 11
1575.551592521383
 21
850.532893175739
 31
0.0
  0
LINE
  5
7A7
330
7A3
100
AcDbEntity
  8
KOTY
 62
     0
100
AcDbLine
 10
1631.452868519436
 20
808.663508824223
 30
0.0
 11
1631.452868519436
 21
850.532893175739
 31
0.0
  0
LINE
  5
7A8
330
7A3
100
AcDbEntity
  8
KOTY
 62
     0
100
AcDbLine
 10
1578.551592521383
 20
850.352893175739
 30
0.0
 11
1628.452868519436
 21
850.352893175739
 31
0.0
  0
SOLID
  5
7A9
330
7A3
100
AcDbEntity
  8
KOTY
 62
     0
100
AcDbTrace
 10
1578.551592521383
 20
850.852893175739
 30
0.0
 11
1578.551592521383
 21
849.852893175739
 31
0.0
 12
1575.551592521383
 22
850.352893175739
 32
0.0
 13
1575.551592521383
 23
850.352893175739
 33
0.0
  0
SOLID
  5
7AA
330
7A3
100
AcDbEntity
  8
KOTY
 62
     0
100
AcDbTrace
 10
1628.452868519436
 20
849.852893175739
 30
0.0
 11
1628.452868519436
 21
850.852893175739
 31
0.0
 12
1631.452868519436
 22
850.352893175739
 32
0.0
 13
1631.452868519436
 23
850.352893175739
 33
0.0
  0
MTEXT
  5
7AB
330
7A3
100
AcDbEntity
  8
KOTY
 62
     0
100
AcDbMText
 10
1603.50223052041
 20
852.8843931757391
 30
0.0
 40
3.0
 41
0.0
 71
     5
 72
     1
  1
\A1;56
  0
POINT
  5
7AC
330
7A3
100
AcDbEntity
  8
DEFPOINTS
 62
     0
100
AcDbPoint
 10
1575.551592521383
 20
829.5740522472198
 30
0.0
  0
POINT
  5
7AD
330
7A3
100
AcDbEntity
  8
DEFPOINTS
 62
     0
100
AcDbPoint
 10
1631.452868519436
 20
808.601008824223
 30
0.0
  0
POINT
  5
7AE
330
7A3
100
AcDbEntity
  8
DEFPOINTS
 62
     0
100
AcDbPoint
 10
1631.452868519436
 20
850.352893175739
 30
0.0
  0
ENDBLK
  5
7A5
330
7A3
100
AcDbEntity
  8
0
100
AcDbBlockEnd
  0
BLOCK
  5
7B4
330
7B3
100
AcDbEntity
  8
0
100
AcDbBlockBegin
  2
*D3
 70
     1
 10
0.0
 20
0.0
 30
0.0
  3
*D3
  1
*D5
  0
LINE
  5
7B6
330
7B3
100
AcDbEntity
  8
KOTY
 62
     0
100
AcDbLine
 10
1597.590043521383
 20
739.5703572472198
 30
0.0
 11
1564.827826493784
 21
739.5703572472198
 31
0.0
  0
LINE
  5
7B7
330
7B3
100
AcDbEntity
  8
KOTY
 62
     0
100
AcDbLine
 10
1597.590045521383
 20
841.8860162472198
 30
0.0
 11
1564.827826493784
 21
841.8860162472198
 31
0.0
  0
LINE
  5
7B8
330
7B3
100
AcDbEntity
  8
KOTY
 62
     0
100
AcDbLine
 10
1565.007826493784
 20
742.5703572472198
 30
0.0
 11
1565.007826493784
 21
838.8860162472198
 31
0.0
  0
SOLID
  5
7B9
330
7B3
100
AcDbEntity
  8
KOTY
 62
     0
100
AcDbTrace
 10
1564.507826493784
 20
742.5703572472198
 30
0.0
 11
1565.507826493784
 21
742.5703572472198
 31
0.0
 12
1565.007826493784
 22
739.5703572472198
 32
0.0
 13
1565.007826493784
 23
739.5703572472198
 33
0.0
  0
SOLID
  5
7BA
330
7B3
100
AcDbEntity
  8
KOTY
 62
     0
100
AcDbTrace
 10
1565.507826493784
 20
838.8860162472198
 30
0.0
 11
1564.507826493784
 21
838.8860162472198
 31
0.0
 12
1565.007826493784
 22
841.8860162472198
 32
0.0
 13
1565.007826493784
 23
841.8860162472198
 33
0.0
  0
MTEXT
  5
7BB
330
7B3
100
AcDbEntity
  8
KOTY
 62
     0
100
AcDbMText
 10
1562.476326493784
 20
790.7281867472198
 30
0.0
 40
3.0
 41
0.0
 71
     5
 72
     1
  1
\A1;102
 11
0.0
 21
1.0
 31
0.0
  0
POINT
  5
7BC
330
7B3
100
AcDbEntity
  8
DEFPOINTS
 62
     0
100
AcDbPoint
 10
1597.652543521383
 20
739.5703572472198
 30
0.0
  0
POINT
  5
7BD
330
7B3
100
AcDbEntity
  8
DEFPOINTS
 62
     0
100
AcDbPoint
 10
1597.652545521383
 20
841.8860162472198
 30
0.0
  0
POINT
  5
7BE
330
7B3
100
AcDbEntity
  8
DEFPOINTS
 62
     0
100
AcDbPoint
 10
1565.007826493784
 20
841.8860162472198
 30
0.0
  0
ENDBLK
  5
7B5
330
7B3
100
AcDbEntity
  8
0
100
AcDbBlockEnd
  0
ENDSEC
  0
SECTION
  2
ENTITIES
  0
LINE
  5
45E
330
1F
100
AcDbEntity
  8
OBRYS
  6
CONTINUOUS
100
AcDbLine
 10
1576.654113521383
 20
831.0326012472199
 30
0.0
 11
1576.874110521383
 21
830.2115642472198
 31
0.0
  0
LINE
  5
45F
330
1F
100
AcDbEntity
  8
OBRYS
  6
CONTINUOUS
100
AcDbLine
 10
1581.703737521383
 20
831.5056672472199
 30
0.0
 11
1581.483740521383
 21
832.3267042472198
 31
0.0
  0
LINE
  5
460
330
1F
100
AcDbEntity
  8
OBRYS
  6
CONTINUOUS
100
AcDbLine
 10
1581.483740521383
 20
832.3267042472198
 30
0.0
 11
1576.654113521383
 21
831.0326012472199
 31
0.0
  0
LINE
  5
461
330
1F
100
AcDbEntity
  8
OBRYS
  6
CONTINUOUS
100
AcDbLine
 10
1576.874110521383
 20
830.2115642472198
 30
0.0
 11
1576.973728521383
 21
830.0814542472199
 31
0.0
  0
LINE
  5
462
330
1F
100
AcDbEntity
  8
OBRYS
  6
CONTINUOUS
100
AcDbLine
 10
1581.682343521383
 20
831.3418152472199
 30
0.0
 11
1581.703737521383
 21
831.5056672472199
 31
0.0
  0
LINE
  5
463
330
1F
100
AcDbEntity
  8
OBRYS
  6
CONTINUOUS
100
AcDbLine
 10
1581.483739521383
 20
749.1296652472198
 30
0.0
 11
1576.654112521383
 21
750.4237682472199
 31
0.0
  0
LINE
  5
464
330
1F
100
AcDbEntity
  8
OBRYS
  6
CONTINUOUS
100
AcDbLine
 10
1581.703737521383
 20
749.9507022472199
 30
0.0
 11
1581.483739521383
 21
749.1296652472198
 31
0.0
  0
LINE
  5
465
330
1F
100
AcDbEntity
  8
OBRYS
  6
CONTINUOUS
100
AcDbLine
 10
1576.654112521383
 20
750.4237682472199
 30
0.0
 11
1576.874110521383
 21
751.2448052472198
 31
0.0
  0
LINE
  5
466
330
1F
100
AcDbEntity
  8
OBRYS
  6
CONTINUOUS
100
AcDbLine
 10
1576.874110521383
 20
751.2448052472198
 30
0.0
 11
1576.973735521383
 21
751.3749242472198
 31
0.0
  0
LINE
  5
467
330
1F
100
AcDbEntity
  8
OBRYS
  6
CONTINUOUS
100
AcDbLine
 10
1581.682341521383
 20
750.1145652472198
 30
0.0
 11
1581.703737521383
 21
749.9507022472199
 31
0.0
  0
LINE
  5
468
330
1F
100
AcDbEntity
  8
OBRYS
  6
CONTINUOUS
100
AcDbLine
 10
1624.534390521383
 20
744.2708732472198
 30
0.0
 11
1624.534383108426
 21
771.6820111250473
 31
-0.0000000000000825
  0
LINE
  5
469
330
1F
100
AcDbEntity
  8
OBRYS
  6
CONTINUOUS
100
AcDbLine
 10
1628.742937521383
 20
743.7984022472199
 30
0.0
 11
1625.700853521383
 21
743.2848262472198
 31
0.0
  0
LINE
  5
46A
330
1F
100
AcDbEntity
  8
OBRYS
  6
CONTINUOUS
100
AcDbLine
 10
1635.667269521383
 20
743.9490932472198
 30
0.0
 11
1630.540794521383
 21
743.9490952472198
 31
0.0
  0
LINE
  5
46B
330
1F
100
AcDbEntity
  8
OBRYS
  6
CONTINUOUS
100
AcDbLine
 10
1636.667272521383
 20
744.9490924792749
 30
-0.0000000000000947
 11
1636.667267521383
 21
770.9013672472198
 31
0.0
  0
LINE
  5
46C
330
1F
100
AcDbEntity
  8
OBRYS
  6
CONTINUOUS
100
AcDbLine
 10
1625.510337521383
 20
772.6817172472198
 30
0.0
 11
1634.619183521383
 21
772.9007882472198
 31
0.0
  0
LINE
  5
46D
330
1F
100
AcDbEntity
  8
OBRYS
  6
CONTINUOUS
100
AcDbLine
 10
1626.591135521383
 20
773.7710772472199
 30
0.0
 11
1630.657402521383
 21
773.5258372472199
 31
0.0
  0
LINE
  5
46E
330
1F
100
AcDbEntity
  8
OBRYS
  6
CONTINUOUS
100
AcDbLine
 10
1630.903421521383
 20
773.5261582472199
 30
0.0
 11
1632.696345521383
 21
773.6389902472198
 31
0.0
  0
LINE
  5
46F
330
1F
100
AcDbEntity
  8
OBRYS
  6
CONTINUOUS
100
AcDbLine
 10
1632.883783521383
 20
773.8385952472198
 30
0.0
 11
1632.883783521383
 21
774.4282622472199
 31
0.0
  0
LINE
  5
470
330
1F
100
AcDbEntity
  8
OBRYS
  6
CONTINUOUS
100
AcDbLine
 10
1633.106074521383
 20
774.6270162472199
 30
0.0
 11
1633.471991521383
 21
774.5859772472198
 31
0.0
  0
LINE
  5
471
330
1F
100
AcDbEntity
  8
OBRYS
  6
CONTINUOUS
100
AcDbLine
 10
1637.813985521383
 20
770.5175072472198
 30
0.0
 11
1637.813990521383
 21
741.3100202472199
 31
0.0
  0
LINE
  5
472
330
1F
100
AcDbEntity
  8
OBRYS
  6
CONTINUOUS
100
AcDbLine
 10
1636.813987521383
 20
740.3100192472198
 30
0.0
 11
1633.613989521383
 21
740.3100192472198
 31
0.0
  0
LINE
  5
473
330
1F
100
AcDbEntity
  8
OBRYS
  6
CONTINUOUS
100
AcDbLine
 10
1634.078197521383
 20
741.6490962472199
 30
0.0
 11
1634.863989521383
 21
741.6490962472199
 31
0.0
  0
LINE
  5
474
330
1F
100
AcDbEntity
  8
OBRYS
  6
CONTINUOUS
100
AcDbLine
 10
1634.863989521383
 20
743.1490962472199
 30
0.0
 11
1630.540799983527
 21
743.1490970685221
 31
0.0
  0
LINE
  5
475
330
1F
100
AcDbEntity
  8
OBRYS
  6
CONTINUOUS
100
AcDbLine
 10
1628.876118521383
 20
743.0095652472198
 30
0.0
 11
1626.669528521383
 21
742.6370392472198
 31
0.0
  0
LINE
  5
476
330
1F
100
AcDbEntity
  8
OBRYS
  6
CONTINUOUS
100
AcDbLine
 10
1602.677200521383
 20
740.4733122472198
 30
0.0
 11
1604.878814521383
 21
740.4733122472198
 31
0.0
  0
LINE
  5
477
330
1F
100
AcDbEntity
  8
OBRYS
  6
CONTINUOUS
100
AcDbLine
 10
1602.639175521383
 20
740.5728432472198
 30
0.0
 11
1602.677200521383
 21
740.4733122472198
 31
0.0
  0
LINE
  5
478
330
1F
100
AcDbEntity
  8
OBRYS
  6
CONTINUOUS
100
AcDbLine
 10
1597.627887521383
 20
740.4714972472198
 30
0.0
 11
1597.666192521383
 21
740.5717622472198
 31
0.0
  0
LINE
  5
479
330
1F
100
AcDbEntity
  8
OBRYS
  6
CONTINUOUS
100
AcDbLine
 10
1596.499866521383
 20
740.4714992472199
 30
0.0
 11
1597.627887521383
 21
740.4714972472198
 31
0.0
  0
LINE
  5
47A
330
1F
100
AcDbEntity
  8
OBRYS
  6
CONTINUOUS
100
AcDbLine
 10
1591.936905521383
 20
752.4309902472198
 30
0.0
 11
1596.217959521383
 21
740.6688922472198
 31
0.0
  0
LINE
  5
47B
330
1F
100
AcDbEntity
  8
OBRYS
  6
CONTINUOUS
100
AcDbLine
 10
1584.739505521383
 20
749.8113512472198
 30
0.0
 11
1591.936905521383
 21
752.4309902472198
 31
0.0
  0
LINE
  5
47C
330
1F
100
AcDbEntity
  8
OBRYS
  6
CONTINUOUS
100
AcDbLine
 10
1582.606793521383
 20
749.7811972472198
 30
0.0
 11
1584.568495521383
 21
749.7811972472198
 31
0.0
  0
LINE
  5
47D
330
1F
100
AcDbEntity
  8
OBRYS
  6
CONTINUOUS
100
AcDbLine
 10
1581.741261521383
 20
749.9954792472198
 30
0.0
 11
1582.477383521383
 21
749.7982342472199
 31
0.0
  0
LINE
  5
47E
330
1F
100
AcDbEntity
  8
OBRYS
  6
CONTINUOUS
100
AcDbLine
 10
1581.730263521383
 20
750.1017432472198
 30
0.0
 11
1581.741261521383
 21
749.9954792472198
 31
0.0
  0
LINE
  5
47F
330
1F
100
AcDbEntity
  8
OBRYS
  6
CONTINUOUS
100
AcDbLine
 10
1576.863530521383
 20
751.3005842472198
 30
0.0
 11
1576.926515521383
 21
751.3875672472199
 31
0.0
  0
LINE
  5
480
330
1F
100
AcDbEntity
  8
OBRYS
  6
CONTINUOUS
100
AcDbLine
 10
1575.773946521383
 20
751.5925392472199
 30
0.0
 11
1576.863530521383
 21
751.3005842472198
 31
0.0
  0
LINE
  5
481
330
1F
100
AcDbEntity
  8
OBRYS
  6
CONTINUOUS
100
AcDbLine
 10
1575.551592521383
 20
764.3992792472199
 30
0.0
 11
1575.551592521383
 21
751.8823172472198
 31
0.0
  0
LINE
  5
482
330
1F
100
AcDbEntity
  8
OBRYS
  6
CONTINUOUS
100
AcDbLine
 10
1575.551592521383
 20
773.4973902472199
 30
0.0
 11
1575.551592521383
 21
770.1535252472198
 31
0.0
  0
LINE
  5
483
330
1F
100
AcDbEntity
  8
OBRYS
  6
CONTINUOUS
100
AcDbLine
 10
1576.926412521383
 20
784.4997942472198
 30
0.0
 11
1576.309853521383
 21
784.4997932472198
 31
0.0
  0
LINE
  5
484
330
1F
100
AcDbEntity
  8
OBRYS
  6
CONTINUOUS
100
AcDbLine
 10
1575.551592521383
 20
793.3510612472198
 30
0.0
 11
1575.551592521383
 21
784.4997822472199
 31
0.0
  0
LINE
  5
485
330
1F
100
AcDbEntity
  8
OBRYS
  6
CONTINUOUS
100
AcDbLine
 10
1575.551592521383
 20
811.3028432472198
 30
0.0
 11
1575.551592521383
 21
799.1053082472198
 31
0.0
  0
LINE
  5
486
330
1F
100
AcDbEntity
  8
OBRYS
  6
CONTINUOUS
100
AcDbLine
 10
1575.551592521383
 20
829.5740522472198
 30
0.0
 11
1575.551592521383
 21
817.0570902472198
 31
0.0
  0
LINE
  5
487
330
1F
100
AcDbEntity
  8
OBRYS
  6
CONTINUOUS
100
AcDbLine
 10
1576.863530521383
 20
830.1557852472198
 30
0.0
 11
1575.773946521383
 21
829.8638302472198
 31
0.0
  0
LINE
  5
488
330
1F
100
AcDbEntity
  8
OBRYS
  6
CONTINUOUS
100
AcDbLine
 10
1576.926507521383
 20
830.0688142472198
 30
0.0
 11
1576.863530521383
 21
830.1557852472198
 31
0.0
  0
LINE
  5
489
330
1F
100
AcDbEntity
  8
OBRYS
  6
CONTINUOUS
100
AcDbLine
 10
1581.741262521383
 20
831.4608902472198
 30
0.0
 11
1581.730265521383
 21
831.3546412472199
 31
0.0
  0
LINE
  5
48A
330
1F
100
AcDbEntity
  8
OBRYS
  6
CONTINUOUS
100
AcDbLine
 10
1582.477382521383
 20
831.6581342472198
 30
0.0
 11
1581.741262521383
 21
831.4608902472198
 31
0.0
  0
LINE
  5
48B
330
1F
100
AcDbEntity
  8
OBRYS
  6
CONTINUOUS
100
AcDbLine
 10
1584.568494521383
 20
831.6751722472198
 30
0.0
 11
1582.606793521383
 21
831.6751722472198
 31
0.0
  0
LINE
  5
48C
330
1F
100
AcDbEntity
  8
OBRYS
  6
CONTINUOUS
100
AcDbLine
 10
1591.936906521383
 20
829.0253792472198
 30
0.0
 11
1584.739504521383
 21
831.6450182472198
 31
0.0
  0
LINE
  5
48D
330
1F
100
AcDbEntity
  8
OBRYS
  6
CONTINUOUS
100
AcDbLine
 10
1596.217959521383
 20
840.7874752472198
 30
0.0
 11
1591.936906521383
 21
829.0253792472198
 31
0.0
  0
LINE
  5
48E
330
1F
100
AcDbEntity
  8
OBRYS
  6
CONTINUOUS
100
AcDbLine
 10
1597.627887521383
 20
840.9848712472199
 30
0.0
 11
1596.499866521383
 21
840.9848692472199
 31
0.0
  0
LINE
  5
48F
330
1F
100
AcDbEntity
  8
OBRYS
  6
CONTINUOUS
100
AcDbLine
 10
1597.666187521383
 20
840.8846202472198
 30
0.0
 11
1597.627887521383
 21
840.9848712472199
 31
0.0
  0
LINE
  5
490
330
1F
100
AcDbEntity
  8
OBRYS
  6
CONTINUOUS
100
AcDbLine
 10
1602.677200521383
 20
840.9830562472198
 30
0.0
 11
1602.639181521383
 21
840.8835402472198
 31
0.0
  0
LINE
  5
491
330
1F
100
AcDbEntity
  8
OBRYS
  6
CONTINUOUS
100
AcDbLine
 10
1604.878814521383
 20
840.9830562472198
 30
0.0
 11
1602.677200521383
 21
840.9830562472198
 31
0.0
  0
LINE
  5
492
330
1F
100
AcDbEntity
  8
OBRYS
  6
CONTINUOUS
100
AcDbLine
 10
1625.080357521383
 20
839.7920842472198
 30
0.0
 11
1636.668256521383
 21
822.9819862472198
 31
0.0
  0
LINE
  5
493
330
1F
100
AcDbEntity
  8
OBRYS
  6
CONTINUOUS
100
AcDbLine
 10
1637.551588521383
 20
820.1441972472198
 30
0.0
 11
1637.551590521383
 21
808.4780542472198
 31
0.0
  0
LINE
  5
494
330
1F
100
AcDbEntity
  8
OBRYS
  6
CONTINUOUS
100
AcDbLine
 10
1576.501592521383
 20
785.7997942472198
 30
0.0
 11
1576.501592521383
 21
786.9245922472198
 31
0.0
  0
LINE
  5
495
330
1F
100
AcDbEntity
  8
OBRYS
  6
CONTINUOUS
100
AcDbLine
 10
1576.926432521383
 20
785.4497942472199
 30
0.0
 11
1576.851591521383
 21
785.4497942472199
 31
0.0
  0
LINE
  5
496
330
1F
100
AcDbEntity
  8
OBRYS
  6
CONTINUOUS
100
AcDbLine
 10
1632.248120521383
 20
808.2281932472198
 30
0.0
 11
1631.451595521383
 21
808.2281922472198
 31
0.0
  0
LINE
  5
497
330
1F
100
AcDbEntity
  8
OBRYS
  6
CONTINUOUS
100
AcDbLine
 10
1631.639306521383
 20
798.2036652472198
 30
0.0
 11
1633.086551521383
 21
801.4274902472198
 31
0.0
  0
LINE
  5
498
330
1F
100
AcDbEntity
  8
OBRYS
  6
CONTINUOUS
100
AcDbLine
 10
1631.551593521383
 20
805.4708522472198
 30
0.0
 11
1631.551593521383
 21
804.2927122472198
 31
0.0
  0
LINE
  5
499
330
1F
100
AcDbEntity
  8
OBRYS
  6
CONTINUOUS
100
AcDbLine
 10
1632.441305521383
 20
808.0799562472198
 30
0.0
 11
1632.458182521383
 21
808.0169692472198
 31
0.0
  0
LINE
  5
49A
330
1F
100
AcDbEntity
  8
OBRYS
  6
CONTINUOUS
100
AcDbLine
 10
1576.926435521383
 20
783.9110442472198
 30
0.0
 11
1576.731597521383
 21
784.4997962472198
 31
0.0
  0
LINE
  5
49B
330
1F
100
AcDbEntity
  8
OBRYS
  6
CONTINUOUS
100
AcDbLine
 10
1602.652543521383
 20
740.4203532472199
 30
0.0
 11
1602.652543521383
 21
739.5703532472198
 31
0.0
  0
LINE
  5
49C
330
1F
100
AcDbEntity
  8
OBRYS
  6
CONTINUOUS
100
AcDbLine
 10
1602.652543521383
 20
739.5703532472198
 30
0.0
 11
1597.652543521383
 21
739.5703572472198
 31
0.0
  0
LINE
  5
49D
330
1F
100
AcDbEntity
  8
OBRYS
  6
CONTINUOUS
100
AcDbLine
 10
1597.652543521383
 20
739.5703572472198
 30
0.0
 11
1597.652543521383
 21
740.4203572472198
 31
0.0
  0
LINE
  5
49E
330
1F
100
AcDbEntity
  8
OBRYS
  6
CONTINUOUS
100
AcDbLine
 10
1597.652543521383
 20
740.4203572472198
 30
0.0
 11
1597.715074521383
 21
740.5717732472199
 31
0.0
  0
LINE
  5
49F
330
1F
100
AcDbEntity
  8
OBRYS
  6
CONTINUOUS
100
AcDbLine
 10
1602.589577521383
 20
740.5728262472198
 30
0.0
 11
1602.652543521383
 21
740.4203532472199
 31
0.0
  0
LINE
  5
4A0
330
1F
100
AcDbEntity
  8
OBRYS
  6
CONTINUOUS
100
AcDbLine
 10
1602.652543521383
 20
841.0360072472198
 30
0.0
 11
1602.652545521383
 21
841.8860072472198
 31
0.0
  0
LINE
  5
4A1
330
1F
100
AcDbEntity
  8
OBRYS
  6
CONTINUOUS
100
AcDbLine
 10
1597.652545521383
 20
841.8860162472198
 30
0.0
 11
1597.652543521383
 21
841.0360162472198
 31
0.0
  0
LINE
  5
4A2
330
1F
100
AcDbEntity
  8
OBRYS
  6
CONTINUOUS
100
AcDbLine
 10
1602.652545521383
 20
841.8860072472198
 30
0.0
 11
1597.652545521383
 21
841.8860162472198
 31
0.0
  0
LINE
  5
4A3
330
1F
100
AcDbEntity
  8
OBRYS
  6
CONTINUOUS
100
AcDbLine
 10
1597.652543521383
 20
841.0360162472198
 30
0.0
 11
1597.715069521383
 21
840.8846102472198
 31
0.0
  0
LINE
  5
4A4
330
1F
100
AcDbEntity
  8
OBRYS
  6
CONTINUOUS
100
AcDbLine
 10
1602.589581521383
 20
840.8835452472199
 30
0.0
 11
1602.652543521383
 21
841.0360072472198
 31
0.0
  0
LINE
  5
4A5
330
1F
100
AcDbEntity
  8
OBRYS
  6
CONTINUOUS
100
AcDbLine
 10
1586.351591521383
 20
787.1445992472198
 30
0.0
 11
1576.459760521383
 21
787.1446012472198
 31
0.0
  0
LINE
  5
4A6
330
1F
100
AcDbEntity
  8
OBRYS
  6
CONTINUOUS
100
AcDbLine
 10
1586.351592521383
 20
794.3117812472199
 30
0.0
 11
1576.459761521383
 21
794.3117832472199
 31
0.0
  0
LINE
  5
4A7
330
1F
100
AcDbEntity
  8
OBRYS
  6
CONTINUOUS
100
AcDbLine
 10
1586.651592521383
 20
794.6117812472198
 30
0.0
 11
1586.651593521383
 21
797.8446002472199
 31
0.0
  0
LINE
  5
4A8
330
1F
100
AcDbEntity
  8
OBRYS
  6
CONTINUOUS
100
AcDbLine
 10
1586.351593521383
 20
798.1446002472198
 30
0.0
 11
1576.459762521383
 21
798.1446012472198
 31
0.0
  0
LINE
  5
4A9
330
1F
100
AcDbEntity
  8
OBRYS
  6
CONTINUOUS
100
AcDbLine
 10
1586.351595521383
 20
812.2635642472198
 30
0.0
 11
1576.459764521383
 21
812.2635652472198
 31
0.0
  0
LINE
  5
4AA
330
1F
100
AcDbEntity
  8
OBRYS
  6
CONTINUOUS
100
AcDbLine
 10
1586.651595521383
 20
812.5635642472198
 30
0.0
 11
1586.651595521383
 21
815.7963822472199
 31
0.0
  0
LINE
  5
4AB
330
1F
100
AcDbEntity
  8
OBRYS
  6
CONTINUOUS
100
AcDbLine
 10
1586.351595521383
 20
816.0963822472198
 30
0.0
 11
1576.459764521383
 21
816.0963842472198
 31
0.0
  0
LINE
  5
4AC
330
1F
100
AcDbEntity
  8
OBRYS
  6
CONTINUOUS
100
AcDbLine
 10
1602.639181521383
 20
840.8835402472198
 30
0.0
 11
1597.666187521383
 21
840.8846202472198
 31
0.0
  0
LINE
  5
4AD
330
1F
100
AcDbEntity
  8
OBRYS
  6
CONTINUOUS
100
AcDbLine
 10
1632.602385521383
 20
808.6468392472198
 30
0.0
 11
1632.823091521383
 21
807.7726732472198
 31
0.0
  0
LINE
  5
4AE
330
1F
100
AcDbEntity
  8
OBRYS
  6
CONTINUOUS
100
AcDbLine
 10
1631.751595521383
 20
808.8734012472198
 30
0.0
 11
1632.311513521383
 21
808.8734012472198
 31
0.0
  0
LINE
  5
4AF
330
1F
100
AcDbEntity
  8
OBRYS
  6
CONTINUOUS
100
AcDbLine
 10
1631.451595521383
 20
775.4483162472199
 30
0.0
 11
1631.451595521383
 21
808.5734012472199
 31
0.0
  0
LINE
  5
4B0
330
1F
100
AcDbEntity
  8
OBRYS
  6
CONTINUOUS
100
AcDbLine
 10
1626.325350847899
 20
775.0483039991193
 30
0.0
 11
1631.051595521383
 21
775.0483172472199
 31
0.0
  0
LINE
  5
4B1
330
1F
100
AcDbEntity
  8
OBRYS
  6
CONTINUOUS
100
AcDbLine
 10
1597.666192521383
 20
740.5717622472198
 30
0.0
 11
1602.639175521383
 21
740.5728432472198
 31
0.0
  0
LINE
  5
4B2
330
1F
100
AcDbEntity
  8
OBRYS
  6
CONTINUOUS
100
AcDbLine
 10
1576.926515521383
 20
751.3875672472199
 30
0.0
 11
1581.730263521383
 21
750.1017432472198
 31
0.0
  0
LINE
  5
4B3
330
1F
100
AcDbEntity
  8
OBRYS
  6
CONTINUOUS
100
AcDbLine
 10
1586.651588521383
 20
765.6599992472198
 30
0.0
 11
1586.651589521383
 21
768.8928172472198
 31
0.0
  0
LINE
  5
4B4
330
1F
100
AcDbEntity
  8
OBRYS
  6
CONTINUOUS
100
AcDbLine
 10
1586.351589521383
 20
769.1928182472199
 30
0.0
 11
1576.459758521383
 21
769.1928192472199
 31
0.0
  0
LINE
  5
4B5
330
1F
100
AcDbEntity
  8
OBRYS
  6
CONTINUOUS
100
AcDbLine
 10
1586.351591521383
 20
783.3117812472199
 30
0.0
 11
1576.459760521383
 21
783.3117822472199
 31
0.0
  0
LINE
  5
4B6
330
1F
100
AcDbEntity
  8
OBRYS
  6
CONTINUOUS
100
AcDbLine
 10
1586.651591521383
 20
783.6117812472198
 30
0.0
 11
1586.651591521383
 21
786.8445992472198
 31
0.0
  0
LINE
  5
4B7
330
1F
100
AcDbEntity
  8
OBRYS
  6
CONTINUOUS
100
AcDbLine
 10
1586.351588521383
 20
765.3599992472198
 30
0.0
 11
1576.459757521383
 21
765.3600002472199
 31
0.0
  0
LINE
  5
4B8
330
1F
100
AcDbEntity
  8
OBRYS
  6
CONTINUOUS
100
AcDbLine
 10
1575.651591521383
 20
782.5324782472198
 30
0.0
 11
1575.651589521383
 21
769.9721242472199
 31
0.0
  0
LINE
  5
4B9
330
1F
100
AcDbEntity
  8
OBRYS
  6
CONTINUOUS
100
AcDbLine
 10
1581.730265521383
 20
831.3546412472199
 30
0.0
 11
1576.926507521383
 21
830.0688142472198
 31
0.0
  0
LINE
  5
4BA
330
1F
100
AcDbEntity
  8
OBRYS
  6
CONTINUOUS
100
AcDbLine
 10
1575.612765526179
 20
764.5432482209694
 30
0.0
 11
1576.926425521383
 21
765.8100002472198
 31
0.0
  0
LINE
  5
4BB
330
1F
100
AcDbEntity
  8
OBRYS
  6
CONTINUOUS
100
AcDbLine
 10
1576.926429521383
 20
797.6946022472198
 30
0.0
 11
1575.612765526179
 21
798.9613392734702
 31
0.0
  0
LINE
  5
4BC
330
1F
100
AcDbEntity
  8
OBRYS
  6
CONTINUOUS
100
AcDbLine
 10
1575.651592521383
 20
793.5324782472198
 30
0.0
 11
1575.651591521383
 21
787.9239052472199
 31
0.0
  0
LINE
  5
4BD
330
1F
100
AcDbEntity
  8
OBRYS
  6
CONTINUOUS
100
AcDbLine
 10
1576.926432521383
 20
815.6463842472199
 30
0.0
 11
1575.612765526179
 21
816.9131212734702
 31
0.0
  0
LINE
  5
4BE
330
1F
100
AcDbEntity
  8
OBRYS
  6
CONTINUOUS
100
AcDbLine
 10
1586.351595521383
 20
815.7963812472199
 30
0.0
 11
1576.770876521383
 21
815.7963832472199
 31
0.0
  0
LINE
  5
4BF
330
1F
100
AcDbEntity
  8
OBRYS
  6
CONTINUOUS
100
AcDbLine
 10
1586.051595521383
 20
815.4963812472198
 30
0.0
 11
1586.563727521383
 21
816.0085142472199
 31
0.0
  0
LINE
  5
4C0
330
1F
100
AcDbEntity
  8
OBRYS
  6
CONTINUOUS
100
AcDbLine
 10
1576.770875521383
 20
812.5635662472198
 30
0.0
 11
1586.351595521383
 21
812.5635642472198
 31
0.0
  0
LINE
  5
4C1
330
1F
100
AcDbEntity
  8
OBRYS
  6
CONTINUOUS
100
AcDbLine
 10
1586.051595521383
 20
812.8635632472199
 30
0.0
 11
1586.563727521383
 21
812.3514312472198
 31
0.0
  0
LINE
  5
4C2
330
1F
100
AcDbEntity
  8
OBRYS
  6
CONTINUOUS
100
AcDbLine
 10
1586.351594521383
 20
812.5635632472198
 30
0.0
 11
1586.351595521383
 21
815.7963812472199
 31
0.0
  0
LINE
  5
4C3
330
1F
100
AcDbEntity
  8
OBRYS
  6
CONTINUOUS
100
AcDbLine
 10
1576.926425521383
 20
768.5928192472198
 30
0.0
 11
1586.051589521383
 21
768.5928182472198
 31
0.0
  0
LINE
  5
4C4
330
1F
100
AcDbEntity
  8
OBRYS
  6
CONTINUOUS
100
AcDbLine
 10
1586.051589521383
 20
768.5928182472198
 30
0.0
 11
1586.051588521383
 21
765.9599992472198
 31
0.0
  0
LINE
  5
4C5
330
1F
100
AcDbEntity
  8
OBRYS
  6
CONTINUOUS
100
AcDbLine
 10
1586.051588521383
 20
765.9599992472198
 30
0.0
 11
1576.926425521383
 21
765.9600002472198
 31
0.0
  0
LINE
  5
4C6
330
1F
100
AcDbEntity
  8
OBRYS
  6
CONTINUOUS
100
AcDbLine
 10
1576.926425521383
 20
765.8100002472198
 30
0.0
 11
1576.926425521383
 21
768.7428192472198
 31
0.0
  0
LINE
  5
4C7
330
1F
100
AcDbEntity
  8
OBRYS
  6
CONTINUOUS
100
AcDbLine
 10
1576.926432521383
 20
815.4963832472198
 30
0.0
 11
1586.051595521383
 21
815.4963812472198
 31
0.0
  0
LINE
  5
4C8
330
1F
100
AcDbEntity
  8
OBRYS
  6
CONTINUOUS
100
AcDbLine
 10
1576.926428521383
 20
786.5446012472198
 30
0.0
 11
1586.051591521383
 21
786.5445992472198
 31
0.0
  0
LINE
  5
4C9
330
1F
100
AcDbEntity
  8
OBRYS
  6
CONTINUOUS
100
AcDbLine
 10
1586.051591521383
 20
786.5445992472198
 30
0.0
 11
1586.051591521383
 21
783.9117812472198
 31
0.0
  0
LINE
  5
4CA
330
1F
100
AcDbEntity
  8
OBRYS
  6
CONTINUOUS
100
AcDbLine
 10
1586.051591521383
 20
783.9117812472198
 30
0.0
 11
1576.926427521383
 21
783.9117822472199
 31
0.0
  0
LINE
  5
4CB
330
1F
100
AcDbEntity
  8
OBRYS
  6
CONTINUOUS
100
AcDbLine
 10
1576.926427521383
 20
783.7617822472198
 30
0.0
 11
1576.926428521383
 21
786.6946012472198
 31
0.0
  0
LINE
  5
4CC
330
1F
100
AcDbEntity
  8
OBRYS
  6
CONTINUOUS
100
AcDbLine
 10
1586.351588521383
 20
765.6599992472198
 30
0.0
 11
1576.770869521383
 21
765.6600002472198
 31
0.0
  0
LINE
  5
4CD
330
1F
100
AcDbEntity
  8
OBRYS
  6
CONTINUOUS
100
AcDbLine
 10
1586.051588521383
 20
765.9599992472198
 30
0.0
 11
1586.563720521383
 21
765.4478672472198
 31
0.0
  0
LINE
  5
4CE
330
1F
100
AcDbEntity
  8
OBRYS
  6
CONTINUOUS
100
AcDbLine
 10
1586.051595521383
 20
815.4963812472198
 30
0.0
 11
1586.051595521383
 21
812.8635632472199
 31
0.0
  0
LINE
  5
4CF
330
1F
100
AcDbEntity
  8
OBRYS
  6
CONTINUOUS
100
AcDbLine
 10
1586.051595521383
 20
812.8635632472199
 30
0.0
 11
1576.926431521383
 21
812.8635642472199
 31
0.0
  0
LINE
  5
4D0
330
1F
100
AcDbEntity
  8
OBRYS
  6
CONTINUOUS
100
AcDbLine
 10
1576.926431521383
 20
812.7135652472198
 30
0.0
 11
1576.926432521383
 21
815.6463842472199
 31
0.0
  0
LINE
  5
4D1
330
1F
100
AcDbEntity
  8
OBRYS
  6
CONTINUOUS
100
AcDbLine
 10
1576.926429521383
 20
797.5446012472198
 30
0.0
 11
1586.051593521383
 21
797.5446002472198
 31
0.0
  0
LINE
  5
4D2
330
1F
100
AcDbEntity
  8
OBRYS
  6
CONTINUOUS
100
AcDbLine
 10
1586.051593521383
 20
797.5446002472198
 30
0.0
 11
1586.051592521383
 21
794.9117812472198
 31
0.0
  0
LINE
  5
4D3
330
1F
100
AcDbEntity
  8
OBRYS
  6
CONTINUOUS
100
AcDbLine
 10
1586.051592521383
 20
794.9117812472198
 30
0.0
 11
1576.926429521383
 21
794.9117822472199
 31
0.0
  0
LINE
  5
4D4
330
1F
100
AcDbEntity
  8
OBRYS
  6
CONTINUOUS
100
AcDbLine
 10
1576.926429521383
 20
794.7617832472198
 30
0.0
 11
1576.926429521383
 21
797.6946022472198
 31
0.0
  0
LINE
  5
4D5
330
1F
100
AcDbEntity
  8
OBRYS
  6
CONTINUOUS
100
AcDbLine
 10
1576.770869521383
 20
768.8928192472198
 30
0.0
 11
1586.351589521383
 21
768.8928182472198
 31
0.0
  0
LINE
  5
4D6
330
1F
100
AcDbEntity
  8
OBRYS
  6
CONTINUOUS
100
AcDbLine
 10
1586.051589521383
 20
768.5928182472198
 30
0.0
 11
1586.563721521383
 21
769.1049502472198
 31
0.0
  0
LINE
  5
4D7
330
1F
100
AcDbEntity
  8
OBRYS
  6
CONTINUOUS
100
AcDbLine
 10
1576.770873521383
 20
797.8446012472198
 30
0.0
 11
1586.351593521383
 21
797.8446002472199
 31
0.0
  0
LINE
  5
4D8
330
1F
100
AcDbEntity
  8
OBRYS
  6
CONTINUOUS
100
AcDbLine
 10
1586.351592521383
 20
794.6117812472198
 30
0.0
 11
1576.770873521383
 21
794.6117822472198
 31
0.0
  0
LINE
  5
4D9
330
1F
100
AcDbEntity
  8
OBRYS
  6
CONTINUOUS
100
AcDbLine
 10
1575.612765526179
 20
793.4950302209692
 30
0.0
 11
1576.926429521383
 21
794.7617832472198
 31
0.0
  0
LINE
  5
4DA
330
1F
100
AcDbEntity
  8
OBRYS
  6
CONTINUOUS
100
AcDbLine
 10
1586.351591521383
 20
786.8445992472198
 30
0.0
 11
1576.770872521383
 21
786.8446012472198
 31
0.0
  0
LINE
  5
4DB
330
1F
100
AcDbEntity
  8
OBRYS
  6
CONTINUOUS
100
AcDbLine
 10
1575.61276524224
 20
811.4468129471716
 30
0.0
 11
1576.926431521383
 21
812.7135652472198
 31
0.0
  0
LINE
  5
4DC
330
1F
100
AcDbEntity
  8
OBRYS
  6
CONTINUOUS
100
AcDbLine
 10
1576.770871521383
 20
783.6117822472198
 30
0.0
 11
1586.351591521383
 21
783.6117812472198
 31
0.0
  0
LINE
  5
4DD
330
1F
100
AcDbEntity
  8
OBRYS
  6
CONTINUOUS
100
AcDbLine
 10
1575.651591521383
 20
782.5324782472198
 30
0.0
 11
1576.926427521383
 21
783.7617822472198
 31
0.0
  0
LINE
  5
4DE
330
1F
100
AcDbEntity
  8
OBRYS
  6
CONTINUOUS
100
AcDbLine
 10
1586.351589521383
 20
768.8928182472198
 30
0.0
 11
1586.351588521383
 21
765.6599992472198
 31
0.0
  0
LINE
  5
4DF
330
1F
100
AcDbEntity
  8
OBRYS
  6
CONTINUOUS
100
AcDbLine
 10
1586.351591521383
 20
783.6117812472198
 30
0.0
 11
1586.351591521383
 21
786.8445992472198
 31
0.0
  0
LINE
  5
4E0
330
1F
100
AcDbEntity
  8
OBRYS
  6
CONTINUOUS
100
AcDbLine
 10
1586.351593521383
 20
797.8446002472199
 30
0.0
 11
1586.351592521383
 21
794.6117812472198
 31
0.0
  0
LINE
  5
4E1
330
1F
100
AcDbEntity
  8
OBRYS
  6
CONTINUOUS
100
AcDbLine
 10
1586.563723521383
 20
787.0567312472199
 30
0.0
 11
1586.051591521383
 21
786.5445992472198
 31
0.0
  0
LINE
  5
4E2
330
1F
100
AcDbEntity
  8
OBRYS
  6
CONTINUOUS
100
AcDbLine
 10
1576.926428521383
 20
786.6946012472198
 30
0.0
 11
1575.651591521383
 21
787.9239052472199
 31
0.0
  0
LINE
  5
4E3
330
1F
100
AcDbEntity
  8
OBRYS
  6
CONTINUOUS
100
AcDbLine
 10
1586.563723521383
 20
783.3996492472198
 30
0.0
 11
1586.051591521383
 21
783.9117812472198
 31
0.0
  0
LINE
  5
4E4
330
1F
100
AcDbEntity
  8
OBRYS
  6
CONTINUOUS
100
AcDbLine
 10
1586.051592521383
 20
794.9117812472198
 30
0.0
 11
1586.563724521383
 21
794.3996492472198
 31
0.0
  0
LINE
  5
4E5
330
1F
100
AcDbEntity
  8
OBRYS
  6
CONTINUOUS
100
AcDbLine
 10
1586.051593521383
 20
797.5446002472198
 30
0.0
 11
1586.563725521383
 21
798.0567322472198
 31
0.0
  0
LINE
  5
4E6
330
1F
100
AcDbEntity
  8
OBRYS
  6
CONTINUOUS
100
AcDbLine
 10
1660.542317521383
 20
751.2448052472198
 30
0.0
 11
1660.142317521383
 21
751.2448052472198
 31
0.0
  0
LINE
  5
4E7
330
1F
100
AcDbEntity
  8
OBRYS
  6
CONTINUOUS
100
AcDbLine
 10
1664.742317521383
 20
751.2448052472198
 30
0.0
 11
1660.542317521383
 21
751.2448052472198
 31
0.0
  0
LINE
  5
4E8
330
1F
100
AcDbEntity
  8
OBRYS
  6
CONTINUOUS
100
AcDbLine
 10
1665.142317521383
 20
751.2448052472198
 30
0.0
 11
1664.742317521383
 21
751.2448052472198
 31
0.0
  0
LINE
  5
4E9
330
1F
100
AcDbEntity
  8
OBRYS
  6
CONTINUOUS
100
AcDbLine
 10
1665.142317521383
 20
750.4237682472199
 30
0.0
 11
1660.142317521383
 21
750.4237682472199
 31
0.0
  0
LINE
  5
4EA
330
1F
100
AcDbEntity
  8
OBRYS
  6
CONTINUOUS
100
AcDbLine
 10
1665.142317521383
 20
749.1296652472198
 30
0.0
 11
1665.142317521383
 21
751.2448052472198
 31
0.0
  0
LINE
  5
4EB
330
1F
100
AcDbEntity
  8
OBRYS
  6
CONTINUOUS
100
AcDbLine
 10
1665.142317521383
 20
749.1296652472198
 30
0.0
 11
1660.142317521383
 21
749.1296652472198
 31
0.0
  0
LINE
  5
4EC
330
1F
100
AcDbEntity
  8
OBRYS
  6
CONTINUOUS
100
AcDbLine
 10
1660.142317521383
 20
749.1296652472198
 30
0.0
 11
1660.142317521383
 21
751.2448052472198
 31
0.0
  0
LINE
  5
4ED
330
1F
100
AcDbEntity
  8
OBRYS
  6
CONTINUOUS
100
AcDbLine
 10
1661.342317521383
 20
760.5246202472199
 30
0.0
 11
1663.604234521383
 21
760.5246202472199
 31
0.0
  0
LINE
  5
4EE
330
1F
100
AcDbEntity
  8
OBRYS
  6
CONTINUOUS
100
AcDbLine
 10
1663.604234521383
 20
760.5246212472198
 30
0.0
 11
1661.342317521383
 21
760.5246212472198
 31
0.0
  0
LINE
  5
4EF
330
1F
100
AcDbEntity
  8
OBRYS
  6
CONTINUOUS
100
AcDbLine
 10
1665.142317521383
 20
776.4985912472198
 30
0.0
 11
1665.142317521383
 21
781.4985912472198
 31
0.0
  0
LINE
  5
4F0
330
1F
100
AcDbEntity
  8
OBRYS
  6
CONTINUOUS
100
AcDbLine
 10
1660.142317521383
 20
776.4985912472198
 30
0.0
 11
1660.142317521383
 21
781.4985912472198
 31
0.0
  0
LINE
  5
4F1
330
1F
100
AcDbEntity
  8
OBRYS
  6
CONTINUOUS
100
AcDbLine
 10
1665.142317521383
 20
776.4985912472198
 30
0.0
 11
1660.142317521383
 21
776.4985912472198
 31
0.0
  0
LINE
  5
4F2
330
1F
100
AcDbEntity
  8
OBRYS
  6
CONTINUOUS
100
AcDbLine
 10
1665.142317521383
 20
781.4985912472198
 30
0.0
 11
1660.142317521383
 21
781.4985912472198
 31
0.0
  0
LINE
  5
4F3
330
1F
100
AcDbEntity
  8
OBRYS
  6
CONTINUOUS
100
AcDbLine
 10
1660.142317521383
 20
841.0360162472198
 30
0.0
 11
1665.142317521383
 21
841.0360162472198
 31
0.0
  0
LINE
  5
4F4
330
1F
100
AcDbEntity
  8
OBRYS
  6
CONTINUOUS
100
AcDbLine
 10
1660.142317521383
 20
841.0360162472198
 30
0.0
 11
1660.142317521383
 21
841.0360072472198
 31
0.0
  0
LINE
  5
4F5
330
1F
100
AcDbEntity
  8
OBRYS
  6
CONTINUOUS
100
AcDbLine
 10
1665.142317521383
 20
841.0360162472198
 30
0.0
 11
1665.142317521383
 21
841.0360072472198
 31
0.0
  0
LINE
  5
4F6
330
1F
100
AcDbEntity
  8
OBRYS
  6
CONTINUOUS
100
AcDbLine
 10
1660.142317521383
 20
841.8860162472198
 30
0.0
 11
1665.142317521383
 21
841.8860162472198
 31
0.0
  0
LINE
  5
4F7
330
1F
100
AcDbEntity
  8
OBRYS
  6
CONTINUOUS
100
AcDbLine
 10
1660.142317521383
 20
841.8860162472198
 30
0.0
 11
1660.142317521383
 21
841.0360162472198
 31
0.0
  0
LINE
  5
4F8
330
1F
100
AcDbEntity
  8
OBRYS
  6
CONTINUOUS
100
AcDbLine
 10
1665.142317521383
 20
841.8860162472198
 30
0.0
 11
1665.142317521383
 21
841.0360162472198
 31
0.0
  0
LINE
  5
4F9
330
1F
100
AcDbEntity
  8
OBRYS
  6
CONTINUOUS
100
AcDbLine
 10
1660.092317521383
 20
740.3100192472198
 30
0.0
 11
1660.142380521383
 21
740.3100192472198
 31
0.0
  0
LINE
  5
4FA
330
1F
100
AcDbEntity
  8
OBRYS
  6
CONTINUOUS
100
AcDbLine
 10
1665.142255521383
 20
740.3100192472198
 30
0.0
 11
1666.092317521383
 21
740.3100192472198
 31
0.0
  0
LINE
  5
4FB
330
1F
100
AcDbEntity
  8
OBRYS
  6
CONTINUOUS
100
AcDbLine
 10
1660.092317521383
 20
740.4100192472198
 30
0.0
 11
1659.941317521383
 21
740.4100192472198
 31
0.0
  0
LINE
  5
4FC
330
1F
100
AcDbEntity
  8
OBRYS
  6
CONTINUOUS
100
AcDbLine
 10
1665.142317521383
 20
739.5703572472198
 30
0.0
 11
1660.142317521383
 21
739.5703572472198
 31
0.0
  0
LINE
  5
4FD
330
1F
100
AcDbEntity
  8
OBRYS
  6
CONTINUOUS
100
AcDbLine
 10
1665.142317521383
 20
739.5703532472198
 30
0.0
 11
1665.142317521383
 21
739.5703572472198
 31
0.0
  0
LINE
  5
4FE
330
1F
100
AcDbEntity
  8
OBRYS
  6
CONTINUOUS
100
AcDbLine
 10
1660.142317521383
 20
739.5703532472198
 30
0.0
 11
1660.142317521383
 21
739.5703572472198
 31
0.0
  0
LINE
  5
4FF
330
1F
100
AcDbEntity
  8
OBRYS
  6
CONTINUOUS
100
AcDbLine
 10
1665.142317521383
 20
740.4203572472198
 30
0.0
 11
1660.142317521383
 21
740.4203572472198
 31
0.0
  0
LINE
  5
500
330
1F
100
AcDbEntity
  8
OBRYS
  6
CONTINUOUS
100
AcDbLine
 10
1665.142317521383
 20
739.5703572472198
 30
0.0
 11
1665.142317521383
 21
740.4203572472198
 31
0.0
  0
LINE
  5
501
330
1F
100
AcDbEntity
  8
OBRYS
  6
CONTINUOUS
100
AcDbLine
 10
1660.142317521383
 20
739.5703572472198
 30
0.0
 11
1660.142317521383
 21
740.4203572472198
 31
0.0
  0
LINE
  5
502
330
1F
100
AcDbEntity
  8
OBRYS
  6
CONTINUOUS
100
AcDbLine
 10
1666.092317521383
 20
840.9848712472199
 30
0.0
 11
1660.092317521383
 21
840.9848712472199
 31
0.0
  0
LINE
  5
503
330
1F
100
AcDbEntity
  8
OBRYS
  6
CONTINUOUS
100
AcDbLine
 10
1666.092317521383
 20
740.4714972472198
 30
0.0
 11
1660.092317521383
 21
740.4714972472198
 31
0.0
  0
LINE
  5
504
330
1F
100
AcDbEntity
  8
OBRYS
  6
CONTINUOUS
100
AcDbLine
 10
1666.092317521383
 20
841.0894172472199
 30
0.0
 11
1665.142255521383
 21
841.0894172472199
 31
0.0
  0
LINE
  5
505
330
1F
100
AcDbEntity
  8
OBRYS
  6
CONTINUOUS
100
AcDbLine
 10
1660.142380521383
 20
841.0894172472199
 30
0.0
 11
1660.092317521383
 21
841.0894172472199
 31
0.0
  0
LINE
  5
506
330
1F
100
AcDbEntity
  8
OBRYS
  6
CONTINUOUS
100
AcDbLine
 10
1660.092317521383
 20
840.9910002472199
 30
0.0
 11
1659.941317521383
 21
840.9910002472199
 31
0.0
  0
LINE
  5
507
330
1F
100
AcDbEntity
  8
OBRYS
  6
CONTINUOUS
100
AcDbLine
 10
1663.604234521383
 20
749.1296662472198
 30
0.0
 11
1663.604234521383
 21
748.7900052472198
 31
0.0
  0
LINE
  5
508
330
1F
100
AcDbEntity
  8
OBRYS
  6
CONTINUOUS
100
AcDbLine
 10
1663.604234521383
 20
832.3266692472198
 30
0.0
 11
1663.604234521383
 21
832.6663692472198
 31
0.0
  0
LINE
  5
509
330
1F
100
AcDbEntity
  8
OBRYS
  6
CONTINUOUS
100
AcDbLine
 10
1663.734802521383
 20
832.4538562472198
 30
0.0
 11
1663.604234521383
 21
832.6663692472198
 31
0.0
  0
LINE
  5
50A
330
1F
100
AcDbEntity
  8
OBRYS
  6
CONTINUOUS
100
AcDbLine
 10
1661.342317521383
 20
832.6663702472198
 30
0.0
 11
1663.604234521383
 21
832.6663702472198
 31
0.0
  0
LINE
  5
50B
330
1F
100
AcDbEntity
  8
OBRYS
  6
CONTINUOUS
100
AcDbLine
 10
1661.342317521383
 20
832.3266882472199
 30
0.0
 11
1661.342317521383
 21
832.6663702472198
 31
0.0
  0
LINE
  5
50C
330
1F
100
AcDbEntity
  8
OBRYS
  6
CONTINUOUS
100
AcDbLine
 10
1661.342317521383
 20
748.7900052472198
 30
0.0
 11
1661.342317521383
 21
749.1296682472198
 31
0.0
  0
LINE
  5
50D
330
1F
100
AcDbEntity
  8
OBRYS
  6
CONTINUOUS
100
AcDbLine
 10
1661.342317521383
 20
748.7900052472198
 30
0.0
 11
1663.604234521383
 21
748.7900052472198
 31
0.0
  0
LINE
  5
50E
330
1F
100
AcDbEntity
  8
OBRYS
  6
CONTINUOUS
100
AcDbLine
 10
1663.734802521383
 20
749.0025182472198
 30
0.0
 11
1663.604234521383
 21
748.7900062472198
 31
0.0
  0
LINE
  5
50F
330
1F
100
AcDbEntity
  8
OBRYS
  6
CONTINUOUS
100
AcDbLine
 10
1660.092317521383
 20
740.3100192472198
 30
0.0
 11
1660.092317521383
 21
841.0894172472199
 31
0.0
  0
LINE
  5
510
330
1F
100
AcDbEntity
  8
OBRYS
  6
CONTINUOUS
100
AcDbLine
 10
1666.092317521383
 20
765.9599942472198
 30
0.0
 11
1665.542317521383
 21
765.9599942472198
 31
0.0
  0
LINE
  5
511
330
1F
100
AcDbEntity
  8
OBRYS
  6
CONTINUOUS
100
AcDbLine
 10
1660.542317521383
 20
765.9599942472198
 30
0.0
 11
1660.092317521383
 21
765.9599942472198
 31
0.0
  0
LINE
  5
512
330
1F
100
AcDbEntity
  8
OBRYS
  6
CONTINUOUS
100
AcDbLine
 10
1666.092317521383
 20
768.5928102472199
 30
0.0
 11
1665.542317521383
 21
768.5928102472199
 31
0.0
  0
LINE
  5
513
330
1F
100
AcDbEntity
  8
OBRYS
  6
CONTINUOUS
100
AcDbLine
 10
1660.092317521383
 20
768.5928102472199
 30
0.0
 11
1660.542317521383
 21
768.5928102472199
 31
0.0
  0
LINE
  5
514
330
1F
100
AcDbEntity
  8
OBRYS
  6
CONTINUOUS
100
AcDbLine
 10
1666.092317521383
 20
794.9117762472198
 30
0.0
 11
1665.542317521383
 21
794.9117762472198
 31
0.0
  0
LINE
  5
515
330
1F
100
AcDbEntity
  8
OBRYS
  6
CONTINUOUS
100
AcDbLine
 10
1660.542317521383
 20
794.9117762472198
 30
0.0
 11
1660.092317521383
 21
794.9117762472198
 31
0.0
  0
LINE
  5
516
330
1F
100
AcDbEntity
  8
OBRYS
  6
CONTINUOUS
100
AcDbLine
 10
1660.542317521383
 20
815.4963752472198
 30
0.0
 11
1660.092317521383
 21
815.4963752472198
 31
0.0
  0
LINE
  5
517
330
1F
100
AcDbEntity
  8
OBRYS
  6
CONTINUOUS
100
AcDbLine
 10
1666.092317521383
 20
815.4963752472198
 30
0.0
 11
1665.542317521383
 21
815.4963752472198
 31
0.0
  0
LINE
  5
518
330
1F
100
AcDbEntity
  8
OBRYS
  6
CONTINUOUS
100
AcDbLine
 10
1660.542317521383
 20
797.5445932472198
 30
0.0
 11
1660.092317521383
 21
797.5445932472198
 31
0.0
  0
LINE
  5
519
330
1F
100
AcDbEntity
  8
OBRYS
  6
CONTINUOUS
100
AcDbLine
 10
1666.092317521383
 20
797.5445932472198
 30
0.0
 11
1665.542317521383
 21
797.5445932472198
 31
0.0
  0
LINE
  5
51A
330
1F
100
AcDbEntity
  8
OBRYS
  6
CONTINUOUS
100
AcDbLine
 10
1666.092317521383
 20
812.8635592472199
 30
0.0
 11
1665.542317521383
 21
812.8635592472199
 31
0.0
  0
LINE
  5
51B
330
1F
100
AcDbEntity
  8
OBRYS
  6
CONTINUOUS
100
AcDbLine
 10
1660.542317521383
 20
812.8635592472199
 30
0.0
 11
1660.092317521383
 21
812.8635592472199
 31
0.0
  0
LINE
  5
51C
330
1F
100
AcDbEntity
  8
OBRYS
  6
CONTINUOUS
100
AcDbLine
 10
1665.142313521383
 20
781.1736082472198
 30
0.0
 11
1666.092317521383
 21
781.1736082472198
 31
0.0
  0
LINE
  5
51D
330
1F
100
AcDbEntity
  8
OBRYS
  6
CONTINUOUS
100
AcDbLine
 10
1666.092317521383
 20
776.8235742472198
 30
0.0
 11
1665.142313521383
 21
776.8235742472198
 31
0.0
  0
LINE
  5
51E
330
1F
100
AcDbEntity
  8
OBRYS
  6
CONTINUOUS
100
AcDbLine
 10
1666.092317521383
 20
751.3005842472198
 30
0.0
 11
1660.092317521383
 21
751.3005842472198
 31
0.0
  0
LINE
  5
51F
330
1F
100
AcDbEntity
  8
OBRYS
  6
CONTINUOUS
100
AcDbLine
 10
1666.092317521383
 20
830.1557852472198
 30
0.0
 11
1660.092317521383
 21
830.1557852472198
 31
0.0
  0
LINE
  5
520
330
1F
100
AcDbEntity
  8
OBRYS
  6
CONTINUOUS
100
AcDbLine
 10
1665.542317521383
 20
769.1928112472199
 30
0.0
 11
1660.542317521383
 21
769.1928112472199
 31
0.0
  0
LINE
  5
521
330
1F
100
AcDbEntity
  8
OBRYS
  6
CONTINUOUS
100
AcDbLine
 10
1665.542317521383
 20
816.0963762472198
 30
0.0
 11
1660.542317521383
 21
816.0963762472198
 31
0.0
  0
LINE
  5
522
330
1F
100
AcDbEntity
  8
OBRYS
  6
CONTINUOUS
100
AcDbLine
 10
1665.542317521383
 20
798.1445942472199
 30
0.0
 11
1660.542317521383
 21
798.1445942472199
 31
0.0
  0
LINE
  5
523
330
1F
100
AcDbEntity
  8
OBRYS
  6
CONTINUOUS
100
AcDbLine
 10
1660.542317521383
 20
768.7428112472198
 30
0.0
 11
1660.092317521383
 21
768.7428112472198
 31
0.0
  0
LINE
  5
524
330
1F
100
AcDbEntity
  8
OBRYS
  6
CONTINUOUS
100
AcDbLine
 10
1666.092317521383
 20
768.7428112472198
 30
0.0
 11
1665.542317521383
 21
768.7428112472198
 31
0.0
  0
LINE
  5
525
330
1F
100
AcDbEntity
  8
OBRYS
  6
CONTINUOUS
100
AcDbLine
 10
1660.542317521383
 20
815.6463762472198
 30
0.0
 11
1660.092317521383
 21
815.6463762472198
 31
0.0
  0
LINE
  5
526
330
1F
100
AcDbEntity
  8
OBRYS
  6
CONTINUOUS
100
AcDbLine
 10
1666.092317521383
 20
815.6463762472198
 30
0.0
 11
1665.542317521383
 21
815.6463762472198
 31
0.0
  0
LINE
  5
527
330
1F
100
AcDbEntity
  8
OBRYS
  6
CONTINUOUS
100
AcDbLine
 10
1666.092317521383
 20
797.6945942472198
 30
0.0
 11
1665.542317521383
 21
797.6945942472198
 31
0.0
  0
LINE
  5
528
330
1F
100
AcDbEntity
  8
OBRYS
  6
CONTINUOUS
100
AcDbLine
 10
1660.542317521383
 20
797.6945942472198
 30
0.0
 11
1660.092317521383
 21
797.6945942472198
 31
0.0
  0
LINE
  5
529
330
1F
100
AcDbEntity
  8
OBRYS
  6
CONTINUOUS
100
AcDbLine
 10
1660.542317521383
 20
794.7617752472198
 30
0.0
 11
1660.092317521383
 21
794.7617752472198
 31
0.0
  0
LINE
  5
52A
330
1F
100
AcDbEntity
  8
OBRYS
  6
CONTINUOUS
100
AcDbLine
 10
1660.542317521383
 20
794.3117752472199
 30
0.0
 11
1660.542317521383
 21
798.1445942472199
 31
0.0
  0
LINE
  5
52B
330
1F
100
AcDbEntity
  8
OBRYS
  6
CONTINUOUS
100
AcDbLine
 10
1665.542317521383
 20
794.3117752472199
 30
0.0
 11
1660.542317521383
 21
794.3117752472199
 31
0.0
  0
LINE
  5
52C
330
1F
100
AcDbEntity
  8
OBRYS
  6
CONTINUOUS
100
AcDbLine
 10
1665.542317521383
 20
798.1445942472199
 30
0.0
 11
1665.542317521383
 21
794.3117752472199
 31
0.0
  0
LINE
  5
52D
330
1F
100
AcDbEntity
  8
OBRYS
  6
CONTINUOUS
100
AcDbLine
 10
1666.092317521383
 20
794.7617752472198
 30
0.0
 11
1665.542317521383
 21
794.7617752472198
 31
0.0
  0
LINE
  5
52E
330
1F
100
AcDbEntity
  8
OBRYS
  6
CONTINUOUS
100
AcDbLine
 10
1660.542317521383
 20
812.7135572472198
 30
0.0
 11
1660.092317521383
 21
812.7135572472198
 31
0.0
  0
LINE
  5
52F
330
1F
100
AcDbEntity
  8
OBRYS
  6
CONTINUOUS
100
AcDbLine
 10
1660.542317521383
 20
812.2635572472199
 30
0.0
 11
1660.542317521383
 21
816.0963762472198
 31
0.0
  0
LINE
  5
530
330
1F
100
AcDbEntity
  8
OBRYS
  6
CONTINUOUS
100
AcDbLine
 10
1665.542317521383
 20
812.2635572472199
 30
0.0
 11
1660.542317521383
 21
812.2635572472199
 31
0.0
  0
LINE
  5
531
330
1F
100
AcDbEntity
  8
OBRYS
  6
CONTINUOUS
100
AcDbLine
 10
1666.092317521383
 20
812.7135572472198
 30
0.0
 11
1665.542317521383
 21
812.7135572472198
 31
0.0
  0
LINE
  5
532
330
1F
100
AcDbEntity
  8
OBRYS
  6
CONTINUOUS
100
AcDbLine
 10
1660.542317521383
 20
765.8099932472198
 30
0.0
 11
1660.092317521383
 21
765.8099932472198
 31
0.0
  0
LINE
  5
533
330
1F
100
AcDbEntity
  8
OBRYS
  6
CONTINUOUS
100
AcDbLine
 10
1665.542317521383
 20
765.3599932472198
 30
0.0
 11
1660.542317521383
 21
765.3599932472198
 31
0.0
  0
LINE
  5
534
330
1F
100
AcDbEntity
  8
OBRYS
  6
CONTINUOUS
100
AcDbLine
 10
1665.542317521383
 20
769.1928112472199
 30
0.0
 11
1665.542317521383
 21
765.3599932472198
 31
0.0
  0
LINE
  5
535
330
1F
100
AcDbEntity
  8
OBRYS
  6
CONTINUOUS
100
AcDbLine
 10
1666.092317521383
 20
765.8099932472198
 30
0.0
 11
1665.542317521383
 21
765.8099932472198
 31
0.0
  0
LINE
  5
536
330
1F
100
AcDbEntity
  8
OBRYS
  6
CONTINUOUS
100
AcDbLine
 10
1665.542317521383
 20
816.0963762472198
 30
0.0
 11
1665.542317521383
 21
812.2635572472199
 31
0.0
  0
LINE
  5
537
330
1F
100
AcDbEntity
  8
OBRYS
  6
CONTINUOUS
100
AcDbLine
 10
1661.192317521383
 20
819.7317452472198
 30
0.0
 11
1661.342317521383
 21
819.7317452472198
 31
0.0
  0
LINE
  5
538
330
1F
100
AcDbEntity
  8
OBRYS
  6
CONTINUOUS
100
AcDbLine
 10
1661.192317521383
 20
801.7799632472198
 30
0.0
 11
1661.342317521383
 21
801.7799632472198
 31
0.0
  0
LINE
  5
539
330
1F
100
AcDbEntity
  8
OBRYS
  6
CONTINUOUS
100
AcDbLine
 10
1666.092317521383
 20
773.7973872472198
 30
0.0
 11
1660.092317521383
 21
773.7973872472198
 31
0.0
  0
LINE
  5
53A
330
1F
100
AcDbEntity
  8
OBRYS
  6
CONTINUOUS
100
AcDbLine
 10
1660.092317521383
 20
784.1997822472199
 30
0.0
 11
1666.092317521383
 21
784.1997822472199
 31
0.0
  0
LINE
  5
53B
330
1F
100
AcDbEntity
  8
OBRYS
  6
CONTINUOUS
100
AcDbLine
 10
1665.442317521383
 20
788.2245932472199
 30
0.0
 11
1665.442317521383
 21
790.2281842472198
 31
0.0
  0
LINE
  5
53C
330
1F
100
AcDbEntity
  8
OBRYS
  6
CONTINUOUS
100
AcDbLine
 10
1665.442317521383
 20
791.2281842472198
 30
0.0
 11
1665.442317521383
 21
793.2317752472198
 31
0.0
  0
LINE
  5
53D
330
1F
100
AcDbEntity
  8
OBRYS
  6
CONTINUOUS
100
AcDbLine
 10
1665.442317521383
 20
791.2281842472198
 30
0.0
 11
1660.642317521383
 21
791.2281842472198
 31
0.0
  0
LINE
  5
53E
330
1F
100
AcDbEntity
  8
OBRYS
  6
CONTINUOUS
100
AcDbLine
 10
1665.593317521383
 20
791.8299802472199
 30
0.0
 11
1665.442317521383
 21
791.8299802472199
 31
0.0
  0
LINE
  5
53F
330
1F
100
AcDbEntity
  8
OBRYS
  6
CONTINUOUS
100
AcDbLine
 10
1660.642317521383
 20
793.2317752472198
 30
0.0
 11
1660.642317521383
 21
791.2281842472198
 31
0.0
  0
LINE
  5
540
330
1F
100
AcDbEntity
  8
OBRYS
  6
CONTINUOUS
100
AcDbLine
 10
1660.491317521383
 20
791.8299802472199
 30
0.0
 11
1660.642317521383
 21
791.8299802472199
 31
0.0
  0
LINE
  5
541
330
1F
100
AcDbEntity
  8
OBRYS
  6
CONTINUOUS
100
AcDbLine
 10
1660.642317521383
 20
789.6263892472198
 30
0.0
 11
1660.491317521383
 21
789.6263892472198
 31
0.0
  0
LINE
  5
542
330
1F
100
AcDbEntity
  8
OBRYS
  6
CONTINUOUS
100
AcDbLine
 10
1660.642317521383
 20
792.6299802472198
 30
0.0
 11
1660.491317521383
 21
792.6299802472198
 31
0.0
  0
LINE
  5
543
330
1F
100
AcDbEntity
  8
OBRYS
  6
CONTINUOUS
100
AcDbLine
 10
1665.442317521383
 20
792.6299802472198
 30
0.0
 11
1665.593317521383
 21
792.6299802472198
 31
0.0
  0
LINE
  5
544
330
1F
100
AcDbEntity
  8
OBRYS
  6
CONTINUOUS
100
AcDbLine
 10
1665.442317521383
 20
789.6263892472198
 30
0.0
 11
1665.593317521383
 21
789.6263892472198
 31
0.0
  0
LINE
  5
545
330
1F
100
AcDbEntity
  8
OBRYS
  6
CONTINUOUS
100
AcDbLine
 10
1660.642317521383
 20
793.2317752472198
 30
0.0
 11
1665.442317521383
 21
793.2317752472198
 31
0.0
  0
LINE
  5
546
330
1F
100
AcDbEntity
  8
OBRYS
  6
CONTINUOUS
100
AcDbLine
 10
1660.642317521383
 20
790.2281842472198
 30
0.0
 11
1665.442317521383
 21
790.2281842472198
 31
0.0
  0
LINE
  5
547
330
1F
100
AcDbEntity
  8
OBRYS
  6
CONTINUOUS
100
AcDbLine
 10
1660.642317521383
 20
788.2245932472199
 30
0.0
 11
1665.442317521383
 21
788.2245932472199
 31
0.0
  0
LINE
  5
548
330
1F
100
AcDbEntity
  8
OBRYS
  6
CONTINUOUS
100
AcDbLine
 10
1665.593317521383
 20
788.8263892472198
 30
0.0
 11
1665.442317521383
 21
788.8263892472198
 31
0.0
  0
LINE
  5
549
330
1F
100
AcDbEntity
  8
OBRYS
  6
CONTINUOUS
100
AcDbLine
 10
1665.593317521383
 20
789.6263892472198
 30
0.0
 11
1665.593317521383
 21
788.8263892472198
 31
0.0
  0
LINE
  5
54A
330
1F
100
AcDbEntity
  8
OBRYS
  6
CONTINUOUS
100
AcDbLine
 10
1660.642317521383
 20
790.2281842472198
 30
0.0
 11
1660.642317521383
 21
788.2245932472199
 31
0.0
  0
LINE
  5
54B
330
1F
100
AcDbEntity
  8
OBRYS
  6
CONTINUOUS
100
AcDbLine
 10
1660.491317521383
 20
788.8263892472198
 30
0.0
 11
1660.491317521383
 21
789.6263892472198
 31
0.0
  0
LINE
  5
54C
330
1F
100
AcDbEntity
  8
OBRYS
  6
CONTINUOUS
100
AcDbLine
 10
1660.491317521383
 20
788.8263892472198
 30
0.0
 11
1660.642317521383
 21
788.8263892472198
 31
0.0
  0
LINE
  5
54D
330
1F
100
AcDbEntity
  8
OBRYS
  6
CONTINUOUS
100
AcDbLine
 10
1665.593317521383
 20
792.6299802472198
 30
0.0
 11
1665.593317521383
 21
791.8299802472199
 31
0.0
  0
LINE
  5
54E
330
1F
100
AcDbEntity
  8
OBRYS
  6
CONTINUOUS
100
AcDbLine
 10
1660.491317521383
 20
791.8299802472199
 30
0.0
 11
1660.491317521383
 21
792.6299802472198
 31
0.0
  0
LINE
  5
54F
330
1F
100
AcDbEntity
  8
OBRYS
  6
CONTINUOUS
100
AcDbLine
 10
1665.042317521383
 20
818.2317472472198
 30
0.0
 11
1665.192317521383
 21
818.2317472472198
 31
0.0
  0
LINE
  5
550
330
1F
100
AcDbEntity
  8
OBRYS
  6
CONTINUOUS
100
AcDbLine
 10
1665.192317521383
 20
818.2317472472198
 30
0.0
 11
1665.192317521383
 21
819.7317472472198
 31
0.0
  0
LINE
  5
551
330
1F
100
AcDbEntity
  8
OBRYS
  6
CONTINUOUS
100
AcDbLine
 10
1665.192317521383
 20
819.7317472472198
 30
0.0
 11
1665.042317521383
 21
819.7317472472198
 31
0.0
  0
LINE
  5
552
330
1F
100
AcDbEntity
  8
OBRYS
  6
CONTINUOUS
100
AcDbLine
 10
1665.042317521383
 20
820.3055972472198
 30
0.0
 11
1665.042317521383
 21
819.7317472472198
 31
0.0
  0
LINE
  5
553
330
1F
100
AcDbEntity
  8
OBRYS
  6
CONTINUOUS
100
AcDbLine
 10
1665.042317521383
 20
820.3055972472198
 30
0.0
 11
1664.427623521383
 21
820.3055972472198
 31
0.0
  0
LINE
  5
554
330
1F
100
AcDbEntity
  8
OBRYS
  6
CONTINUOUS
100
AcDbLine
 10
1663.734803521383
 20
820.7055962472198
 30
0.0
 11
1663.604234521383
 21
820.9317482472198
 31
0.0
  0
LINE
  5
555
330
1F
100
AcDbEntity
  8
OBRYS
  6
CONTINUOUS
100
AcDbLine
 10
1661.342317521383
 20
820.9317482472198
 30
0.0
 11
1663.604234521383
 21
820.9317482472198
 31
0.0
  0
LINE
  5
556
330
1F
100
AcDbEntity
  8
OBRYS
  6
CONTINUOUS
100
AcDbLine
 10
1661.342317521383
 20
819.7317472472198
 30
0.0
 11
1661.342317521383
 21
820.9317482472198
 31
0.0
  0
LINE
  5
557
330
1F
100
AcDbEntity
  8
OBRYS
  6
CONTINUOUS
100
AcDbLine
 10
1661.342317521383
 20
819.7317472472198
 30
0.0
 11
1661.192317521383
 21
819.7317472472198
 31
0.0
  0
LINE
  5
558
330
1F
100
AcDbEntity
  8
OBRYS
  6
CONTINUOUS
100
AcDbLine
 10
1661.192317521383
 20
819.7317472472198
 30
0.0
 11
1661.192317521383
 21
818.2317472472198
 31
0.0
  0
LINE
  5
559
330
1F
100
AcDbEntity
  8
OBRYS
  6
CONTINUOUS
100
AcDbLine
 10
1661.192317521383
 20
818.2317472472198
 30
0.0
 11
1661.342317521383
 21
818.2317472472198
 31
0.0
  0
LINE
  5
55A
330
1F
100
AcDbEntity
  8
OBRYS
  6
CONTINUOUS
100
AcDbLine
 10
1661.342317521383
 20
817.4317472472198
 30
0.0
 11
1665.042317521383
 21
817.4317472472198
 31
0.0
  0
LINE
  5
55B
330
1F
100
AcDbEntity
  8
OBRYS
  6
CONTINUOUS
100
AcDbLine
 10
1661.342317521383
 20
817.4317472472198
 30
0.0
 11
1661.342317521383
 21
818.2317472472198
 31
0.0
  0
LINE
  5
55C
330
1F
100
AcDbEntity
  8
OBRYS
  6
CONTINUOUS
100
AcDbLine
 10
1665.042317521383
 20
818.2317472472198
 30
0.0
 11
1665.042317521383
 21
817.4317472472198
 31
0.0
  0
LINE
  5
55D
330
1F
100
AcDbEntity
  8
OBRYS
  6
CONTINUOUS
100
AcDbLine
 10
1665.042317521383
 20
817.4317482472198
 30
0.0
 11
1661.342317521383
 21
817.4317482472198
 31
0.0
  0
LINE
  5
55E
330
1F
100
AcDbEntity
  8
OBRYS
  6
CONTINUOUS
100
AcDbLine
 10
1665.042317521383
 20
799.4799662472199
 30
0.0
 11
1661.342317521383
 21
799.4799662472199
 31
0.0
  0
LINE
  5
55F
330
1F
100
AcDbEntity
  8
OBRYS
  6
CONTINUOUS
100
AcDbLine
 10
1665.042317521383
 20
819.7317452472198
 30
0.0
 11
1665.192317521383
 21
819.7317452472198
 31
0.0
  0
LINE
  5
560
330
1F
100
AcDbEntity
  8
OBRYS
  6
CONTINUOUS
100
AcDbLine
 10
1665.042317521383
 20
801.7799632472198
 30
0.0
 11
1665.192317521383
 21
801.7799632472198
 31
0.0
  0
LINE
  5
561
330
1F
100
AcDbEntity
  8
OBRYS
  6
CONTINUOUS
100
AcDbLine
 10
1665.042317521383
 20
800.2799662472198
 30
0.0
 11
1665.192317521383
 21
800.2799662472198
 31
0.0
  0
LINE
  5
562
330
1F
100
AcDbEntity
  8
OBRYS
  6
CONTINUOUS
100
AcDbLine
 10
1665.192317521383
 20
800.2799662472198
 30
0.0
 11
1665.192317521383
 21
801.7799662472198
 31
0.0
  0
LINE
  5
563
330
1F
100
AcDbEntity
  8
OBRYS
  6
CONTINUOUS
100
AcDbLine
 10
1665.192317521383
 20
801.7799662472198
 30
0.0
 11
1665.042317521383
 21
801.7799662472198
 31
0.0
  0
LINE
  5
564
330
1F
100
AcDbEntity
  8
OBRYS
  6
CONTINUOUS
100
AcDbLine
 10
1665.042317521383
 20
802.3538152472198
 30
0.0
 11
1665.042317521383
 21
801.7799662472198
 31
0.0
  0
LINE
  5
565
330
1F
100
AcDbEntity
  8
OBRYS
  6
CONTINUOUS
100
AcDbLine
 10
1665.042317521383
 20
802.3538152472198
 30
0.0
 11
1664.427623521383
 21
802.3538152472198
 31
0.0
  0
LINE
  5
566
330
1F
100
AcDbEntity
  8
OBRYS
  6
CONTINUOUS
100
AcDbLine
 10
1663.734803521383
 20
802.7538142472198
 30
0.0
 11
1663.604234521383
 21
802.9799662472199
 31
0.0
  0
LINE
  5
567
330
1F
100
AcDbEntity
  8
OBRYS
  6
CONTINUOUS
100
AcDbLine
 10
1661.342317521383
 20
802.9799662472199
 30
0.0
 11
1663.604234521383
 21
802.9799662472199
 31
0.0
  0
LINE
  5
568
330
1F
100
AcDbEntity
  8
OBRYS
  6
CONTINUOUS
100
AcDbLine
 10
1661.342317521383
 20
801.7799662472198
 30
0.0
 11
1661.342317521383
 21
802.9799662472199
 31
0.0
  0
LINE
  5
569
330
1F
100
AcDbEntity
  8
OBRYS
  6
CONTINUOUS
100
AcDbLine
 10
1661.342317521383
 20
801.7799662472198
 30
0.0
 11
1661.192317521383
 21
801.7799662472198
 31
0.0
  0
LINE
  5
56A
330
1F
100
AcDbEntity
  8
OBRYS
  6
CONTINUOUS
100
AcDbLine
 10
1661.192317521383
 20
801.7799662472198
 30
0.0
 11
1661.192317521383
 21
800.2799662472198
 31
0.0
  0
LINE
  5
56B
330
1F
100
AcDbEntity
  8
OBRYS
  6
CONTINUOUS
100
AcDbLine
 10
1661.192317521383
 20
800.2799662472198
 30
0.0
 11
1661.342317521383
 21
800.2799662472198
 31
0.0
  0
LINE
  5
56C
330
1F
100
AcDbEntity
  8
OBRYS
  6
CONTINUOUS
100
AcDbLine
 10
1661.342317521383
 20
799.4799662472199
 30
0.0
 11
1661.342317521383
 21
800.2799662472198
 31
0.0
  0
LINE
  5
56D
330
1F
100
AcDbEntity
  8
OBRYS
  6
CONTINUOUS
100
AcDbLine
 10
1661.342317521383
 20
799.4799662472199
 30
0.0
 11
1665.042317521383
 21
799.4799662472199
 31
0.0
  0
LINE
  5
56E
330
1F
100
AcDbEntity
  8
OBRYS
  6
CONTINUOUS
100
AcDbLine
 10
1665.042317521383
 20
800.2799662472198
 30
0.0
 11
1665.042317521383
 21
799.4799662472199
 31
0.0
  0
LINE
  5
56F
330
1F
100
AcDbEntity
  8
OBRYS
  6
CONTINUOUS
100
AcDbLine
 10
1664.427623521383
 20
761.1507722472198
 30
0.0
 11
1665.042317521383
 21
761.1507722472198
 31
0.0
  0
LINE
  5
570
330
1F
100
AcDbEntity
  8
OBRYS
  6
CONTINUOUS
100
AcDbLine
 10
1665.042317521383
 20
763.2246182472198
 30
0.0
 11
1665.192317521383
 21
763.2246182472198
 31
0.0
  0
LINE
  5
571
330
1F
100
AcDbEntity
  8
OBRYS
  6
CONTINUOUS
100
AcDbLine
 10
1661.192317521383
 20
763.2246182472198
 30
0.0
 11
1661.342317521383
 21
763.2246182472198
 31
0.0
  0
LINE
  5
572
330
1F
100
AcDbEntity
  8
OBRYS
  6
CONTINUOUS
100
AcDbLine
 10
1661.342317521383
 20
763.2246212472198
 30
0.0
 11
1661.192317521383
 21
763.2246212472198
 31
0.0
  0
LINE
  5
573
330
1F
100
AcDbEntity
  8
OBRYS
  6
CONTINUOUS
100
AcDbLine
 10
1661.192317521383
 20
763.2246212472198
 30
0.0
 11
1661.192317521383
 21
761.7246212472198
 31
0.0
  0
LINE
  5
574
330
1F
100
AcDbEntity
  8
OBRYS
  6
CONTINUOUS
100
AcDbLine
 10
1661.192317521383
 20
761.7246212472198
 30
0.0
 11
1661.342317521383
 21
761.7246212472198
 31
0.0
  0
LINE
  5
575
330
1F
100
AcDbEntity
  8
OBRYS
  6
CONTINUOUS
100
AcDbLine
 10
1663.734802521383
 20
760.7507712472199
 30
0.0
 11
1663.604234521383
 21
760.5246202472199
 31
0.0
  0
LINE
  5
576
330
1F
100
AcDbEntity
  8
OBRYS
  6
CONTINUOUS
100
AcDbLine
 10
1665.042317521383
 20
761.1507722472198
 30
0.0
 11
1664.427622521383
 21
761.1507722472198
 31
0.0
  0
LINE
  5
577
330
1F
100
AcDbEntity
  8
OBRYS
  6
CONTINUOUS
100
AcDbLine
 10
1665.042317521383
 20
761.7246212472198
 30
0.0
 11
1665.042317521383
 21
761.1507722472198
 31
0.0
  0
LINE
  5
578
330
1F
100
AcDbEntity
  8
OBRYS
  6
CONTINUOUS
100
AcDbLine
 10
1665.042317521383
 20
761.7246212472198
 30
0.0
 11
1665.192317521383
 21
761.7246212472198
 31
0.0
  0
LINE
  5
579
330
1F
100
AcDbEntity
  8
OBRYS
  6
CONTINUOUS
100
AcDbLine
 10
1665.192317521383
 20
761.7246212472198
 30
0.0
 11
1665.192317521383
 21
763.2246212472198
 31
0.0
  0
LINE
  5
57A
330
1F
100
AcDbEntity
  8
OBRYS
  6
CONTINUOUS
100
AcDbLine
 10
1665.192317521383
 20
763.2246212472198
 30
0.0
 11
1665.042317521383
 21
763.2246212472198
 31
0.0
  0
LINE
  5
57B
330
1F
100
AcDbEntity
  8
OBRYS
  6
CONTINUOUS
100
AcDbLine
 10
1665.042317521383
 20
764.0246212472198
 30
0.0
 11
1665.042317521383
 21
763.2246212472198
 31
0.0
  0
LINE
  5
57C
330
1F
100
AcDbEntity
  8
OBRYS
  6
CONTINUOUS
100
AcDbLine
 10
1661.342317521383
 20
764.0246212472198
 30
0.0
 11
1665.042317521383
 21
764.0246212472198
 31
0.0
  0
LINE
  5
57D
330
1F
100
AcDbEntity
  8
OBRYS
  6
CONTINUOUS
100
AcDbLine
 10
1661.342317521383
 20
763.2246212472198
 30
0.0
 11
1661.342317521383
 21
764.0246212472198
 31
0.0
  0
LINE
  5
57E
330
1F
100
AcDbEntity
  8
OBRYS
  6
CONTINUOUS
100
AcDbLine
 10
1661.342317521383
 20
760.5246202472199
 30
0.0
 11
1661.342317521383
 21
761.7246212472198
 31
0.0
  0
LINE
  5
57F
330
1F
100
AcDbEntity
  8
OBRYS
  6
CONTINUOUS
100
AcDbLine
 10
1665.142317521383
 20
832.3267042472198
 30
0.0
 11
1665.142317521383
 21
830.2115642472198
 31
0.0
  0
LINE
  5
580
330
1F
100
AcDbEntity
  8
OBRYS
  6
CONTINUOUS
100
AcDbLine
 10
1664.742317521383
 20
830.2115642472198
 30
0.0
 11
1665.142317521383
 21
830.2115642472198
 31
0.0
  0
LINE
  5
581
330
1F
100
AcDbEntity
  8
OBRYS
  6
CONTINUOUS
100
AcDbLine
 10
1660.142317521383
 20
831.0326012472199
 30
0.0
 11
1665.142317521383
 21
831.0326012472199
 31
0.0
  0
LINE
  5
582
330
1F
100
AcDbEntity
  8
OBRYS
  6
CONTINUOUS
100
AcDbLine
 10
1660.542317521383
 20
830.2115642472198
 30
0.0
 11
1664.742317521383
 21
830.2115642472198
 31
0.0
  0
LINE
  5
583
330
1F
100
AcDbEntity
  8
OBRYS
  6
CONTINUOUS
100
AcDbLine
 10
1660.142317521383
 20
832.3267042472198
 30
0.0
 11
1660.142317521383
 21
830.2115642472198
 31
0.0
  0
LINE
  5
584
330
1F
100
AcDbEntity
  8
OBRYS
  6
CONTINUOUS
100
AcDbLine
 10
1660.142317521383
 20
832.3267042472198
 30
0.0
 11
1665.142317521383
 21
832.3267042472198
 31
0.0
  0
LINE
  5
585
330
1F
100
AcDbEntity
  8
OBRYS
  6
CONTINUOUS
100
AcDbLine
 10
1660.142317521383
 20
830.2115642472198
 30
0.0
 11
1660.542317521383
 21
830.2115642472198
 31
0.0
  0
LINE
  5
586
330
1F
100
AcDbEntity
  8
OBRYS
  6
CONTINUOUS
100
AcDbLine
 10
1664.242317521383
 20
746.9591522472199
 30
0.0
 11
1664.242317521383
 21
746.9652412472199
 31
0.0
  0
LINE
  5
587
330
1F
100
AcDbEntity
  8
OBRYS
  6
CONTINUOUS
100
AcDbLine
 10
1703.293995521383
 20
740.4380772472198
 30
0.0
 11
1705.493995521383
 21
740.4380772472198
 31
0.0
  0
LINE
  5
588
330
1F
100
AcDbEntity
  8
OBRYS
  6
CONTINUOUS
100
AcDbLine
 10
1705.493995521383
 20
840.9894182472199
 30
0.0
 11
1703.293995521383
 21
840.9894182472199
 31
0.0
  0
LINE
  5
589
330
1F
100
AcDbEntity
  8
OBRYS
  6
CONTINUOUS
100
AcDbLine
 10
1705.493995521383
 20
740.5715042472198
 30
0.0
 11
1703.293995521383
 21
740.5715042472198
 31
0.0
  0
LINE
  5
58A
330
1F
100
AcDbEntity
  8
OBRYS
  6
CONTINUOUS
100
AcDbLine
 10
1705.493995521383
 20
840.8848742472198
 30
0.0
 11
1703.293995521383
 21
840.8848742472198
 31
0.0
  0
LINE
  5
58B
330
1F
100
AcDbEntity
  8
OBRYS
  6
CONTINUOUS
100
AcDbLine
 10
1705.493995521383
 20
765.3599992472198
 30
0.0
 11
1704.893995521383
 21
765.3599992472198
 31
0.0
  0
LINE
  5
58C
330
1F
100
AcDbEntity
  8
OBRYS
  6
CONTINUOUS
100
AcDbLine
 10
1703.893995521383
 20
765.3599992472198
 30
0.0
 11
1703.293995521383
 21
765.3599992472198
 31
0.0
  0
LINE
  5
58D
330
1F
100
AcDbEntity
  8
OBRYS
  6
CONTINUOUS
100
AcDbLine
 10
1703.293995521383
 20
769.1928182472199
 30
0.0
 11
1703.893995521383
 21
769.1928182472199
 31
0.0
  0
LINE
  5
58E
330
1F
100
AcDbEntity
  8
OBRYS
  6
CONTINUOUS
100
AcDbLine
 10
1704.893995521383
 20
769.1928182472199
 30
0.0
 11
1705.493995521383
 21
769.1928182472199
 31
0.0
  0
LINE
  5
58F
330
1F
100
AcDbEntity
  8
OBRYS
  6
CONTINUOUS
100
AcDbLine
 10
1704.193995521383
 20
765.6600002472198
 30
0.0
 11
1703.893995521383
 21
765.9599992472198
 31
0.0
  0
LINE
  5
590
330
1F
100
AcDbEntity
  8
OBRYS
  6
CONTINUOUS
100
AcDbLine
 10
1704.893995521383
 20
765.9599992472198
 30
0.0
 11
1704.593995521383
 21
765.6599992472198
 31
0.0
  0
LINE
  5
591
330
1F
100
AcDbEntity
  8
OBRYS
  6
CONTINUOUS
100
AcDbLine
 10
1704.893995521383
 20
765.6599992472198
 30
0.0
 11
1704.893995521383
 21
768.8928172472198
 31
0.0
  0
LINE
  5
592
330
1F
100
AcDbEntity
  8
OBRYS
  6
CONTINUOUS
100
AcDbLine
 10
1703.893995521383
 20
768.8928172472198
 30
0.0
 11
1703.893995521383
 21
765.6599992472198
 31
0.0
  0
LINE
  5
593
330
1F
100
AcDbEntity
  8
OBRYS
  6
CONTINUOUS
100
AcDbLine
 10
1704.893995521383
 20
768.5928192472198
 30
0.0
 11
1704.593995521383
 21
768.8928192472198
 31
0.0
  0
LINE
  5
594
330
1F
100
AcDbEntity
  8
OBRYS
  6
CONTINUOUS
100
AcDbLine
 10
1704.193995521383
 20
768.8928192472198
 30
0.0
 11
1703.893995521383
 21
768.5928192472198
 31
0.0
  0
LINE
  5
595
330
1F
100
AcDbEntity
  8
OBRYS
  6
CONTINUOUS
100
AcDbLine
 10
1703.293995521383
 20
764.5806962472199
 30
0.0
 11
1705.493995521383
 21
764.5806962472199
 31
0.0
  0
LINE
  5
596
330
1F
100
AcDbEntity
  8
OBRYS
  6
CONTINUOUS
100
AcDbLine
 10
1704.043995521383
 20
765.8100002472198
 30
0.0
 11
1704.743995521383
 21
765.8100002472198
 31
0.0
  0
LINE
  5
597
330
1F
100
AcDbEntity
  8
OBRYS
  6
CONTINUOUS
100
AcDbLine
 10
1704.893995521383
 20
765.3600002472199
 30
0.0
 11
1704.593995521383
 21
765.6600002472198
 31
0.0
  0
LINE
  5
598
330
1F
100
AcDbEntity
  8
OBRYS
  6
CONTINUOUS
100
AcDbLine
 10
1704.193995521383
 20
765.6600002472198
 30
0.0
 11
1703.893995521383
 21
765.3599992472198
 31
0.0
  0
LINE
  5
599
330
1F
100
AcDbEntity
  8
OBRYS
  6
CONTINUOUS
100
AcDbLine
 10
1704.043995521383
 20
768.7428192472198
 30
0.0
 11
1704.743995521383
 21
768.7428192472198
 31
0.0
  0
LINE
  5
59A
330
1F
100
AcDbEntity
  8
OBRYS
  6
CONTINUOUS
100
AcDbLine
 10
1703.893995521383
 20
769.1928192472199
 30
0.0
 11
1704.193995521383
 21
768.8928192472198
 31
0.0
  0
LINE
  5
59B
330
1F
100
AcDbEntity
  8
OBRYS
  6
CONTINUOUS
100
AcDbLine
 10
1703.293995521383
 20
769.9721242472199
 30
0.0
 11
1705.493995521383
 21
769.9721242472199
 31
0.0
  0
LINE
  5
59C
330
1F
100
AcDbEntity
  8
OBRYS
  6
CONTINUOUS
100
AcDbLine
 10
1704.593995521383
 20
768.8928192472198
 30
0.0
 11
1704.893995521383
 21
769.1928192472199
 31
0.0
  0
LINE
  5
59D
330
1F
100
AcDbEntity
  8
OBRYS
  6
CONTINUOUS
100
AcDbLine
 10
1703.293995521383
 20
782.5324782472198
 30
0.0
 11
1705.493995521383
 21
782.5324782472198
 31
0.0
  0
LINE
  5
59E
330
1F
100
AcDbEntity
  8
OBRYS
  6
CONTINUOUS
100
AcDbLine
 10
1703.293995521383
 20
787.9239052472199
 30
0.0
 11
1705.493995521383
 21
787.9239052472199
 31
0.0
  0
LINE
  5
59F
330
1F
100
AcDbEntity
  8
OBRYS
  6
CONTINUOUS
100
AcDbLine
 10
1703.293995521383
 20
793.5324782472198
 30
0.0
 11
1705.493995521383
 21
793.5324782472198
 31
0.0
  0
LINE
  5
5A0
330
1F
100
AcDbEntity
  8
OBRYS
  6
CONTINUOUS
100
AcDbLine
 10
1703.293995521383
 20
798.9239062472199
 30
0.0
 11
1705.493995521383
 21
798.9239062472199
 31
0.0
  0
LINE
  5
5A1
330
1F
100
AcDbEntity
  8
OBRYS
  6
CONTINUOUS
100
AcDbLine
 10
1703.293995521383
 20
811.4842612472198
 30
0.0
 11
1705.493995521383
 21
811.4842612472198
 31
0.0
  0
LINE
  5
5A2
330
1F
100
AcDbEntity
  8
OBRYS
  6
CONTINUOUS
100
AcDbLine
 10
1703.293995521383
 20
816.8756882472198
 30
0.0
 11
1705.493995521383
 21
816.8756882472198
 31
0.0
  0
ARC
  5
5A3
330
1F
100
AcDbEntity
  8
OBRYS
  6
CONTINUOUS
100
AcDbCircle
 10
-1586.351591521383
 20
783.6117812472198
 30
-0.0000000000015433
 40
0.3
210
-1.000802005371236E-15
220
0.0
230
-1.0
100
AcDbArc
 50
180.0
 51
270.0
  0
ARC
  5
5A4
330
1F
100
AcDbEntity
  8
OBRYS
  6
CONTINUOUS
100
AcDbCircle
 10
-1613.340000521383
 20
865.5677742472199
 30
-0.0000000000015433
 40
26.00000055042735
210
-1.000802005371236E-15
220
0.0
230
-1.0
100
AcDbArc
 50
251.357183
 51
288.9916429999999
  0
ARC
  5
5A5
330
1F
100
AcDbEntity
  8
OBRYS
  6
CONTINUOUS
100
AcDbCircle
 10
-1622.610352521383
 20
838.0894172472199
 30
-0.0000000000015433
 40
3.0
210
-1.000802005371236E-15
220
0.0
230
-1.0
100
AcDbArc
 50
71.35722800000154
 51
145.4200520000021
  0
CIRCLE
  5
5A6
330
1F
100
AcDbEntity
  8
OBRYS
  6
CONTINUOUS
100
AcDbCircle
 10
1622.816535521383
 20
839.1397772472199
 30
0.0
 40
0.7
  0
ARC
  5
5A7
330
1F
100
AcDbEntity
  8
OBRYS
  6
CONTINUOUS
100
AcDbCircle
 10
-1586.351595521383
 20
815.7963822472199
 30
-0.0000000000015433
 40
0.3
210
-1.000802005371236E-15
220
0.0
230
-1.0
100
AcDbArc
 50
90.0
 51
180.0
  0
ARC
  5
5A8
330
1F
100
AcDbEntity
  8
OBRYS
  6
CONTINUOUS
100
AcDbCircle
 10
-1586.351589521383
 20
768.8928182472198
 30
-0.0000000000015433
 40
0.3
210
-1.000802005371236E-15
220
0.0
230
-1.0
100
AcDbArc
 50
90.0
 51
180.0
  0
ARC
  5
5A9
330
1F
100
AcDbEntity
  8
OBRYS
  6
CONTINUOUS
100
AcDbCircle
 10
-1634.691099521383
 20
808.4780532472198
 30
-0.0000000000015433
 40
2.860491069799415
210
-1.000802005371236E-15
220
0.0
230
-1.0
100
AcDbArc
 50
179.9999919999993
 51
211.8621599999983
  0
ARC
  5
5AA
330
1F
100
AcDbEntity
  8
OBRYS
  6
CONTINUOUS
100
AcDbCircle
 10
-1586.351595521383
 20
812.5635642472198
 30
-0.0000000000015433
 40
0.3
210
-1.000802005371236E-15
220
0.0
230
-1.0
100
AcDbArc
 50
180.0
 51
270.0
  0
ARC
  5
5AB
330
1F
100
AcDbEntity
  8
OBRYS
  6
CONTINUOUS
100
AcDbCircle
 10
-1586.351593521383
 20
797.8446002472199
 30
-0.0000000000015433
 40
0.3
210
-1.000802005371236E-15
220
0.0
230
-1.0
100
AcDbArc
 50
90.0
 51
180.0
  0
ARC
  5
5AC
330
1F
100
AcDbEntity
  8
OBRYS
  6
CONTINUOUS
100
AcDbCircle
 10
-1586.351592521383
 20
794.6117812472198
 30
-0.0000000000015433
 40
0.3
210
-1.000802005371236E-15
220
0.0
230
-1.0
100
AcDbArc
 50
180.0
 51
270.0
  0
ARC
  5
5AD
330
1F
100
AcDbEntity
  8
OBRYS
  6
CONTINUOUS
100
AcDbCircle
 10
-1586.351591521383
 20
786.8445992472198
 30
-0.0000000000015433
 40
0.3
210
-1.000802005371236E-15
220
0.0
230
-1.0
100
AcDbArc
 50
90.0
 51
180.0
  0
CIRCLE
  5
5AE
330
1F
100
AcDbEntity
  8
OBRYS
  6
CONTINUOUS
100
AcDbCircle
 10
1629.551619521383
 20
790.7281842472198
 30
0.0
 40
0.7
  0
ARC
  5
5AF
330
1F
100
AcDbEntity
  8
OBRYS
  6
CONTINUOUS
100
AcDbCircle
 10
1632.352228521383
 20
801.7571432472198
 30
0.0
 40
0.804923076923248
100
AcDbArc
 50
335.8236460000036
 51
64.68511999999772
  0
ARC
  5
5B0
330
1F
100
AcDbEntity
  8
OBRYS
  6
CONTINUOUS
100
AcDbCircle
 10
-1632.248120521383
 20
808.0281932472199
 30
-0.0000000000015433
 40
0.200000079180862
210
-1.000802005371236E-15
220
0.0
230
-1.0
100
AcDbArc
 50
90.00000600003212
 51
164.9999769999997
  0
ARC
  5
5B1
330
1F
100
AcDbEntity
  8
OBRYS
  6
CONTINUOUS
100
AcDbCircle
 10
1596.499867521383
 20
840.6848702472198
 30
0.0
 40
0.2999997432499985
100
AcDbArc
 50
90.00017000001496
 51
160.0000959999953
  0
ARC
  5
5B2
330
1F
100
AcDbEntity
  8
OBRYS
  6
CONTINUOUS
100
AcDbCircle
 10
-1633.551586521383
 20
804.2927172472198
 30
-0.0000000000015433
 40
2.0
210
-1.000802005371236E-15
220
0.0
230
-1.0
100
AcDbArc
 50
295.3146659999986
 51
359.9998699999999
  0
ARC
  5
5B3
330
1F
100
AcDbEntity
  8
OBRYS
  6
CONTINUOUS
100
AcDbCircle
 10
-1632.551588521383
 20
820.1441972472198
 30
-0.0000000000015433
 40
5.0
210
-1.000802005371236E-15
220
0.0
230
-1.0
100
AcDbArc
 50
145.4199059999995
 51
180.0000060000006
  0
ARC
  5
5B4
330
1F
100
AcDbEntity
  8
OBRYS
  6
CONTINUOUS
100
AcDbCircle
 10
-1632.551594521383
 20
797.7941172472198
 30
-0.0000000000015433
 40
1.0
210
-1.000802005371236E-15
220
0.0
230
-1.0
100
AcDbArc
 50
0.0001189999976463
 51
24.17649300000141
  0
ARC
  5
5B5
330
1F
100
AcDbEntity
  8
OBRYS
  6
CONTINUOUS
100
AcDbCircle
 10
-1576.851592521383
 20
786.9245932472198
 30
-0.0000000000015433
 40
0.350000000000005
210
-1.000802005371236E-15
220
0.0
230
-1.0
100
AcDbArc
 50
359.9997980000087
 51
25.01710000000379
  0
ARC
  5
5B6
330
1F
100
AcDbEntity
  8
OBRYS
  6
CONTINUOUS
100
AcDbCircle
 10
-1576.851592521383
 20
785.7997942472198
 30
-0.0000000000015433
 40
0.350000000000007
210
-1.000802005371236E-15
220
0.0
230
-1.0
100
AcDbArc
 50
270.0000389999868
 51
0.0
  0
ARC
  5
5B7
330
1F
100
AcDbEntity
  8
OBRYS
  6
CONTINUOUS
100
AcDbCircle
 10
1575.751592521383
 20
764.3992792472199
 30
0.0
 40
0.200000000000012
100
AcDbArc
 50
133.9583260000141
 51
180.0
  0
ARC
  5
5B8
330
1F
100
AcDbEntity
  8
OBRYS
  6
CONTINUOUS
100
AcDbCircle
 10
1575.851592521383
 20
751.8823172472198
 30
0.0
 40
0.3000000000000955
100
AcDbArc
 50
180.0
 51
254.9999090000026
  0
ARC
  5
5B9
330
1F
100
AcDbEntity
  8
OBRYS
  6
CONTINUOUS
100
AcDbCircle
 10
-1582.606793521383
 20
750.2811962472199
 30
-0.0000000000015433
 40
0.5
210
-1.000802005371236E-15
220
0.0
230
-1.0
100
AcDbArc
 50
269.999979999998
 51
285.0000829999798
  0
ARC
  5
5BA
330
1F
100
AcDbEntity
  8
OBRYS
  6
CONTINUOUS
100
AcDbCircle
 10
-1584.568495521383
 20
750.2811962472199
 30
-0.0000000000015433
 40
0.5
210
-1.000802005371236E-15
220
0.0
230
-1.0
100
AcDbArc
 50
249.9999689999894
 51
269.9999940000046
  0
ARC
  5
5BB
330
1F
100
AcDbEntity
  8
OBRYS
  6
CONTINUOUS
100
AcDbCircle
 10
1596.499866521383
 20
740.7714992472198
 30
0.0
 40
0.2999999999998075
100
AcDbArc
 50
200.0001049999933
 51
269.9999450000205
  0
ARC
  5
5BC
330
1F
100
AcDbEntity
  8
OBRYS
  6
CONTINUOUS
100
AcDbCircle
 10
1626.631829521383
 20
774.4458132472198
 30
0.0
 40
0.675961747013138
100
AcDbArc
 50
116.9618079999845
 51
266.5486179999992
  0
ARC
  5
5BD
330
1F
100
AcDbEntity
  8
OBRYS
  6
CONTINUOUS
100
AcDbCircle
 10
-1613.340000521383
 20
715.8885942472198
 30
-0.0000000000015433
 40
26.000000428376
210
-1.000802005371236E-15
220
0.0
230
-1.0
100
AcDbArc
 50
71.00835800000038
 51
108.9605420000003
  0
ARC
  5
5BE
330
1F
100
AcDbEntity
  8
OBRYS
  6
CONTINUOUS
100
AcDbCircle
 10
-1622.762596521383
 20
743.3151372472198
 30
-0.0000000000015433
 40
3.0
210
-1.000802005371236E-15
220
0.0
230
-1.0
100
AcDbArc
 50
212.0080850000013
 51
288.9605829999992
  0
ARC
  5
5BF
330
1F
100
AcDbEntity
  8
OBRYS
  6
CONTINUOUS
100
AcDbCircle
 10
1627.002464521383
 20
740.6649462472199
 30
0.0
 40
2.00000000000024
100
AcDbArc
 50
99.58253899999957
 51
147.9920300000014
  0
ARC
  5
5C0
330
1F
100
AcDbEntity
  8
OBRYS
  6
CONTINUOUS
100
AcDbCircle
 10
1630.540804521383
 20
733.1490972472199
 30
0.0
 40
9.999999821303298
100
AcDbArc
 50
90.00002600000049
 51
99.58255799999951
  0
ARC
  5
5C1
330
1F
100
AcDbEntity
  8
OBRYS
  6
CONTINUOUS
100
AcDbCircle
 10
1634.863989521383
 20
742.3990962472199
 30
0.0
 40
0.7499999999999964
100
AcDbArc
 50
270.0
 51
90.0
  0
ARC
  5
5C2
330
1F
100
AcDbEntity
  8
OBRYS
  6
CONTINUOUS
100
AcDbCircle
 10
-1633.613989521383
 20
741.0600192472198
 30
-0.0000000000015433
 40
0.750000280117763
210
-1.000802005371236E-15
220
0.0
230
-1.0
100
AcDbArc
 50
269.9999779999989
 51
128.2390700000057
  0
ARC
  5
5C3
330
1F
100
AcDbEntity
  8
OBRYS
  6
CONTINUOUS
100
AcDbCircle
 10
-1636.813989521383
 20
741.3100192472198
 30
-0.0000000000015433
 40
1.000000255702186
210
-1.000802005371236E-15
220
0.0
230
-1.0
100
AcDbArc
 50
179.9999789999954
 51
270.0001450000036
  0
ARC
  5
5C4
330
1F
100
AcDbEntity
  8
OBRYS
  6
CONTINUOUS
100
AcDbCircle
 10
-1634.813984521383
 20
770.5175092472198
 30
-0.0000000000015433
 40
3.000000044591825
210
-1.000802005371236E-15
220
0.0
230
-1.0
100
AcDbArc
 50
131.8433550000001
 51
180.0000330000002
  0
ARC
  5
5C5
330
1F
100
AcDbEntity
  8
OBRYS
  6
CONTINUOUS
100
AcDbCircle
 10
-1631.204528521383
 20
766.4866802472199
 30
-0.0000000000015433
 40
8.41070737618745
210
-1.000802005371236E-15
220
0.0
230
-1.0
100
AcDbArc
 50
105.6400140000002
 51
131.8432900000003
  0
ARC
  5
5C6
330
1F
100
AcDbEntity
  8
OBRYS
  6
CONTINUOUS
100
AcDbCircle
 10
-1633.083783521383
 20
774.4282622472199
 30
-0.0000000000015433
 40
0.199999999999584
210
-1.000802005371236E-15
220
0.0
230
-1.0
100
AcDbArc
 50
0.0
 51
96.39915099999132
  0
ARC
  5
5C7
330
1F
100
AcDbEntity
  8
OBRYS
  6
CONTINUOUS
100
AcDbCircle
 10
1632.683783521383
 20
773.8385952472198
 30
0.0
 40
0.199999999999489
100
AcDbArc
 50
273.6009829999813
 51
0.0
  0
ARC
  5
5C8
330
1F
100
AcDbEntity
  8
OBRYS
  6
CONTINUOUS
100
AcDbCircle
 10
1630.777805521383
 20
775.5222092472198
 30
0.0
 40
1.99999999999543
100
AcDbArc
 50
266.5486180000037
 51
273.6009829999998
  0
ARC
  5
5C9
330
1F
100
AcDbEntity
  8
OBRYS
  6
CONTINUOUS
100
AcDbCircle
 10
-1625.534378521383
 20
771.6820112472199
 30
-0.0000000000015433
 40
0.9999954129574559
210
-1.000802005371236E-15
220
0.0
230
-1.0
100
AcDbArc
 50
359.9999929999971
 51
88.62243499999533
  0
ARC
  5
5CA
330
1F
100
AcDbEntity
  8
OBRYS
  6
CONTINUOUS
100
AcDbCircle
 10
-1634.667267521383
 20
770.9013662472198
 30
-0.0000000000015433
 40
1.9999997043542
210
-1.000802005371236E-15
220
0.0
230
-1.0
100
AcDbArc
 50
88.62235799999684
 51
179.9999869999994
  0
ARC
  5
5CB
330
1F
100
AcDbEntity
  8
OBRYS
  6
CONTINUOUS
100
AcDbCircle
 10
-1635.667272521383
 20
744.9490932472198
 30
-0.0000000000015433
 40
0.999999999999696
210
-1.000802005371236E-15
220
0.0
230
-1.0
100
AcDbArc
 50
180.0000440000031
 51
270.0001659999983
  0
ARC
  5
5CC
330
1F
100
AcDbEntity
  8
OBRYS
  6
CONTINUOUS
100
AcDbCircle
 10
1630.540785521383
 20
733.1490952472199
 30
0.0
 40
10.80000004152346
100
AcDbArc
 50
89.99995299999912
 51
99.58248999999934
  0
ARC
  5
5CD
330
1F
100
AcDbEntity
  8
OBRYS
  6
CONTINUOUS
100
AcDbCircle
 10
-1625.534390521383
 20
744.2708742472198
 30
-0.0000000000015433
 40
1.0
210
-1.000802005371236E-15
220
0.0
230
-1.0
100
AcDbArc
 50
260.4177800000006
 51
359.9999420000033
  0
ARC
  5
5CE
330
1F
100
AcDbEntity
  8
OBRYS
  6
CONTINUOUS
100
AcDbCircle
 10
1633.909744521383
 20
807.6388772472199
 30
0.0
 40
1.500000000000001
100
AcDbArc
 50
147.0573320000026
 51
181.4808279999985
  0
ARC
  5
5CF
330
1F
100
AcDbEntity
  8
OBRYS
  6
CONTINUOUS
100
AcDbCircle
 10
-1632.311513521383
 20
808.5734012472199
 30
-0.0000000000015433
 40
0.3
210
-1.000802005371236E-15
220
0.0
230
-1.0
100
AcDbArc
 50
90.0
 51
165.8303250000136
  0
CIRCLE
  5
5D0
330
1F
100
AcDbEntity
  8
OBRYS
  6
CONTINUOUS
100
AcDbCircle
 10
1584.264575521383
 20
751.7812032472198
 30
0.0
 40
0.7
  0
ARC
  5
5D1
330
1F
100
AcDbEntity
  8
OBRYS
  6
CONTINUOUS
100
AcDbCircle
 10
-1586.351588521383
 20
765.6599992472198
 30
-0.0000000000015433
 40
0.3
210
-1.000802005371236E-15
220
0.0
230
-1.0
100
AcDbArc
 50
180.0
 51
270.0
  0
CIRCLE
  5
5D2
330
1F
100
AcDbEntity
  8
OBRYS
  6
CONTINUOUS
100
AcDbCircle
 10
1583.051592521383
 20
790.7281912472198
 30
0.0
 40
0.7
  0
ARC
  5
5D3
330
1F
100
AcDbEntity
  8
OBRYS
  6
CONTINUOUS
100
AcDbCircle
 10
1634.319121521383
 20
807.0562832472199
 30
0.0
 40
1.707502561989981
100
AcDbArc
 50
204.712393000002
 51
325.1639799999968
  0
ARC
  5
5D4
330
1F
100
AcDbEntity
  8
OBRYS
  6
CONTINUOUS
100
AcDbCircle
 10
1632.938065026345
 20
742.3990957837808
 30
0.0
 40
0.7499993587355187
100
AcDbArc
 50
296.7832375159528
 51
88.73117604561288
  0
ARC
  5
5D5
330
1F
100
AcDbEntity
  8
OBRYS
  6
CONTINUOUS
100
AcDbCircle
 10
-1631.751595521383
 20
808.5734012472199
 30
-0.0000000000015433
 40
0.3
210
-1.000802005371236E-15
220
0.0
230
-1.0
100
AcDbArc
 50
359.9999919999975
 51
90.0
  0
CIRCLE
  5
5D6
330
1F
100
AcDbEntity
  8
OBRYS
  6
CONTINUOUS
100
AcDbCircle
 10
1584.264586521383
 20
829.6751782472198
 30
0.0
 40
0.7
  0
ARC
  5
5D7
330
1F
100
AcDbEntity
  8
OBRYS
  6
CONTINUOUS
100
AcDbCircle
 10
1635.14472995358
 20
808.4110042186375
 30
-0.000000000000054
 40
2.40779437548844
100
AcDbArc
 50
195.3735161905762
 51
1.595711807022345
  0
ARC
  5
5D8
330
1F
100
AcDbEntity
  8
OBRYS
  6
CONTINUOUS
100
AcDbCircle
 10
1631.051595521383
 20
775.4483172472198
 30
0.0
 40
0.3999996844975645
100
AcDbArc
 50
270.0
 51
359.9999149999928
  0
ARC
  5
5D9
330
1F
100
AcDbEntity
  8
OBRYS
  6
CONTINUOUS
100
AcDbCircle
 10
1575.751592521383
 20
770.1535252472198
 30
0.0
 40
0.2000000000004855
100
AcDbArc
 50
180.0
 51
226.0416740000068
  0
ARC
  5
5DA
330
1F
100
AcDbEntity
  8
OBRYS
  6
CONTINUOUS
100
AcDbCircle
 10
-1634.691099521383
 20
808.4780532472198
 30
-0.0000000000015433
 40
2.860491069799415
210
-1.000802005371236E-15
220
0.0
230
-1.0
100
AcDbArc
 50
211.8621609999961
 51
256.7061179999978
  0
ARC
  5
5DB
330
1F
100
AcDbEntity
  8
OBRYS
  6
CONTINUOUS
100
AcDbCircle
 10
-1575.851594521383
 20
773.4973862472198
 30
-0.0000000000015433
 40
0.300000581987944
210
-1.000802005371236E-15
220
0.0
230
-1.0
100
AcDbArc
 50
0.0006060000048864
 51
48.19046500001575
  0
ARC
  5
5DC
330
1F
100
AcDbEntity
  8
OBRYS
  6
CONTINUOUS
100
AcDbCircle
 10
1575.751592521383
 20
793.3510612472198
 30
0.0
 40
0.199999999999541
100
AcDbArc
 50
133.958326000035
 51
180.0
  0
ARC
  5
5DD
330
1F
100
AcDbEntity
  8
OBRYS
  6
CONTINUOUS
100
AcDbCircle
 10
1576.309854521383
 20
784.2997942472198
 30
0.0
 40
0.199998961774814
100
AcDbArc
 50
90.00011300000914
 51
156.4229459999933
  0
ARC
  5
5DE
330
1F
100
AcDbEntity
  8
OBRYS
  6
CONTINUOUS
100
AcDbCircle
 10
-1575.851592521383
 20
784.4997822472199
 30
-0.0000000000015433
 40
0.300000190324924
210
-1.000802005371236E-15
220
0.0
230
-1.0
100
AcDbArc
 50
203.5765720000162
 51
0.0
  0
ARC
  5
5DF
330
1F
100
AcDbEntity
  8
OBRYS
  6
CONTINUOUS
100
AcDbCircle
 10
1575.851592521383
 20
829.5740522472198
 30
0.0
 40
0.300000000000168
100
AcDbArc
 50
105.0000909999918
 51
180.0
  0
ARC
  5
5E0
330
1F
100
AcDbEntity
  8
OBRYS
  6
CONTINUOUS
100
AcDbCircle
 10
1575.751592521383
 20
799.1053082472198
 30
0.0
 40
0.1999999999999675
100
AcDbArc
 50
180.0
 51
226.0416739999633
  0
ARC
  5
5E1
330
1F
100
AcDbEntity
  8
OBRYS
  6
CONTINUOUS
100
AcDbCircle
 10
1584.568495521383
 20
831.1751722472198
 30
0.0
 40
0.5
100
AcDbArc
 50
70.00004100000183
 51
90.00003900000914
  0
ARC
  5
5E2
330
1F
100
AcDbEntity
  8
OBRYS
  6
CONTINUOUS
100
AcDbCircle
 10
1575.751592521383
 20
811.3028442472198
 30
0.0
 40
0.2000000000000125
100
AcDbArc
 50
133.95843900002
 51
180.0000779999922
  0
ARC
  5
5E3
330
1F
100
AcDbEntity
  8
OBRYS
  6
CONTINUOUS
100
AcDbCircle
 10
1575.751592521383
 20
817.0570902472198
 30
0.0
 40
0.199999999999971
100
AcDbArc
 50
180.0
 51
226.0416739999633
  0
ARC
  5
5E4
330
1F
100
AcDbEntity
  8
OBRYS
  6
CONTINUOUS
100
AcDbCircle
 10
1582.606793521383
 20
831.1751722472198
 30
0.0
 40
0.5
100
AcDbArc
 50
90.00005299998969
 51
105.0001460000003
  0
CIRCLE
  5
5E5
330
1F
100
AcDbEntity
  8
OBRYS
  6
CONTINUOUS
100
AcDbCircle
 10
1622.816521521383
 20
742.3165932472198
 30
0.0
 40
0.7
  0
CIRCLE
  5
5E6
330
1F
100
AcDbEntity
  8
OBRYS
  6
CONTINUOUS
100
AcDbCircle
 10
1663.192317521383
 20
756.4246202472198
 30
0.0
 40
2.4
  0
ARC
  5
5E7
330
1F
100
AcDbEntity
  8
OBRYS
  6
CONTINUOUS
100
AcDbCircle
 10
1664.427622521383
 20
760.3507712472199
 30
0.0
 40
0.8
100
AcDbArc
 50
90.0
 51
149.9999999999993
  0
CIRCLE
  5
5E8
330
1F
100
AcDbEntity
  8
OBRYS
  6
CONTINUOUS
100
AcDbCircle
 10
1663.192317521383
 20
807.0799662472198
 30
0.0
 40
2.4
  0
ARC
  5
5E9
330
1F
100
AcDbEntity
  8
OBRYS
  6
CONTINUOUS
100
AcDbCircle
 10
-1664.427623521383
 20
803.1538142472198
 30
-0.0000000000015433
 40
0.8
210
-1.000802005371236E-15
220
0.0
230
-1.0
100
AcDbArc
 50
270.0
 51
329.9999999999992
  0
CIRCLE
  5
5EA
330
1F
100
AcDbEntity
  8
OBRYS
  6
CONTINUOUS
100
AcDbCircle
 10
1663.192317521383
 20
825.0317482472199
 30
0.0
 40
2.4
  0
ARC
  5
5EB
330
1F
100
AcDbEntity
  8
OBRYS
  6
CONTINUOUS
100
AcDbCircle
 10
-1664.427623521383
 20
821.1055962472199
 30
-0.0000000000015433
 40
0.8
210
-1.000802005371236E-15
220
0.0
230
-1.0
100
AcDbArc
 50
270.0
 51
329.9999999999922
  0
ARC
  5
5EC
330
1F
100
AcDbEntity
  8
OBRYS
  6
CONTINUOUS
100
AcDbCircle
 10
-1664.427623521383
 20
760.3507722472198
 30
-0.0000000000014489
 40
0.8
210
-9.395696654138680E-16
220
0.0
230
-1.0
100
AcDbArc
 50
30.00002200000392
 51
89.99998499999523
  0
ELLIPSE
  5
5ED
330
1F
100
AcDbEntity
  8
OBRYS
  6
CONTINUOUS
100
AcDbEllipse
 10
1664.427623521383
 20
748.6266412472198
 30
0.0
 11
0.8
 21
0.0
 31
0.0
210
0.0
220
0.0
230
1.0
 40
0.939693
 41
2.408537840481021
 42
2.61799387799142
  0
ELLIPSE
  5
5EE
330
1F
100
AcDbEntity
  8
OBRYS
  6
CONTINUOUS
100
AcDbEllipse
 10
1664.427623521383
 20
832.8297332472198
 30
0.0
 11
0.8
 21
0.0
 31
0.0
210
0.0
220
0.0
230
1.0
 40
0.939693
 41
3.665191429188078
 42
3.874647466698478
  0
ARC
  5
5EF
330
1F
100
AcDbEntity
  8
OBRYS
100
AcDbCircle
 10
1628.840083891804
 20
806.1957998995613
 30
0.0
 40
2.807143539115767
100
AcDbArc
 50
338.4874711201577
 51
21.51508908509118
  0
LINE
  5
5F0
330
1F
100
AcDbEntity
  8
OBRYS
100
AcDbLine
 10
1575.612765526178
 20
770.0095562734698
 30
0.0
 11
1576.926425521383
 21
768.7428192472198
 31
0.0
  0
ARC
  5
5F1
330
1F
100
AcDbEntity
  8
OBRYS
100
AcDbCircle
 10
1639.002876434742
 20
808.7956930460284
 30
0.0
 40
6.700163668513749
100
AcDbArc
 50
190.2789270682723
 51
201.478276266664
  0
LINE
  5
5F2
330
1F
100
AcDbEntity
  8
OBRYS
100
AcDbLine
 10
1659.941317521383
 20
740.4100192472198
 30
0.0
 11
1659.941317521383
 21
840.9910002472199
 31
0.0
  0
LINE
  5
5F3
330
1F
100
AcDbEntity
  8
OBRYS
100
AcDbLine
 10
1666.092317521383
 20
841.0894172472199
 30
0.0
 11
1666.092317521383
 21
740.3100192472198
 31
0.0
  0
CIRCLE
  5
5F4
330
1F
100
AcDbEntity
  8
OBRYS
100
AcDbCircle
 10
1663.192317521383
 20
744.9372662472199
 30
0.0
 40
2.4
  0
CIRCLE
  5
5F5
330
1F
100
AcDbEntity
  8
OBRYS
100
AcDbCircle
 10
1664.696683021383
 20
748.1887207472198
 30
0.0
 40
0.85
  0
LINE
  5
5F6
330
1F
100
AcDbEntity
  8
OBRYS
100
AcDbLine
 10
1661.222197521383
 20
749.6395182472198
 30
0.0
 11
1662.267221521383
 21
749.6395182472198
 31
0.0
  0
LINE
  5
5F7
330
1F
100
AcDbEntity
  8
OBRYS
100
AcDbLine
 10
1661.222197521383
 20
749.6395182472198
 30
0.0
 11
1660.947191521383
 21
749.4435322472198
 31
0.0
  0
LINE
  5
5F8
330
1F
100
AcDbEntity
  8
OBRYS
100
AcDbLine
 10
1660.596078521383
 20
749.4435322472198
 30
0.0
 11
1660.947191521383
 21
749.4435322472198
 31
0.0
  0
LINE
  5
5F9
330
1F
100
AcDbEntity
  8
OBRYS
100
AcDbLine
 10
1660.596078521383
 20
749.4435322472198
 30
0.0
 11
1661.556042521383
 21
750.0905832472198
 31
0.0
  0
LINE
  5
5FA
330
1F
100
AcDbEntity
  8
OBRYS
100
AcDbLine
 10
1661.556042521383
 20
750.0905832472198
 30
0.0
 11
1661.912911521383
 21
750.0905832472198
 31
0.0
  0
LINE
  5
5FB
330
1F
100
AcDbEntity
  8
OBRYS
100
AcDbLine
 10
1661.912911521383
 20
750.0905832472198
 30
0.0
 11
1662.935551521383
 21
749.4435322472198
 31
0.0
  0
LINE
  5
5FC
330
1F
100
AcDbEntity
  8
OBRYS
100
AcDbLine
 10
1662.558856521383
 20
749.4435322472198
 30
0.0
 11
1662.935551521383
 21
749.4435322472198
 31
0.0
  0
LINE
  5
5FD
330
1F
100
AcDbEntity
  8
OBRYS
100
AcDbLine
 10
1662.267221521383
 20
749.6395182472198
 30
0.0
 11
1662.558856521383
 21
749.4435322472198
 31
0.0
  0
LINE
  5
5FE
330
1F
100
AcDbEntity
  8
OBRYS
100
AcDbLine
 10
1661.319981766798
 20
749.7092052472199
 30
0.0
 11
1661.729375558525
 21
750.0009641603535
 31
0.0
  0
LINE
  5
5FF
330
1F
100
AcDbEntity
  8
OBRYS
100
AcDbLine
 10
1662.163524480548
 20
749.7092052472199
 30
0.0
 11
1661.729375558525
 21
750.0009641603535
 31
0.0
  0
LINE
  5
600
330
1F
100
AcDbEntity
  8
OBRYS
100
AcDbLine
 10
1661.319981766798
 20
749.7092052472199
 30
0.0
 11
1662.163524480548
 21
749.7092052472199
 31
0.0
  0
LINE
  5
601
330
1F
100
AcDbEntity
  8
OBRYS
100
AcDbLine
 10
1663.094159521383
 20
749.9060192472198
 30
0.0
 11
1663.409457521383
 21
749.8977422472199
 31
0.0
  0
LINE
  5
602
330
1F
100
AcDbEntity
  8
OBRYS
100
AcDbLine
 10
1663.035960521383
 20
749.4435322472198
 30
0.0
 11
1664.688557521383
 21
749.4435322472198
 31
0.0
  0
LINE
  5
603
330
1F
100
AcDbEntity
  8
OBRYS
100
AcDbLine
 10
1664.688557521383
 20
749.5198402472198
 30
0.0
 11
1664.688557521383
 21
749.4435322472198
 31
0.0
  0
CIRCLE
  5
604
330
1F
100
AcDbEntity
  8
OBRYS
100
AcDbCircle
 10
1664.680754699106
 20
759.8848917472199
 30
0.0
 40
0.85
  0
LINE
  5
605
330
1F
100
AcDbEntity
  8
OBRYS
100
AcDbLine
 10
1660.542317521383
 20
769.1928112472199
 30
0.0
 11
1660.542317521383
 21
765.3599932472198
 31
0.0
  0
CIRCLE
  5
618
330
1F
100
AcDbEntity
  8
OBRYS
100
AcDbCircle
 10
1664.700437771383
 20
803.6196962472198
 30
0.0
 40
0.85
  0
CIRCLE
  5
619
330
1F
100
AcDbEntity
  8
OBRYS
100
AcDbCircle
 10
1664.696683021383
 20
821.5714782472198
 30
0.0
 40
0.85
  0
CIRCLE
  5
61A
330
1F
100
AcDbEntity
  8
OBRYS
  6
CONTINUOUS
100
AcDbCircle
 10
1663.192317521383
 20
836.5191092472198
 30
0.0
 40
2.4
  0
CIRCLE
  5
61B
330
1F
100
AcDbEntity
  8
OBRYS
100
AcDbCircle
 10
1664.696683021383
 20
833.2676542472198
 30
0.0
 40
0.85
  0
ARC
  5
61C
330
1F
100
AcDbEntity
  8
OBRYS
100
AcDbCircle
 10
1663.102104368972
 20
749.4397510663924
 30
0.0
 40
0.0662518369728418
100
AcDbArc
 50
117.2440269125743
 51
176.7281889935764
  0
ARC
  5
61D
330
1F
100
AcDbEntity
  8
OBRYS
100
AcDbCircle
 10
1663.923289999745
 20
747.7497351937316
 30
0.0
 40
1.945196973233683
100
AcDbArc
 50
98.7966883649178
 51
115.9605577100374
  0
ARC
  5
61E
330
1F
100
AcDbEntity
  8
OBRYS
100
AcDbCircle
 10
1662.918433174526
 20
753.6191017368835
 30
0.0
 40
4.009936972456545
100
AcDbArc
 50
280.1605384380484
 51
290.5988324631535
  0
ARC
  5
61F
330
1F
100
AcDbEntity
  8
OBRYS
100
AcDbCircle
 10
1664.320897242547
 20
749.9133981489837
 30
0.0
 40
0.048583012935508
100
AcDbArc
 50
279.8634228399056
 51
70.93113898936346
  0
ARC
  5
620
330
1F
100
AcDbEntity
  8
OBRYS
100
AcDbCircle
 10
1663.900052004923
 20
748.1074518720925
 30
0.0
 40
1.90266133332251
100
AcDbArc
 50
76.73060802967008
 51
103.6799685899409
  0
ARC
  5
621
330
1F
100
AcDbEntity
  8
OBRYS
100
AcDbCircle
 10
1663.458397245112
 20
749.9070258226628
 30
0.0
 40
0.0498124616104635
100
AcDbArc
 50
99.61698789091648
 51
190.7410484456751
  0
ARC
  5
622
330
1F
100
AcDbEntity
  8
OBRYS
100
AcDbCircle
 10
1663.295961021555
 20
749.7959301444139
 30
0.0
 40
0.2298770454575829
100
AcDbArc
 50
101.1909754179487
 51
151.3861362292047
  0
ARC
  5
623
330
1F
100
AcDbEntity
  8
OBRYS
100
AcDbCircle
 10
1663.895136770834
 20
748.2048031784609
 30
0.0
 40
1.927335360490321
100
AcDbArc
 50
67.78324364412553
 51
109.5136398385838
  0
ARC
  5
624
330
1F
100
AcDbEntity
  8
OBRYS
100
AcDbCircle
 10
1664.603900013238
 20
749.9143459467324
 30
0.0
 40
0.0773340889381619
100
AcDbArc
 50
291.4621567850891
 51
75.0237970009348
  0
ARC
  5
625
330
1F
100
AcDbEntity
  8
OBRYS
100
AcDbCircle
 10
1663.987937791895
 20
748.1747470673993
 30
0.0
 40
1.444063002178838
100
AcDbArc
 50
100.7907845223402
 51
111.3357597085629
  0
ARC
  5
626
330
1F
100
AcDbEntity
  8
OBRYS
100
AcDbCircle
 10
1662.955477465615
 20
754.1951409787838
 30
0.0
 40
4.66454302777321
100
AcDbArc
 50
279.4032007405852
 51
291.067055163517
  0
LINE
  5
627
330
1F
100
AcDbEntity
  8
OBRYS
100
AcDbLine
 10
1663.462540521383
 20
749.5198402472198
 30
0.0
 11
1664.688557521383
 21
749.5198402472198
 31
0.0
  0
LINE
  5
628
330
1F
100
AcDbEntity
  8
OBRYS
100
AcDbLine
 10
1660.954865521383
 20
832.0128372472199
 30
0.0
 11
1661.261849521383
 21
832.0128372472199
 31
0.0
  0
LINE
  5
629
330
1F
100
AcDbEntity
  8
OBRYS
100
AcDbLine
 10
1661.261849521383
 20
832.0128372472199
 30
0.0
 11
1661.261849521383
 21
831.5066502472198
 31
0.0
  0
LINE
  5
62A
330
1F
100
AcDbEntity
  8
OBRYS
100
AcDbLine
 10
1661.875817521383
 20
831.6023262472198
 30
0.0
 11
1661.875817521383
 21
831.5255212472198
 31
0.0
  0
LINE
  5
62B
330
1F
100
AcDbEntity
  8
OBRYS
100
AcDbLine
 10
1660.954865521383
 20
832.0128372472199
 30
0.0
 11
1660.954865521383
 21
831.3631372472198
 31
0.0
  0
LINE
  5
62C
330
1F
100
AcDbEntity
  8
OBRYS
100
AcDbLine
 10
1660.954865521383
 20
831.3631372472198
 30
0.0
 11
1661.153126521383
 21
831.3631372472198
 31
0.0
  0
ARC
  5
62D
330
1F
100
AcDbEntity
  8
OBRYS
100
AcDbCircle
 10
1662.121614013544
 20
828.742240042269
 30
0.0
 40
2.794113487564655
100
AcDbArc
 50
95.04679898691104
 51
110.2805403769961
  0
ARC
  5
62E
330
1F
100
AcDbEntity
  8
OBRYS
100
AcDbCircle
 10
1662.348538168502
 20
826.5510004051031
 30
0.0
 40
5.073397044727452
100
AcDbArc
 50
95.34636708555776
 51
102.3682157706853
  0
LINE
  5
62F
330
1F
100
AcDbEntity
  8
OBRYS
100
AcDbLine
 10
1663.999122521383
 20
831.9365282472198
 30
0.0
 11
1663.999122521383
 21
831.7140582472198
 31
0.0
  0
LINE
  5
630
330
1F
100
AcDbEntity
  8
OBRYS
100
AcDbLine
 10
1663.999122521383
 20
831.6377492472199
 30
0.0
 11
1663.999122521383
 21
831.4420942472199
 31
0.0
  0
LINE
  5
631
330
1F
100
AcDbEntity
  8
OBRYS
100
AcDbLine
 10
1664.329769521383
 20
832.0128372472199
 30
0.0
 11
1664.329769521383
 21
831.3657862472198
 31
0.0
  0
ELLIPSE
  5
632
330
1F
100
AcDbEntity
  8
OBRYS
100
AcDbEllipse
 10
1662.916077021383
 20
831.8333332472198
 30
0.0
 11
0.4745166582655542
 21
-0.01022049611950205
 31
0.0
210
0.0
220
0.0
230
1.0
 40
0.3762211254701069
 41
1.571441399829402
 42
4.304139481257025
  0
ELLIPSE
  5
633
330
1F
100
AcDbEntity
  8
OBRYS
100
AcDbEllipse
 10
1662.9063416539
 20
831.5289497342613
 30
0.0
 11
-0.3412666561042311
 21
0.01411093075780249
 31
0.0
210
0.0
220
0.0
230
1.0
 40
0.4802107748956773
 41
5.295241862600548
 42
7.855849594378425
  0
LINE
  5
634
330
1F
100
AcDbEntity
  8
OBRYS
100
AcDbLine
 10
1662.900255407458
 20
831.3664452472199
 30
0.0
 11
1664.329769521383
 21
831.3657862472198
 31
0.0
  0
LINE
  5
635
330
1F
100
AcDbEntity
  8
OBRYS
100
AcDbLine
 10
1662.919616089257
 20
832.0118629942693
 30
0.0
 11
1664.329769521383
 21
832.0128372472199
 31
0.0
  0
LINE
  5
636
330
1F
100
AcDbEntity
  8
OBRYS
100
AcDbLine
 10
1663.151079521383
 20
831.9333832472198
 30
0.0
 11
1663.999122521383
 21
831.9365282472198
 31
0.0
  0
LINE
  5
637
330
1F
100
AcDbEntity
  8
OBRYS
100
AcDbLine
 10
1663.145376521383
 20
831.7191192472199
 30
0.0
 11
1663.999122521383
 21
831.7140582472198
 31
0.0
  0
ELLIPSE
  5
638
330
1F
100
AcDbEntity
  8
OBRYS
100
AcDbEllipse
 10
1663.148228021383
 20
831.8262512472198
 30
0.0
 11
-0.3631708923091082
 21
0.009666409657396584
 31
0.0
210
0.0
220
0.0
230
1.0
 40
0.2949906015838491
 41
4.711320522377596
 42
7.853981633974444
  0
LINE
  5
639
330
1F
100
AcDbEntity
  8
OBRYS
100
AcDbLine
 10
1663.999122521383
 20
831.4420942472199
 30
0.0
 11
1663.248671521383
 21
831.4450557472198
 31
0.0
  0
LINE
  5
63A
330
1F
100
AcDbEntity
  8
OBRYS
100
AcDbLine
 10
1663.999122521383
 20
831.6377492472199
 30
0.0
 11
1663.248671521383
 21
831.6407107472198
 31
0.0
  0
ELLIPSE
  5
63B
330
1F
100
AcDbEntity
  8
OBRYS
100
AcDbEllipse
 10
1663.24865972651
 20
831.54288358181
 30
0.0
 11
-0.3597833287588856
 21
4.337853069047564E-5
 31
0.0
210
0.0
220
0.0
230
1.0
 40
0.2719057765888611
 41
4.71238898038469
 42
7.854047200285903
  0
LINE
  5
63C
330
1F
100
AcDbEntity
  8
OBRYS
100
AcDbLine
 10
1705.493995521383
 20
740.4380772472198
 30
0.0
 11
1705.493995521383
 21
840.9894182472199
 31
0.0
  0
LINE
  5
63D
330
1F
100
AcDbEntity
  8
OBRYS
  6
CONTINUOUS
100
AcDbLine
 10
1697.743995521383
 20
751.3728632472198
 30
0.0
 11
1697.343995521383
 21
751.3728632472198
 31
0.0
  0
LINE
  5
63E
330
1F
100
AcDbEntity
  8
OBRYS
  6
CONTINUOUS
100
AcDbLine
 10
1701.943995521383
 20
751.3728632472198
 30
0.0
 11
1697.743995521383
 21
751.3728632472198
 31
0.0
  0
LINE
  5
63F
330
1F
100
AcDbEntity
  8
OBRYS
  6
CONTINUOUS
100
AcDbLine
 10
1702.343995521383
 20
751.3728632472198
 30
0.0
 11
1701.943995521383
 21
751.3728632472198
 31
0.0
  0
LINE
  5
640
330
1F
100
AcDbEntity
  8
OBRYS
  6
CONTINUOUS
100
AcDbLine
 10
1702.343995521383
 20
750.5518262472199
 30
0.0
 11
1697.343995521383
 21
750.5518262472199
 31
0.0
  0
LINE
  5
641
330
1F
100
AcDbEntity
  8
OBRYS
  6
CONTINUOUS
100
AcDbLine
 10
1702.343995521383
 20
749.2577232472198
 30
0.0
 11
1702.343995521383
 21
751.3728632472198
 31
0.0
  0
LINE
  5
642
330
1F
100
AcDbEntity
  8
OBRYS
  6
CONTINUOUS
100
AcDbLine
 10
1702.343995521383
 20
749.2577232472198
 30
0.0
 11
1697.343995521383
 21
749.2577232472198
 31
0.0
  0
LINE
  5
643
330
1F
100
AcDbEntity
  8
OBRYS
  6
CONTINUOUS
100
AcDbLine
 10
1697.343995521383
 20
749.2577232472198
 30
0.0
 11
1697.343995521383
 21
751.3728632472198
 31
0.0
  0
LINE
  5
644
330
1F
100
AcDbEntity
  8
OBRYS
  6
CONTINUOUS
100
AcDbLine
 10
1698.543995521383
 20
760.6526782472199
 30
0.0
 11
1700.805912521383
 21
760.6526782472199
 31
0.0
  0
LINE
  5
645
330
1F
100
AcDbEntity
  8
OBRYS
  6
CONTINUOUS
100
AcDbLine
 10
1700.805912521383
 20
760.6526792472198
 30
0.0
 11
1698.543995521383
 21
760.6526792472198
 31
0.0
  0
LINE
  5
646
330
1F
100
AcDbEntity
  8
OBRYS
  6
CONTINUOUS
100
AcDbLine
 10
1702.343995521383
 20
776.6266492472198
 30
0.0
 11
1702.343995521383
 21
781.6266492472198
 31
0.0
  0
LINE
  5
647
330
1F
100
AcDbEntity
  8
OBRYS
  6
CONTINUOUS
100
AcDbLine
 10
1697.343995521383
 20
776.6266492472198
 30
0.0
 11
1697.343995521383
 21
781.6266492472198
 31
0.0
  0
LINE
  5
648
330
1F
100
AcDbEntity
  8
OBRYS
  6
CONTINUOUS
100
AcDbLine
 10
1702.343995521383
 20
776.6266492472198
 30
0.0
 11
1697.343995521383
 21
776.6266492472198
 31
0.0
  0
LINE
  5
649
330
1F
100
AcDbEntity
  8
OBRYS
  6
CONTINUOUS
100
AcDbLine
 10
1702.343995521383
 20
781.6266492472198
 30
0.0
 11
1697.343995521383
 21
781.6266492472198
 31
0.0
  0
LINE
  5
64A
330
1F
100
AcDbEntity
  8
OBRYS
  6
CONTINUOUS
100
AcDbLine
 10
1697.343995521383
 20
841.1640742472198
 30
0.0
 11
1702.343995521383
 21
841.1640742472198
 31
0.0
  0
LINE
  5
64B
330
1F
100
AcDbEntity
  8
OBRYS
  6
CONTINUOUS
100
AcDbLine
 10
1697.343995521383
 20
841.1640742472198
 30
0.0
 11
1697.343995521383
 21
841.1640652472198
 31
0.0
  0
LINE
  5
64C
330
1F
100
AcDbEntity
  8
OBRYS
  6
CONTINUOUS
100
AcDbLine
 10
1702.343995521383
 20
841.1640742472198
 30
0.0
 11
1702.343995521383
 21
841.1640652472198
 31
0.0
  0
LINE
  5
64D
330
1F
100
AcDbEntity
  8
OBRYS
  6
CONTINUOUS
100
AcDbLine
 10
1697.343995521383
 20
842.0140742472198
 30
0.0
 11
1702.343995521383
 21
842.0140742472198
 31
0.0
  0
LINE
  5
64E
330
1F
100
AcDbEntity
  8
OBRYS
  6
CONTINUOUS
100
AcDbLine
 10
1697.343995521383
 20
842.0140742472198
 30
0.0
 11
1697.343995521383
 21
841.1640742472198
 31
0.0
  0
LINE
  5
64F
330
1F
100
AcDbEntity
  8
OBRYS
  6
CONTINUOUS
100
AcDbLine
 10
1702.343995521383
 20
842.0140742472198
 30
0.0
 11
1702.343995521383
 21
841.1640742472198
 31
0.0
  0
LINE
  5
650
330
1F
100
AcDbEntity
  8
OBRYS
  6
CONTINUOUS
100
AcDbLine
 10
1697.293995521383
 20
740.4380772472198
 30
0.0
 11
1697.344058521383
 21
740.4380772472198
 31
0.0
  0
LINE
  5
651
330
1F
100
AcDbEntity
  8
OBRYS
  6
CONTINUOUS
100
AcDbLine
 10
1702.343933521383
 20
740.4380772472198
 30
0.0
 11
1703.293995521383
 21
740.4380772472198
 31
0.0
  0
LINE
  5
652
330
1F
100
AcDbEntity
  8
OBRYS
  6
CONTINUOUS
100
AcDbLine
 10
1697.293995521383
 20
740.5380772472198
 30
0.0
 11
1697.142995521383
 21
740.5380772472198
 31
0.0
  0
LINE
  5
653
330
1F
100
AcDbEntity
  8
OBRYS
  6
CONTINUOUS
100
AcDbLine
 10
1702.343995521383
 20
739.6984152472198
 30
0.0
 11
1697.343995521383
 21
739.6984152472198
 31
0.0
  0
LINE
  5
654
330
1F
100
AcDbEntity
  8
OBRYS
  6
CONTINUOUS
100
AcDbLine
 10
1702.343995521383
 20
739.6984112472198
 30
0.0
 11
1702.343995521383
 21
739.6984152472198
 31
0.0
  0
LINE
  5
655
330
1F
100
AcDbEntity
  8
OBRYS
  6
CONTINUOUS
100
AcDbLine
 10
1697.343995521383
 20
739.6984112472198
 30
0.0
 11
1697.343995521383
 21
739.6984152472198
 31
0.0
  0
LINE
  5
656
330
1F
100
AcDbEntity
  8
OBRYS
  6
CONTINUOUS
100
AcDbLine
 10
1702.343995521383
 20
740.5484152472199
 30
0.0
 11
1697.343995521383
 21
740.5484152472199
 31
0.0
  0
LINE
  5
657
330
1F
100
AcDbEntity
  8
OBRYS
  6
CONTINUOUS
100
AcDbLine
 10
1702.343995521383
 20
739.6984152472198
 30
0.0
 11
1702.343995521383
 21
740.5484152472199
 31
0.0
  0
LINE
  5
658
330
1F
100
AcDbEntity
  8
OBRYS
  6
CONTINUOUS
100
AcDbLine
 10
1697.343995521383
 20
739.6984152472198
 30
0.0
 11
1697.343995521383
 21
740.5484152472199
 31
0.0
  0
LINE
  5
659
330
1F
100
AcDbEntity
  8
OBRYS
  6
CONTINUOUS
100
AcDbLine
 10
1703.293995521383
 20
841.1129292472199
 30
0.0
 11
1697.293995521383
 21
841.1129292472199
 31
0.0
  0
LINE
  5
65A
330
1F
100
AcDbEntity
  8
OBRYS
  6
CONTINUOUS
100
AcDbLine
 10
1703.293995521383
 20
740.5995552472198
 30
0.0
 11
1697.293995521383
 21
740.5995552472198
 31
0.0
  0
LINE
  5
65B
330
1F
100
AcDbEntity
  8
OBRYS
  6
CONTINUOUS
100
AcDbLine
 10
1703.293995521383
 20
841.2174752472199
 30
0.0
 11
1702.343933521383
 21
841.2174752472199
 31
0.0
  0
LINE
  5
65C
330
1F
100
AcDbEntity
  8
OBRYS
  6
CONTINUOUS
100
AcDbLine
 10
1697.344058521383
 20
841.2174752472199
 30
0.0
 11
1697.293995521383
 21
841.2174752472199
 31
0.0
  0
LINE
  5
65D
330
1F
100
AcDbEntity
  8
OBRYS
  6
CONTINUOUS
100
AcDbLine
 10
1697.293995521383
 20
841.1190582472199
 30
0.0
 11
1697.142995521383
 21
841.1190582472199
 31
0.0
  0
LINE
  5
65E
330
1F
100
AcDbEntity
  8
OBRYS
  6
CONTINUOUS
100
AcDbLine
 10
1700.805912521383
 20
749.2577242472198
 30
0.0
 11
1700.805912521383
 21
748.9180632472198
 31
0.0
  0
LINE
  5
65F
330
1F
100
AcDbEntity
  8
OBRYS
  6
CONTINUOUS
100
AcDbLine
 10
1700.805912521383
 20
832.4547272472198
 30
0.0
 11
1700.805912521383
 21
832.7944272472198
 31
0.0
  0
LINE
  5
660
330
1F
100
AcDbEntity
  8
OBRYS
  6
CONTINUOUS
100
AcDbLine
 10
1700.936480521383
 20
832.5819142472199
 30
0.0
 11
1700.805912521383
 21
832.7944272472198
 31
0.0
  0
LINE
  5
661
330
1F
100
AcDbEntity
  8
OBRYS
  6
CONTINUOUS
100
AcDbLine
 10
1698.543995521383
 20
832.7944282472198
 30
0.0
 11
1700.805912521383
 21
832.7944282472198
 31
0.0
  0
LINE
  5
662
330
1F
100
AcDbEntity
  8
OBRYS
  6
CONTINUOUS
100
AcDbLine
 10
1698.543995521383
 20
832.4547462472199
 30
0.0
 11
1698.543995521383
 21
832.7944282472198
 31
0.0
  0
LINE
  5
663
330
1F
100
AcDbEntity
  8
OBRYS
  6
CONTINUOUS
100
AcDbLine
 10
1698.543995521383
 20
748.9180632472198
 30
0.0
 11
1698.543995521383
 21
749.2577262472198
 31
0.0
  0
LINE
  5
664
330
1F
100
AcDbEntity
  8
OBRYS
  6
CONTINUOUS
100
AcDbLine
 10
1698.543995521383
 20
748.9180632472198
 30
0.0
 11
1700.805912521383
 21
748.9180632472198
 31
0.0
  0
LINE
  5
665
330
1F
100
AcDbEntity
  8
OBRYS
  6
CONTINUOUS
100
AcDbLine
 10
1700.936480521383
 20
749.1305762472198
 30
0.0
 11
1700.805912521383
 21
748.9180642472198
 31
0.0
  0
LINE
  5
666
330
1F
100
AcDbEntity
  8
OBRYS
  6
CONTINUOUS
100
AcDbLine
 10
1697.293995521383
 20
740.4380772472198
 30
0.0
 11
1697.293995521383
 21
841.2174752472199
 31
0.0
  0
LINE
  5
667
330
1F
100
AcDbEntity
  8
OBRYS
  6
CONTINUOUS
100
AcDbLine
 10
1703.293995521383
 20
766.0880522472198
 30
0.0
 11
1702.743995521383
 21
766.0880522472198
 31
0.0
  0
LINE
  5
668
330
1F
100
AcDbEntity
  8
OBRYS
  6
CONTINUOUS
100
AcDbLine
 10
1697.743995521383
 20
766.0880522472198
 30
0.0
 11
1697.293995521383
 21
766.0880522472198
 31
0.0
  0
LINE
  5
669
330
1F
100
AcDbEntity
  8
OBRYS
  6
CONTINUOUS
100
AcDbLine
 10
1703.293995521383
 20
768.7208682472199
 30
0.0
 11
1702.743995521383
 21
768.7208682472199
 31
0.0
  0
LINE
  5
66A
330
1F
100
AcDbEntity
  8
OBRYS
  6
CONTINUOUS
100
AcDbLine
 10
1697.293995521383
 20
768.7208682472199
 30
0.0
 11
1697.743995521383
 21
768.7208682472199
 31
0.0
  0
LINE
  5
66B
330
1F
100
AcDbEntity
  8
OBRYS
  6
CONTINUOUS
100
AcDbLine
 10
1703.293995521383
 20
795.0398342472198
 30
0.0
 11
1702.743995521383
 21
795.0398342472198
 31
0.0
  0
LINE
  5
66C
330
1F
100
AcDbEntity
  8
OBRYS
  6
CONTINUOUS
100
AcDbLine
 10
1697.743995521383
 20
795.0398342472198
 30
0.0
 11
1697.293995521383
 21
795.0398342472198
 31
0.0
  0
LINE
  5
66D
330
1F
100
AcDbEntity
  8
OBRYS
  6
CONTINUOUS
100
AcDbLine
 10
1697.743995521383
 20
815.6244332472198
 30
0.0
 11
1697.293995521383
 21
815.6244332472198
 31
0.0
  0
LINE
  5
66E
330
1F
100
AcDbEntity
  8
OBRYS
  6
CONTINUOUS
100
AcDbLine
 10
1703.293995521383
 20
815.6244332472198
 30
0.0
 11
1702.743995521383
 21
815.6244332472198
 31
0.0
  0
LINE
  5
66F
330
1F
100
AcDbEntity
  8
OBRYS
  6
CONTINUOUS
100
AcDbLine
 10
1697.743995521383
 20
797.6726512472198
 30
0.0
 11
1697.293995521383
 21
797.6726512472198
 31
0.0
  0
LINE
  5
670
330
1F
100
AcDbEntity
  8
OBRYS
  6
CONTINUOUS
100
AcDbLine
 10
1703.293995521383
 20
797.6726512472198
 30
0.0
 11
1702.743995521383
 21
797.6726512472198
 31
0.0
  0
LINE
  5
671
330
1F
100
AcDbEntity
  8
OBRYS
  6
CONTINUOUS
100
AcDbLine
 10
1703.293995521383
 20
812.9916172472199
 30
0.0
 11
1702.743995521383
 21
812.9916172472199
 31
0.0
  0
LINE
  5
672
330
1F
100
AcDbEntity
  8
OBRYS
  6
CONTINUOUS
100
AcDbLine
 10
1697.743995521383
 20
812.9916172472199
 30
0.0
 11
1697.293995521383
 21
812.9916172472199
 31
0.0
  0
LINE
  5
673
330
1F
100
AcDbEntity
  8
OBRYS
  6
CONTINUOUS
100
AcDbLine
 10
1702.343991521383
 20
781.3016662472198
 30
0.0
 11
1703.293995521383
 21
781.3016662472198
 31
0.0
  0
LINE
  5
674
330
1F
100
AcDbEntity
  8
OBRYS
  6
CONTINUOUS
100
AcDbLine
 10
1703.293995521383
 20
776.9516322472198
 30
0.0
 11
1702.343991521383
 21
776.9516322472198
 31
0.0
  0
LINE
  5
675
330
1F
100
AcDbEntity
  8
OBRYS
  6
CONTINUOUS
100
AcDbLine
 10
1703.293995521383
 20
751.4286422472198
 30
0.0
 11
1697.293995521383
 21
751.4286422472198
 31
0.0
  0
LINE
  5
676
330
1F
100
AcDbEntity
  8
OBRYS
  6
CONTINUOUS
100
AcDbLine
 10
1703.293995521383
 20
830.2838432472198
 30
0.0
 11
1697.293995521383
 21
830.2838432472198
 31
0.0
  0
LINE
  5
677
330
1F
100
AcDbEntity
  8
OBRYS
  6
CONTINUOUS
100
AcDbLine
 10
1702.743995521383
 20
769.3208692472199
 30
0.0
 11
1697.743995521383
 21
769.3208692472199
 31
0.0
  0
LINE
  5
678
330
1F
100
AcDbEntity
  8
OBRYS
  6
CONTINUOUS
100
AcDbLine
 10
1702.743995521383
 20
816.2244342472198
 30
0.0
 11
1697.743995521383
 21
816.2244342472198
 31
0.0
  0
LINE
  5
679
330
1F
100
AcDbEntity
  8
OBRYS
  6
CONTINUOUS
100
AcDbLine
 10
1702.743995521383
 20
798.2726522472199
 30
0.0
 11
1697.743995521383
 21
798.2726522472199
 31
0.0
  0
LINE
  5
67A
330
1F
100
AcDbEntity
  8
OBRYS
  6
CONTINUOUS
100
AcDbLine
 10
1697.743995521383
 20
768.8708692472198
 30
0.0
 11
1697.293995521383
 21
768.8708692472198
 31
0.0
  0
LINE
  5
67B
330
1F
100
AcDbEntity
  8
OBRYS
  6
CONTINUOUS
100
AcDbLine
 10
1703.293995521383
 20
768.8708692472198
 30
0.0
 11
1702.743995521383
 21
768.8708692472198
 31
0.0
  0
LINE
  5
67C
330
1F
100
AcDbEntity
  8
OBRYS
  6
CONTINUOUS
100
AcDbLine
 10
1697.743995521383
 20
815.7744342472198
 30
0.0
 11
1697.293995521383
 21
815.7744342472198
 31
0.0
  0
LINE
  5
67D
330
1F
100
AcDbEntity
  8
OBRYS
  6
CONTINUOUS
100
AcDbLine
 10
1703.293995521383
 20
815.7744342472198
 30
0.0
 11
1702.743995521383
 21
815.7744342472198
 31
0.0
  0
LINE
  5
67E
330
1F
100
AcDbEntity
  8
OBRYS
  6
CONTINUOUS
100
AcDbLine
 10
1703.293995521383
 20
797.8226522472198
 30
0.0
 11
1702.743995521383
 21
797.8226522472198
 31
0.0
  0
LINE
  5
67F
330
1F
100
AcDbEntity
  8
OBRYS
  6
CONTINUOUS
100
AcDbLine
 10
1697.743995521383
 20
797.8226522472198
 30
0.0
 11
1697.293995521383
 21
797.8226522472198
 31
0.0
  0
LINE
  5
680
330
1F
100
AcDbEntity
  8
OBRYS
  6
CONTINUOUS
100
AcDbLine
 10
1697.743995521383
 20
794.8898332472198
 30
0.0
 11
1697.293995521383
 21
794.8898332472198
 31
0.0
  0
LINE
  5
681
330
1F
100
AcDbEntity
  8
OBRYS
  6
CONTINUOUS
100
AcDbLine
 10
1697.743995521383
 20
794.4398332472199
 30
0.0
 11
1697.743995521383
 21
798.2726522472199
 31
0.0
  0
LINE
  5
682
330
1F
100
AcDbEntity
  8
OBRYS
  6
CONTINUOUS
100
AcDbLine
 10
1702.743995521383
 20
794.4398332472199
 30
0.0
 11
1697.743995521383
 21
794.4398332472199
 31
0.0
  0
LINE
  5
683
330
1F
100
AcDbEntity
  8
OBRYS
  6
CONTINUOUS
100
AcDbLine
 10
1702.743995521383
 20
798.2726522472199
 30
0.0
 11
1702.743995521383
 21
794.4398332472199
 31
0.0
  0
LINE
  5
684
330
1F
100
AcDbEntity
  8
OBRYS
  6
CONTINUOUS
100
AcDbLine
 10
1703.293995521383
 20
794.8898332472198
 30
0.0
 11
1702.743995521383
 21
794.8898332472198
 31
0.0
  0
LINE
  5
685
330
1F
100
AcDbEntity
  8
OBRYS
  6
CONTINUOUS
100
AcDbLine
 10
1697.743995521383
 20
812.8416152472198
 30
0.0
 11
1697.293995521383
 21
812.8416152472198
 31
0.0
  0
LINE
  5
686
330
1F
100
AcDbEntity
  8
OBRYS
  6
CONTINUOUS
100
AcDbLine
 10
1697.743995521383
 20
812.3916152472199
 30
0.0
 11
1697.743995521383
 21
816.2244342472198
 31
0.0
  0
LINE
  5
687
330
1F
100
AcDbEntity
  8
OBRYS
  6
CONTINUOUS
100
AcDbLine
 10
1702.743995521383
 20
812.3916152472199
 30
0.0
 11
1697.743995521383
 21
812.3916152472199
 31
0.0
  0
LINE
  5
688
330
1F
100
AcDbEntity
  8
OBRYS
  6
CONTINUOUS
100
AcDbLine
 10
1703.293995521383
 20
812.8416152472198
 30
0.0
 11
1702.743995521383
 21
812.8416152472198
 31
0.0
  0
LINE
  5
689
330
1F
100
AcDbEntity
  8
OBRYS
  6
CONTINUOUS
100
AcDbLine
 10
1697.743995521383
 20
765.9380512472198
 30
0.0
 11
1697.293995521383
 21
765.9380512472198
 31
0.0
  0
LINE
  5
68A
330
1F
100
AcDbEntity
  8
OBRYS
  6
CONTINUOUS
100
AcDbLine
 10
1702.743995521383
 20
765.4880512472198
 30
0.0
 11
1697.743995521383
 21
765.4880512472198
 31
0.0
  0
LINE
  5
68B
330
1F
100
AcDbEntity
  8
OBRYS
  6
CONTINUOUS
100
AcDbLine
 10
1702.743995521383
 20
769.3208692472199
 30
0.0
 11
1702.743995521383
 21
765.4880512472198
 31
0.0
  0
LINE
  5
68C
330
1F
100
AcDbEntity
  8
OBRYS
  6
CONTINUOUS
100
AcDbLine
 10
1703.293995521383
 20
765.9380512472198
 30
0.0
 11
1702.743995521383
 21
765.9380512472198
 31
0.0
  0
LINE
  5
68D
330
1F
100
AcDbEntity
  8
OBRYS
  6
CONTINUOUS
100
AcDbLine
 10
1702.743995521383
 20
816.2244342472198
 30
0.0
 11
1702.743995521383
 21
812.3916152472199
 31
0.0
  0
LINE
  5
68E
330
1F
100
AcDbEntity
  8
OBRYS
  6
CONTINUOUS
100
AcDbLine
 10
1698.393995521383
 20
819.8598032472198
 30
0.0
 11
1698.543995521383
 21
819.8598032472198
 31
0.0
  0
LINE
  5
68F
330
1F
100
AcDbEntity
  8
OBRYS
  6
CONTINUOUS
100
AcDbLine
 10
1698.393995521383
 20
801.9080212472198
 30
0.0
 11
1698.543995521383
 21
801.9080212472198
 31
0.0
  0
LINE
  5
690
330
1F
100
AcDbEntity
  8
OBRYS
  6
CONTINUOUS
100
AcDbLine
 10
1703.293995521383
 20
773.9254452472198
 30
0.0
 11
1697.293995521383
 21
773.9254452472198
 31
0.0
  0
LINE
  5
691
330
1F
100
AcDbEntity
  8
OBRYS
  6
CONTINUOUS
100
AcDbLine
 10
1697.293995521383
 20
784.3278402472199
 30
0.0
 11
1703.293995521383
 21
784.3278402472199
 31
0.0
  0
LINE
  5
692
330
1F
100
AcDbEntity
  8
OBRYS
  6
CONTINUOUS
100
AcDbLine
 10
1702.643995521383
 20
788.3526512472199
 30
0.0
 11
1702.643995521383
 21
790.3562422472198
 31
0.0
  0
LINE
  5
693
330
1F
100
AcDbEntity
  8
OBRYS
  6
CONTINUOUS
100
AcDbLine
 10
1702.643995521383
 20
791.3562422472198
 30
0.0
 11
1702.643995521383
 21
793.3598332472199
 31
0.0
  0
LINE
  5
694
330
1F
100
AcDbEntity
  8
OBRYS
  6
CONTINUOUS
100
AcDbLine
 10
1702.643995521383
 20
791.3562422472198
 30
0.0
 11
1697.843995521383
 21
791.3562422472198
 31
0.0
  0
LINE
  5
695
330
1F
100
AcDbEntity
  8
OBRYS
  6
CONTINUOUS
100
AcDbLine
 10
1702.794995521383
 20
791.9580382472199
 30
0.0
 11
1702.643995521383
 21
791.9580382472199
 31
0.0
  0
LINE
  5
696
330
1F
100
AcDbEntity
  8
OBRYS
  6
CONTINUOUS
100
AcDbLine
 10
1697.843995521383
 20
793.3598332472199
 30
0.0
 11
1697.843995521383
 21
791.3562422472198
 31
0.0
  0
LINE
  5
697
330
1F
100
AcDbEntity
  8
OBRYS
  6
CONTINUOUS
100
AcDbLine
 10
1697.692995521383
 20
791.9580382472199
 30
0.0
 11
1697.843995521383
 21
791.9580382472199
 31
0.0
  0
LINE
  5
698
330
1F
100
AcDbEntity
  8
OBRYS
  6
CONTINUOUS
100
AcDbLine
 10
1697.843995521383
 20
789.7544472472198
 30
0.0
 11
1697.692995521383
 21
789.7544472472198
 31
0.0
  0
LINE
  5
699
330
1F
100
AcDbEntity
  8
OBRYS
  6
CONTINUOUS
100
AcDbLine
 10
1697.843995521383
 20
792.7580382472198
 30
0.0
 11
1697.692995521383
 21
792.7580382472198
 31
0.0
  0
LINE
  5
69A
330
1F
100
AcDbEntity
  8
OBRYS
  6
CONTINUOUS
100
AcDbLine
 10
1702.643995521383
 20
792.7580382472198
 30
0.0
 11
1702.794995521383
 21
792.7580382472198
 31
0.0
  0
LINE
  5
69B
330
1F
100
AcDbEntity
  8
OBRYS
  6
CONTINUOUS
100
AcDbLine
 10
1702.643995521383
 20
789.7544472472198
 30
0.0
 11
1702.794995521383
 21
789.7544472472198
 31
0.0
  0
LINE
  5
69C
330
1F
100
AcDbEntity
  8
OBRYS
  6
CONTINUOUS
100
AcDbLine
 10
1697.843995521383
 20
793.3598332472199
 30
0.0
 11
1702.643995521383
 21
793.3598332472199
 31
0.0
  0
LINE
  5
69D
330
1F
100
AcDbEntity
  8
OBRYS
  6
CONTINUOUS
100
AcDbLine
 10
1697.843995521383
 20
790.3562422472198
 30
0.0
 11
1702.643995521383
 21
790.3562422472198
 31
0.0
  0
LINE
  5
69E
330
1F
100
AcDbEntity
  8
OBRYS
  6
CONTINUOUS
100
AcDbLine
 10
1697.843995521383
 20
788.3526512472199
 30
0.0
 11
1702.643995521383
 21
788.3526512472199
 31
0.0
  0
LINE
  5
69F
330
1F
100
AcDbEntity
  8
OBRYS
  6
CONTINUOUS
100
AcDbLine
 10
1702.794995521383
 20
788.9544472472198
 30
0.0
 11
1702.643995521383
 21
788.9544472472198
 31
0.0
  0
LINE
  5
6A0
330
1F
100
AcDbEntity
  8
OBRYS
  6
CONTINUOUS
100
AcDbLine
 10
1702.794995521383
 20
789.7544472472198
 30
0.0
 11
1702.794995521383
 21
788.9544472472198
 31
0.0
  0
LINE
  5
6A1
330
1F
100
AcDbEntity
  8
OBRYS
  6
CONTINUOUS
100
AcDbLine
 10
1697.843995521383
 20
790.3562422472198
 30
0.0
 11
1697.843995521383
 21
788.3526512472199
 31
0.0
  0
LINE
  5
6A2
330
1F
100
AcDbEntity
  8
OBRYS
  6
CONTINUOUS
100
AcDbLine
 10
1697.692995521383
 20
788.9544472472198
 30
0.0
 11
1697.692995521383
 21
789.7544472472198
 31
0.0
  0
LINE
  5
6A3
330
1F
100
AcDbEntity
  8
OBRYS
  6
CONTINUOUS
100
AcDbLine
 10
1697.692995521383
 20
788.9544472472198
 30
0.0
 11
1697.843995521383
 21
788.9544472472198
 31
0.0
  0
LINE
  5
6A4
330
1F
100
AcDbEntity
  8
OBRYS
  6
CONTINUOUS
100
AcDbLine
 10
1702.794995521383
 20
792.7580382472198
 30
0.0
 11
1702.794995521383
 21
791.9580382472199
 31
0.0
  0
LINE
  5
6A5
330
1F
100
AcDbEntity
  8
OBRYS
  6
CONTINUOUS
100
AcDbLine
 10
1697.692995521383
 20
791.9580382472199
 30
0.0
 11
1697.692995521383
 21
792.7580382472198
 31
0.0
  0
LINE
  5
6A6
330
1F
100
AcDbEntity
  8
OBRYS
  6
CONTINUOUS
100
AcDbLine
 10
1702.243995521383
 20
818.3598052472198
 30
0.0
 11
1702.393995521383
 21
818.3598052472198
 31
0.0
  0
LINE
  5
6A7
330
1F
100
AcDbEntity
  8
OBRYS
  6
CONTINUOUS
100
AcDbLine
 10
1702.393995521383
 20
818.3598052472198
 30
0.0
 11
1702.393995521383
 21
819.8598052472198
 31
0.0
  0
LINE
  5
6A8
330
1F
100
AcDbEntity
  8
OBRYS
  6
CONTINUOUS
100
AcDbLine
 10
1702.393995521383
 20
819.8598052472198
 30
0.0
 11
1702.243995521383
 21
819.8598052472198
 31
0.0
  0
LINE
  5
6A9
330
1F
100
AcDbEntity
  8
OBRYS
  6
CONTINUOUS
100
AcDbLine
 10
1702.243995521383
 20
820.4336552472198
 30
0.0
 11
1702.243995521383
 21
819.8598052472198
 31
0.0
  0
LINE
  5
6AA
330
1F
100
AcDbEntity
  8
OBRYS
  6
CONTINUOUS
100
AcDbLine
 10
1702.243995521383
 20
820.4336552472198
 30
0.0
 11
1701.629301521383
 21
820.4336552472198
 31
0.0
  0
LINE
  5
6AB
330
1F
100
AcDbEntity
  8
OBRYS
  6
CONTINUOUS
100
AcDbLine
 10
1700.936481521383
 20
820.8336542472198
 30
0.0
 11
1700.805912521383
 21
821.0598062472199
 31
0.0
  0
LINE
  5
6AC
330
1F
100
AcDbEntity
  8
OBRYS
  6
CONTINUOUS
100
AcDbLine
 10
1698.543995521383
 20
821.0598062472199
 30
0.0
 11
1700.805912521383
 21
821.0598062472199
 31
0.0
  0
LINE
  5
6AD
330
1F
100
AcDbEntity
  8
OBRYS
  6
CONTINUOUS
100
AcDbLine
 10
1698.543995521383
 20
819.8598052472198
 30
0.0
 11
1698.543995521383
 21
821.0598062472199
 31
0.0
  0
LINE
  5
6AE
330
1F
100
AcDbEntity
  8
OBRYS
  6
CONTINUOUS
100
AcDbLine
 10
1698.543995521383
 20
819.8598052472198
 30
0.0
 11
1698.393995521383
 21
819.8598052472198
 31
0.0
  0
LINE
  5
6AF
330
1F
100
AcDbEntity
  8
OBRYS
  6
CONTINUOUS
100
AcDbLine
 10
1698.393995521383
 20
819.8598052472198
 30
0.0
 11
1698.393995521383
 21
818.3598052472198
 31
0.0
  0
LINE
  5
6B0
330
1F
100
AcDbEntity
  8
OBRYS
  6
CONTINUOUS
100
AcDbLine
 10
1698.393995521383
 20
818.3598052472198
 30
0.0
 11
1698.543995521383
 21
818.3598052472198
 31
0.0
  0
LINE
  5
6B1
330
1F
100
AcDbEntity
  8
OBRYS
  6
CONTINUOUS
100
AcDbLine
 10
1698.543995521383
 20
817.5598052472199
 30
0.0
 11
1702.243995521383
 21
817.5598052472199
 31
0.0
  0
LINE
  5
6B2
330
1F
100
AcDbEntity
  8
OBRYS
  6
CONTINUOUS
100
AcDbLine
 10
1698.543995521383
 20
817.5598052472199
 30
0.0
 11
1698.543995521383
 21
818.3598052472198
 31
0.0
  0
LINE
  5
6B3
330
1F
100
AcDbEntity
  8
OBRYS
  6
CONTINUOUS
100
AcDbLine
 10
1702.243995521383
 20
818.3598052472198
 30
0.0
 11
1702.243995521383
 21
817.5598052472199
 31
0.0
  0
LINE
  5
6B4
330
1F
100
AcDbEntity
  8
OBRYS
  6
CONTINUOUS
100
AcDbLine
 10
1702.243995521383
 20
817.5598062472199
 30
0.0
 11
1698.543995521383
 21
817.5598062472199
 31
0.0
  0
LINE
  5
6B5
330
1F
100
AcDbEntity
  8
OBRYS
  6
CONTINUOUS
100
AcDbLine
 10
1702.243995521383
 20
799.6080242472199
 30
0.0
 11
1698.543995521383
 21
799.6080242472199
 31
0.0
  0
LINE
  5
6B6
330
1F
100
AcDbEntity
  8
OBRYS
  6
CONTINUOUS
100
AcDbLine
 10
1702.243995521383
 20
819.8598032472198
 30
0.0
 11
1702.393995521383
 21
819.8598032472198
 31
0.0
  0
LINE
  5
6B7
330
1F
100
AcDbEntity
  8
OBRYS
  6
CONTINUOUS
100
AcDbLine
 10
1702.243995521383
 20
801.9080212472198
 30
0.0
 11
1702.393995521383
 21
801.9080212472198
 31
0.0
  0
LINE
  5
6B8
330
1F
100
AcDbEntity
  8
OBRYS
  6
CONTINUOUS
100
AcDbLine
 10
1702.243995521383
 20
800.4080242472198
 30
0.0
 11
1702.393995521383
 21
800.4080242472198
 31
0.0
  0
LINE
  5
6B9
330
1F
100
AcDbEntity
  8
OBRYS
  6
CONTINUOUS
100
AcDbLine
 10
1702.393995521383
 20
800.4080242472198
 30
0.0
 11
1702.393995521383
 21
801.9080242472198
 31
0.0
  0
LINE
  5
6BA
330
1F
100
AcDbEntity
  8
OBRYS
  6
CONTINUOUS
100
AcDbLine
 10
1702.393995521383
 20
801.9080242472198
 30
0.0
 11
1702.243995521383
 21
801.9080242472198
 31
0.0
  0
LINE
  5
6BB
330
1F
100
AcDbEntity
  8
OBRYS
  6
CONTINUOUS
100
AcDbLine
 10
1702.243995521383
 20
802.4818732472198
 30
0.0
 11
1702.243995521383
 21
801.9080242472198
 31
0.0
  0
LINE
  5
6BC
330
1F
100
AcDbEntity
  8
OBRYS
  6
CONTINUOUS
100
AcDbLine
 10
1702.243995521383
 20
802.4818732472198
 30
0.0
 11
1701.629301521383
 21
802.4818732472198
 31
0.0
  0
LINE
  5
6BD
330
1F
100
AcDbEntity
  8
OBRYS
  6
CONTINUOUS
100
AcDbLine
 10
1700.936481521383
 20
802.8818722472198
 30
0.0
 11
1700.805912521383
 21
803.1080242472199
 31
0.0
  0
LINE
  5
6BE
330
1F
100
AcDbEntity
  8
OBRYS
  6
CONTINUOUS
100
AcDbLine
 10
1698.543995521383
 20
803.1080242472199
 30
0.0
 11
1700.805912521383
 21
803.1080242472199
 31
0.0
  0
LINE
  5
6BF
330
1F
100
AcDbEntity
  8
OBRYS
  6
CONTINUOUS
100
AcDbLine
 10
1698.543995521383
 20
801.9080242472198
 30
0.0
 11
1698.543995521383
 21
803.1080242472199
 31
0.0
  0
LINE
  5
6C0
330
1F
100
AcDbEntity
  8
OBRYS
  6
CONTINUOUS
100
AcDbLine
 10
1698.543995521383
 20
801.9080242472198
 30
0.0
 11
1698.393995521383
 21
801.9080242472198
 31
0.0
  0
LINE
  5
6C1
330
1F
100
AcDbEntity
  8
OBRYS
  6
CONTINUOUS
100
AcDbLine
 10
1698.393995521383
 20
801.9080242472198
 30
0.0
 11
1698.393995521383
 21
800.4080242472198
 31
0.0
  0
LINE
  5
6C2
330
1F
100
AcDbEntity
  8
OBRYS
  6
CONTINUOUS
100
AcDbLine
 10
1698.393995521383
 20
800.4080242472198
 30
0.0
 11
1698.543995521383
 21
800.4080242472198
 31
0.0
  0
LINE
  5
6C3
330
1F
100
AcDbEntity
  8
OBRYS
  6
CONTINUOUS
100
AcDbLine
 10
1698.543995521383
 20
799.6080242472199
 30
0.0
 11
1698.543995521383
 21
800.4080242472198
 31
0.0
  0
LINE
  5
6C4
330
1F
100
AcDbEntity
  8
OBRYS
  6
CONTINUOUS
100
AcDbLine
 10
1698.543995521383
 20
799.6080242472199
 30
0.0
 11
1702.243995521383
 21
799.6080242472199
 31
0.0
  0
LINE
  5
6C5
330
1F
100
AcDbEntity
  8
OBRYS
  6
CONTINUOUS
100
AcDbLine
 10
1702.243995521383
 20
800.4080242472198
 30
0.0
 11
1702.243995521383
 21
799.6080242472199
 31
0.0
  0
LINE
  5
6C6
330
1F
100
AcDbEntity
  8
OBRYS
  6
CONTINUOUS
100
AcDbLine
 10
1701.629301521383
 20
761.2788302472198
 30
0.0
 11
1702.243995521383
 21
761.2788302472198
 31
0.0
  0
LINE
  5
6C7
330
1F
100
AcDbEntity
  8
OBRYS
  6
CONTINUOUS
100
AcDbLine
 10
1702.243995521383
 20
763.3526762472198
 30
0.0
 11
1702.393995521383
 21
763.3526762472198
 31
0.0
  0
LINE
  5
6C8
330
1F
100
AcDbEntity
  8
OBRYS
  6
CONTINUOUS
100
AcDbLine
 10
1698.393995521383
 20
763.3526762472198
 30
0.0
 11
1698.543995521383
 21
763.3526762472198
 31
0.0
  0
LINE
  5
6C9
330
1F
100
AcDbEntity
  8
OBRYS
  6
CONTINUOUS
100
AcDbLine
 10
1698.543995521383
 20
763.3526792472198
 30
0.0
 11
1698.393995521383
 21
763.3526792472198
 31
0.0
  0
LINE
  5
6CA
330
1F
100
AcDbEntity
  8
OBRYS
  6
CONTINUOUS
100
AcDbLine
 10
1698.393995521383
 20
763.3526792472198
 30
0.0
 11
1698.393995521383
 21
761.8526792472198
 31
0.0
  0
LINE
  5
6CB
330
1F
100
AcDbEntity
  8
OBRYS
  6
CONTINUOUS
100
AcDbLine
 10
1698.393995521383
 20
761.8526792472198
 30
0.0
 11
1698.543995521383
 21
761.8526792472198
 31
0.0
  0
LINE
  5
6CC
330
1F
100
AcDbEntity
  8
OBRYS
  6
CONTINUOUS
100
AcDbLine
 10
1700.936480521383
 20
760.8788292472199
 30
0.0
 11
1700.805912521383
 21
760.6526782472199
 31
0.0
  0
LINE
  5
6CD
330
1F
100
AcDbEntity
  8
OBRYS
  6
CONTINUOUS
100
AcDbLine
 10
1702.243995521383
 20
761.2788302472198
 30
0.0
 11
1701.629300521383
 21
761.2788302472198
 31
0.0
  0
LINE
  5
6CE
330
1F
100
AcDbEntity
  8
OBRYS
  6
CONTINUOUS
100
AcDbLine
 10
1702.243995521383
 20
761.8526792472198
 30
0.0
 11
1702.243995521383
 21
761.2788302472198
 31
0.0
  0
LINE
  5
6CF
330
1F
100
AcDbEntity
  8
OBRYS
  6
CONTINUOUS
100
AcDbLine
 10
1702.243995521383
 20
761.8526792472198
 30
0.0
 11
1702.393995521383
 21
761.8526792472198
 31
0.0
  0
LINE
  5
6D0
330
1F
100
AcDbEntity
  8
OBRYS
  6
CONTINUOUS
100
AcDbLine
 10
1702.393995521383
 20
761.8526792472198
 30
0.0
 11
1702.393995521383
 21
763.3526792472198
 31
0.0
  0
LINE
  5
6D1
330
1F
100
AcDbEntity
  8
OBRYS
  6
CONTINUOUS
100
AcDbLine
 10
1702.393995521383
 20
763.3526792472198
 30
0.0
 11
1702.243995521383
 21
763.3526792472198
 31
0.0
  0
LINE
  5
6D2
330
1F
100
AcDbEntity
  8
OBRYS
  6
CONTINUOUS
100
AcDbLine
 10
1702.243995521383
 20
764.1526792472198
 30
0.0
 11
1702.243995521383
 21
763.3526792472198
 31
0.0
  0
LINE
  5
6D3
330
1F
100
AcDbEntity
  8
OBRYS
  6
CONTINUOUS
100
AcDbLine
 10
1698.543995521383
 20
764.1526792472198
 30
0.0
 11
1702.243995521383
 21
764.1526792472198
 31
0.0
  0
LINE
  5
6D4
330
1F
100
AcDbEntity
  8
OBRYS
  6
CONTINUOUS
100
AcDbLine
 10
1698.543995521383
 20
763.3526792472198
 30
0.0
 11
1698.543995521383
 21
764.1526792472198
 31
0.0
  0
LINE
  5
6D5
330
1F
100
AcDbEntity
  8
OBRYS
  6
CONTINUOUS
100
AcDbLine
 10
1698.543995521383
 20
760.6526782472199
 30
0.0
 11
1698.543995521383
 21
761.8526792472198
 31
0.0
  0
LINE
  5
6D6
330
1F
100
AcDbEntity
  8
OBRYS
  6
CONTINUOUS
100
AcDbLine
 10
1702.343995521383
 20
832.4547622472198
 30
0.0
 11
1702.343995521383
 21
830.3396222472198
 31
0.0
  0
LINE
  5
6D7
330
1F
100
AcDbEntity
  8
OBRYS
  6
CONTINUOUS
100
AcDbLine
 10
1701.943995521383
 20
830.3396222472198
 30
0.0
 11
1702.343995521383
 21
830.3396222472198
 31
0.0
  0
LINE
  5
6D8
330
1F
100
AcDbEntity
  8
OBRYS
  6
CONTINUOUS
100
AcDbLine
 10
1697.343995521383
 20
831.1606592472199
 30
0.0
 11
1702.343995521383
 21
831.1606592472199
 31
0.0
  0
LINE
  5
6D9
330
1F
100
AcDbEntity
  8
OBRYS
  6
CONTINUOUS
100
AcDbLine
 10
1697.743995521383
 20
830.3396222472198
 30
0.0
 11
1701.943995521383
 21
830.3396222472198
 31
0.0
  0
LINE
  5
6DA
330
1F
100
AcDbEntity
  8
OBRYS
  6
CONTINUOUS
100
AcDbLine
 10
1697.343995521383
 20
832.4547622472198
 30
0.0
 11
1697.343995521383
 21
830.3396222472198
 31
0.0
  0
LINE
  5
6DB
330
1F
100
AcDbEntity
  8
OBRYS
  6
CONTINUOUS
100
AcDbLine
 10
1697.343995521383
 20
832.4547622472198
 30
0.0
 11
1702.343995521383
 21
832.4547622472198
 31
0.0
  0
LINE
  5
6DC
330
1F
100
AcDbEntity
  8
OBRYS
  6
CONTINUOUS
100
AcDbLine
 10
1697.343995521383
 20
830.3396222472198
 30
0.0
 11
1697.743995521383
 21
830.3396222472198
 31
0.0
  0
LINE
  5
6DD
330
1F
100
AcDbEntity
  8
OBRYS
  6
CONTINUOUS
100
AcDbLine
 10
1701.443995521383
 20
747.0872102472199
 30
0.0
 11
1701.443995521383
 21
747.0932992472199
 31
0.0
  0
CIRCLE
  5
6DE
330
1F
100
AcDbEntity
  8
OBRYS
  6
CONTINUOUS
100
AcDbCircle
 10
1700.393995521383
 20
756.5526782472198
 30
0.0
 40
2.4
  0
ARC
  5
6DF
330
1F
100
AcDbEntity
  8
OBRYS
  6
CONTINUOUS
100
AcDbCircle
 10
1701.629300521383
 20
760.4788292472199
 30
0.0
 40
0.8
100
AcDbArc
 50
90.0
 51
149.9999999999993
  0
CIRCLE
  5
6E0
330
1F
100
AcDbEntity
  8
OBRYS
  6
CONTINUOUS
100
AcDbCircle
 10
1700.393995521383
 20
807.2080242472198
 30
0.0
 40
2.4
  0
ARC
  5
6E1
330
1F
100
AcDbEntity
  8
OBRYS
  6
CONTINUOUS
100
AcDbCircle
 10
-1701.629301521383
 20
803.2818722472198
 30
-0.0000000000015805
 40
0.8
210
-1.000802005371236E-15
220
0.0
230
-1.0
100
AcDbArc
 50
270.0
 51
329.9999999999992
  0
CIRCLE
  5
6E2
330
1F
100
AcDbEntity
  8
OBRYS
  6
CONTINUOUS
100
AcDbCircle
 10
1700.393995521383
 20
825.1598062472199
 30
0.0
 40
2.4
  0
ARC
  5
6E3
330
1F
100
AcDbEntity
  8
OBRYS
  6
CONTINUOUS
100
AcDbCircle
 10
-1701.629301521383
 20
821.2336542472199
 30
-0.0000000000015805
 40
0.8
210
-1.000802005371236E-15
220
0.0
230
-1.0
100
AcDbArc
 50
270.0
 51
329.9999999999922
  0
ARC
  5
6E4
330
1F
100
AcDbEntity
  8
OBRYS
  6
CONTINUOUS
100
AcDbCircle
 10
-1701.629301521383
 20
760.4788302472198
 30
-0.0000000000014838
 40
0.8
210
-9.395696654138680E-16
220
0.0
230
-1.0
100
AcDbArc
 50
30.00002200000502
 51
89.99998500001152
  0
ELLIPSE
  5
6E5
330
1F
100
AcDbEntity
  8
OBRYS
  6
CONTINUOUS
100
AcDbEllipse
 10
1701.629301521383
 20
748.7546992472198
 30
0.0
 11
0.8
 21
0.0
 31
0.0
210
0.0
220
0.0
230
1.0
 40
0.939693
 41
2.408537840481021
 42
2.61799387799142
  0
ELLIPSE
  5
6E6
330
1F
100
AcDbEntity
  8
OBRYS
  6
CONTINUOUS
100
AcDbEllipse
 10
1701.629301521383
 20
832.9577912472198
 30
0.0
 11
0.8
 21
0.0
 31
0.0
210
0.0
220
0.0
230
1.0
 40
0.939693
 41
3.665191429188078
 42
3.874647466698478
  0
LINE
  5
6E7
330
1F
100
AcDbEntity
  8
OBRYS
100
AcDbLine
 10
1697.142995521383
 20
740.5380772472198
 30
0.0
 11
1697.142995521383
 21
841.1190582472199
 31
0.0
  0
LINE
  5
6E8
330
1F
100
AcDbEntity
  8
OBRYS
100
AcDbLine
 10
1703.293995521383
 20
841.2174752472199
 30
0.0
 11
1703.293995521383
 21
740.4380772472198
 31
0.0
  0
CIRCLE
  5
6E9
330
1F
100
AcDbEntity
  8
OBRYS
100
AcDbCircle
 10
1700.393995521383
 20
745.0653242472199
 30
0.0
 40
2.4
  0
CIRCLE
  5
6EA
330
1F
100
AcDbEntity
  8
OBRYS
100
AcDbCircle
 10
1701.898361021383
 20
748.3167787472198
 30
0.0
 40
0.85
  0
LINE
  5
6EB
330
1F
100
AcDbEntity
  8
OBRYS
100
AcDbLine
 10
1698.423875521383
 20
749.7675762472198
 30
0.0
 11
1699.468899521383
 21
749.7675762472198
 31
0.0
  0
LINE
  5
6EC
330
1F
100
AcDbEntity
  8
OBRYS
100
AcDbLine
 10
1698.423875521383
 20
749.7675762472198
 30
0.0
 11
1698.148869521383
 21
749.5715902472198
 31
0.0
  0
LINE
  5
6ED
330
1F
100
AcDbEntity
  8
OBRYS
100
AcDbLine
 10
1697.797756521383
 20
749.5715902472198
 30
0.0
 11
1698.148869521383
 21
749.5715902472198
 31
0.0
  0
LINE
  5
6EE
330
1F
100
AcDbEntity
  8
OBRYS
100
AcDbLine
 10
1697.797756521383
 20
749.5715902472198
 30
0.0
 11
1698.757720521383
 21
750.2186412472198
 31
0.0
  0
LINE
  5
6EF
330
1F
100
AcDbEntity
  8
OBRYS
100
AcDbLine
 10
1698.757720521383
 20
750.2186412472198
 30
0.0
 11
1699.114589521383
 21
750.2186412472198
 31
0.0
  0
LINE
  5
6F0
330
1F
100
AcDbEntity
  8
OBRYS
100
AcDbLine
 10
1699.114589521383
 20
750.2186412472198
 30
0.0
 11
1700.137229521383
 21
749.5715902472198
 31
0.0
  0
LINE
  5
6F1
330
1F
100
AcDbEntity
  8
OBRYS
100
AcDbLine
 10
1699.760534521383
 20
749.5715902472198
 30
0.0
 11
1700.137229521383
 21
749.5715902472198
 31
0.0
  0
LINE
  5
6F2
330
1F
100
AcDbEntity
  8
OBRYS
100
AcDbLine
 10
1699.468899521383
 20
749.7675762472198
 30
0.0
 11
1699.760534521383
 21
749.5715902472198
 31
0.0
  0
LINE
  5
6F3
330
1F
100
AcDbEntity
  8
OBRYS
100
AcDbLine
 10
1698.521659766799
 20
749.8372632472199
 30
0.0
 11
1698.931053558525
 21
750.1290221603535
 31
0.0
  0
LINE
  5
6F4
330
1F
100
AcDbEntity
  8
OBRYS
100
AcDbLine
 10
1699.365202480549
 20
749.8372632472199
 30
0.0
 11
1698.931053558525
 21
750.1290221603535
 31
0.0
  0
LINE
  5
6F5
330
1F
100
AcDbEntity
  8
OBRYS
100
AcDbLine
 10
1698.521659766799
 20
749.8372632472199
 30
0.0
 11
1699.365202480549
 21
749.8372632472199
 31
0.0
  0
LINE
  5
6F6
330
1F
100
AcDbEntity
  8
OBRYS
100
AcDbLine
 10
1700.295837521383
 20
750.0340772472198
 30
0.0
 11
1700.611135521383
 21
750.0258002472199
 31
0.0
  0
LINE
  5
6F7
330
1F
100
AcDbEntity
  8
OBRYS
100
AcDbLine
 10
1700.237638521383
 20
749.5715902472198
 30
0.0
 11
1701.890235521383
 21
749.5715902472198
 31
0.0
  0
LINE
  5
6F8
330
1F
100
AcDbEntity
  8
OBRYS
100
AcDbLine
 10
1701.890235521383
 20
749.6478982472198
 30
0.0
 11
1701.890235521383
 21
749.5715902472198
 31
0.0
  0
CIRCLE
  5
6F9
330
1F
100
AcDbEntity
  8
OBRYS
100
AcDbCircle
 10
1701.882432699106
 20
760.0129497472199
 30
0.0
 40
0.85
  0
LINE
  5
6FA
330
1F
100
AcDbEntity
  8
OBRYS
100
AcDbLine
 10
1697.743995521383
 20
769.3208692472199
 30
0.0
 11
1697.743995521383
 21
765.4880512472198
 31
0.0
  0
LINE
  5
6FB
330
1F
100
AcDbEntity
  8
OBRYS
100
AcDbLine
 10
1701.813412371625
 20
780.3889680787628
 30
0.0
 11
1700.853448371626
 21
777.8889680787628
 31
0.0
  0
LINE
  5
6FC
330
1F
100
AcDbEntity
  8
OBRYS
100
AcDbLine
 10
1700.853448371626
 20
777.8889680787628
 30
0.0
 11
1700.496579371626
 21
777.8889680787628
 31
0.0
  0
LINE
  5
6FD
330
1F
100
AcDbEntity
  8
OBRYS
100
AcDbLine
 10
1700.496579371626
 20
777.8889680787628
 30
0.0
 11
1699.473939371625
 21
780.3889680787628
 31
0.0
  0
LINE
  5
6FE
330
1F
100
AcDbEntity
  8
OBRYS
100
AcDbLine
 10
1699.850634371626
 20
780.3889680787628
 30
0.0
 11
1699.473939371625
 21
780.3889680787628
 31
0.0
  0
LINE
  5
6FF
330
1F
100
AcDbEntity
  8
OBRYS
100
AcDbLine
 10
1700.142268371626
 20
779.6317410787627
 30
0.0
 11
1699.850634371626
 21
780.3889680787628
 31
0.0
  0
LINE
  5
700
330
1F
100
AcDbEntity
  8
OBRYS
100
AcDbLine
 10
1701.187293371625
 20
779.6317410787627
 30
0.0
 11
1700.142268371626
 21
779.6317410787627
 31
0.0
  0
LINE
  5
701
330
1F
100
AcDbEntity
  8
OBRYS
100
AcDbLine
 10
1701.187293371625
 20
779.6317410787627
 30
0.0
 11
1701.462299371625
 21
780.3889680787628
 31
0.0
  0
LINE
  5
702
330
1F
100
AcDbEntity
  8
OBRYS
100
AcDbLine
 10
1701.813412371625
 20
780.3889680787628
 30
0.0
 11
1701.462299371625
 21
780.3889680787628
 31
0.0
  0
LINE
  5
703
330
1F
100
AcDbEntity
  8
OBRYS
100
AcDbLine
 10
1701.089508109734
 20
779.3624900787628
 30
0.0
 11
1700.245966134825
 21
779.3624900787628
 31
0.0
  0
LINE
  5
704
330
1F
100
AcDbEntity
  8
OBRYS
100
AcDbLine
 10
1701.089508109734
 20
779.3624900787628
 30
0.0
 11
1700.680113954093
 21
778.2352262798163
 31
0.0
  0
LINE
  5
705
330
1F
100
AcDbEntity
  8
OBRYS
100
AcDbLine
 10
1700.245966134825
 20
779.3624900787628
 30
0.0
 11
1700.680113954093
 21
778.2352262798163
 31
0.0
  0
LINE
  5
706
330
1F
100
AcDbEntity
  8
OBRYS
100
AcDbLine
 10
1698.484555371625
 20
778.4332250787628
 30
0.0
 11
1698.484555371625
 21
780.3889680787628
 31
0.0
  0
LINE
  5
707
330
1F
100
AcDbEntity
  8
OBRYS
100
AcDbLine
 10
1698.484555371625
 20
780.3889680787628
 30
0.0
 11
1698.177572371626
 21
780.3889680787628
 31
0.0
  0
LINE
  5
708
330
1F
100
AcDbEntity
  8
OBRYS
100
AcDbLine
 10
1698.177572371626
 20
780.3889680787628
 30
0.0
 11
1698.177572371626
 21
777.8787350787628
 31
0.0
  0
LINE
  5
709
330
1F
100
AcDbEntity
  8
OBRYS
100
AcDbLine
 10
1698.375832371625
 20
777.8787350787628
 30
0.0
 11
1698.177572371626
 21
777.8787350787628
 31
0.0
  0
ARC
  5
70A
330
1F
100
AcDbEntity
  8
OBRYS
100
AcDbCircle
 10
1699.743557433326
 20
777.0331995070472
 30
0.0
 40
1.607980798218968
100
AcDbArc
 50
113.6498010016168
 51
148.2754027327026
  0
ARC
  5
70B
330
1F
100
AcDbEntity
  8
OBRYS
100
AcDbCircle
 10
1699.862125761581
 20
776.839913684943
 30
0.0
 40
2.106262418826162
100
AcDbArc
 50
111.2562102872037
 51
130.8465567023341
  0
LINE
  5
70C
330
1F
100
AcDbEntity
  8
OBRYS
100
AcDbLine
 10
1699.098523371626
 20
778.5061330787628
 30
0.0
 11
1699.098523371626
 21
778.8028840787628
 31
0.0
  0
CIRCLE
  5
70D
330
1F
100
AcDbEntity
  8
OBRYS
100
AcDbCircle
 10
1701.902115771383
 20
803.7477542472199
 30
0.0
 40
0.85
  0
CIRCLE
  5
70E
330
1F
100
AcDbEntity
  8
OBRYS
100
AcDbCircle
 10
1701.898361021383
 20
821.6995362472198
 30
0.0
 40
0.85
  0
CIRCLE
  5
70F
330
1F
100
AcDbEntity
  8
OBRYS
  6
CONTINUOUS
100
AcDbCircle
 10
1700.393995521383
 20
836.6471672472198
 30
0.0
 40
2.4
  0
CIRCLE
  5
710
330
1F
100
AcDbEntity
  8
OBRYS
100
AcDbCircle
 10
1701.898361021383
 20
833.3957122472198
 30
0.0
 40
0.85
  0
ARC
  5
711
330
1F
100
AcDbEntity
  8
OBRYS
100
AcDbCircle
 10
1700.303782368972
 20
749.5678090663924
 30
0.0
 40
0.0662518369728418
100
AcDbArc
 50
117.2440269127491
 51
176.7281889935764
  0
ARC
  5
712
330
1F
100
AcDbEntity
  8
OBRYS
100
AcDbCircle
 10
1701.124967999745
 20
747.8777931937316
 30
0.0
 40
1.945196973233683
100
AcDbArc
 50
98.7966883649178
 51
115.9605577100435
  0
ARC
  5
713
330
1F
100
AcDbEntity
  8
OBRYS
100
AcDbCircle
 10
1700.120111174526
 20
753.7471597368835
 30
0.0
 40
4.009936972456545
100
AcDbArc
 50
280.1605384380516
 51
290.5988324631564
  0
ARC
  5
714
330
1F
100
AcDbEntity
  8
OBRYS
100
AcDbCircle
 10
1701.522575242547
 20
750.0414561489837
 30
0.0
 40
0.048583012935508
100
AcDbArc
 50
279.8634228399056
 51
70.9311389896169
  0
ARC
  5
715
330
1F
100
AcDbEntity
  8
OBRYS
100
AcDbCircle
 10
1701.101730004923
 20
748.2355098720925
 30
0.0
 40
1.90266133332251
100
AcDbArc
 50
76.73060802967673
 51
103.6799685899401
  0
ARC
  5
716
330
1F
100
AcDbEntity
  8
OBRYS
100
AcDbCircle
 10
1700.660075245112
 20
750.0350838226628
 30
0.0
 40
0.0498124616104635
100
AcDbArc
 50
99.61698789063678
 51
190.7410484457238
  0
ARC
  5
717
330
1F
100
AcDbEntity
  8
OBRYS
100
AcDbCircle
 10
1700.497639021555
 20
749.9239881444139
 30
0.0
 40
0.2298770454575829
100
AcDbArc
 50
101.1909754180043
 51
151.3861362292047
  0
ARC
  5
718
330
1F
100
AcDbEntity
  8
OBRYS
100
AcDbCircle
 10
1701.096814770834
 20
748.3328611784609
 30
0.0
 40
1.927335360490321
100
AcDbArc
 50
67.7832436441318
 51
109.5136398385901
  0
ARC
  5
719
330
1F
100
AcDbEntity
  8
OBRYS
100
AcDbCircle
 10
1701.805578013238
 20
750.0424039467324
 30
0.0
 40
0.0773340889381619
100
AcDbArc
 50
291.4621567852458
 51
75.0237970009348
  0
ARC
  5
71A
330
1F
100
AcDbEntity
  8
OBRYS
100
AcDbCircle
 10
1701.189615791895
 20
748.3028050673993
 30
0.0
 40
1.444063002178838
100
AcDbArc
 50
100.7907845223402
 51
111.3357597085713
  0
ARC
  5
71B
330
1F
100
AcDbEntity
  8
OBRYS
100
AcDbCircle
 10
1700.157155465615
 20
754.3231989787838
 30
0.0
 40
4.66454302777321
100
AcDbArc
 50
279.4032007405879
 51
291.0670551635196
  0
LINE
  5
71C
330
1F
100
AcDbEntity
  8
OBRYS
100
AcDbLine
 10
1700.664218521383
 20
749.6478982472198
 30
0.0
 11
1701.890235521383
 21
749.6478982472198
 31
0.0
  0
LINE
  5
71D
330
1F
100
AcDbEntity
  8
OBRYS
100
AcDbLine
 10
1698.156543521383
 20
832.1408952472199
 30
0.0
 11
1698.463527521383
 21
832.1408952472199
 31
0.0
  0
LINE
  5
71E
330
1F
100
AcDbEntity
  8
OBRYS
100
AcDbLine
 10
1698.463527521383
 20
832.1408952472199
 30
0.0
 11
1698.463527521383
 21
831.6347082472198
 31
0.0
  0
LINE
  5
71F
330
1F
100
AcDbEntity
  8
OBRYS
100
AcDbLine
 10
1699.077495521383
 20
831.7303842472198
 30
0.0
 11
1699.077495521383
 21
831.6535792472198
 31
0.0
  0
LINE
  5
720
330
1F
100
AcDbEntity
  8
OBRYS
100
AcDbLine
 10
1698.156543521383
 20
832.1408952472199
 30
0.0
 11
1698.156543521383
 21
831.4911952472198
 31
0.0
  0
LINE
  5
721
330
1F
100
AcDbEntity
  8
OBRYS
100
AcDbLine
 10
1698.156543521383
 20
831.4911952472198
 30
0.0
 11
1698.354804521383
 21
831.4911952472198
 31
0.0
  0
ARC
  5
722
330
1F
100
AcDbEntity
  8
OBRYS
100
AcDbCircle
 10
1699.323292013544
 20
828.870298042269
 30
0.0
 40
2.794113487564655
100
AcDbArc
 50
95.04679898691568
 51
110.2805403769961
  0
ARC
  5
723
330
1F
100
AcDbEntity
  8
OBRYS
100
AcDbCircle
 10
1699.550216168502
 20
826.6790584051031
 30
0.0
 40
5.073397044727452
100
AcDbArc
 50
95.34636708555776
 51
102.3682157706828
  0
LINE
  5
724
330
1F
100
AcDbEntity
  8
OBRYS
100
AcDbLine
 10
1701.200800521383
 20
832.0645862472198
 30
0.0
 11
1701.200800521383
 21
831.8421162472198
 31
0.0
  0
LINE
  5
725
330
1F
100
AcDbEntity
  8
OBRYS
100
AcDbLine
 10
1701.200800521383
 20
831.7658072472199
 30
0.0
 11
1701.200800521383
 21
831.5701522472199
 31
0.0
  0
LINE
  5
726
330
1F
100
AcDbEntity
  8
OBRYS
100
AcDbLine
 10
1701.531447521383
 20
832.1408952472199
 30
0.0
 11
1701.531447521383
 21
831.4938442472198
 31
0.0
  0
ELLIPSE
  5
727
330
1F
100
AcDbEntity
  8
OBRYS
100
AcDbEllipse
 10
1700.117755021383
 20
831.9613912472198
 30
0.0
 11
0.4745166582655542
 21
-0.01022049611950205
 31
0.0
210
0.0
220
0.0
230
1.0
 40
0.3762211254701069
 41
1.571441399829402
 42
4.304139481257025
  0
ELLIPSE
  5
728
330
1F
100
AcDbEntity
  8
OBRYS
100
AcDbEllipse
 10
1700.1080196539
 20
831.6570077342614
 30
0.0
 11
-0.3412666561042311
 21
0.0141109307578025
 31
0.0
210
0.0
220
0.0
230
1.0
 40
0.4802107748956773
 41
5.295241862600548
 42
7.855849594378425
  0
LINE
  5
729
330
1F
100
AcDbEntity
  8
OBRYS
100
AcDbLine
 10
1700.101933407458
 20
831.4945032472199
 30
0.0
 11
1701.531447521383
 21
831.4938442472198
 31
0.0
  0
LINE
  5
72A
330
1F
100
AcDbEntity
  8
OBRYS
100
AcDbLine
 10
1700.121294089256
 20
832.1399209942693
 30
0.0
 11
1701.531447521383
 21
832.1408952472199
 31
0.0
  0
LINE
  5
72B
330
1F
100
AcDbEntity
  8
OBRYS
100
AcDbLine
 10
1700.352757521383
 20
832.0614412472198
 30
0.0
 11
1701.200800521383
 21
832.0645862472198
 31
0.0
  0
LINE
  5
72C
330
1F
100
AcDbEntity
  8
OBRYS
100
AcDbLine
 10
1700.347054521383
 20
831.8471772472199
 30
0.0
 11
1701.200800521383
 21
831.8421162472198
 31
0.0
  0
ELLIPSE
  5
72D
330
1F
100
AcDbEntity
  8
OBRYS
100
AcDbEllipse
 10
1700.349906021383
 20
831.9543092472198
 30
0.0
 11
-0.3631708923091082
 21
0.009666409657396584
 31
0.0
210
0.0
220
0.0
230
1.0
 40
0.2949906015838491
 41
4.711320522377596
 42
7.853981633974444
  0
LINE
  5
72E
330
1F
100
AcDbEntity
  8
OBRYS
100
AcDbLine
 10
1701.200800521383
 20
831.5701522472199
 30
0.0
 11
1700.450349521383
 21
831.5731137472198
 31
0.0
  0
LINE
  5
72F
330
1F
100
AcDbEntity
  8
OBRYS
100
AcDbLine
 10
1701.200800521383
 20
831.7658072472199
 30
0.0
 11
1700.450349521383
 21
831.7687687472198
 31
0.0
  0
ELLIPSE
  5
730
330
1F
100
AcDbEntity
  8
OBRYS
100
AcDbEllipse
 10
1700.45033772651
 20
831.67094158181
 30
0.0
 11
-0.3597833287588856
 21
4.337853069047564E-5
 31
0.0
210
0.0
220
0.0
230
1.0
 40
0.2719057765888611
 41
4.71238898038469
 42
7.854047200285903
  0
ARC
  5
731
330
1F
100
AcDbEntity
  8
OBRYS
100
AcDbCircle
 10
1704.194002580974
 20
768.8928152543399
 30
0.0
 40
0.3000070595970468
100
AcDbArc
 50
135.0005491859666
 51
179.9996193969315
  0
ARC
  5
732
330
1F
100
AcDbEntity
  8
OBRYS
100
AcDbCircle
 10
1704.593993576116
 20
768.8928173727533
 30
0.0
 40
0.300001945266886
100
AcDbArc
 50
359.9999760250305
 51
44.99985539207582
  0
ARC
  5
733
330
1F
100
AcDbEntity
  8
OBRYS
100
AcDbCircle
 10
1704.193993609802
 20
765.6599985241287
 30
0.0
 40
0.2999980884201153
100
AcDbArc
 50
179.9998618988835
 51
225.0001605034929
  0
ARC
  5
734
330
1F
100
AcDbEntity
  8
OBRYS
100
AcDbCircle
 10
1704.593883517213
 20
765.6600457096037
 30
0.0
 40
0.3001120077665682
100
AcDbArc
 50
315.0088479475098
 51
359.9911296501306
  0
LINE
  5
735
330
1F
100
AcDbEntity
  8
OBRYS
  6
CONTINUOUS
100
AcDbLine
 10
1705.493995521383
 20
783.3117822472199
 30
0.0
 11
1704.893995521383
 21
783.3117822472199
 31
0.0
  0
LINE
  5
736
330
1F
100
AcDbEntity
  8
OBRYS
  6
CONTINUOUS
100
AcDbLine
 10
1703.893995521383
 20
783.3117822472199
 30
0.0
 11
1703.293995521383
 21
783.3117822472199
 31
0.0
  0
LINE
  5
737
330
1F
100
AcDbEntity
  8
OBRYS
  6
CONTINUOUS
100
AcDbLine
 10
1703.293995521383
 20
787.1446012472198
 30
0.0
 11
1703.893995521383
 21
787.1446012472198
 31
0.0
  0
LINE
  5
738
330
1F
100
AcDbEntity
  8
OBRYS
  6
CONTINUOUS
100
AcDbLine
 10
1704.893995521383
 20
787.1446012472198
 30
0.0
 11
1705.493995521383
 21
787.1446012472198
 31
0.0
  0
LINE
  5
739
330
1F
100
AcDbEntity
  8
OBRYS
  6
CONTINUOUS
100
AcDbLine
 10
1704.193995521383
 20
783.6117832472198
 30
0.0
 11
1703.893995521383
 21
783.9117822472199
 31
0.0
  0
LINE
  5
73A
330
1F
100
AcDbEntity
  8
OBRYS
  6
CONTINUOUS
100
AcDbLine
 10
1704.893995521383
 20
783.9117822472199
 30
0.0
 11
1704.593995521383
 21
783.6117822472198
 31
0.0
  0
LINE
  5
73B
330
1F
100
AcDbEntity
  8
OBRYS
  6
CONTINUOUS
100
AcDbLine
 10
1704.893995521383
 20
783.6117822472198
 30
0.0
 11
1704.893995521383
 21
786.8446002472199
 31
0.0
  0
LINE
  5
73C
330
1F
100
AcDbEntity
  8
OBRYS
  6
CONTINUOUS
100
AcDbLine
 10
1703.893995521383
 20
786.8446002472199
 30
0.0
 11
1703.893995521383
 21
783.6117822472198
 31
0.0
  0
LINE
  5
73D
330
1F
100
AcDbEntity
  8
OBRYS
  6
CONTINUOUS
100
AcDbLine
 10
1704.893995521383
 20
786.5446022472198
 30
0.0
 11
1704.593995521383
 21
786.8446022472199
 31
0.0
  0
LINE
  5
73E
330
1F
100
AcDbEntity
  8
OBRYS
  6
CONTINUOUS
100
AcDbLine
 10
1704.193995521383
 20
786.8446022472199
 30
0.0
 11
1703.893995521383
 21
786.5446022472198
 31
0.0
  0
LINE
  5
73F
330
1F
100
AcDbEntity
  8
OBRYS
  6
CONTINUOUS
100
AcDbLine
 10
1704.043995521383
 20
783.7617832472198
 30
0.0
 11
1704.743995521383
 21
783.7617832472198
 31
0.0
  0
LINE
  5
740
330
1F
100
AcDbEntity
  8
OBRYS
  6
CONTINUOUS
100
AcDbLine
 10
1704.893995521383
 20
783.3117832472199
 30
0.0
 11
1704.593995521383
 21
783.6117832472198
 31
0.0
  0
LINE
  5
741
330
1F
100
AcDbEntity
  8
OBRYS
  6
CONTINUOUS
100
AcDbLine
 10
1704.193995521383
 20
783.6117832472198
 30
0.0
 11
1703.893995521383
 21
783.3117822472199
 31
0.0
  0
LINE
  5
742
330
1F
100
AcDbEntity
  8
OBRYS
  6
CONTINUOUS
100
AcDbLine
 10
1704.043995521383
 20
786.6946022472198
 30
0.0
 11
1704.743995521383
 21
786.6946022472198
 31
0.0
  0
LINE
  5
743
330
1F
100
AcDbEntity
  8
OBRYS
  6
CONTINUOUS
100
AcDbLine
 10
1703.893995521383
 20
787.1446022472198
 30
0.0
 11
1704.193995521383
 21
786.8446022472199
 31
0.0
  0
LINE
  5
744
330
1F
100
AcDbEntity
  8
OBRYS
  6
CONTINUOUS
100
AcDbLine
 10
1704.593995521383
 20
786.8446022472199
 30
0.0
 11
1704.893995521383
 21
787.1446022472198
 31
0.0
  0
ARC
  5
745
330
1F
100
AcDbEntity
  8
OBRYS
100
AcDbCircle
 10
1704.194002580974
 20
786.8445982543399
 30
0.0
 40
0.3000070595970468
100
AcDbArc
 50
135.0005491859666
 51
179.9996193969098
  0
ARC
  5
746
330
1F
100
AcDbEntity
  8
OBRYS
100
AcDbCircle
 10
1704.593993576116
 20
786.8446003727533
 30
0.0
 40
0.300001945266886
100
AcDbArc
 50
359.9999760250305
 51
44.99985539206047
  0
ARC
  5
747
330
1F
100
AcDbEntity
  8
OBRYS
100
AcDbCircle
 10
1704.193993609802
 20
783.6117815241287
 30
0.0
 40
0.2999980884201153
100
AcDbArc
 50
179.9998618988835
 51
225.0001605034929
  0
ARC
  5
748
330
1F
100
AcDbEntity
  8
OBRYS
100
AcDbCircle
 10
1704.593883517213
 20
783.6118287096037
 30
0.0
 40
0.3001120077665682
100
AcDbArc
 50
315.0088479474943
 51
359.9911296501089
  0
LINE
  5
749
330
1F
100
AcDbEntity
  8
OBRYS
  6
CONTINUOUS
100
AcDbLine
 10
1705.493995521383
 20
794.3117832472199
 30
0.0
 11
1704.893995521383
 21
794.3117832472199
 31
0.0
  0
LINE
  5
74A
330
1F
100
AcDbEntity
  8
OBRYS
  6
CONTINUOUS
100
AcDbLine
 10
1703.893995521383
 20
794.3117832472199
 30
0.0
 11
1703.293995521383
 21
794.3117832472199
 31
0.0
  0
LINE
  5
74B
330
1F
100
AcDbEntity
  8
OBRYS
  6
CONTINUOUS
100
AcDbLine
 10
1703.293995521383
 20
798.1446022472198
 30
0.0
 11
1703.893995521383
 21
798.1446022472198
 31
0.0
  0
LINE
  5
74C
330
1F
100
AcDbEntity
  8
OBRYS
  6
CONTINUOUS
100
AcDbLine
 10
1704.893995521383
 20
798.1446022472198
 30
0.0
 11
1705.493995521383
 21
798.1446022472198
 31
0.0
  0
LINE
  5
74D
330
1F
100
AcDbEntity
  8
OBRYS
  6
CONTINUOUS
100
AcDbLine
 10
1704.193995521383
 20
794.6117842472198
 30
0.0
 11
1703.893995521383
 21
794.9117832472198
 31
0.0
  0
LINE
  5
74E
330
1F
100
AcDbEntity
  8
OBRYS
  6
CONTINUOUS
100
AcDbLine
 10
1704.893995521383
 20
794.9117832472198
 30
0.0
 11
1704.593995521383
 21
794.6117832472198
 31
0.0
  0
LINE
  5
74F
330
1F
100
AcDbEntity
  8
OBRYS
  6
CONTINUOUS
100
AcDbLine
 10
1704.893995521383
 20
794.6117832472198
 30
0.0
 11
1704.893995521383
 21
797.8446012472198
 31
0.0
  0
LINE
  5
750
330
1F
100
AcDbEntity
  8
OBRYS
  6
CONTINUOUS
100
AcDbLine
 10
1703.893995521383
 20
797.8446012472198
 30
0.0
 11
1703.893995521383
 21
794.6117832472198
 31
0.0
  0
LINE
  5
751
330
1F
100
AcDbEntity
  8
OBRYS
  6
CONTINUOUS
100
AcDbLine
 10
1704.893995521383
 20
797.5446032472198
 30
0.0
 11
1704.593995521383
 21
797.8446032472198
 31
0.0
  0
LINE
  5
752
330
1F
100
AcDbEntity
  8
OBRYS
  6
CONTINUOUS
100
AcDbLine
 10
1704.193995521383
 20
797.8446032472198
 30
0.0
 11
1703.893995521383
 21
797.5446032472198
 31
0.0
  0
LINE
  5
753
330
1F
100
AcDbEntity
  8
OBRYS
  6
CONTINUOUS
100
AcDbLine
 10
1704.043995521383
 20
794.7617842472198
 30
0.0
 11
1704.743995521383
 21
794.7617842472198
 31
0.0
  0
LINE
  5
754
330
1F
100
AcDbEntity
  8
OBRYS
  6
CONTINUOUS
100
AcDbLine
 10
1704.893995521383
 20
794.3117842472199
 30
0.0
 11
1704.593995521383
 21
794.6117842472198
 31
0.0
  0
LINE
  5
755
330
1F
100
AcDbEntity
  8
OBRYS
  6
CONTINUOUS
100
AcDbLine
 10
1704.193995521383
 20
794.6117842472198
 30
0.0
 11
1703.893995521383
 21
794.3117832472199
 31
0.0
  0
LINE
  5
756
330
1F
100
AcDbEntity
  8
OBRYS
  6
CONTINUOUS
100
AcDbLine
 10
1704.043995521383
 20
797.6946032472199
 30
0.0
 11
1704.743995521383
 21
797.6946032472199
 31
0.0
  0
LINE
  5
757
330
1F
100
AcDbEntity
  8
OBRYS
  6
CONTINUOUS
100
AcDbLine
 10
1703.893995521383
 20
798.1446032472198
 30
0.0
 11
1704.193995521383
 21
797.8446032472198
 31
0.0
  0
LINE
  5
758
330
1F
100
AcDbEntity
  8
OBRYS
  6
CONTINUOUS
100
AcDbLine
 10
1704.593995521383
 20
797.8446032472198
 30
0.0
 11
1704.893995521383
 21
798.1446032472198
 31
0.0
  0
ARC
  5
759
330
1F
100
AcDbEntity
  8
OBRYS
100
AcDbCircle
 10
1704.194002580974
 20
797.84459925434
 30
0.0
 40
0.3000070595970468
100
AcDbArc
 50
135.000549185982
 51
179.9996193969532
  0
ARC
  5
75A
330
1F
100
AcDbEntity
  8
OBRYS
100
AcDbCircle
 10
1704.593993576116
 20
797.8446013727532
 30
0.0
 40
0.300001945266886
100
AcDbArc
 50
359.9999760250305
 51
44.99985539207582
  0
ARC
  5
75B
330
1F
100
AcDbEntity
  8
OBRYS
100
AcDbCircle
 10
1704.193993609802
 20
794.6117825241287
 30
0.0
 40
0.2999980884201153
100
AcDbArc
 50
179.9998618988835
 51
225.0001605034929
  0
ARC
  5
75C
330
1F
100
AcDbEntity
  8
OBRYS
100
AcDbCircle
 10
1704.593883517213
 20
794.6118297096036
 30
0.0
 40
0.3001120077665682
100
AcDbArc
 50
315.0088479475098
 51
359.9911296501306
  0
LINE
  5
75D
330
1F
100
AcDbEntity
  8
OBRYS
  6
CONTINUOUS
100
AcDbLine
 10
1705.493995521383
 20
812.2635652472198
 30
0.0
 11
1704.893995521383
 21
812.2635652472198
 31
0.0
  0
LINE
  5
75E
330
1F
100
AcDbEntity
  8
OBRYS
  6
CONTINUOUS
100
AcDbLine
 10
1703.893995521383
 20
812.2635652472198
 30
0.0
 11
1703.293995521383
 21
812.2635652472198
 31
0.0
  0
LINE
  5
75F
330
1F
100
AcDbEntity
  8
OBRYS
  6
CONTINUOUS
100
AcDbLine
 10
1703.293995521383
 20
816.0963842472198
 30
0.0
 11
1703.893995521383
 21
816.0963842472198
 31
0.0
  0
LINE
  5
760
330
1F
100
AcDbEntity
  8
OBRYS
  6
CONTINUOUS
100
AcDbLine
 10
1704.893995521383
 20
816.0963842472198
 30
0.0
 11
1705.493995521383
 21
816.0963842472198
 31
0.0
  0
LINE
  5
761
330
1F
100
AcDbEntity
  8
OBRYS
  6
CONTINUOUS
100
AcDbLine
 10
1704.193995521383
 20
812.5635662472198
 30
0.0
 11
1703.893995521383
 21
812.8635652472199
 31
0.0
  0
LINE
  5
762
330
1F
100
AcDbEntity
  8
OBRYS
  6
CONTINUOUS
100
AcDbLine
 10
1704.893995521383
 20
812.8635652472199
 30
0.0
 11
1704.593995521383
 21
812.5635652472198
 31
0.0
  0
LINE
  5
763
330
1F
100
AcDbEntity
  8
OBRYS
  6
CONTINUOUS
100
AcDbLine
 10
1704.893995521383
 20
812.5635652472198
 30
0.0
 11
1704.893995521383
 21
815.7963832472199
 31
0.0
  0
LINE
  5
764
330
1F
100
AcDbEntity
  8
OBRYS
  6
CONTINUOUS
100
AcDbLine
 10
1703.893995521383
 20
815.7963832472199
 30
0.0
 11
1703.893995521383
 21
812.5635652472198
 31
0.0
  0
LINE
  5
765
330
1F
100
AcDbEntity
  8
OBRYS
  6
CONTINUOUS
100
AcDbLine
 10
1704.893995521383
 20
815.4963852472198
 30
0.0
 11
1704.593995521383
 21
815.7963852472199
 31
0.0
  0
LINE
  5
766
330
1F
100
AcDbEntity
  8
OBRYS
  6
CONTINUOUS
100
AcDbLine
 10
1704.193995521383
 20
815.7963852472199
 30
0.0
 11
1703.893995521383
 21
815.4963852472198
 31
0.0
  0
LINE
  5
767
330
1F
100
AcDbEntity
  8
OBRYS
  6
CONTINUOUS
100
AcDbLine
 10
1704.043995521383
 20
812.7135662472198
 30
0.0
 11
1704.743995521383
 21
812.7135662472198
 31
0.0
  0
LINE
  5
768
330
1F
100
AcDbEntity
  8
OBRYS
  6
CONTINUOUS
100
AcDbLine
 10
1704.893995521383
 20
812.2635662472198
 30
0.0
 11
1704.593995521383
 21
812.5635662472198
 31
0.0
  0
LINE
  5
769
330
1F
100
AcDbEntity
  8
OBRYS
  6
CONTINUOUS
100
AcDbLine
 10
1704.193995521383
 20
812.5635662472198
 30
0.0
 11
1703.893995521383
 21
812.2635652472198
 31
0.0
  0
LINE
  5
76A
330
1F
100
AcDbEntity
  8
OBRYS
  6
CONTINUOUS
100
AcDbLine
 10
1704.043995521383
 20
815.6463852472198
 30
0.0
 11
1704.743995521383
 21
815.6463852472198
 31
0.0
  0
LINE
  5
76B
330
1F
100
AcDbEntity
  8
OBRYS
  6
CONTINUOUS
100
AcDbLine
 10
1703.893995521383
 20
816.0963852472198
 30
0.0
 11
1704.193995521383
 21
815.7963852472199
 31
0.0
  0
LINE
  5
76C
330
1F
100
AcDbEntity
  8
OBRYS
  6
CONTINUOUS
100
AcDbLine
 10
1704.593995521383
 20
815.7963852472199
 30
0.0
 11
1704.893995521383
 21
816.0963852472198
 31
0.0
  0
ARC
  5
76D
330
1F
100
AcDbEntity
  8
OBRYS
100
AcDbCircle
 10
1704.194002580974
 20
815.7963812543398
 30
0.0
 40
0.3000070595970468
100
AcDbArc
 50
135.0005491859666
 51
179.9996193969098
  0
ARC
  5
76E
330
1F
100
AcDbEntity
  8
OBRYS
100
AcDbCircle
 10
1704.593993576116
 20
815.7963833727533
 30
0.0
 40
0.300001945266886
100
AcDbArc
 50
359.9999760250305
 51
44.99985539206047
  0
ARC
  5
76F
330
1F
100
AcDbEntity
  8
OBRYS
100
AcDbCircle
 10
1704.193993609802
 20
812.5635645241287
 30
0.0
 40
0.2999980884201153
100
AcDbArc
 50
179.9998618988835
 51
225.0001605034929
  0
ARC
  5
770
330
1F
100
AcDbEntity
  8
OBRYS
100
AcDbCircle
 10
1704.593883517213
 20
812.5636117096037
 30
0.0
 40
0.3001120077665682
100
AcDbArc
 50
315.0088479474943
 51
359.9911296501089
  0
DIMENSION
  5
780
330
1F
100
AcDbEntity
  8
KOTY
100
AcDbDimension
  2
*D0
 10
1666.092317521383
 20
731.9398986611409
 30
0.0
 11
1663.016817521383
 21
734.4713986611409
 31
0.0
 70
    32
  3
STANDARD
100
AcDbAlignedDimension
 13
1659.941317521383
 23
740.4100192472198
 33
0.0
 14
1666.092317521383
 24
740.3100192472198
 34
0.0
100
AcDbRotatedDimension
1001
ACAD
1000
DSTYLE
1002
{
1070
   271
1070
     0
1070
   278
1070
    44
1070
   140
1040
3.0
1070
    73
1070
     0
1070
    77
1070
     1
1070
   147
1040
1.0
1070
    41
1040
3.0
1002
}
  0
DIMENSION
  5
790
330
1F
100
AcDbEntity
  8
KOTY
100
AcDbDimension
  2
*D1
 10
1705.493995521383
 20
731.9398986611409
 30
0.0
 11
1701.318495521383
 21
734.4713986611409
 31
0.0
 70
    32
  3
STANDARD
100
AcDbAlignedDimension
 13
1697.142995521383
 23
740.5380772472198
 33
0.0
 14
1705.493995521383
 24
740.4380772472198
 34
0.0
100
AcDbRotatedDimension
1001
ACAD
1000
DSTYLE
1002
{
1070
   271
1070
     0
1070
   278
1070
    44
1070
   140
1040
3.0
1070
    73
1070
     0
1070
    77
1070
     1
1070
   147
1040
1.0
1070
    41
1040
3.0
1002
}
  0
DIMENSION
  5
7A0
330
1F
100
AcDbEntity
  8
KOTY
100
AcDbDimension
  2
*D2
 10
1631.452868519436
 20
850.352893175739
 30
0.0
 11
1603.50223052041
 21
852.8843931757391
 31
0.0
 70
    32
  3
STANDARD
100
AcDbAlignedDimension
 13
1575.551592521383
 23
829.5740522472198
 33
0.0
 14
1631.452868519436
 24
808.601008824223
 34
-0.0000000000000895
100
AcDbRotatedDimension
1001
ACAD
1000
DSTYLE
1002
{
1070
   271
1070
     0
1070
   278
1070
    44
1070
   140
1040
3.0
1070
    73
1070
     0
1070
    77
1070
     1
1070
   147
1040
1.0
1070
    41
1040
3.0
1002
}
  0
DIMENSION
  5
7B0
330
1F
100
AcDbEntity
  8
KOTY
100
AcDbDimension
  2
*D3
 10
1565.007826493784
 20
841.8860162472198
 30
0.0
 11
1562.476326493784
 21
790.7281867472198
 31
0.0
 70
    32
  3
STANDARD
100
AcDbAlignedDimension
 13
1597.652543521383
 23
739.5703572472198
 33
0.0
 14
1597.652545521383
 24
841.8860162472198
 34
0.0
 50
90.0
100
AcDbRotatedDimension
1001
ACAD
1000
DSTYLE
1002
{
1070
   271
1070
     0
1070
   278
1070
    44
1070
   140
1040
3.0
1070
    73
1070
     0
1070
    77
1070
     1
1070
   147
1040
1.0
1070
    41
1040
3.0
1002
}
  0
LINE
  5
8C4
330
1F
100
AcDbEntity
  8
OBRYS
100
AcDbLine
 10
1664.56434530855
 20
780.3889680787628
 30
0.0
 11
1663.604381308551
 21
777.8889680787628
 31
0.0
  0
LINE
  5
8C5
330
1F
100
AcDbEntity
  8
OBRYS
100
AcDbLine
 10
1663.604381308551
 20
777.8889680787628
 30
0.0
 11
1663.247512308551
 21
777.8889680787628
 31
0.0
  0
LINE
  5
8C6
330
1F
100
AcDbEntity
  8
OBRYS
100
AcDbLine
 10
1663.247512308551
 20
777.8889680787628
 30
0.0
 11
1662.22487230855
 21
780.3889680787628
 31
0.0
  0
LINE
  5
8C7
330
1F
100
AcDbEntity
  8
OBRYS
100
AcDbLine
 10
1662.601567308551
 20
780.3889680787628
 30
0.0
 11
1662.22487230855
 21
780.3889680787628
 31
0.0
  0
LINE
  5
8C8
330
1F
100
AcDbEntity
  8
OBRYS
100
AcDbLine
 10
1662.89320130855
 20
779.6317410787627
 30
0.0
 11
1662.601567308551
 21
780.3889680787628
 31
0.0
  0
LINE
  5
8C9
330
1F
100
AcDbEntity
  8
OBRYS
100
AcDbLine
 10
1663.93822630855
 20
779.6317410787627
 30
0.0
 11
1662.89320130855
 21
779.6317410787627
 31
0.0
  0
LINE
  5
8CA
330
1F
100
AcDbEntity
  8
OBRYS
100
AcDbLine
 10
1663.93822630855
 20
779.6317410787627
 30
0.0
 11
1664.21323230855
 21
780.3889680787628
 31
0.0
  0
LINE
  5
8CB
330
1F
100
AcDbEntity
  8
OBRYS
100
AcDbLine
 10
1664.56434530855
 20
780.3889680787628
 30
0.0
 11
1664.21323230855
 21
780.3889680787628
 31
0.0
  0
LINE
  5
8CC
330
1F
100
AcDbEntity
  8
OBRYS
100
AcDbLine
 10
1663.840441046659
 20
779.3624900787628
 30
0.0
 11
1662.99689907175
 21
779.3624900787628
 31
0.0
  0
LINE
  5
8CD
330
1F
100
AcDbEntity
  8
OBRYS
100
AcDbLine
 10
1663.840441046659
 20
779.3624900787628
 30
0.0
 11
1663.431046891018
 21
778.2352262798163
 31
0.0
  0
LINE
  5
8CE
330
1F
100
AcDbEntity
  8
OBRYS
100
AcDbLine
 10
1662.99689907175
 20
779.3624900787628
 30
0.0
 11
1663.431046891018
 21
778.2352262798163
 31
0.0
  0
LINE
  5
8CF
330
1F
100
AcDbEntity
  8
OBRYS
100
AcDbLine
 10
1661.23548830855
 20
778.4332250787628
 30
0.0
 11
1661.23548830855
 21
780.3889680787628
 31
0.0
  0
LINE
  5
8D0
330
1F
100
AcDbEntity
  8
OBRYS
100
AcDbLine
 10
1661.23548830855
 20
780.3889680787628
 30
0.0
 11
1660.92850530855
 21
780.3889680787628
 31
0.0
  0
LINE
  5
8D1
330
1F
100
AcDbEntity
  8
OBRYS
100
AcDbLine
 10
1660.92850530855
 20
780.3889680787628
 30
0.0
 11
1660.92850530855
 21
777.8787350787628
 31
0.0
  0
LINE
  5
8D2
330
1F
100
AcDbEntity
  8
OBRYS
100
AcDbLine
 10
1661.12676530855
 20
777.8787350787628
 30
0.0
 11
1660.92850530855
 21
777.8787350787628
 31
0.0
  0
ARC
  5
8D3
330
1F
100
AcDbEntity
  8
OBRYS
100
AcDbCircle
 10
1662.494490370251
 20
777.0331995070472
 30
0.0
 40
1.607980798218968
100
AcDbArc
 50
113.6498010016168
 51
148.2754027327026
  0
ARC
  5
8D4
330
1F
100
AcDbEntity
  8
OBRYS
100
AcDbCircle
 10
1662.613058698506
 20
776.839913684943
 30
0.0
 40
2.106262418826162
100
AcDbArc
 50
111.2562102872037
 51
130.8465567023341
  0
LINE
  5
8D5
330
1F
100
AcDbEntity
  8
OBRYS
100
AcDbLine
 10
1661.849456308551
 20
778.5061330787628
 30
0.0
 11
1661.849456308551
 21
778.8028840787628
 31
0.0
  0
VIEWPORT
  5
7CA
330
7C6
100
AcDbEntity
 67
     1
  8
0
100
AcDbViewport
 10
0.0
 20
0.0
 30
0.0
 40
3.292303859740024
 41
1.818230784000001
 68
     2
 69
     1
1001
ACAD
1000
MVIEW
1002
{
1070
    16
1010
0.0
1020
0.0
1030
0.0
1010
0.0
1020
0.0
1030
1.0
1040
0.0
1040
1.818230784000001
1040
7.501163907021146
1040
2.656954698286121
1040
50.0
1040
0.0
1040
0.0
1070
    16
1070
   100
1070
     0
1070
     3
1070
     0
1070
     0
1070
     0
1070
     0
1040
0.0
1040
0.0
1040
0.0
1040
0.5
1040
0.5
1040
0.0
1040
0.0
1070
     0
1002
{
1002
}
1002
}
  0
VIEWPORT
  5
7CB
330
7C6
100
AcDbEntity
 67
     1
  8
0
100
AcDbViewport
 10
5.25
 20
3.5
 30
0.0
 40
8.4
 41
5.600000000000001
 68
     1
 69
     2
1001
ACAD
1000
MVIEW
1002
{
1070
    16
1010
-382.3320356935162
1020
93.22447742799386
1030
0.0
1010
0.0
1020
0.0
1030
1.0
1040
0.0
1040
747.6904058748053
1040
1633.216411007583
1040
792.93089591844
1040
50.0
1040
0.0
1040
0.0
1070
    16
1070
   100
1070
     0
1070
     3
1070
     0
1070
     0
1070
     0
1070
     0
1040
0.0
1040
0.0
1040
0.0
1040
0.5
1040
0.5
1040
0.0
1040
0.0
1070
     0
1002
{
1002
}
1002
}
  0
ENDSEC
  0
SECTION
  2
OBJECTS
  0
DICTIONARY
  5
C
330
0
100
AcDbDictionary
  3
ACAD_DETAILVIEWSTYLE
350
122
  3
ACAD_GROUP
350
D
  3
ACAD_IMAGE_VARS
350
DC
  3
ACAD_MLINESTYLE
350
17
  3
ACAD_SCALELIST
350
7D0
  3
ACAD_SECTIONVIEWSTYLE
350
123
  3
ACDBVARIABLEDICTIONARY
350
66
  3
APPDATA
350
E1
  3
DWGPROPS
350
8DB
  0
DICTIONARY
  5
771
330
2
100
AcDbDictionary
280
     1
  3
ACAD_LAYERSTATES
360
772
  3
ACLYDICTIONARY
360
77E
  0
DICTIONARY
  5
122
102
{ACAD_REACTORS
330
C
102
}
330
C
100
AcDbDictionary
  0
DICTIONARY
  5
D
102
{ACAD_REACTORS
330
C
102
}
330
C
100
AcDbDictionary
  0
RASTERVARIABLES
  5
DC
102
{ACAD_REACTORS
330
C
102
}
330
C
100
AcDbRasterVariables
 90
        0
 70
     1
 71
     1
 72
     5
  0
DICTIONARY
  5
17
102
{ACAD_REACTORS
330
C
102
}
330
C
100
AcDbDictionary
  3
STANDARD
350
18
  0
DICTIONARY
  5
7D0
102
{ACAD_REACTORS
330
C
102
}
330
C
100
AcDbDictionary
  0
DICTIONARY
  5
123
102
{ACAD_REACTORS
330
C
102
}
330
C
100
AcDbDictionary
  0
DICTIONARY
  5
66
102
{ACAD_REACTORS
330
C
102
}
330
C
100
AcDbDictionary
  3
DIMASSOC
350
67
  3
HIDETEXT
350
6B
  0
DICTIONARY
  5
E1
102
{ACAD_REACTORS
330
C
102
}
330
C
100
AcDbDictionary
  0
XRECORD
  5
8DB
102
{ACAD_REACTORS
330
C
102
}
330
C
100
AcDbXrecord
  1
DWGPROPS COOKIE
  2

  3

  4

  6

  7

  8
josef.knourek
  9

300
=
301
=
302
=
303
=
304
=
305
=
306
=
307
=
308
=
309
=
 40
0.0
 41
2452643.063384259
 42
2457675.325160602
  1

 90
        0
  0
DICTIONARY
  5
772
102
{ACAD_REACTORS
330
771
102
}
330
771
100
AcDbDictionary
  0
DICTIONARY
  5
77E
102
{ACAD_REACTORS
330
771
102
}
330
771
100
AcDbDictionary
1001
ACAD
1000
<All
  0
MLINESTYLE
  5
18
102
{ACAD_REACTORS
330
17
102
}
330
17
100
AcDbMlineStyle
  2
STANDARD
 70
     0
  3

 62
   256
 51
90.0
 52
90.0
 71
     2
 49
0.5
 62
   256
  6
BYLAYER
 49
-0.5
 62
   256
  6
BYLAYER
  0
DICTIONARYVAR
  5
67
102
{ACAD_REACTORS
330
66
102
}
330
66
100
DictionaryVariables
280
     0
  1
2
  0
DICTIONARYVAR
  5
6B
102
{ACAD_REACTORS
330
66
102
}
330
66
100
DictionaryVariables
280
     0
  1
1
  0
ENDSEC
  0
EOF
