  0
SECTION
  2
HEADER
  9
$ACADVER
  1
AC1014
  9
$ACADMAINTVER
 70
     9
  9
$DWGCODEPAGE
  3
ANSI_1250
  9
$INSBASE
 10
0.0
 20
0.0
 30
0.0
  9
$EXTMIN
 10
58.00567225178921
 20
43.88157417337499
 30
0.0
  9
$EXTMAX
 10
150.2568801721982
 20
129.7975631154309
 30
0.0
  9
$LIMMIN
 10
0.0
 20
0.0
  9
$LIMMAX
 10
12.0
 20
9.0
  9
$ORTHOMODE
 70
     0
  9
$REGENMODE
 70
     1
  9
$FILLMODE
 70
     1
  9
$QTEXTMODE
 70
     0
  9
$MIRRTEXT
 70
     0
  9
$DRAGMODE
 70
     2
  9
$LTSCALE
 40
1.0
  9
$OSMODE
 70
 15359
  9
$ATTMODE
 70
     1
  9
$TEXTSIZE
 40
0.2
  9
$TRACEWID
 40
0.05
  9
$TEXTSTYLE
  7
STANDARD
  9
$CLAYER
  8
0
  9
$CELTYPE
  6
BYLAYER
  9
$CECOLOR
 62
   256
  9
$CELTSCALE
 40
1.0
  9
$DELOBJ
 70
     1
  9
$DISPSILH
 70
     0
  9
$DIMSCALE
 40
1.0
  9
$DIMASZ
 40
0.18
  9
$DIMEXO
 40
0.0625
  9
$DIMDLI
 40
0.38
  9
$DIMRND
 40
0.0
  9
$DIMDLE
 40
0.0
  9
$DIMEXE
 40
0.18
  9
$DIMTP
 40
0.0
  9
$DIMTM
 40
0.0
  9
$DIMTXT
 40
0.18
  9
$DIMCEN
 40
0.09
  9
$DIMTSZ
 40
0.0
  9
$DIMTOL
 70
     0
  9
$DIMLIM
 70
     0
  9
$DIMTIH
 70
     1
  9
$DIMTOH
 70
     1
  9
$DIMSE1
 70
     0
  9
$DIMSE2
 70
     0
  9
$DIMTAD
 70
     0
  9
$DIMZIN
 70
     0
  9
$DIMBLK
  1

  9
$DIMASO
 70
     1
  9
$DIMSHO
 70
     1
  9
$DIMPOST
  1

  9
$DIMAPOST
  1

  9
$DIMALT
 70
     0
  9
$DIMALTD
 70
     2
  9
$DIMALTF
 40
25.4
  9
$DIMLFAC
 40
1.0
  9
$DIMTOFL
 70
     0
  9
$DIMTVP
 40
0.0
  9
$DIMTIX
 70
     0
  9
$DIMSOXD
 70
     0
  9
$DIMSAH
 70
     0
  9
$DIMBLK1
  1

  9
$DIMBLK2
  1

  9
$DIMSTYLE
  2
STANDARD
  9
$DIMCLRD
 70
     0
  9
$DIMCLRE
 70
     0
  9
$DIMCLRT
 70
     0
  9
$DIMTFAC
 40
1.0
  9
$DIMGAP
 40
0.09
  9
$DIMJUST
 70
     0
  9
$DIMSD1
 70
     0
  9
$DIMSD2
 70
     0
  9
$DIMTOLJ
 70
     1
  9
$DIMTZIN
 70
     0
  9
$DIMALTZ
 70
     0
  9
$DIMALTTZ
 70
     0
  9
$DIMFIT
 70
     5
  9
$DIMUPT
 70
     0
  9
$DIMUNIT
 70
     2
  9
$DIMDEC
 70
     4
  9
$DIMTDEC
 70
     4
  9
$DIMALTU
 70
     2
  9
$DIMALTTD
 70
     2
  9
$DIMTXSTY
  7
STANDARD
  9
$DIMAUNIT
 70
     0
  9
$LUNITS
 70
     2
  9
$LUPREC
 70
     4
  9
$SKETCHINC
 40
0.1
  9
$FILLETRAD
 40
0.0
  9
$AUNITS
 70
     0
  9
$AUPREC
 70
     0
  9
$MENU
  1
.
  9
$ELEVATION
 40
0.0
  9
$PELEVATION
 40
0.0
  9
$THICKNESS
 40
0.0
  9
$LIMCHECK
 70
     0
  9
$CHAMFERA
 40
0.0
  9
$CHAMFERB
 40
0.0
  9
$CHAMFERC
 40
0.0
  9
$CHAMFERD
 40
0.0
  9
$SKPOLY
 70
     0
  9
$TDCREATE
 40
2452643.105050926
  9
$TDUPDATE
 40
2456765.303538345
  9
$TDINDWG
 40
0.0055161806
  9
$TDUSRTIMER
 40
2456765.219816794
  9
$USRTIMER
 70
     1
  9
$ANGBASE
 50
0.0
  9
$ANGDIR
 70
     0
  9
$PDMODE
 70
     0
  9
$PDSIZE
 40
0.0
  9
$PLINEWID
 40
0.0
  9
$COORDS
 70
     2
  9
$SPLFRAME
 70
     0
  9
$SPLINETYPE
 70
     6
  9
$SPLINESEGS
 70
     8
  9
$ATTDIA
 70
     0
  9
$ATTREQ
 70
     1
  9
$HANDLING
 70
     1
  9
$HANDSEED
  5
37A
  9
$SURFTAB1
 70
     6
  9
$SURFTAB2
 70
     6
  9
$SURFTYPE
 70
     6
  9
$SURFU
 70
     6
  9
$SURFV
 70
     6
  9
$UCSNAME
  2

  9
$UCSORG
 10
0.0
 20
0.0
 30
0.0
  9
$UCSXDIR
 10
1.0
 20
0.0
 30
0.0
  9
$UCSYDIR
 10
0.0
 20
1.0
 30
0.0
  9
$PUCSNAME
  2

  9
$PUCSORG
 10
0.0
 20
0.0
 30
0.0
  9
$PUCSXDIR
 10
1.0
 20
0.0
 30
0.0
  9
$PUCSYDIR
 10
0.0
 20
1.0
 30
0.0
  9
$USERI1
 70
     0
  9
$USERI2
 70
     0
  9
$USERI3
 70
     0
  9
$USERI4
 70
     0
  9
$USERI5
 70
     0
  9
$USERR1
 40
0.0
  9
$USERR2
 40
0.0
  9
$USERR3
 40
0.0
  9
$USERR4
 40
0.0
  9
$USERR5
 40
0.0
  9
$WORLDVIEW
 70
     1
  9
$SHADEDGE
 70
     3
  9
$SHADEDIF
 70
    70
  9
$TILEMODE
 70
     0
  9
$MAXACTVP
 70
    64
  9
$PINSBASE
 10
0.0
 20
0.0
 30
0.0
  9
$PLIMCHECK
 70
     0
  9
$PEXTMIN
 10
1.05
 20
0.7999999999999998
 30
0.0
  9
$PEXTMAX
 10
9.45
 20
7.2
 30
0.0
  9
$PLIMMIN
 10
0.8500000000000006
 20
0.5999999999999998
  9
$PLIMMAX
 10
9.650000000000002
 20
7.4
  9
$UNITMODE
 70
     0
  9
$VISRETAIN
 70
     1
  9
$PLINEGEN
 70
     0
  9
$PSLTSCALE
 70
     1
  9
$TREEDEPTH
 70
  3020
  9
$PICKSTYLE
 70
     0
  9
$CMLSTYLE
  2
STANDARD
  9
$CMLJUST
 70
     0
  9
$CMLSCALE
 40
1.0
  9
$PROXYGRAPHICS
 70
     1
  9
$MEASUREMENT
 70
     0
  0
ENDSEC
  0
SECTION
  2
CLASSES
  0
CLASS
  1
ACDBDICTIONARYWDFLT
  2
AcDbDictionaryWithDefault
  3
ObjectDBX Classes
 90
        0
280
     0
281
     0
  0
CLASS
  1
ACDBPLACEHOLDER
  2
AcDbPlaceHolder
  3
ObjectDBX Classes
 90
        0
280
     0
281
     0
  0
CLASS
  1
LAYOUT
  2
AcDbLayout
  3
ObjectDBX Classes
 90
        0
280
     0
281
     0
  0
CLASS
  1
DICTIONARYVAR
  2
AcDbDictionaryVar
  3
ObjectDBX Classes
 90
        0
280
     0
281
     0
  0
CLASS
  1
TABLESTYLE
  2
AcDbTableStyle
  3
ObjectDBX Classes
 90
     4095
280
     0
281
     0
  0
CLASS
  1
MATERIAL
  2
AcDbMaterial
  3
ObjectDBX Classes
 90
     1153
280
     0
281
     0
  0
CLASS
  1
VISUALSTYLE
  2
AcDbVisualStyle
  3
ObjectDBX Classes
 90
     4095
280
     0
281
     0
  0
CLASS
  1
SCALE
  2
AcDbScale
  3
ObjectDBX Classes
 90
     1153
280
     0
281
     0
  0
CLASS
  1
CELLSTYLEMAP
  2
AcDbCellStyleMap
  3
ObjectDBX Classes
 90
     1152
280
     0
281
     0
  0
CLASS
  1
RASTERVARIABLES
  2
AcDbRasterVariables
  3
ISM
 90
        0
280
     0
281
     0
  0
CLASS
  1
SUN
  2
AcDbSun
  3
SCENEOE
 90
     1153
280
     0
281
     0
  0
CLASS
  1
DIMASSOC
  2
AcDbDimAssoc
  3
"AcDbDimAssoc|Product Desc:     AcDim ARX App For Dimension|Company:          Autodesk, Inc.|WEB Address:      www.autodesk.com"
 90
        0
280
     0
281
     0
  0
CLASS
  1
XRECORD
  2
AcDbXrecord
  3
ObjectDBX Classes
 90
        0
280
     0
281
     0
  0
CLASS
  1
LWPOLYLINE
  2
AcDbPolyline
  3
ObjectDBX Classes
 90
        0
280
     0
281
     1
  0
CLASS
  1
HATCH
  2
AcDbHatch
  3
ObjectDBX Classes
 90
        0
280
     0
281
     1
  0
ENDSEC
  0
SECTION
  2
TABLES
  0
TABLE
  2
VPORT
  5
8
330
0
100
AcDbSymbolTable
 70
     1
  0
VPORT
  5
94
330
8
100
AcDbSymbolTableRecord
100
AcDbViewportTableRecord
  2
*ACTIVE
 70
     0
 10
0.0
 20
0.0
 11
1.0
 21
1.0
 12
140.2324575038759
 22
108.9008395206892
 13
0.0
 23
0.0
 14
0.5
 24
0.5
 15
0.5
 25
0.5
 16
0.0
 26
0.0
 36
1.0
 17
-27.66959356597989
 27
-19.5387029578622
 37
0.0
 40
111.4227421997543
 41
1.259351620947631
 42
50.0
 43
0.0
 44
0.0
 50
0.0
 51
0.0
 71
    16
 72
  1000
 73
     1
 74
     3
 75
     0
 76
     0
 77
     0
 78
     0
  0
ENDTAB
  0
TABLE
  2
LTYPE
  5
5
330
0
100
AcDbSymbolTable
 70
     1
  0
LTYPE
  5
14
330
5
100
AcDbSymbolTableRecord
100
AcDbLinetypeTableRecord
  2
BYBLOCK
 70
     0
  3

 72
    65
 73
     0
 40
0.0
  0
LTYPE
  5
15
330
5
100
AcDbSymbolTableRecord
100
AcDbLinetypeTableRecord
  2
BYLAYER
 70
     0
  3

 72
    65
 73
     0
 40
0.0
  0
LTYPE
  5
16
330
5
100
AcDbSymbolTableRecord
100
AcDbLinetypeTableRecord
  2
CONTINUOUS
 70
     0
  3
Solid line
 72
    65
 73
     0
 40
0.0
  0
ENDTAB
  0
TABLE
  2
LAYER
  5
2
330
0
100
AcDbSymbolTable
 70
     4
  0
LAYER
  5
10
330
2
100
AcDbSymbolTableRecord
100
AcDbLayerTableRecord
  2
0
 70
     0
 62
     7
  6
CONTINUOUS
  0
LAYER
  5
125
330
2
100
AcDbSymbolTableRecord
100
AcDbLayerTableRecord
  2
DEFPOINTS
 70
     0
 62
     7
  6
CONTINUOUS
  0
LAYER
  5
126
330
2
100
AcDbSymbolTableRecord
100
AcDbLayerTableRecord
  2
OBRYS
 70
     0
 62
     5
  6
CONTINUOUS
  0
LAYER
  5
128
330
2
100
AcDbSymbolTableRecord
100
AcDbLayerTableRecord
  2
KOTY
 70
     0
 62
     1
  6
CONTINUOUS
  0
ENDTAB
  0
TABLE
  2
STYLE
  5
3
330
0
100
AcDbSymbolTable
 70
     1
  0
STYLE
  5
11
330
3
100
AcDbSymbolTableRecord
100
AcDbTextStyleTableRecord
  2
STANDARD
 70
     0
 40
0.0
 41
1.0
 50
0.0
 71
     0
 42
0.2
  3
arial.ttf
  4

1001
ACAD
1000
Arial
1071
        0
  0
ENDTAB
  0
TABLE
  2
VIEW
  5
6
330
0
100
AcDbSymbolTable
 70
     0
  0
ENDTAB
  0
TABLE
  2
UCS
  5
7
330
0
100
AcDbSymbolTable
 70
     0
  0
ENDTAB
  0
TABLE
  2
APPID
  5
9
330
0
100
AcDbSymbolTable
 70
     1
  0
APPID
  5
12
330
9
100
AcDbSymbolTableRecord
100
AcDbRegAppTableRecord
  2
ACAD
 70
     0
  0
ENDTAB
  0
TABLE
  2
DIMSTYLE
  5
A
330
0
100
AcDbSymbolTable
 70
     2
  0
DIMSTYLE
105
27
330
A
100
AcDbSymbolTableRecord
100
AcDbDimStyleTableRecord
  2
STANDARD
 70
     0
  3

  4

  5

  6

  7

 40
1.0
 41
0.18
 42
0.0625
 43
0.38
 44
0.18
 45
0.0
 46
0.0
 47
0.0
 48
0.0
140
0.18
141
0.09
142
0.0
143
25.4
144
1.0
145
0.0
146
1.0
147
0.09
 71
     0
 72
     0
 73
     1
 74
     1
 75
     0
 76
     0
 77
     0
 78
     0
170
     0
171
     2
172
     0
173
     0
174
     0
175
     0
176
     0
177
     0
178
     0
270
     2
271
     4
272
     4
273
     2
274
     2
340
11
275
     0
280
     0
281
     0
282
     0
283
     1
284
     0
285
     0
286
     0
287
     3
288
     0
  0
DIMSTYLE
105
129
102
{ACAD_REACTORS
330
300
330
303
330
306
102
}
330
A
100
AcDbSymbolTableRecord
100
AcDbDimStyleTableRecord
  2
ISO-25
 70
     0
  3

  4

  5

  6

  7

 40
1.0
 41
6.0
 42
0.0
 43
3.75
 44
1.25
 45
0.0
 46
0.0
 47
0.0
 48
0.0
140
3.0
141
2.5
142
0.0
143
0.03937007874016
144
1.0
145
0.0
146
1.0
147
0.625
 71
     0
 72
     0
 73
     0
 74
     1
 75
     0
 76
     0
 77
     1
 78
     8
170
     0
171
     3
172
     1
173
     0
174
     0
175
     0
176
     5
177
     5
178
     5
270
     2
271
     4
272
     4
273
     2
274
     2
340
11
275
     0
280
     0
281
     0
282
     0
283
     1
284
     0
285
     0
286
     0
287
     3
288
     0
  0
ENDTAB
  0
TABLE
  2
BLOCK_RECORD
  5
1
330
0
100
AcDbSymbolTable
 70
     4
  0
BLOCK_RECORD
  5
1F
330
1
100
AcDbSymbolTableRecord
100
AcDbBlockTableRecord
  2
*MODEL_SPACE
  0
BLOCK_RECORD
  5
58
330
1
100
AcDbSymbolTableRecord
100
AcDbBlockTableRecord
  2
*PAPER_SPACE
  0
BLOCK_RECORD
  5
5D
330
1
100
AcDbSymbolTableRecord
100
AcDbBlockTableRecord
  2
*PAPER_SPACE0
  0
BLOCK_RECORD
  5
30B
330
1
100
AcDbSymbolTableRecord
100
AcDbBlockTableRecord
  2
*D1
  0
BLOCK_RECORD
  5
317
330
1
100
AcDbSymbolTableRecord
100
AcDbBlockTableRecord
  2
*D2
  0
BLOCK_RECORD
  5
323
330
1
100
AcDbSymbolTableRecord
100
AcDbBlockTableRecord
  2
*D3
  0
ENDTAB
  0
ENDSEC
  0
SECTION
  2
BLOCKS
  0
BLOCK
  5
20
330
1F
100
AcDbEntity
  8
0
100
AcDbBlockBegin
  2
*MODEL_SPACE
 70
     0
 10
0.0
 20
0.0
 30
0.0
  3
*MODEL_SPACE
  1

  0
ENDBLK
  5
21
330
1F
100
AcDbEntity
  8
0
100
AcDbBlockEnd
  0
BLOCK
  5
5A
330
58
100
AcDbEntity
 67
     1
  8
0
100
AcDbBlockBegin
  2
*PAPER_SPACE
 70
     0
 10
0.0
 20
0.0
 30
0.0
  3
*PAPER_SPACE
  1

  0
ENDBLK
  5
5B
330
58
100
AcDbEntity
 67
     1
  8
0
100
AcDbBlockEnd
  0
BLOCK
  5
5F
330
5D
100
AcDbEntity
  8
0
100
AcDbBlockBegin
  2
*PAPER_SPACE0
 70
     0
 10
0.0
 20
0.0
 30
0.0
  3
*PAPER_SPACE0
  1
*PAPER_SPACE0
  0
ENDBLK
  5
60
330
5D
100
AcDbEntity
  8
0
100
AcDbBlockEnd
  0
BLOCK
  5
30C
330
30B
100
AcDbEntity
  8
0
100
AcDbBlockBegin
  2
*D1
 70
     1
 10
0.0
 20
0.0
 30
0.0
  3
*D1
  1
*D5
  0
LINE
  5
30E
330
30B
100
AcDbEntity
  8
KOTY
100
AcDbLine
 10
133.2570565002328
 20
72.99753464705788
 30
0.0
 11
133.2570565002328
 21
43.88157417337499
 31
0.0
  0
LINE
  5
30F
330
30B
100
AcDbEntity
  8
KOTY
100
AcDbLine
 10
150.2568801721982
 20
72.99753464705788
 30
0.0
 11
150.2568801721982
 21
43.88157417337499
 31
0.0
  0
LINE
  5
310
330
30B
100
AcDbEntity
  8
KOTY
100
AcDbLine
 10
137.2570565002328
 20
45.13157417337499
 30
0.0
 11
146.2568801721982
 21
45.13157417337499
 31
0.0
  0
SOLID
  5
311
330
30B
100
AcDbEntity
  8
KOTY
100
AcDbTrace
 10
137.2570565002328
 20
45.79824084004165
 30
0.0
 11
137.2570565002328
 21
44.46490750670832
 31
0.0
 12
133.2570565002328
 22
45.13157417337499
 32
0.0
 13
133.2570565002328
 23
45.13157417337499
 33
0.0
  0
SOLID
  5
312
330
30B
100
AcDbEntity
  8
KOTY
100
AcDbTrace
 10
146.2568801721982
 20
44.46490750670832
 30
0.0
 11
146.2568801721982
 21
45.79824084004165
 31
0.0
 12
150.2568801721982
 22
45.13157417337499
 32
0.0
 13
150.2568801721982
 23
45.13157417337499
 33
0.0
  0
MTEXT
  5
313
330
30B
100
AcDbEntity
  8
KOTY
100
AcDbMText
 10
141.7569683362155
 20
48.13957417337499
 30
0.0
 40
4.0
 41
0.0
 71
     5
 72
     1
  1
\A1;17
  0
POINT
  5
314
330
30B
100
AcDbEntity
  8
DEFPOINTS
 62
     0
100
AcDbPoint
 10
133.2570565002328
 20
72.99753464705788
 30
0.0
  0
POINT
  5
315
330
30B
100
AcDbEntity
  8
DEFPOINTS
 62
     0
100
AcDbPoint
 10
150.2568801721982
 20
72.99753464705788
 30
0.0
  0
POINT
  5
316
330
30B
100
AcDbEntity
  8
DEFPOINTS
 62
     0
100
AcDbPoint
 10
150.2568801721982
 20
45.13157417337499
 30
0.0
  0
ENDBLK
  5
30D
330
30B
100
AcDbEntity
  8
0
100
AcDbBlockEnd
  0
BLOCK
  5
318
330
317
100
AcDbEntity
  8
0
100
AcDbBlockBegin
  2
*D2
 70
     1
 10
0.0
 20
0.0
 30
0.0
  3
*D2
  1
*D6
  0
LINE
  5
31A
330
317
100
AcDbEntity
  8
KOTY
100
AcDbLine
 10
88.50348798941081
 20
129.7975631154309
 30
0.0
 11
62.5676722517892
 21
129.7975631154309
 31
0.0
  0
LINE
  5
31B
330
317
100
AcDbEntity
  8
KOTY
100
AcDbLine
 10
87.49549902593117
 20
67.19765913350994
 30
0.0
 11
62.56767225178919
 21
67.19765913350994
 31
0.0
  0
LINE
  5
31C
330
317
100
AcDbEntity
  8
KOTY
100
AcDbLine
 10
63.8176722517892
 20
125.7975631154309
 30
0.0
 11
63.81767225178919
 21
71.19765913350994
 31
0.0
  0
SOLID
  5
31D
330
317
100
AcDbEntity
  8
KOTY
100
AcDbTrace
 10
64.48433891845586
 20
125.7975631154309
 30
0.0
 11
63.15100558512253
 21
125.7975631154309
 31
0.0
 12
63.8176722517892
 22
129.7975631154309
 32
0.0
 13
63.8176722517892
 23
129.7975631154309
 33
0.0
  0
SOLID
  5
31E
330
317
100
AcDbEntity
  8
KOTY
100
AcDbTrace
 10
63.15100558512253
 20
71.19765913350994
 30
0.0
 11
64.48433891845586
 21
71.19765913350994
 31
0.0
 12
63.81767225178919
 22
67.19765913350994
 32
0.0
 13
63.81767225178919
 23
67.19765913350994
 33
0.0
  0
MTEXT
  5
31F
330
317
100
AcDbEntity
  8
KOTY
100
AcDbMText
 10
60.41567225178919
 20
98.49761112447044
 30
0.0
 40
4.0
 41
0.0
 71
     5
 72
     1
  1
\A1;62,6
 11
1.135054034532236E-16
 21
1.0
 31
0.0
  0
POINT
  5
320
330
317
100
AcDbEntity
  8
DEFPOINTS
 62
     0
100
AcDbPoint
 10
88.50348798941081
 20
129.7975631154309
 30
0.0
  0
POINT
  5
321
330
317
100
AcDbEntity
  8
DEFPOINTS
 62
     0
100
AcDbPoint
 10
87.49549902593117
 20
67.19765913350994
 30
0.0
  0
POINT
  5
322
330
317
100
AcDbEntity
  8
DEFPOINTS
 62
     0
100
AcDbPoint
 10
63.81767225178919
 20
67.19765913350994
 30
0.0
  0
ENDBLK
  5
319
330
317
100
AcDbEntity
  8
0
100
AcDbBlockEnd
  0
BLOCK
  5
324
330
323
100
AcDbEntity
  8
0
100
AcDbBlockBegin
  2
*D3
 70
     1
 10
0.0
 20
0.0
 30
0.0
  3
*D3
  1
*D7
  0
LINE
  5
326
330
323
100
AcDbEntity
  8
KOTY
100
AcDbLine
 10
80.00345950833787
 20
72.49752922133581
 30
0.0
 11
80.00345950833787
 21
43.88157417337499
 31
0.0
  0
LINE
  5
327
330
323
100
AcDbEntity
  8
KOTY
100
AcDbLine
 10
112.0035734326295
 20
72.49752922133581
 30
0.0
 11
112.0035734326295
 21
43.88157417337499
 31
0.0
  0
LINE
  5
328
330
323
100
AcDbEntity
  8
KOTY
100
AcDbLine
 10
84.00345950833787
 20
45.13157417337499
 30
0.0
 11
108.0035734326295
 21
45.13157417337499
 31
0.0
  0
SOLID
  5
329
330
323
100
AcDbEntity
  8
KOTY
100
AcDbTrace
 10
84.00345950833787
 20
45.79824084004165
 30
0.0
 11
84.00345950833787
 21
44.46490750670832
 31
0.0
 12
80.00345950833787
 22
45.13157417337499
 32
0.0
 13
80.00345950833787
 23
45.13157417337499
 33
0.0
  0
SOLID
  5
32A
330
323
100
AcDbEntity
  8
KOTY
100
AcDbTrace
 10
108.0035734326295
 20
44.46490750670832
 30
0.0
 11
108.0035734326295
 21
45.79824084004165
 31
0.0
 12
112.0035734326295
 22
45.13157417337499
 32
0.0
 13
112.0035734326295
 23
45.13157417337499
 33
0.0
  0
MTEXT
  5
32B
330
323
100
AcDbEntity
  8
KOTY
100
AcDbMText
 10
96.0035164704837
 20
48.17357417337499
 30
0.0
 40
4.0
 41
0.0
 71
     5
 72
     1
  1
\A1;DD25 54
  0
POINT
  5
32C
330
323
100
AcDbEntity
  8
DEFPOINTS
 62
     0
100
AcDbPoint
 10
80.00345950833787
 20
72.49752922133581
 30
0.0
  0
POINT
  5
32D
330
323
100
AcDbEntity
  8
DEFPOINTS
 62
     0
100
AcDbPoint
 10
112.0035734326295
 20
72.49752922133581
 30
0.0
  0
POINT
  5
32E
330
323
100
AcDbEntity
  8
DEFPOINTS
 62
     0
100
AcDbPoint
 10
112.0035734326295
 20
45.13157417337499
 30
0.0
  0
ENDBLK
  5
325
330
323
100
AcDbEntity
  8
0
100
AcDbBlockEnd
  0
ENDSEC
  0
SECTION
  2
ENTITIES
  0
LINE
  5
23D
330
1F
100
AcDbEntity
  8
OBRYS
100
AcDbLine
 10
148.1570944739385
 20
80.89753328824582
 30
0.0
 11
148.1570944739385
 21
74.49757940529781
 31
0.0
  0
LINE
  5
23E
330
1F
100
AcDbEntity
  8
OBRYS
100
AcDbLine
 10
148.1570944739385
 20
122.4975780369608
 30
0.0
 11
148.1570944739385
 21
116.0974518992378
 31
0.0
  0
LINE
  5
23F
330
1F
100
AcDbEntity
  8
OBRYS
100
AcDbLine
 10
135.3568421984927
 20
80.89753328824582
 30
0.0
 11
135.3568421984927
 21
74.49757940529781
 31
0.0
  0
LINE
  5
240
330
1F
100
AcDbEntity
  8
OBRYS
100
AcDbLine
 10
135.3568421984927
 20
122.4975780369608
 30
0.0
 11
135.3568421984927
 21
116.0974518992378
 31
0.0
  0
LINE
  5
241
330
1F
100
AcDbEntity
  8
OBRYS
100
AcDbLine
 10
139.5918980785103
 20
67.49748988881885
 30
0.0
 11
143.9220385939209
 21
67.49748988881885
 31
0.0
  0
LINE
  5
242
330
1F
100
AcDbEntity
  8
OBRYS
100
AcDbLine
 10
139.5918980785103
 20
73.4974681859299
 30
0.0
 11
143.9220385939209
 21
73.4974681859299
 31
0.0
  0
LINE
  5
243
330
1F
100
AcDbEntity
  8
OBRYS
100
AcDbLine
 10
146.0569642661303
 20
80.89753328824582
 30
0.0
 11
144.7567852299969
 21
82.89758347220783
 31
0.0
  0
LINE
  5
244
330
1F
100
AcDbEntity
  8
OBRYS
100
AcDbLine
 10
138.7568069328858
 20
82.89758347220783
 30
0.0
 11
144.7567852299969
 21
82.89758347220783
 31
0.0
  0
LINE
  5
245
330
1F
100
AcDbEntity
  8
OBRYS
100
AcDbLine
 10
137.0228903751595
 20
81.69748445992178
 30
0.0
 11
138.3227249017443
 21
83.69753464388288
 31
0.0
  0
LINE
  5
246
330
1F
100
AcDbEntity
  8
OBRYS
100
AcDbLine
 10
138.3227249017443
 20
83.69753464388288
 30
0.0
 11
145.1912117706869
 21
83.69753464388288
 31
0.0
  0
LINE
  5
247
330
1F
100
AcDbEntity
  8
OBRYS
100
AcDbLine
 10
145.1912117706869
 20
83.69753464388288
 30
0.0
 11
146.4910462972716
 21
81.69748445992178
 31
0.0
  0
LINE
  5
248
330
1F
100
AcDbEntity
  8
OBRYS
100
AcDbLine
 10
137.0228903751595
 20
81.69748445992178
 30
0.0
 11
137.6936504661377
 21
81.26150762626281
 31
0.0
  0
LINE
  5
249
330
1F
100
AcDbEntity
  8
OBRYS
100
AcDbLine
 10
146.4910462972716
 20
81.69748445992178
 30
0.0
 11
145.8202862062935
 21
81.26150762626281
 31
0.0
  0
LINE
  5
24A
330
1F
100
AcDbEntity
  8
OBRYS
100
AcDbLine
 10
139.5068042200247
 20
85.49759703492697
 30
0.0
 11
139.5068042200247
 21
83.69753464388288
 31
0.0
  0
LINE
  5
24B
330
1F
100
AcDbEntity
  8
OBRYS
100
AcDbLine
 10
139.5068042200247
 20
83.69753464388288
 30
0.0
 11
144.006787942858
 21
83.69753464388288
 31
0.0
  0
LINE
  5
24C
330
1F
100
AcDbEntity
  8
OBRYS
100
AcDbLine
 10
144.006787942858
 20
83.69753464388288
 30
0.0
 11
144.006787942858
 21
85.49759703492697
 31
0.0
  0
LINE
  5
24E
330
1F
100
AcDbEntity
  8
OBRYS
100
AcDbLine
 10
139.5068042200247
 20
85.49759703492697
 30
0.0
 11
144.006787942858
 21
85.49759703492697
 31
0.0
  0
LINE
  5
251
330
1F
100
AcDbEntity
  8
OBRYS
100
AcDbLine
 10
140.5069154393926
 20
123.4975170015549
 30
0.0
 11
140.5069154393926
 21
125.0216272442299
 31
0.0
  0
LINE
  5
252
330
1F
100
AcDbEntity
  8
OBRYS
100
AcDbLine
 10
140.5069154393926
 20
125.0216272442299
 30
0.0
 11
140.7828675877611
 21
125.2975793925978
 31
0.0
  0
LINE
  5
253
330
1F
100
AcDbEntity
  8
OBRYS
100
AcDbLine
 10
140.7828675877611
 20
125.2975793925978
 30
0.0
 11
142.7310690846699
 21
125.2975793925978
 31
0.0
  0
LINE
  5
254
330
1F
100
AcDbEntity
  8
OBRYS
100
AcDbLine
 10
142.7310690846699
 20
125.2975793925978
 30
0.0
 11
143.0070212330384
 21
125.0216272442299
 31
0.0
  0
LINE
  5
255
330
1F
100
AcDbEntity
  8
OBRYS
100
AcDbLine
 10
143.0070212330384
 20
125.0216272442299
 30
0.0
 11
143.0070212330384
 21
123.4975170015549
 31
0.0
  0
LINE
  5
257
330
1F
100
AcDbEntity
  8
OBRYS
100
AcDbLine
 10
144.006787942858
 20
111.497560407333
 30
0.0
 11
139.5068042200247
 21
111.497560407333
 31
0.0
  0
LINE
  5
258
330
1F
100
AcDbEntity
  8
OBRYS
100
AcDbLine
 10
139.5068042200247
 20
111.497560407333
 30
0.0
 11
139.5068042200247
 21
113.2976227983759
 31
0.0
  0
LINE
  5
259
330
1F
100
AcDbEntity
  8
OBRYS
100
AcDbLine
 10
139.5068042200247
 20
113.2976227983759
 30
0.0
 11
144.006787942858
 21
113.2976227983759
 31
0.0
  0
LINE
  5
25A
330
1F
100
AcDbEntity
  8
OBRYS
100
AcDbLine
 10
144.006787942858
 20
113.2976227983759
 30
0.0
 11
144.006787942858
 21
111.497560407333
 31
0.0
  0
LINE
  5
25B
330
1F
100
AcDbEntity
  8
OBRYS
100
AcDbLine
 10
146.4910462972716
 20
115.2975007275639
 30
0.0
 11
145.8202862062935
 21
115.7334775612219
 31
0.0
  0
LINE
  5
25C
330
1F
100
AcDbEntity
  8
OBRYS
100
AcDbLine
 10
137.0228903751595
 20
115.2975007275639
 30
0.0
 11
137.6936504661377
 21
115.7334775612219
 31
0.0
  0
LINE
  5
25D
330
1F
100
AcDbEntity
  8
OBRYS
100
AcDbLine
 10
145.1912117706869
 20
113.2976227983759
 30
0.0
 11
146.4910462972716
 21
115.2975007275639
 31
0.0
  0
LINE
  5
25E
330
1F
100
AcDbEntity
  8
OBRYS
100
AcDbLine
 10
138.3227249017443
 20
113.2976227983759
 30
0.0
 11
145.1912117706869
 21
113.2976227983759
 31
0.0
  0
LINE
  5
25F
330
1F
100
AcDbEntity
  8
OBRYS
100
AcDbLine
 10
137.0228903751595
 20
115.2975007275639
 30
0.0
 11
138.3227249017443
 21
113.2976227983759
 31
0.0
  0
LINE
  5
260
330
1F
100
AcDbEntity
  8
OBRYS
100
AcDbLine
 10
138.7568069328858
 20
114.097573970051
 30
0.0
 11
144.7567852299969
 21
114.097573970051
 31
0.0
  0
LINE
  5
261
330
1F
100
AcDbEntity
  8
OBRYS
100
AcDbLine
 10
146.0569642661303
 20
116.0974518992378
 30
0.0
 11
148.1570944739385
 21
116.0974518992378
 31
0.0
  0
LINE
  5
262
330
1F
100
AcDbEntity
  8
OBRYS
100
AcDbLine
 10
135.3568421984927
 20
116.0974518992378
 30
0.0
 11
137.456972406301
 21
116.0974518992378
 31
0.0
  0
LINE
  5
263
330
1F
100
AcDbEntity
  8
OBRYS
100
AcDbLine
 10
146.0569642661303
 20
116.0974518992378
 30
0.0
 11
144.7567852299969
 21
114.097573970051
 31
0.0
  0
LINE
  5
264
330
1F
100
AcDbEntity
  8
OBRYS
100
AcDbLine
 10
137.456972406301
 20
116.0974518992378
 30
0.0
 11
138.7568069328858
 21
114.097573970051
 31
0.0
  0
LINE
  5
265
330
1F
100
AcDbEntity
  8
OBRYS
100
AcDbLine
 10
148.2570022430108
 20
74.49757940529781
 30
0.0
 11
148.2570022430108
 21
72.99758483101988
 31
0.0
  0
LINE
  5
266
330
1F
100
AcDbEntity
  8
OBRYS
100
AcDbLine
 10
148.2570022430108
 20
123.9975726112389
 30
0.0
 11
148.2570022430108
 21
122.4975780369608
 31
0.0
  0
LINE
  5
267
330
1F
100
AcDbEntity
  8
OBRYS
100
AcDbLine
 10
135.2569344294203
 20
74.49757940529781
 30
0.0
 11
135.2569344294203
 21
72.99758483101988
 31
0.0
  0
LINE
  5
268
330
1F
100
AcDbEntity
  8
OBRYS
100
AcDbLine
 10
135.2569344294203
 20
123.9975726112389
 30
0.0
 11
135.2569344294203
 21
122.4975780369608
 31
0.0
  0
LINE
  5
269
330
1F
100
AcDbEntity
  8
OBRYS
100
AcDbLine
 10
133.2570565002328
 20
74.49757940529781
 30
0.0
 11
150.2568801721982
 21
74.49757940529781
 31
0.0
  0
LINE
  5
26A
330
1F
100
AcDbEntity
  8
OBRYS
100
AcDbLine
 10
133.2570565002328
 20
122.4975780369608
 30
0.0
 11
150.2568801721982
 21
122.4975780369608
 31
0.0
  0
LINE
  5
26B
330
1F
100
AcDbEntity
  8
OBRYS
100
AcDbLine
 10
137.6569045895357
 20
67.19759432682787
 30
0.0
 11
145.8570320828953
 21
67.19759432682787
 31
0.0
  0
LINE
  5
26C
330
1F
100
AcDbEntity
  8
OBRYS
100
AcDbLine
 10
146.3570320828953
 20
73.4974681859299
 30
0.0
 11
146.3570320828953
 21
67.69759432682787
 31
0.0
  0
LINE
  5
26D
330
1F
100
AcDbEntity
  8
OBRYS
100
AcDbLine
 10
137.1569045895357
 20
73.4974681859299
 30
0.0
 11
137.1569045895357
 21
67.69759432682787
 31
0.0
  0
LINE
  5
26E
330
1F
100
AcDbEntity
  8
OBRYS
100
AcDbLine
 10
138.2570402230663
 20
129.7975631154309
 30
0.0
 11
145.2568964493648
 21
129.7975631154309
 31
0.0
  0
LINE
  5
26F
330
1F
100
AcDbEntity
  8
OBRYS
100
AcDbLine
 10
145.7568964493648
 20
129.2975631154309
 30
0.0
 11
145.7568964493648
 21
123.4975170015549
 31
0.0
  0
LINE
  5
270
330
1F
100
AcDbEntity
  8
OBRYS
100
AcDbLine
 10
137.7570402230663
 20
129.2975631154309
 30
0.0
 11
137.7570402230663
 21
123.4975170015549
 31
0.0
  0
LINE
  5
271
330
1F
100
AcDbEntity
  8
OBRYS
100
AcDbLine
 10
147.2568910236427
 20
70.99753464705788
 30
0.0
 11
148.2568801721982
 21
70.99753464705788
 31
0.0
  0
LINE
  5
272
330
1F
100
AcDbEntity
  8
OBRYS
100
AcDbLine
 10
135.2570565002328
 20
70.99753464705788
 30
0.0
 11
136.2570456487884
 21
70.99753464705788
 31
0.0
  0
LINE
  5
273
330
1F
100
AcDbEntity
  8
OBRYS
100
AcDbLine
 10
147.2568910236427
 20
125.9976227952009
 30
0.0
 11
148.2568801721982
 21
125.9976227952009
 31
0.0
  0
LINE
  5
274
330
1F
100
AcDbEntity
  8
OBRYS
100
AcDbLine
 10
135.2570565002328
 20
125.9976227952009
 30
0.0
 11
136.2570456487884
 21
125.9976227952009
 31
0.0
  0
LINE
  5
275
330
1F
100
AcDbEntity
  8
OBRYS
100
AcDbLine
 10
135.2569344294203
 20
73.4974681859299
 30
0.0
 11
148.2570022430108
 21
73.4974681859299
 31
0.0
  0
LINE
  5
276
330
1F
100
AcDbEntity
  8
OBRYS
100
AcDbLine
 10
135.2569344294203
 20
123.4975170015549
 30
0.0
 11
148.2570022430108
 21
123.4975170015549
 31
0.0
  0
LINE
  5
277
330
1F
100
AcDbEntity
  8
OBRYS
100
AcDbLine
 10
147.2568910236427
 20
123.9975726112389
 30
0.0
 11
147.2568910236427
 21
125.9976227952009
 31
0.0
  0
LINE
  5
278
330
1F
100
AcDbEntity
  8
OBRYS
100
AcDbLine
 10
147.2568910236427
 20
70.99753464705788
 30
0.0
 11
147.2568910236427
 21
72.99758483101988
 31
0.0
  0
LINE
  5
279
330
1F
100
AcDbEntity
  8
OBRYS
100
AcDbLine
 10
136.2570456487884
 20
123.9975726112389
 30
0.0
 11
136.2570456487884
 21
125.9976227952009
 31
0.0
  0
LINE
  5
27A
330
1F
100
AcDbEntity
  8
OBRYS
100
AcDbLine
 10
136.2570456487884
 20
70.99753464705788
 30
0.0
 11
136.2570456487884
 21
72.99758483101988
 31
0.0
  0
LINE
  5
27B
330
1F
100
AcDbEntity
  8
OBRYS
100
AcDbLine
 10
147.2568910236427
 20
123.9975726112389
 30
0.0
 11
148.2570022430108
 21
123.9975726112389
 31
0.0
  0
LINE
  5
27C
330
1F
100
AcDbEntity
  8
OBRYS
100
AcDbLine
 10
135.2569344294203
 20
123.9975726112389
 30
0.0
 11
136.2570456487884
 21
123.9975726112389
 31
0.0
  0
LINE
  5
27D
330
1F
100
AcDbEntity
  8
OBRYS
100
AcDbLine
 10
147.2568910236427
 20
72.99758483101988
 30
0.0
 11
148.2570022430108
 21
72.99758483101988
 31
0.0
  0
LINE
  5
27E
330
1F
100
AcDbEntity
  8
OBRYS
100
AcDbLine
 10
135.2569344294203
 20
72.99758483101988
 30
0.0
 11
136.2570456487884
 21
72.99758483101988
 31
0.0
  0
LINE
  5
27F
330
1F
100
AcDbEntity
  8
OBRYS
100
AcDbLine
 10
150.2568801721982
 20
72.99753464705788
 30
0.0
 11
150.2568801721982
 21
123.9976227952009
 31
0.0
  0
LINE
  5
280
330
1F
100
AcDbEntity
  8
OBRYS
100
AcDbLine
 10
133.2570565002328
 20
72.99753464705788
 30
0.0
 11
133.2570565002328
 21
123.9976227952009
 31
0.0
  0
LINE
  5
281
330
1F
100
AcDbEntity
  8
OBRYS
100
AcDbLine
 10
102.503550377279
 20
125.9973158256428
 30
0.0
 11
89.50348256368864
 21
125.9976227952009
 31
0.0
  0
LINE
  5
282
330
1F
100
AcDbEntity
  8
OBRYS
100
AcDbLine
 10
87.50354902481718
 20
67.19759432682787
 30
0.0
 11
104.5034839161503
 21
67.19759432682787
 31
0.0
  0
LINE
  5
283
330
1F
100
AcDbEntity
  8
OBRYS
100
AcDbLine
 10
88.50348798941081
 20
129.7975631154309
 30
0.0
 11
103.5035449515567
 21
129.7975631154309
 31
0.0
  0
LINE
  5
284
330
1F
100
AcDbEntity
  8
OBRYS
100
AcDbLine
 10
80.83837839918829
 20
66.49755092422475
 30
0.0
 11
85.16869116937312
 21
66.49755092422475
 31
0.0
  0
LINE
  5
285
330
1F
100
AcDbEntity
  8
OBRYS
100
AcDbLine
 10
80.83837839918829
 20
72.49752922133581
 30
0.0
 11
85.16869116937312
 21
72.49752922133581
 31
0.0
  0
LINE
  5
286
330
1F
100
AcDbEntity
  8
OBRYS
100
AcDbLine
 10
106.8385140263687
 20
66.49755092422475
 30
0.0
 11
111.1686545417793
 21
66.49755092422475
 31
0.0
  0
LINE
  5
287
330
1F
100
AcDbEntity
  8
OBRYS
100
AcDbLine
 10
106.8385140263687
 20
72.49752922133581
 30
0.0
 11
111.1686545417793
 21
72.49752922133581
 31
0.0
  0
LINE
  5
288
330
1F
100
AcDbEntity
  8
OBRYS
100
AcDbLine
 10
108.7035164673089
 20
83.29755905804592
 30
0.0
 11
108.7035164673089
 21
82.5975156554428
 31
0.0
  0
LINE
  5
289
330
1F
100
AcDbEntity
  8
OBRYS
100
AcDbLine
 10
108.7035164673089
 20
82.5975156554428
 30
0.0
 11
109.3034798460651
 21
82.5975156554428
 31
0.0
  0
LINE
  5
28A
330
1F
100
AcDbEntity
  8
OBRYS
100
AcDbLine
 10
109.3034798460651
 20
82.5975156554428
 30
0.0
 11
109.3034798460651
 21
83.29755905804592
 31
0.0
  0
LINE
  5
28B
330
1F
100
AcDbEntity
  8
OBRYS
100
AcDbLine
 10
106.7535924226574
 20
83.29755905804592
 30
0.0
 11
106.7535924226574
 21
81.49749666700296
 31
0.0
  0
LINE
  5
28C
330
1F
100
AcDbEntity
  8
OBRYS
100
AcDbLine
 10
106.7535924226574
 20
81.49749666700296
 30
0.0
 11
111.2535761454908
 21
81.49749666700296
 31
0.0
  0
LINE
  5
28D
330
1F
100
AcDbEntity
  8
OBRYS
100
AcDbLine
 10
111.2535761454908
 20
81.49749666700296
 30
0.0
 11
111.2535761454908
 21
83.29755905804592
 31
0.0
  0
LINE
  5
28E
330
1F
100
AcDbEntity
  8
OBRYS
100
AcDbLine
 10
111.2535761454908
 20
83.29755905804592
 30
0.0
 11
109.3034798460651
 21
83.29755905804592
 31
0.0
  0
LINE
  5
28F
330
1F
100
AcDbEntity
  8
OBRYS
100
AcDbLine
 10
106.7535924226574
 20
83.29755905804592
 30
0.0
 11
108.7035164673089
 21
83.29755905804592
 31
0.0
  0
LINE
  5
290
330
1F
100
AcDbEntity
  8
OBRYS
100
AcDbLine
 10
82.70355309490242
 20
83.29755905804592
 30
0.0
 11
82.70355309490242
 21
82.5975156554428
 31
0.0
  0
LINE
  5
291
330
1F
100
AcDbEntity
  8
OBRYS
100
AcDbLine
 10
82.70355309490242
 20
82.5975156554428
 30
0.0
 11
83.30351647365865
 21
82.5975156554428
 31
0.0
  0
LINE
  5
292
330
1F
100
AcDbEntity
  8
OBRYS
100
AcDbLine
 10
83.30351647365865
 20
82.5975156554428
 30
0.0
 11
83.30351647365865
 21
83.29755905804592
 31
0.0
  0
LINE
  5
293
330
1F
100
AcDbEntity
  8
OBRYS
100
AcDbLine
 10
80.75345679547684
 20
83.29755905804592
 30
0.0
 11
80.75345679547684
 21
81.49749666700296
 31
0.0
  0
LINE
  5
294
330
1F
100
AcDbEntity
  8
OBRYS
100
AcDbLine
 10
80.75345679547684
 20
81.49749666700296
 30
0.0
 11
85.2534405183103
 21
81.49749666700296
 31
0.0
  0
LINE
  5
295
330
1F
100
AcDbEntity
  8
OBRYS
100
AcDbLine
 10
85.2534405183103
 20
81.49749666700296
 30
0.0
 11
85.2534405183103
 21
83.29755905804592
 31
0.0
  0
LINE
  5
296
330
1F
100
AcDbEntity
  8
OBRYS
100
AcDbLine
 10
85.2534405183103
 20
83.29755905804592
 30
0.0
 11
83.30351647365865
 21
83.29755905804592
 31
0.0
  0
LINE
  5
297
330
1F
100
AcDbEntity
  8
OBRYS
100
AcDbLine
 10
80.75345679547684
 20
83.29755905804592
 30
0.0
 11
82.70355309490242
 21
83.29755905804592
 31
0.0
  0
LINE
  5
298
330
1F
100
AcDbEntity
  8
OBRYS
100
AcDbLine
 10
107.7535313872512
 20
124.4976282209228
 30
0.0
 11
107.7535313872512
 21
127.2214929663349
 31
0.0
  0
LINE
  5
299
330
1F
100
AcDbEntity
  8
OBRYS
100
AcDbLine
 10
107.7535313872512
 20
127.2214929663349
 30
0.0
 11
108.0294835356195
 21
127.4976173694789
 31
0.0
  0
LINE
  5
29A
330
1F
100
AcDbEntity
  8
OBRYS
100
AcDbLine
 10
108.0294835356195
 20
127.4976173694789
 30
0.0
 11
109.9775127777541
 21
127.4976173694789
 31
0.0
  0
LINE
  5
29B
330
1F
100
AcDbEntity
  8
OBRYS
100
AcDbLine
 10
109.9775127777541
 20
127.4976173694789
 30
0.0
 11
110.2534649261228
 21
127.2214929663349
 31
0.0
  0
LINE
  5
29C
330
1F
100
AcDbEntity
  8
OBRYS
100
AcDbLine
 10
110.2534649261228
 20
127.2214929663349
 30
0.0
 11
110.2534649261228
 21
124.4976282209228
 31
0.0
  0
LINE
  5
29D
330
1F
100
AcDbEntity
  8
OBRYS
100
AcDbLine
 10
81.75356801484475
 20
124.4976282209228
 30
0.0
 11
81.75356801484475
 21
127.2214929663349
 31
0.0
  0
LINE
  5
29E
330
1F
100
AcDbEntity
  8
OBRYS
100
AcDbLine
 10
81.75356801484475
 20
127.2214929663349
 30
0.0
 11
82.0295201632133
 21
127.4976173694789
 31
0.0
  0
LINE
  5
29F
330
1F
100
AcDbEntity
  8
OBRYS
100
AcDbLine
 10
82.0295201632133
 20
127.4976173694789
 30
0.0
 11
83.97754940534799
 21
127.4976173694789
 31
0.0
  0
LINE
  5
2A0
330
1F
100
AcDbEntity
  8
OBRYS
100
AcDbLine
 10
83.97754940534799
 20
127.4976173694789
 30
0.0
 11
84.25350155371643
 21
127.2214929663349
 31
0.0
  0
LINE
  5
2A1
330
1F
100
AcDbEntity
  8
OBRYS
100
AcDbLine
 10
84.25350155371643
 20
127.2214929663349
 30
0.0
 11
84.25350155371643
 21
124.4976282209228
 31
0.0
  0
LINE
  5
2A2
330
1F
100
AcDbEntity
  8
OBRYS
100
AcDbLine
 10
80.75345679547684
 20
113.6975983842138
 30
0.0
 11
82.70355309490242
 21
113.6975983842138
 31
0.0
  0
LINE
  5
2A3
330
1F
100
AcDbEntity
  8
OBRYS
100
AcDbLine
 10
85.2534405183103
 20
113.6975983842138
 30
0.0
 11
83.30351647365865
 21
113.6975983842138
 31
0.0
  0
LINE
  5
2A4
330
1F
100
AcDbEntity
  8
OBRYS
100
AcDbLine
 10
80.75345679547684
 20
113.6975983842138
 30
0.0
 11
80.75345679547684
 21
115.4974885204818
 31
0.0
  0
LINE
  5
2A5
330
1F
100
AcDbEntity
  8
OBRYS
100
AcDbLine
 10
80.75345679547684
 20
115.4974885204818
 30
0.0
 11
85.2534405183103
 21
115.4974885204818
 31
0.0
  0
LINE
  5
2A6
330
1F
100
AcDbEntity
  8
OBRYS
100
AcDbLine
 10
85.2534405183103
 20
115.4974885204818
 30
0.0
 11
85.2534405183103
 21
113.6975983842138
 31
0.0
  0
LINE
  5
2A7
330
1F
100
AcDbEntity
  8
OBRYS
100
AcDbLine
 10
82.70355309490242
 20
113.6975983842138
 30
0.0
 11
82.70355309490242
 21
114.397469532042
 31
0.0
  0
LINE
  5
2A8
330
1F
100
AcDbEntity
  8
OBRYS
100
AcDbLine
 10
82.70355309490242
 20
114.397469532042
 30
0.0
 11
83.30351647365865
 21
114.397469532042
 31
0.0
  0
LINE
  5
2A9
330
1F
100
AcDbEntity
  8
OBRYS
100
AcDbLine
 10
83.30351647365865
 20
114.397469532042
 30
0.0
 11
83.30351647365865
 21
113.6975983842138
 31
0.0
  0
LINE
  5
2AA
330
1F
100
AcDbEntity
  8
OBRYS
100
AcDbLine
 10
106.7535924226574
 20
113.6975983842138
 30
0.0
 11
108.7035164673089
 21
113.6975983842138
 31
0.0
  0
LINE
  5
2AB
330
1F
100
AcDbEntity
  8
OBRYS
100
AcDbLine
 10
111.2535761454908
 20
113.6975983842138
 30
0.0
 11
109.3034798460651
 21
113.6975983842138
 31
0.0
  0
LINE
  5
2AC
330
1F
100
AcDbEntity
  8
OBRYS
100
AcDbLine
 10
106.7535924226574
 20
113.6975983842138
 30
0.0
 11
106.7535924226574
 21
115.4974885204818
 31
0.0
  0
LINE
  5
2AD
330
1F
100
AcDbEntity
  8
OBRYS
100
AcDbLine
 10
106.7535924226574
 20
115.4974885204818
 30
0.0
 11
111.2535761454908
 21
115.4974885204818
 31
0.0
  0
LINE
  5
2AE
330
1F
100
AcDbEntity
  8
OBRYS
100
AcDbLine
 10
111.2535761454908
 20
115.4974885204818
 30
0.0
 11
111.2535761454908
 21
113.6975983842138
 31
0.0
  0
LINE
  5
2AF
330
1F
100
AcDbEntity
  8
OBRYS
100
AcDbLine
 10
108.7035164673089
 20
113.6975983842138
 30
0.0
 11
108.7035164673089
 21
114.397469532042
 31
0.0
  0
LINE
  5
2B0
330
1F
100
AcDbEntity
  8
OBRYS
100
AcDbLine
 10
108.7035164673089
 20
114.397469532042
 30
0.0
 11
109.3034798460651
 21
114.397469532042
 31
0.0
  0
LINE
  5
2B1
330
1F
100
AcDbEntity
  8
OBRYS
100
AcDbLine
 10
109.3034798460651
 20
114.397469532042
 30
0.0
 11
109.3034798460651
 21
113.6975983842138
 31
0.0
  0
LINE
  5
2B2
330
1F
100
AcDbEntity
  8
OBRYS
100
AcDbLine
 10
112.0035734326295
 20
81.49749666700296
 30
0.0
 11
112.0035734326295
 21
72.49752922133581
 31
0.0
  0
LINE
  5
2B3
330
1F
100
AcDbEntity
  8
OBRYS
100
AcDbLine
 10
80.00345950833787
 20
81.49749666700296
 30
0.0
 11
80.00345950833787
 21
72.49752922133581
 31
0.0
  0
LINE
  5
2B4
330
1F
100
AcDbEntity
  8
OBRYS
100
AcDbLine
 10
112.0035734326295
 20
115.4974885204818
 30
0.0
 11
112.0035734326295
 21
124.4976282209228
 31
0.0
  0
LINE
  5
2B5
330
1F
100
AcDbEntity
  8
OBRYS
100
AcDbLine
 10
80.00345950833787
 20
115.4974885204818
 30
0.0
 11
80.00345950833787
 21
124.4976282209228
 31
0.0
  0
LINE
  5
2B6
330
1F
100
AcDbEntity
  8
OBRYS
100
AcDbLine
 10
106.0035951355185
 20
81.49749666700296
 30
0.0
 11
112.0035734326295
 21
81.49749666700296
 31
0.0
  0
LINE
  5
2B7
330
1F
100
AcDbEntity
  8
OBRYS
100
AcDbLine
 10
86.00361006022331
 20
81.49749666700296
 30
0.0
 11
80.00345950833787
 21
81.49749666700296
 31
0.0
  0
LINE
  5
2B8
330
1F
100
AcDbEntity
  8
OBRYS
100
AcDbLine
 10
86.00361006022331
 20
115.4974885204818
 30
0.0
 11
80.00345950833787
 21
115.4974885204818
 31
0.0
  0
LINE
  5
2B9
330
1F
100
AcDbEntity
  8
OBRYS
100
AcDbLine
 10
106.0035951355185
 20
115.4974885204818
 30
0.0
 11
112.0035734326295
 21
115.4974885204818
 31
0.0
  0
LINE
  5
2BA
330
1F
100
AcDbEntity
  8
OBRYS
100
AcDbLine
 10
105.0034839161503
 20
72.49752922133581
 30
0.0
 11
105.0034839161503
 21
67.69759432682787
 31
0.0
  0
LINE
  5
2BB
330
1F
100
AcDbEntity
  8
OBRYS
100
AcDbLine
 10
87.00354902481718
 20
72.49752922133581
 30
0.0
 11
87.00354902481718
 21
67.69759432682787
 31
0.0
  0
LINE
  5
2BC
330
1F
100
AcDbEntity
  8
OBRYS
100
AcDbLine
 10
104.0035449515567
 20
129.2975631154309
 30
0.0
 11
104.0035449515567
 21
124.4976282209228
 31
0.0
  0
LINE
  5
2BD
330
1F
100
AcDbEntity
  8
OBRYS
100
AcDbLine
 10
88.00348798941081
 20
129.2975631154309
 30
0.0
 11
88.00348798941081
 21
124.4976282209228
 31
0.0
  0
LINE
  5
2BE
330
1F
100
AcDbEntity
  8
OBRYS
100
AcDbLine
 10
88.4527533595558
 20
73.4974681859299
 30
0.0
 11
80.00345950833787
 21
73.4974681859299
 31
0.0
  0
LINE
  5
2C0
330
1F
100
AcDbEntity
  8
OBRYS
100
AcDbLine
 10
103.5539599907315
 20
73.4974681859299
 30
0.0
 11
112.0035734326295
 21
73.4974681859299
 31
0.0
  0
LINE
  5
2C1
330
1F
100
AcDbEntity
  8
OBRYS
100
AcDbLine
 10
103.5539599907315
 20
123.4975170015549
 30
0.0
 11
112.0035734326295
 21
123.4975170015549
 31
0.0
  0
LINE
  5
2C4
330
1F
100
AcDbEntity
  8
OBRYS
100
AcDbLine
 10
88.45307295023599
 20
123.4975170015549
 30
0.0
 11
80.00345950833787
 21
123.4975170015549
 31
0.0
  0
LINE
  5
2C5
330
1F
100
AcDbEntity
  8
OBRYS
100
AcDbLine
 10
106.0035951355185
 20
79.49744648304096
 30
0.0
 11
112.0035734326295
 21
79.49744648304096
 31
0.0
  0
LINE
  5
2C6
330
1F
100
AcDbEntity
  8
OBRYS
100
AcDbLine
 10
102.8411697348334
 20
72.49752922133581
 30
0.0
 11
112.0035734326295
 21
72.49752922133581
 31
0.0
  0
LINE
  5
2C7
330
1F
100
AcDbEntity
  8
OBRYS
100
AcDbLine
 10
89.1658632061343
 20
72.49752922133581
 30
0.0
 11
80.00345950833787
 21
72.49752922133581
 31
0.0
  0
LINE
  5
2C8
330
1F
100
AcDbEntity
  8
OBRYS
100
AcDbLine
 10
86.00361006022331
 20
79.49744648304096
 30
0.0
 11
80.00345950833787
 21
79.49744648304096
 31
0.0
  0
LINE
  5
2C9
330
1F
100
AcDbEntity
  8
OBRYS
100
AcDbLine
 10
86.00361006022331
 20
117.4975387044438
 30
0.0
 11
80.00345950833787
 21
117.4975387044438
 31
0.0
  0
LINE
  5
2CA
330
1F
100
AcDbEntity
  8
OBRYS
100
AcDbLine
 10
89.1658632061343
 20
124.4976282209228
 30
0.0
 11
80.00345950833787
 21
124.4976282209228
 31
0.0
  0
LINE
  5
2CB
330
1F
100
AcDbEntity
  8
OBRYS
100
AcDbLine
 10
102.8411697348334
 20
124.4976282209228
 30
0.0
 11
112.0035734326295
 21
124.4976282209228
 31
0.0
  0
LINE
  5
2CC
330
1F
100
AcDbEntity
  8
OBRYS
100
AcDbLine
 10
106.0035951355185
 20
117.4975387044438
 30
0.0
 11
112.0035734326295
 21
117.4975387044438
 31
0.0
  0
LINE
  5
2CD
330
1F
100
AcDbEntity
  8
OBRYS
100
AcDbLine
 10
106.0035951355185
 20
74.49757940529781
 30
0.0
 11
106.0035951355185
 21
122.4975780369608
 31
0.0
  0
LINE
  5
2CE
330
1F
100
AcDbEntity
  8
OBRYS
100
AcDbLine
 10
86.00361006022331
 20
122.4975780369608
 30
0.0
 11
86.00361006022331
 21
74.49757940529781
 31
0.0
  0
LINE
  5
2CF
330
1F
100
AcDbEntity
  8
OBRYS
100
AcDbLine
 10
135.3568421984927
 20
80.89753328824582
 30
0.0
 11
137.456972406301
 21
80.89753328824582
 31
0.0
  0
LINE
  5
2D0
330
1F
100
AcDbEntity
  8
OBRYS
100
AcDbLine
 10
137.456972406301
 20
80.89753328824582
 30
0.0
 11
138.7568069328858
 21
82.89758347220783
 31
0.0
  0
LINE
  5
2D1
330
1F
100
AcDbEntity
  8
OBRYS
100
AcDbLine
 10
146.0569642661303
 20
80.89753328824582
 30
0.0
 11
148.1570944739385
 21
80.89753328824582
 31
0.0
  0
LINE
  5
2D2
330
1F
100
AcDbEntity
  8
OBRYS
100
AcDbLine
 10
81.57090571984281
 20
72.17231582564301
 30
0.0
 11
81.57090571984281
 21
66.82731582564276
 31
0.0
  0
LINE
  5
2D3
330
1F
100
AcDbEntity
  8
OBRYS
100
AcDbLine
 10
84.4469057198429
 20
72.1673158256429
 30
0.0
 11
84.4469057198429
 21
66.82731582564276
 31
0.0
  0
LINE
  5
2D4
330
1F
100
AcDbEntity
  8
OBRYS
100
AcDbLine
 10
85.88990571984289
 20
72.1673158256429
 30
0.0
 11
85.88990571984289
 21
66.82731582564276
 31
0.0
  0
LINE
  5
2D5
330
1F
100
AcDbEntity
  8
OBRYS
100
AcDbLine
 10
80.12190571984286
 20
72.1673158256429
 30
0.0
 11
80.12190571984286
 21
66.82731582564276
 31
0.0
  0
ARC
  5
2D6
330
1F
100
AcDbEntity
  8
OBRYS
100
AcDbCircle
 10
80.84640571984289
 20
67.45824824293828
 30
0.0
 40
0.9607163812460083
100
AcDbArc
 50
221.0510490557354
 51
318.9489509442646
  0
ARC
  5
2D7
330
1F
100
AcDbEntity
  8
OBRYS
100
AcDbCircle
 10
83.0089057198428
 20
69.79772027805717
 30
0.0
 40
3.300173724355028
100
AcDbArc
 50
244.1679508106602
 51
295.8320491893415
  0
ARC
  5
2D8
330
1F
100
AcDbEntity
  8
OBRYS
100
AcDbCircle
 10
85.1684057198429
 20
67.45172624127605
 30
0.0
 40
0.9541753597485784
100
AcDbArc
 50
220.8740163792783
 51
319.1259836207217
  0
ARC
  5
2D9
330
1F
100
AcDbEntity
  8
OBRYS
100
AcDbCircle
 10
80.84860328124535
 20
71.53296253122113
 30
0.0
 40
0.9646208829856827
100
AcDbArc
 50
41.51397204939528
 51
138.8814423889004
  0
ARC
  5
2DA
330
1F
100
AcDbEntity
  8
OBRYS
100
AcDbCircle
 10
83.00370552503432
 20
69.17866377186107
 30
0.0
 40
3.318865453866678
100
AcDbArc
 50
64.22441242313825
 51
115.5763674037399
  0
ARC
  5
2DB
330
1F
100
AcDbEntity
  8
OBRYS
100
AcDbCircle
 10
85.1684057198429
 20
71.54420167099153
 30
0.0
 40
0.95332759307957
100
AcDbArc
 50
40.81510744955779
 51
139.1848925504422
  0
ARC
  5
2DC
330
1F
100
AcDbEntity
  8
OBRYS
100
AcDbCircle
 10
86.00348256368864
 20
70.99757940529781
 30
0.0
 40
3.5
100
AcDbArc
 50
0.0
 51
90.0
  0
ARC
  5
2DD
330
1F
100
AcDbEntity
  8
OBRYS
100
AcDbCircle
 10
106.003550377279
 20
70.99757940529781
 30
0.0
 40
3.5
100
AcDbArc
 50
90.0
 51
180.0
  0
ARC
  5
2DE
330
1F
100
AcDbEntity
  8
OBRYS
100
AcDbCircle
 10
87.50354902481718
 20
67.69759432682787
 30
0.0
 40
0.5000000000000002
100
AcDbArc
 50
180.0
 51
270.0
  0
ARC
  5
2DF
330
1F
100
AcDbEntity
  8
OBRYS
100
AcDbCircle
 10
104.5034839161503
 20
67.69759432682787
 30
0.0
 40
0.5000000000000002
100
AcDbArc
 50
270.0
 51
0.0
  0
LINE
  5
2E0
330
1F
100
AcDbEntity
  8
OBRYS
100
AcDbLine
 10
106.1169057198429
 20
72.1673158256429
 30
0.0
 11
106.1169057198429
 21
66.82731582564276
 31
0.0
  0
LINE
  5
2E1
330
1F
100
AcDbEntity
  8
OBRYS
100
AcDbLine
 10
107.5599057198428
 20
72.1673158256429
 30
0.0
 11
107.5599057198428
 21
66.82731582564276
 31
0.0
  0
LINE
  5
2E2
330
1F
100
AcDbEntity
  8
OBRYS
100
AcDbLine
 10
110.4469057198429
 20
72.1673158256429
 30
0.0
 11
110.4469057198429
 21
66.82731582564276
 31
0.0
  0
LINE
  5
2E3
330
1F
100
AcDbEntity
  8
OBRYS
100
AcDbLine
 10
111.8899057198429
 20
66.82731582564276
 30
0.0
 11
111.8899057198429
 21
72.1673158256429
 31
0.0
  0
ARC
  5
2E4
330
1F
100
AcDbEntity
  8
OBRYS
100
AcDbCircle
 10
106.8384057198429
 20
67.45172636482067
 30
0.0
 40
0.9541754405959334
100
AcDbArc
 50
220.8740219888072
 51
319.1259780111927
  0
ARC
  5
2E5
330
1F
100
AcDbEntity
  8
OBRYS
100
AcDbCircle
 10
109.0034057198428
 20
69.8217935875503
 30
0.0
 40
3.324242668121379
100
AcDbArc
 50
244.2634223940653
 51
295.7365776059364
  0
ARC
  5
2E6
330
1F
100
AcDbEntity
  8
OBRYS
100
AcDbCircle
 10
111.1684057198429
 20
67.45172627094718
 30
0.0
 40
0.9541753791653045
100
AcDbArc
 50
220.8740177264924
 51
319.1259822735076
  0
ARC
  5
2E7
330
1F
100
AcDbEntity
  8
OBRYS
100
AcDbCircle
 10
106.8384057198429
 20
71.54420156537645
 30
0.0
 40
0.9533276621117162
100
AcDbArc
 50
40.81511225353025
 51
139.1848877464697
  0
ARC
  5
2E8
330
1F
100
AcDbEntity
  8
OBRYS
100
AcDbCircle
 10
109.0034057198428
 20
69.17735333899651
 30
0.0
 40
3.320175887141009
100
AcDbArc
 50
64.22958710694613
 51
115.7704128930522
  0
ARC
  5
2E9
330
1F
100
AcDbEntity
  8
OBRYS
100
AcDbCircle
 10
111.1684057198429
 20
71.54420164136064
 30
0.0
 40
0.9533276124469133
100
AcDbArc
 50
40.81510879733845
 51
139.1848912026616
  0
ARC
  5
2EA
330
1F
100
AcDbEntity
  8
OBRYS
100
AcDbCircle
 10
86.00348256368864
 20
125.9975780369608
 30
0.0
 40
3.5
100
AcDbArc
 50
270.0
 51
0.0
  0
ARC
  5
2EB
330
1F
100
AcDbEntity
  8
OBRYS
100
AcDbCircle
 10
106.003550377279
 20
125.9973158256428
 30
0.0
 40
3.5
100
AcDbArc
 50
180.0
 51
270.0
  0
ARC
  5
2EC
330
1F
100
AcDbEntity
  8
OBRYS
100
AcDbCircle
 10
88.50348798941081
 20
129.2975631154309
 30
0.0
 40
0.5000000000000002
100
AcDbArc
 50
90.0
 51
180.0
  0
ARC
  5
2ED
330
1F
100
AcDbEntity
  8
OBRYS
100
AcDbCircle
 10
103.5035449515567
 20
129.2975631154309
 30
0.0
 40
0.5000000000000002
100
AcDbArc
 50
0.0
 51
90.0
  0
ARC
  5
2EE
330
1F
100
AcDbEntity
  8
OBRYS
100
AcDbCircle
 10
138.2570402230663
 20
129.2975631154309
 30
0.0
 40
0.5000000000000002
100
AcDbArc
 50
90.0
 51
180.0
  0
ARC
  5
2EF
330
1F
100
AcDbEntity
  8
OBRYS
100
AcDbCircle
 10
145.2568964493648
 20
129.2975631154309
 30
0.0
 40
0.5000000000000002
100
AcDbArc
 50
0.0
 51
90.0
  0
ARC
  5
2F0
330
1F
100
AcDbEntity
  8
OBRYS
100
AcDbCircle
 10
137.6569045895357
 20
67.69759432682787
 30
0.0
 40
0.5000000000000002
100
AcDbArc
 50
180.0
 51
270.0
  0
ARC
  5
2F1
330
1F
100
AcDbEntity
  8
OBRYS
100
AcDbCircle
 10
145.8570320828953
 20
67.69759432682787
 30
0.0
 40
0.5000000000000002
100
AcDbArc
 50
270.0
 51
0.0
  0
ARC
  5
2F2
330
1F
100
AcDbEntity
  8
OBRYS
100
AcDbCircle
 10
135.2570565002328
 20
123.9976227952009
 30
0.0
 40
2.000000000000001
100
AcDbArc
 50
90.0
 51
180.0
  0
ARC
  5
2F3
330
1F
100
AcDbEntity
  8
OBRYS
100
AcDbCircle
 10
148.2568801721982
 20
123.9976227952009
 30
0.0
 40
2.000000000000001
100
AcDbArc
 50
0.0
 51
90.0
  0
ARC
  5
2F4
330
1F
100
AcDbEntity
  8
OBRYS
100
AcDbCircle
 10
135.2570565002328
 20
72.99753464705788
 30
0.0
 40
2.000000000000001
100
AcDbArc
 50
180.0
 51
270.0
  0
ARC
  5
2F5
330
1F
100
AcDbEntity
  8
OBRYS
100
AcDbCircle
 10
148.2568801721982
 20
72.99753464705788
 30
0.0
 40
2.000000000000001
100
AcDbArc
 50
270.0
 51
0.0
  0
LINE
  5
2F6
330
1F
100
AcDbEntity
  8
OBRYS
100
AcDbLine
 10
138.8699057198429
 20
73.1673158256429
 30
0.0
 11
138.8699057198429
 21
67.82731582564276
 31
0.0
  0
LINE
  5
2F7
330
1F
100
AcDbEntity
  8
OBRYS
100
AcDbLine
 10
140.3139057198428
 20
67.82731582564276
 30
0.0
 11
140.3139057198429
 21
73.1673158256429
 31
0.0
  0
LINE
  5
2F8
330
1F
100
AcDbEntity
  8
OBRYS
100
AcDbLine
 10
143.1999057198428
 20
67.82731582564276
 30
0.0
 11
143.1999057198429
 21
73.1673158256429
 31
0.0
  0
LINE
  5
2F9
330
1F
100
AcDbEntity
  8
OBRYS
100
AcDbLine
 10
144.6439057198429
 20
73.1673158256429
 30
0.0
 11
144.6439057198429
 21
67.82731582564276
 31
0.0
  0
ARC
  5
2FA
330
1F
100
AcDbEntity
  8
OBRYS
100
AcDbCircle
 10
139.5919057198428
 20
68.45264392341443
 30
0.0
 40
0.955154034626114
100
AcDbArc
 50
220.8960136105563
 51
319.1039863894437
  0
ARC
  5
2FB
330
1F
100
AcDbEntity
  8
OBRYS
100
AcDbCircle
 10
141.7569057198428
 20
70.8189905654786
 30
0.0
 40
3.32150067724999
100
AcDbArc
 50
244.2501956676898
 51
295.7498043323082
  0
ARC
  5
2FC
330
1F
100
AcDbEntity
  8
OBRYS
100
AcDbCircle
 10
143.9219057198429
 20
68.45264389673827
 30
0.0
 40
0.9551540171617172
100
AcDbArc
 50
220.8960124009625
 51
319.1039875990375
  0
ARC
  5
2FD
330
1F
100
AcDbEntity
  8
OBRYS
100
AcDbCircle
 10
139.5919057198429
 20
72.54293225531165
 30
0.0
 40
0.9545359306487977
100
AcDbArc
 50
40.85315789460826
 51
139.1468421053918
  0
ARC
  5
2FE
330
1F
100
AcDbEntity
  8
OBRYS
100
AcDbCircle
 10
141.756905719843
 20
70.17892523324969
 30
0.0
 40
3.318542953270992
100
AcDbArc
 50
64.22556195709363
 51
115.774438042908
  0
ARC
  5
2FF
330
1F
100
AcDbEntity
  8
OBRYS
100
AcDbCircle
 10
143.9219057198429
 20
72.54293228196167
 30
0.0
 40
0.9545359132164205
100
AcDbArc
 50
40.85315668464352
 51
139.1468433153565
  0
DIMENSION
  5
300
330
1F
100
AcDbEntity
  8
KOTY
100
AcDbDimension
  2
*D1
 10
150.2568801721982
 20
45.13157417337499
 30
0.0
 11
141.7569683362155
 21
48.13957417337499
 31
0.0
 70
    32
  3
ISO-25
100
AcDbAlignedDimension
 13
133.2570565002328
 23
72.99753464705788
 33
0.0
 14
150.2568801721982
 24
72.99753464705788
 34
0.0
100
AcDbRotatedDimension
1001
ACAD
1000
DSTYLE
1002
{
1070
   287
1070
     5
1070
   271
1070
     1
1070
   278
1070
    44
1070
    41
1040
4.0
1070
   147
1040
1.0
1070
   140
1040
4.0
1070
   178
1070
   256
1070
   176
1070
   256
1070
   177
1070
   256
1070
   279
1070
     2
1002
}
  0
DIMENSION
  5
303
330
1F
100
AcDbEntity
  8
KOTY
100
AcDbDimension
  2
*D2
 10
63.81767225178919
 20
67.19765913350994
 30
0.0
 11
60.41567225178919
 21
98.49761112447044
 31
0.0
 70
    32
  3
ISO-25
100
AcDbAlignedDimension
 13
88.50348798941081
 23
129.7975631154309
 33
0.0
 14
87.49549902593117
 24
67.19765913350994
 34
0.0
 50
90.0
100
AcDbRotatedDimension
1001
ACAD
1000
DSTYLE
1002
{
1070
   287
1070
     5
1070
   271
1070
     1
1070
   278
1070
    44
1070
    41
1040
4.0
1070
   147
1040
1.0
1070
   140
1040
4.0
1070
   178
1070
   256
1070
   176
1070
   256
1070
   177
1070
   256
1070
   279
1070
     2
1002
}
  0
DIMENSION
  5
306
330
1F
100
AcDbEntity
  8
KOTY
100
AcDbDimension
  2
*D3
 10
112.0035734326295
 20
45.13157417337499
 30
0.0
 11
96.0035164704837
 21
48.17357417337499
 31
0.0
 70
    32
  1
DD25 54
  3
ISO-25
100
AcDbAlignedDimension
 13
80.00345950833787
 23
72.49752922133581
 33
0.0
 14
112.0035734326295
 24
72.49752922133581
 34
0.0
100
AcDbRotatedDimension
1001
ACAD
1000
DSTYLE
1002
{
1070
   287
1070
     5
1070
   271
1070
     1
1070
   278
1070
    44
1070
    41
1040
4.0
1070
   147
1040
1.0
1070
   140
1040
4.0
1070
   178
1070
   256
1070
   176
1070
   256
1070
   177
1070
   256
1070
   279
1070
     2
1002
}
  0
MTEXT
  5
309
330
1F
100
AcDbEntity
  8
KOTY
100
AcDbMText
 10
85.39409316987926
 20
55.25673839801621
 30
0.0
 40
2.5
 41
22.58634023132194
 71
     1
 72
     1
  1
{\H1.6x;DD9   32}
1001
ACAD
1000
ACAD_MTEXT_DEFINED_HEIGHT_BEGIN
1070
    46
1040
4.0
1000
ACAD_MTEXT_DEFINED_HEIGHT_END
  0
LINE
  5
30A
330
1F
100
AcDbEntity
  8
OBRYS
100
AcDbLine
 10
89.50348256368864
 20
70.99757940529781
 30
0.0
 11
102.503550377279
 21
70.99757940529781
 31
0.0
  0
VIEWPORT
  5
32F
330
58
100
AcDbEntity
 67
     1
  8
0
100
AcDbViewport
 10
0.0
 20
0.0
 30
0.0
 40
8.976
 41
6.936000000000001
 68
     1
 69
     1
1001
ACAD
1000
MVIEW
1002
{
1070
    16
1010
0.0
1020
0.0
1030
0.0
1010
0.0
1020
0.0
1030
1.0
1040
0.0
1040
6.936000000000001
1040
5.25
1040
4.0
1040
50.0
1040
0.0
1040
0.0
1070
     0
1070
   100
1070
     0
1070
     3
1070
     0
1070
     0
1070
     0
1070
     0
1040
0.0
1040
0.0
1040
0.0
1040
0.5
1040
0.5
1040
0.0
1040
0.0
1070
     0
1002
{
1002
}
1002
}
  0
VIEWPORT
  5
330
330
58
100
AcDbEntity
 67
     1
  8
0
100
AcDbViewport
 10
5.25
 20
4.0
 30
0.0
 40
8.4
 41
6.4
 68
     2
 69
     2
1001
ACAD
1000
MVIEW
1002
{
1070
    16
1010
0.0
1020
0.0
1030
0.0
1010
0.0
1020
0.0
1030
1.0
1040
0.0
1040
87.63430872089707
1040
104.1312762119937
1040
86.83956864440296
1040
50.0
1040
0.0
1040
0.0
1070
     0
1070
   100
1070
     0
1070
     3
1070
     0
1070
     0
1070
     0
1070
     0
1040
0.0
1040
0.0
1040
0.0
1040
0.5
1040
0.5
1040
0.0
1040
0.0
1070
     0
1002
{
1002
}
1002
}
  0
ENDSEC
  0
SECTION
  2
OBJECTS
  0
DICTIONARY
  5
C
330
0
100
AcDbDictionary
  3
ACAD_DETAILVIEWSTYLE
350
122
  3
ACAD_GROUP
350
D
  3
ACAD_IMAGE_VARS
350
DC
  3
ACAD_MLINESTYLE
350
17
  3
ACAD_SCALELIST
350
333
  3
ACAD_SECTIONVIEWSTYLE
350
123
  3
ACDBVARIABLEDICTIONARY
350
66
  3
APPDATA
350
E1
  3
DWGPROPS
350
379
  0
DICTIONARY
  5
122
102
{ACAD_REACTORS
330
C
102
}
330
C
100
AcDbDictionary
  0
DICTIONARY
  5
D
102
{ACAD_REACTORS
330
C
102
}
330
C
100
AcDbDictionary
  0
RASTERVARIABLES
  5
DC
102
{ACAD_REACTORS
330
C
102
}
330
C
100
AcDbRasterVariables
 90
        0
 70
     1
 71
     1
 72
     5
  0
DICTIONARY
  5
17
102
{ACAD_REACTORS
330
C
102
}
330
C
100
AcDbDictionary
  3
STANDARD
350
18
  0
DICTIONARY
  5
333
102
{ACAD_REACTORS
330
C
102
}
330
C
100
AcDbDictionary
  0
DICTIONARY
  5
123
102
{ACAD_REACTORS
330
C
102
}
330
C
100
AcDbDictionary
  0
DICTIONARY
  5
66
102
{ACAD_REACTORS
330
C
102
}
330
C
100
AcDbDictionary
  3
DIMASSOC
350
67
  3
HIDETEXT
350
6B
  0
DICTIONARY
  5
E1
102
{ACAD_REACTORS
330
C
102
}
330
C
100
AcDbDictionary
  0
XRECORD
  5
379
102
{ACAD_REACTORS
330
C
102
}
330
C
100
AcDbXrecord
  1
DWGPROPS COOKIE
  2

  3

  4

  6

  7

  8
jaromir.podrabsky
  9

300
=
301
=
302
=
303
=
304
=
305
=
306
=
307
=
308
=
309
=
 40
0.0
 41
2452643.021717593
 42
2456765.220205012
  1

 90
        0
  0
MLINESTYLE
  5
18
102
{ACAD_REACTORS
330
17
102
}
330
17
100
AcDbMlineStyle
  2
STANDARD
 70
     0
  3

 62
   256
 51
90.0
 52
90.0
 71
     2
 49
0.5
 62
   256
  6
BYLAYER
 49
-0.5
 62
   256
  6
BYLAYER
  0
DICTIONARYVAR
  5
67
102
{ACAD_REACTORS
330
66
102
}
330
66
100
DictionaryVariables
280
     0
  1
2
  0
DICTIONARYVAR
  5
6B
102
{ACAD_REACTORS
330
66
102
}
330
66
100
DictionaryVariables
280
     0
  1
1
  0
ENDSEC
  0
EOF
