  0
SECTION
  2
HEADER
  9
$ACADVER
  1
AC1014
  9
$ACADMAINTVER
 70
     9
  9
$DWGCODEPAGE
  3
ANSI_1250
  9
$INSBASE
 10
0.0
 20
0.0
 30
0.0
  9
$EXTMIN
 10
43.1944460197766
 20
49.81713681680747
 30
0.0
  9
$EXTMAX
 10
234.4428489910593
 20
127.6654493592366
 30
0.0
  9
$LIMMIN
 10
0.0
 20
0.0
  9
$LIMMAX
 10
12.0
 20
9.0
  9
$ORTHOMODE
 70
     0
  9
$REGENMODE
 70
     1
  9
$FILLMODE
 70
     1
  9
$QTEXTMODE
 70
     0
  9
$MIRRTEXT
 70
     0
  9
$DRAGMODE
 70
     2
  9
$LTSCALE
 40
1.0
  9
$OSMODE
 70
 15359
  9
$ATTMODE
 70
     1
  9
$TEXTSIZE
 40
0.2
  9
$TRACEWID
 40
0.05
  9
$TEXTSTYLE
  7
STANDARD
  9
$CLAYER
  8
0
  9
$CELTYPE
  6
BYLAYER
  9
$CECOLOR
 62
   256
  9
$CELTSCALE
 40
1.0
  9
$DELOBJ
 70
     1
  9
$DISPSILH
 70
     0
  9
$DIMSCALE
 40
1.0
  9
$DIMASZ
 40
0.18
  9
$DIMEXO
 40
0.0625
  9
$DIMDLI
 40
0.38
  9
$DIMRND
 40
0.0
  9
$DIMDLE
 40
0.0
  9
$DIMEXE
 40
0.18
  9
$DIMTP
 40
0.0
  9
$DIMTM
 40
0.0
  9
$DIMTXT
 40
0.18
  9
$DIMCEN
 40
0.09
  9
$DIMTSZ
 40
0.0
  9
$DIMTOL
 70
     0
  9
$DIMLIM
 70
     0
  9
$DIMTIH
 70
     1
  9
$DIMTOH
 70
     1
  9
$DIMSE1
 70
     0
  9
$DIMSE2
 70
     0
  9
$DIMTAD
 70
     0
  9
$DIMZIN
 70
     0
  9
$DIMBLK
  1

  9
$DIMASO
 70
     1
  9
$DIMSHO
 70
     1
  9
$DIMPOST
  1

  9
$DIMAPOST
  1

  9
$DIMALT
 70
     0
  9
$DIMALTD
 70
     2
  9
$DIMALTF
 40
25.4
  9
$DIMLFAC
 40
1.0
  9
$DIMTOFL
 70
     0
  9
$DIMTVP
 40
0.0
  9
$DIMTIX
 70
     0
  9
$DIMSOXD
 70
     0
  9
$DIMSAH
 70
     0
  9
$DIMBLK1
  1

  9
$DIMBLK2
  1

  9
$DIMSTYLE
  2
STANDARD
  9
$DIMCLRD
 70
     0
  9
$DIMCLRE
 70
     0
  9
$DIMCLRT
 70
     0
  9
$DIMTFAC
 40
1.0
  9
$DIMGAP
 40
0.09
  9
$DIMJUST
 70
     0
  9
$DIMSD1
 70
     0
  9
$DIMSD2
 70
     0
  9
$DIMTOLJ
 70
     1
  9
$DIMTZIN
 70
     0
  9
$DIMALTZ
 70
     0
  9
$DIMALTTZ
 70
     0
  9
$DIMFIT
 70
     5
  9
$DIMUPT
 70
     0
  9
$DIMUNIT
 70
     2
  9
$DIMDEC
 70
     4
  9
$DIMTDEC
 70
     4
  9
$DIMALTU
 70
     2
  9
$DIMALTTD
 70
     2
  9
$DIMTXSTY
  7
STANDARD
  9
$DIMAUNIT
 70
     0
  9
$LUNITS
 70
     2
  9
$LUPREC
 70
     4
  9
$SKETCHINC
 40
0.1
  9
$FILLETRAD
 40
0.0
  9
$AUNITS
 70
     0
  9
$AUPREC
 70
     0
  9
$MENU
  1
.
  9
$ELEVATION
 40
0.0
  9
$PELEVATION
 40
0.0
  9
$THICKNESS
 40
0.0
  9
$LIMCHECK
 70
     0
  9
$CHAMFERA
 40
0.0
  9
$CHAMFERB
 40
0.0
  9
$CHAMFERC
 40
0.0
  9
$CHAMFERD
 40
0.0
  9
$SKPOLY
 70
     0
  9
$TDCREATE
 40
2452643.105050926
  9
$TDUPDATE
 40
2456765.30942037
  9
$TDINDWG
 40
0.0097773495
  9
$TDUSRTIMER
 40
2456765.225024178
  9
$USRTIMER
 70
     1
  9
$ANGBASE
 50
0.0
  9
$ANGDIR
 70
     0
  9
$PDMODE
 70
     0
  9
$PDSIZE
 40
0.0
  9
$PLINEWID
 40
0.0
  9
$COORDS
 70
     2
  9
$SPLFRAME
 70
     0
  9
$SPLINETYPE
 70
     6
  9
$SPLINESEGS
 70
     8
  9
$ATTDIA
 70
     0
  9
$ATTREQ
 70
     1
  9
$HANDLING
 70
     1
  9
$HANDSEED
  5
6E1
  9
$SURFTAB1
 70
     6
  9
$SURFTAB2
 70
     6
  9
$SURFTYPE
 70
     6
  9
$SURFU
 70
     6
  9
$SURFV
 70
     6
  9
$UCSNAME
  2

  9
$UCSORG
 10
0.0
 20
0.0
 30
0.0
  9
$UCSXDIR
 10
1.0
 20
0.0
 30
0.0
  9
$UCSYDIR
 10
0.0
 20
1.0
 30
0.0
  9
$PUCSNAME
  2

  9
$PUCSORG
 10
0.0
 20
0.0
 30
0.0
  9
$PUCSXDIR
 10
1.0
 20
0.0
 30
0.0
  9
$PUCSYDIR
 10
0.0
 20
1.0
 30
0.0
  9
$USERI1
 70
     0
  9
$USERI2
 70
     0
  9
$USERI3
 70
     0
  9
$USERI4
 70
     0
  9
$USERI5
 70
     0
  9
$USERR1
 40
0.0
  9
$USERR2
 40
0.0
  9
$USERR3
 40
0.0
  9
$USERR4
 40
0.0
  9
$USERR5
 40
0.0
  9
$WORLDVIEW
 70
     1
  9
$SHADEDGE
 70
     3
  9
$SHADEDIF
 70
    70
  9
$TILEMODE
 70
     0
  9
$MAXACTVP
 70
    64
  9
$PINSBASE
 10
0.0
 20
0.0
 30
0.0
  9
$PLIMCHECK
 70
     0
  9
$PEXTMIN
 10
1.05
 20
0.7999999999999998
 30
0.0
  9
$PEXTMAX
 10
9.45
 20
7.2
 30
0.0
  9
$PLIMMIN
 10
0.8500000000000006
 20
0.5999999999999998
  9
$PLIMMAX
 10
9.650000000000002
 20
7.4
  9
$UNITMODE
 70
     0
  9
$VISRETAIN
 70
     1
  9
$PLINEGEN
 70
     0
  9
$PSLTSCALE
 70
     1
  9
$TREEDEPTH
 70
  3020
  9
$PICKSTYLE
 70
     0
  9
$CMLSTYLE
  2
STANDARD
  9
$CMLJUST
 70
     0
  9
$CMLSCALE
 40
1.0
  9
$PROXYGRAPHICS
 70
     1
  9
$MEASUREMENT
 70
     0
  0
ENDSEC
  0
SECTION
  2
CLASSES
  0
CLASS
  1
ACDBDICTIONARYWDFLT
  2
AcDbDictionaryWithDefault
  3
ObjectDBX Classes
 90
        0
280
     0
281
     0
  0
CLASS
  1
ACDBPLACEHOLDER
  2
AcDbPlaceHolder
  3
ObjectDBX Classes
 90
        0
280
     0
281
     0
  0
CLASS
  1
LAYOUT
  2
AcDbLayout
  3
ObjectDBX Classes
 90
        0
280
     0
281
     0
  0
CLASS
  1
DICTIONARYVAR
  2
AcDbDictionaryVar
  3
ObjectDBX Classes
 90
        0
280
     0
281
     0
  0
CLASS
  1
TABLESTYLE
  2
AcDbTableStyle
  3
ObjectDBX Classes
 90
     4095
280
     0
281
     0
  0
CLASS
  1
MATERIAL
  2
AcDbMaterial
  3
ObjectDBX Classes
 90
     1153
280
     0
281
     0
  0
CLASS
  1
VISUALSTYLE
  2
AcDbVisualStyle
  3
ObjectDBX Classes
 90
     4095
280
     0
281
     0
  0
CLASS
  1
SCALE
  2
AcDbScale
  3
ObjectDBX Classes
 90
     1153
280
     0
281
     0
  0
CLASS
  1
CELLSTYLEMAP
  2
AcDbCellStyleMap
  3
ObjectDBX Classes
 90
     1152
280
     0
281
     0
  0
CLASS
  1
RASTERVARIABLES
  2
AcDbRasterVariables
  3
ISM
 90
        0
280
     0
281
     0
  0
CLASS
  1
SUN
  2
AcDbSun
  3
SCENEOE
 90
     1153
280
     0
281
     0
  0
CLASS
  1
DIMASSOC
  2
AcDbDimAssoc
  3
"AcDbDimAssoc|Product Desc:     AcDim ARX App For Dimension|Company:          Autodesk, Inc.|WEB Address:      www.autodesk.com"
 90
        0
280
     0
281
     0
  0
CLASS
  1
XRECORD
  2
AcDbXrecord
  3
ObjectDBX Classes
 90
        0
280
     0
281
     0
  0
CLASS
  1
LWPOLYLINE
  2
AcDbPolyline
  3
ObjectDBX Classes
 90
        0
280
     0
281
     1
  0
CLASS
  1
HATCH
  2
AcDbHatch
  3
ObjectDBX Classes
 90
        0
280
     0
281
     1
  0
ENDSEC
  0
SECTION
  2
TABLES
  0
TABLE
  2
VPORT
  5
8
330
0
100
AcDbSymbolTable
 70
     1
  0
VPORT
  5
94
330
8
100
AcDbSymbolTableRecord
100
AcDbViewportTableRecord
  2
*ACTIVE
 70
     0
 10
0.0
 20
0.0
 11
1.0
 21
1.0
 12
167.7887023118371
 22
102.465952837299
 13
0.0
 23
0.0
 14
0.5
 24
0.5
 15
0.5
 25
0.5
 16
0.0
 26
0.0
 36
1.0
 17
-27.66959356597977
 27
-19.538702957862
 37
0.0
 40
174.0980346871161
 41
1.259351620947631
 42
50.0
 43
0.0
 44
0.0
 50
0.0
 51
0.0
 71
    16
 72
  1000
 73
     1
 74
     3
 75
     0
 76
     0
 77
     0
 78
     0
  0
ENDTAB
  0
TABLE
  2
LTYPE
  5
5
330
0
100
AcDbSymbolTable
 70
     1
  0
LTYPE
  5
14
330
5
100
AcDbSymbolTableRecord
100
AcDbLinetypeTableRecord
  2
BYBLOCK
 70
     0
  3

 72
    65
 73
     0
 40
0.0
  0
LTYPE
  5
15
330
5
100
AcDbSymbolTableRecord
100
AcDbLinetypeTableRecord
  2
BYLAYER
 70
     0
  3

 72
    65
 73
     0
 40
0.0
  0
LTYPE
  5
16
330
5
100
AcDbSymbolTableRecord
100
AcDbLinetypeTableRecord
  2
CONTINUOUS
 70
     0
  3
Solid line
 72
    65
 73
     0
 40
0.0
  0
ENDTAB
  0
TABLE
  2
LAYER
  5
2
330
0
100
AcDbSymbolTable
 70
     4
  0
LAYER
  5
10
330
2
100
AcDbSymbolTableRecord
100
AcDbLayerTableRecord
  2
0
 70
     0
 62
     7
  6
CONTINUOUS
  0
LAYER
  5
125
330
2
100
AcDbSymbolTableRecord
100
AcDbLayerTableRecord
  2
DEFPOINTS
 70
     0
 62
     7
  6
CONTINUOUS
  0
LAYER
  5
126
330
2
100
AcDbSymbolTableRecord
100
AcDbLayerTableRecord
  2
OBRYS
 70
     0
 62
     5
  6
CONTINUOUS
  0
LAYER
  5
128
330
2
100
AcDbSymbolTableRecord
100
AcDbLayerTableRecord
  2
KOTY
 70
     0
 62
     1
  6
CONTINUOUS
  0
ENDTAB
  0
TABLE
  2
STYLE
  5
3
330
0
100
AcDbSymbolTable
 70
     1
  0
STYLE
  5
11
330
3
100
AcDbSymbolTableRecord
100
AcDbTextStyleTableRecord
  2
STANDARD
 70
     0
 40
0.0
 41
1.0
 50
0.0
 71
     0
 42
0.2
  3
arial.ttf
  4

1001
ACAD
1000
Arial
1071
        0
  0
ENDTAB
  0
TABLE
  2
VIEW
  5
6
330
0
100
AcDbSymbolTable
 70
     0
  0
ENDTAB
  0
TABLE
  2
UCS
  5
7
330
0
100
AcDbSymbolTable
 70
     0
  0
ENDTAB
  0
TABLE
  2
APPID
  5
9
330
0
100
AcDbSymbolTable
 70
     1
  0
APPID
  5
12
330
9
100
AcDbSymbolTableRecord
100
AcDbRegAppTableRecord
  2
ACAD
 70
     0
  0
ENDTAB
  0
TABLE
  2
DIMSTYLE
  5
A
330
0
100
AcDbSymbolTable
 70
     2
  0
DIMSTYLE
105
27
330
A
100
AcDbSymbolTableRecord
100
AcDbDimStyleTableRecord
  2
STANDARD
 70
     0
  3

  4

  5

  6

  7

 40
1.0
 41
0.18
 42
0.0625
 43
0.38
 44
0.18
 45
0.0
 46
0.0
 47
0.0
 48
0.0
140
0.18
141
0.09
142
0.0
143
25.4
144
1.0
145
0.0
146
1.0
147
0.09
 71
     0
 72
     0
 73
     1
 74
     1
 75
     0
 76
     0
 77
     0
 78
     0
170
     0
171
     2
172
     0
173
     0
174
     0
175
     0
176
     0
177
     0
178
     0
270
     2
271
     4
272
     4
273
     2
274
     2
340
11
275
     0
280
     0
281
     0
282
     0
283
     1
284
     0
285
     0
286
     0
287
     3
288
     0
  0
DIMSTYLE
105
129
102
{ACAD_REACTORS
330
557
330
559
330
55C
330
56E
102
}
330
A
100
AcDbSymbolTableRecord
100
AcDbDimStyleTableRecord
  2
ISO-25
 70
     0
  3

  4

  5

  6

  7

 40
1.0
 41
6.0
 42
0.0
 43
3.75
 44
1.25
 45
0.0
 46
0.0
 47
0.0
 48
0.0
140
3.0
141
2.5
142
0.0
143
0.03937007874016
144
1.0
145
0.0
146
1.0
147
0.625
 71
     0
 72
     0
 73
     0
 74
     1
 75
     0
 76
     0
 77
     1
 78
     8
170
     0
171
     3
172
     1
173
     0
174
     0
175
     0
176
     5
177
     5
178
     5
270
     2
271
     4
272
     4
273
     2
274
     2
340
11
275
     0
280
     0
281
     0
282
     0
283
     1
284
     0
285
     0
286
     0
287
     3
288
     0
  0
ENDTAB
  0
TABLE
  2
BLOCK_RECORD
  5
1
330
0
100
AcDbSymbolTable
 70
     5
  0
BLOCK_RECORD
  5
1F
330
1
100
AcDbSymbolTableRecord
100
AcDbBlockTableRecord
  2
*MODEL_SPACE
  0
BLOCK_RECORD
  5
58
330
1
100
AcDbSymbolTableRecord
100
AcDbBlockTableRecord
  2
*PAPER_SPACE
  0
BLOCK_RECORD
  5
5D
330
1
100
AcDbSymbolTableRecord
100
AcDbBlockTableRecord
  2
*PAPER_SPACE0
  0
BLOCK_RECORD
  5
591
330
1
100
AcDbSymbolTableRecord
100
AcDbBlockTableRecord
  2
*D1
  0
BLOCK_RECORD
  5
59D
330
1
100
AcDbSymbolTableRecord
100
AcDbBlockTableRecord
  2
*D2
  0
BLOCK_RECORD
  5
5A9
330
1
100
AcDbSymbolTableRecord
100
AcDbBlockTableRecord
  2
*D3
  0
BLOCK_RECORD
  5
5B5
330
1
100
AcDbSymbolTableRecord
100
AcDbBlockTableRecord
  2
*D4
  0
ENDTAB
  0
ENDSEC
  0
SECTION
  2
BLOCKS
  0
BLOCK
  5
20
330
1F
100
AcDbEntity
  8
0
100
AcDbBlockBegin
  2
*MODEL_SPACE
 70
     0
 10
0.0
 20
0.0
 30
0.0
  3
*MODEL_SPACE
  1

  0
ENDBLK
  5
21
330
1F
100
AcDbEntity
  8
0
100
AcDbBlockEnd
  0
BLOCK
  5
5A
330
58
100
AcDbEntity
 67
     1
  8
0
100
AcDbBlockBegin
  2
*PAPER_SPACE
 70
     0
 10
0.0
 20
0.0
 30
0.0
  3
*PAPER_SPACE
  1

  0
ENDBLK
  5
5B
330
58
100
AcDbEntity
 67
     1
  8
0
100
AcDbBlockEnd
  0
BLOCK
  5
5F
330
5D
100
AcDbEntity
  8
0
100
AcDbBlockBegin
  2
*PAPER_SPACE0
 70
     0
 10
0.0
 20
0.0
 30
0.0
  3
*PAPER_SPACE0
  1
*PAPER_SPACE0
  0
ENDBLK
  5
60
330
5D
100
AcDbEntity
  8
0
100
AcDbBlockEnd
  0
BLOCK
  5
592
330
591
100
AcDbEntity
  8
0
100
AcDbBlockBegin
  2
*D1
 70
     1
 10
0.0
 20
0.0
 30
0.0
  3
*D1
  1
*D6
  0
LINE
  5
594
330
591
100
AcDbEntity
  8
KOTY
100
AcDbLine
 10
85.50236987956734
 20
103.8672398848925
 30
0.0
 11
85.50236987956734
 21
122.8004493592366
 31
0.0
  0
LINE
  5
595
330
591
100
AcDbEntity
  8
KOTY
100
AcDbLine
 10
175.1029300242678
 20
103.8672398848925
 30
0.0
 11
175.1029300242678
 21
122.8004493592366
 31
0.0
  0
LINE
  5
596
330
591
100
AcDbEntity
  8
KOTY
100
AcDbLine
 10
89.50236987956734
 20
121.5504493592366
 30
0.0
 11
171.1029300242678
 21
121.5504493592366
 31
0.0
  0
SOLID
  5
597
330
591
100
AcDbEntity
  8
KOTY
100
AcDbTrace
 10
89.50236987956734
 20
122.2171160259033
 30
0.0
 11
89.50236987956734
 21
120.8837826925699
 31
0.0
 12
85.50236987956734
 22
121.5504493592366
 32
0.0
 13
85.50236987956734
 23
121.5504493592366
 33
0.0
  0
SOLID
  5
598
330
591
100
AcDbEntity
  8
KOTY
100
AcDbTrace
 10
171.1029300242678
 20
120.8837826925699
 30
0.0
 11
171.1029300242678
 21
122.2171160259033
 31
0.0
 12
175.1029300242678
 22
121.5504493592366
 32
0.0
 13
175.1029300242678
 23
121.5504493592366
 33
0.0
  0
MTEXT
  5
599
330
591
100
AcDbEntity
  8
KOTY
100
AcDbMText
 10
130.3026499519176
 20
124.5924493592366
 30
0.0
 40
4.0
 41
0.0
 71
     5
 72
     1
  1
\A1;90
  0
POINT
  5
59A
330
591
100
AcDbEntity
  8
DEFPOINTS
 62
     0
100
AcDbPoint
 10
85.50236987956734
 20
103.8672398848925
 30
0.0
  0
POINT
  5
59B
330
591
100
AcDbEntity
  8
DEFPOINTS
 62
     0
100
AcDbPoint
 10
175.1029300242678
 20
103.8672398848925
 30
0.0
  0
POINT
  5
59C
330
591
100
AcDbEntity
  8
DEFPOINTS
 62
     0
100
AcDbPoint
 10
175.1029300242678
 20
121.5504493592366
 30
0.0
  0
ENDBLK
  5
593
330
591
100
AcDbEntity
  8
0
100
AcDbBlockEnd
  0
BLOCK
  5
59E
330
59D
100
AcDbEntity
  8
0
100
AcDbBlockBegin
  2
*D2
 70
     1
 10
0.0
 20
0.0
 30
0.0
  3
*D2
  1
*D7
  0
LINE
  5
5A0
330
59D
100
AcDbEntity
  8
KOTY
100
AcDbLine
 10
86.30283781556508
 20
104.2176060957415
 30
0.0
 11
64.99713736595558
 21
104.2176060957415
 31
0.0
  0
LINE
  5
5A1
330
59D
100
AcDbEntity
  8
KOTY
100
AcDbLine
 10
86.30283781556508
 20
56.71749081898854
 30
0.0
 11
64.99713736595558
 21
56.71749081898854
 31
0.0
  0
LINE
  5
5A2
330
59D
100
AcDbEntity
  8
KOTY
100
AcDbLine
 10
66.24713736595558
 20
100.2176060957415
 30
0.0
 11
66.24713736595558
 21
60.71749081898854
 31
0.0
  0
SOLID
  5
5A3
330
59D
100
AcDbEntity
  8
KOTY
100
AcDbTrace
 10
66.91380403262225
 20
100.2176060957415
 30
0.0
 11
65.58047069928891
 21
100.2176060957415
 31
0.0
 12
66.24713736595558
 22
104.2176060957415
 32
0.0
 13
66.24713736595558
 23
104.2176060957415
 33
0.0
  0
SOLID
  5
5A4
330
59D
100
AcDbEntity
  8
KOTY
100
AcDbTrace
 10
65.58047069928891
 20
60.71749081898854
 30
0.0
 11
66.91380403262225
 21
60.71749081898854
 31
0.0
 12
66.24713736595558
 22
56.71749081898854
 32
0.0
 13
66.24713736595558
 23
56.71749081898854
 33
0.0
  0
MTEXT
  5
5A5
330
59D
100
AcDbEntity
  8
KOTY
100
AcDbMText
 10
63.20513736595558
 20
80.46754845736501
 30
0.0
 40
4.0
 41
0.0
 71
     5
 72
     1
  1
\A1;48
 11
0.0
 21
1.0
 31
0.0
  0
POINT
  5
5A6
330
59D
100
AcDbEntity
  8
DEFPOINTS
 62
     0
100
AcDbPoint
 10
86.30283781556508
 20
104.2176060957415
 30
0.0
  0
POINT
  5
5A7
330
59D
100
AcDbEntity
  8
DEFPOINTS
 62
     0
100
AcDbPoint
 10
86.30283781556508
 20
56.71749081898854
 30
0.0
  0
POINT
  5
5A8
330
59D
100
AcDbEntity
  8
DEFPOINTS
 62
     0
100
AcDbPoint
 10
66.24713736595558
 20
56.71749081898854
 30
0.0
  0
ENDBLK
  5
59F
330
59D
100
AcDbEntity
  8
0
100
AcDbBlockEnd
  0
BLOCK
  5
5AA
330
5A9
100
AcDbEntity
  8
0
100
AcDbBlockBegin
  2
*D3
 70
     1
 10
0.0
 20
0.0
 30
0.0
  3
*D3
  1
*D8
  0
LINE
  5
5AC
330
5A9
100
AcDbEntity
  8
KOTY
100
AcDbLine
 10
86.30283781556508
 20
104.2176060957415
 30
0.0
 11
48.0244460197766
 21
104.2176060957415
 31
0.0
  0
LINE
  5
5AD
330
5A9
100
AcDbEntity
  8
KOTY
100
AcDbLine
 10
117.0526126560306
 20
49.81713681680747
 30
0.0
 11
48.0244460197766
 21
49.81713681680748
 31
0.0
  0
LINE
  5
5AE
330
5A9
100
AcDbEntity
  8
KOTY
100
AcDbLine
 10
49.2744460197766
 20
100.2176060957415
 30
0.0
 11
49.2744460197766
 21
53.81713681680748
 31
0.0
  0
SOLID
  5
5AF
330
5A9
100
AcDbEntity
  8
KOTY
100
AcDbTrace
 10
49.94111268644326
 20
100.2176060957415
 30
0.0
 11
48.60777935310993
 21
100.2176060957415
 31
0.0
 12
49.2744460197766
 22
104.2176060957415
 32
0.0
 13
49.2744460197766
 23
104.2176060957415
 33
0.0
  0
SOLID
  5
5B0
330
5A9
100
AcDbEntity
  8
KOTY
100
AcDbTrace
 10
48.60777935310993
 20
53.81713681680748
 30
0.0
 11
49.94111268644326
 21
53.81713681680748
 31
0.0
 12
49.2744460197766
 22
49.81713681680748
 32
0.0
 13
49.2744460197766
 23
49.81713681680748
 33
0.0
  0
MTEXT
  5
5B1
330
5A9
100
AcDbEntity
  8
KOTY
100
AcDbMText
 10
46.24044601977659
 20
77.01737145627449
 30
0.0
 40
4.0
 41
0.0
 71
     5
 72
     1
  1
\A1;54
 11
0.0
 21
1.0
 31
0.0
  0
POINT
  5
5B2
330
5A9
100
AcDbEntity
  8
DEFPOINTS
 62
     0
100
AcDbPoint
 10
86.30283781556508
 20
104.2176060957415
 30
0.0
  0
POINT
  5
5B3
330
5A9
100
AcDbEntity
  8
DEFPOINTS
 62
     0
100
AcDbPoint
 10
117.0526126560306
 20
49.81713681680747
 30
0.0
  0
POINT
  5
5B4
330
5A9
100
AcDbEntity
  8
DEFPOINTS
 62
     0
100
AcDbPoint
 10
49.2744460197766
 20
49.81713681680748
 30
0.0
  0
ENDBLK
  5
5AB
330
5A9
100
AcDbEntity
  8
0
100
AcDbBlockEnd
  0
BLOCK
  5
5B6
330
5B5
100
AcDbEntity
  8
0
100
AcDbBlockBegin
  2
*D4
 70
     1
 10
0.0
 20
0.0
 30
0.0
  3
*D4
  1
*D9
  0
LINE
  5
5B8
330
5B5
100
AcDbEntity
  8
KOTY
100
AcDbLine
 10
209.3929405793911
 20
101.337079616255
 30
0.0
 11
209.3929405793911
 21
122.8004493592366
 31
0.0
  0
LINE
  5
5B9
330
5B5
100
AcDbEntity
  8
KOTY
100
AcDbLine
 10
234.4428489910593
 20
101.3172919857388
 30
0.0
 11
234.4428489910593
 21
122.8004493592366
 31
0.0
  0
LINE
  5
5BA
330
5B5
100
AcDbEntity
  8
KOTY
100
AcDbLine
 10
213.3929405793911
 20
121.5504493592366
 30
0.0
 11
230.4428489910593
 21
121.5504493592366
 31
0.0
  0
SOLID
  5
5BB
330
5B5
100
AcDbEntity
  8
KOTY
100
AcDbTrace
 10
213.3929405793911
 20
122.2171160259033
 30
0.0
 11
213.3929405793911
 21
120.8837826925699
 31
0.0
 12
209.3929405793911
 22
121.5504493592366
 32
0.0
 13
209.3929405793911
 23
121.5504493592366
 33
0.0
  0
SOLID
  5
5BC
330
5B5
100
AcDbEntity
  8
KOTY
100
AcDbTrace
 10
230.4428489910593
 20
120.8837826925699
 30
0.0
 11
230.4428489910593
 21
122.2171160259033
 31
0.0
 12
234.4428489910593
 22
121.5504493592366
 32
0.0
 13
234.4428489910593
 23
121.5504493592366
 33
0.0
  0
MTEXT
  5
5BD
330
5B5
100
AcDbEntity
  8
KOTY
100
AcDbMText
 10
221.9178947852252
 20
124.2174493592366
 30
0.0
 40
4.0
 41
0.0
 71
     5
 72
     1
  1
\A1;25
  0
POINT
  5
5BE
330
5B5
100
AcDbEntity
  8
DEFPOINTS
 62
     0
100
AcDbPoint
 10
209.3929405793911
 20
101.337079616255
 30
0.0
  0
POINT
  5
5BF
330
5B5
100
AcDbEntity
  8
DEFPOINTS
 62
     0
100
AcDbPoint
 10
234.4428489910593
 20
101.3172919857388
 30
0.0
  0
POINT
  5
5C0
330
5B5
100
AcDbEntity
  8
DEFPOINTS
 62
     0
100
AcDbPoint
 10
234.4428489910593
 20
121.5504493592366
 30
0.0
  0
ENDBLK
  5
5B7
330
5B5
100
AcDbEntity
  8
0
100
AcDbBlockEnd
  0
ENDSEC
  0
SECTION
  2
ENTITIES
  0
LWPOLYLINE
  5
386
330
1F
100
AcDbEntity
  8
OBRYS
100
AcDbPolyline
 90
        2
 70
     0
 43
0.0
 10
213.3926265570855
 20
100.8619412378802
 10
213.3926265570855
 20
100.8619412378802
  0
LWPOLYLINE
  5
387
330
1F
100
AcDbEntity
  8
OBRYS
100
AcDbPolyline
 90
        2
 70
     0
 43
0.0
 10
212.7928354331038
 20
97.8722873757801
 10
212.7928354331038
 20
97.8722873757801
  0
LWPOLYLINE
  5
388
330
1F
100
AcDbEntity
  8
OBRYS
100
AcDbPolyline
 90
        2
 70
     0
 43
0.0
 10
213.3926265570855
 20
70.56232644510709
 10
213.3926265570855
 20
70.56232644510709
  0
LWPOLYLINE
  5
389
330
1F
100
AcDbEntity
  8
OBRYS
100
AcDbPolyline
 90
        2
 70
     0
 43
0.0
 10
212.7928354331038
 20
67.57181130913608
 10
212.7928354331038
 20
67.57181130913608
  0
LWPOLYLINE
  5
38A
330
1F
100
AcDbEntity
  8
OBRYS
100
AcDbPolyline
 90
        2
 70
     0
 43
0.0
 10
232.2376433709506
 20
99.66718212359518
 10
232.2376433709506
 20
99.66718212359518
  0
LWPOLYLINE
  5
38B
330
1F
100
AcDbEntity
  8
OBRYS
100
AcDbPolyline
 90
        2
 70
     0
 43
0.0
 10
231.0428842566662
 20
100.8619412378802
 10
231.0428842566662
 20
100.8619412378802
  0
LWPOLYLINE
  5
38C
330
1F
100
AcDbEntity
  8
OBRYS
100
AcDbPolyline
 90
        2
 70
     0
 43
0.0
 10
230.4427486231355
 20
97.8722873757801
 10
230.4430931326841
 20
97.8722873757801
  0
LWPOLYLINE
  5
38D
330
1F
100
AcDbEntity
  8
OBRYS
100
AcDbPolyline
 90
        2
 70
     0
 43
0.0
 10
229.2476449993024
 20
68.7672594425182
 10
229.2476449993024
 20
68.7672594425182
  0
LWPOLYLINE
  5
38E
330
1F
100
AcDbEntity
  8
OBRYS
100
AcDbPolyline
 90
        2
 70
     0
 43
0.0
 10
231.0428842566662
 20
70.56232644510709
 10
231.0428842566662
 20
70.56232644510709
  0
LWPOLYLINE
  5
38F
330
1F
100
AcDbEntity
  8
OBRYS
100
AcDbPolyline
 90
        2
 70
     0
 43
0.0
 10
230.4427486231355
 20
67.57181130913608
 10
230.4430931326841
 20
67.57181130913608
  0
LWPOLYLINE
  5
390
330
1F
100
AcDbEntity
  8
OBRYS
100
AcDbPolyline
 90
        6
 70
     0
 43
0.0
 10
233.7431500980051
 20
71.00140386470315
 10
233.7648541995621
 20
70.5835137823421
 10
233.8299665042333
 20
70.16993006933711
 10
233.9388315215672
 20
69.76564811414318
 10
234.0886931751756
 20
69.37480203134209
 10
234.2788624459613
 20
69.00152593551519
  0
LWPOLYLINE
  5
391
330
1F
100
AcDbEntity
  8
OBRYS
100
AcDbPolyline
 90
        6
 70
     0
 43
0.0
 10
234.2788624459613
 20
99.43291563059819
 10
234.0886931751756
 20
99.05963953477107
 10
233.9388315215672
 20
98.66879345196907
 10
233.8299665042333
 20
98.26451149677604
 10
233.7648541995621
 20
97.85110003854601
 10
233.7431500980051
 20
97.43303770141
  0
LWPOLYLINE
  5
392
330
1F
100
AcDbEntity
  8
OBRYS
100
AcDbPolyline
 90
        2
 70
     0
 43
0.0
 10
233.5784745338101
 20
77.08802631326802
 10
233.8613168731491
 20
77.153310872713
  0
LWPOLYLINE
  5
393
330
1F
100
AcDbEntity
  8
OBRYS
100
AcDbPolyline
 90
        2
 70
     0
 43
0.0
 10
233.8003386830602
 20
76.65687261328816
 10
233.5374778975355
 20
76.79123133721299
  0
LWPOLYLINE
  5
394
330
1F
100
AcDbEntity
  8
OBRYS
100
AcDbPolyline
 90
        2
 70
     0
 43
0.0
 10
233.7076656145068
 20
78.12758387594221
 10
233.9753495337107
 20
78.19424647358113
  0
LWPOLYLINE
  5
395
330
1F
100
AcDbEntity
  8
OBRYS
100
AcDbPolyline
 90
        2
 70
     0
 43
0.0
 10
233.9229840823352
 20
77.69694694028516
 10
233.6718366214603
 20
77.81959233956007
  0
LWPOLYLINE
  5
396
330
1F
100
AcDbEntity
  8
OBRYS
100
AcDbPolyline
 90
        2
 70
     0
 43
0.0
 10
233.8148080840982
 20
79.16834722203606
 10
234.0714676977493
 20
79.237076876966
  0
LWPOLYLINE
  5
397
330
1F
100
AcDbEntity
  8
OBRYS
100
AcDbPolyline
 90
        2
 70
     0
 43
0.0
 10
234.028059494635
 20
78.73891606979913
 10
233.7496957794268
 20
78.86845166004508
  0
LWPOLYLINE
  5
398
330
1F
100
AcDbEntity
  8
OBRYS
100
AcDbPolyline
 90
        2
 70
     0
 43
0.0
 10
233.8992129234868
 20
80.20962733245204
 10
234.1489823461672
 20
80.28094080899717
  0
LWPOLYLINE
  5
399
330
1F
100
AcDbEntity
  8
OBRYS
100
AcDbPolyline
 90
        2
 70
     0
 43
0.0
 10
234.1145313913149
 20
79.78243549228108
 10
233.8757862741872
 20
79.88906119755
  0
LWPOLYLINE
  5
39A
330
1F
100
AcDbEntity
  8
OBRYS
100
AcDbPolyline
 90
        2
 70
     0
 43
0.0
 10
233.9615691517698
 20
81.2510796976432
 10
234.2089270076106
 20
81.32687179831913
  0
LWPOLYLINE
  5
39B
330
1F
100
AcDbEntity
  8
OBRYS
100
AcDbPolyline
 90
        2
 70
     0
 43
0.0
 10
234.1827442819228
 20
80.8273329529581
 10
233.9226395727864
 20
80.93809277280906
  0
LWPOLYLINE
  5
39C
330
1F
100
AcDbEntity
  8
OBRYS
100
AcDbPolyline
 90
        2
 70
     0
 43
0.0
 10
234.0022212784956
 20
82.29253206283505
 10
234.2502681534338
 20
82.37297504241513
  0
LWPOLYLINE
  5
39D
330
1F
100
AcDbEntity
  8
OBRYS
100
AcDbPolyline
 90
        2
 70
     0
 43
0.0
 10
234.2326981664589
 20
81.8734361970541
 10
233.99188599204
 20
81.97041563496413
  0
LWPOLYLINE
  5
39E
330
1F
100
AcDbEntity
  8
OBRYS
100
AcDbPolyline
 90
        2
 70
     0
 43
0.0
 10
234.0197912654706
 20
83.33277864460518
 10
234.273350293185
 20
83.41993956038317
  0
LWPOLYLINE
  5
39F
330
1F
100
AcDbEntity
  8
OBRYS
100
AcDbPolyline
 90
        2
 70
     0
 43
0.0
 10
234.2643930449233
 20
82.92005620547314
 10
234.0166906795339
 20
83.01531309564001
  0
LWPOLYLINE
  5
3A0
330
1F
100
AcDbEntity
  8
OBRYS
100
AcDbPolyline
 90
        2
 70
     0
 43
0.0
 10
233.8003386830602
 20
91.77756895282408
 10
233.7431500980051
 20
92.21750764629104
  0
LWPOLYLINE
  5
3A1
330
1F
100
AcDbEntity
  8
OBRYS
100
AcDbPolyline
 90
        2
 70
     0
 43
0.0
 10
233.9229840823352
 20
90.73732237105304
 10
233.8613168731491
 20
91.28130294817419
  0
LWPOLYLINE
  5
3A2
330
1F
100
AcDbEntity
  8
OBRYS
100
AcDbPolyline
 90
        2
 70
     0
 43
0.0
 10
234.028059494635
 20
89.69552549631402
 10
233.9753495337107
 20
90.24019509253111
  0
LWPOLYLINE
  5
3A3
330
1F
100
AcDbEntity
  8
OBRYS
100
AcDbPolyline
 90
        2
 70
     0
 43
0.0
 10
234.1145313913149
 20
88.65166156428307
 10
234.0714676977493
 20
89.19736468914715
  0
LWPOLYLINE
  5
3A4
330
1F
100
AcDbEntity
  8
OBRYS
100
AcDbPolyline
 90
        2
 70
     0
 43
0.0
 10
234.1827442819228
 20
87.60710861315505
 10
234.1489823461672
 20
88.15315624756721
  0
LWPOLYLINE
  5
3A5
330
1F
100
AcDbEntity
  8
OBRYS
100
AcDbPolyline
 90
        2
 70
     0
 43
0.0
 10
234.2326981664589
 20
86.56117762383309
 10
234.2089270076106
 20
87.10756976779402
  0
LWPOLYLINE
  5
3A6
330
1F
100
AcDbEntity
  8
OBRYS
100
AcDbPolyline
 90
        2
 70
     0
 43
0.0
 10
234.2643930449233
 20
85.51404085109215
 10
234.2502681534338
 20
86.06163877847206
  0
LWPOLYLINE
  5
3A7
330
1F
100
AcDbEntity
  8
OBRYS
100
AcDbPolyline
 90
        2
 70
     0
 43
0.0
 10
234.2781734268643
 20
84.46707633312411
 10
234.2736948027335
 20
85.01450200573112
  0
LWPOLYLINE
  5
3A8
330
1F
100
AcDbEntity
  8
OBRYS
100
AcDbPolyline
 90
        2
 70
     0
 43
0.0
 10
233.7431500980051
 20
76.21693391982211
 10
233.8003386830602
 20
76.65687261328816
  0
LWPOLYLINE
  5
3A9
330
1F
100
AcDbEntity
  8
OBRYS
100
AcDbPolyline
 90
        2
 70
     0
 43
0.0
 10
233.8613168731491
 20
77.153310872713
 10
233.9229840823352
 20
77.69694694028516
  0
LWPOLYLINE
  5
3AA
330
1F
100
AcDbEntity
  8
OBRYS
100
AcDbPolyline
 90
        2
 70
     0
 43
0.0
 10
233.9753495337107
 20
78.19424647358113
 10
234.028059494635
 20
78.73891606979913
  0
LWPOLYLINE
  5
3AB
330
1F
100
AcDbEntity
  8
OBRYS
100
AcDbPolyline
 90
        2
 70
     0
 43
0.0
 10
234.0714676977493
 20
79.237076876966
 10
234.1145313913149
 20
79.78243549228108
  0
LWPOLYLINE
  5
3AC
330
1F
100
AcDbEntity
  8
OBRYS
100
AcDbPolyline
 90
        2
 70
     0
 43
0.0
 10
234.1489823461672
 20
80.28094080899717
 10
234.1827442819228
 20
80.8273329529581
  0
LWPOLYLINE
  5
3AD
330
1F
100
AcDbEntity
  8
OBRYS
100
AcDbPolyline
 90
        2
 70
     0
 43
0.0
 10
234.2089270076106
 20
81.32687179831913
 10
234.2326981664589
 20
81.8734361970541
  0
LWPOLYLINE
  5
3AE
330
1F
100
AcDbEntity
  8
OBRYS
100
AcDbPolyline
 90
        2
 70
     0
 43
0.0
 10
234.2736948027335
 20
83.41993956038317
 10
234.2781734268643
 20
83.96719297821409
  0
LWPOLYLINE
  5
3AF
330
1F
100
AcDbEntity
  8
OBRYS
100
AcDbPolyline
 90
        2
 70
     0
 43
0.0
 10
234.2502681534338
 20
82.37297504241513
 10
234.2643930449233
 20
82.92005620547314
  0
LWPOLYLINE
  5
3B0
330
1F
100
AcDbEntity
  8
OBRYS
100
AcDbPolyline
 90
        2
 70
     0
 43
0.0
 10
234.0191022463734
 20
84.3728529716031
 10
234.2781734268643
 20
84.46707633312411
  0
LWPOLYLINE
  5
3B1
330
1F
100
AcDbEntity
  8
OBRYS
100
AcDbPolyline
 90
        2
 70
     0
 43
0.0
 10
234.2781734268643
 20
83.96719297821409
 10
234.0132455840486
 20
84.06348339702703
  0
LWPOLYLINE
  5
3B2
330
1F
100
AcDbEntity
  8
OBRYS
100
AcDbPolyline
 90
        2
 70
     0
 43
0.0
 10
225.1180090411333
 20
65.71731640942602
 10
224.3177133599099
 20
65.71731640942602
  0
LWPOLYLINE
  5
3B3
330
1F
100
AcDbEntity
  8
OBRYS
100
AcDbPolyline
 90
        2
 70
     0
 43
0.0
 10
219.5180063298598
 20
65.71731640942602
 10
218.7177106486365
 20
65.71731640942602
  0
LWPOLYLINE
  5
3B4
330
1F
100
AcDbEntity
  8
OBRYS
100
AcDbPolyline
 90
        3
 70
     0
 43
0.0
 10
228.247189270386
 20
64.51704514236502
 10
228.244088684449
 20
64.49206820009721
 10
228.2427106462551
 20
64.46657449350613
  0
LWPOLYLINE
  5
3B5
330
1F
100
AcDbEntity
  8
OBRYS
100
AcDbPolyline
 90
        2
 70
     0
 43
0.0
 10
228.2427106462551
 20
64.21714958037404
 10
228.2427106462551
 20
64.46657449350613
  0
LWPOLYLINE
  5
3B6
330
1F
100
AcDbEntity
  8
OBRYS
100
AcDbPolyline
 90
        2
 70
     0
 43
0.0
 10
231.4428598425037
 20
64.21714958037404
 10
231.4177106454613
 20
64.21714958037404
  0
LWPOLYLINE
  5
3B7
330
1F
100
AcDbEntity
  8
OBRYS
100
AcDbPolyline
 90
        2
 70
     0
 43
0.0
 10
228.3178137278336
 20
64.21714958037404
 10
228.2427106462551
 20
64.21714958037404
  0
LWPOLYLINE
  5
3B8
330
1F
100
AcDbEntity
  8
OBRYS
100
AcDbPolyline
 90
        4
 70
     0
 43
0.0
 10
234.4428489910593
 20
68.71696104843312
 10
234.4428489910593
 20
67.11714958037413
 42
-0.414213562373095
 10
231.5428489910593
 20
64.21714958037404
 10
228.3178137278336
 20
64.21714958037404
  0
LWPOLYLINE
  5
3B9
330
1F
100
AcDbEntity
  8
OBRYS
100
AcDbPolyline
 90
        2
 70
     0
 43
0.0
 10
234.4428489910593
 20
68.71696104843312
 10
234.2785179364127
 20
69.0011814259662
  0
LWPOLYLINE
  5
3BA
330
1F
100
AcDbEntity
  8
OBRYS
100
AcDbPolyline
 90
        2
 70
     0
 43
0.0
 10
233.7431500980051
 20
71.00140386470315
 10
233.7431500980051
 20
76.21693391982211
  0
LWPOLYLINE
  5
3BB
330
1F
100
AcDbEntity
  8
OBRYS
100
AcDbPolyline
 90
        2
 70
     0
 43
0.0
 10
233.7431500980051
 20
92.21750764629104
 10
233.7431500980051
 20
97.43303770141
  0
LWPOLYLINE
  5
3BC
330
1F
100
AcDbEntity
  8
OBRYS
100
AcDbPolyline
 90
        5
 70
     0
 43
0.0
 10
228.2427106462551
 20
104.2172919857391
 10
231.5428489910593
 20
104.2172919857391
 42
-0.4142135623730147
 10
234.4428489910593
 20
101.3172919857392
 10
234.4428489910593
 20
99.71696375335699
 10
234.2785179364127
 20
99.43291563059819
  0
LWPOLYLINE
  5
3BD
330
1F
100
AcDbEntity
  8
OBRYS
100
AcDbPolyline
 90
        2
 70
     0
 43
0.0
 10
228.2427106462551
 20
103.9173964237481
 10
228.2427106462551
 20
104.2172919857391
  0
LWPOLYLINE
  5
3BE
330
1F
100
AcDbEntity
  8
OBRYS
100
AcDbPolyline
 90
        2
 70
     0
 43
0.0
 10
234.2736948027335
 20
85.01450200573112
 10
234.0197912654706
 20
85.10166292150706
  0
LWPOLYLINE
  5
3BF
330
1F
100
AcDbEntity
  8
OBRYS
100
AcDbPolyline
 90
        2
 70
     0
 43
0.0
 10
234.0166906795339
 20
85.41912847047314
 10
234.2643930449233
 20
85.51404085109215
  0
LWPOLYLINE
  5
3C0
330
1F
100
AcDbEntity
  8
OBRYS
100
AcDbPolyline
 90
        2
 70
     0
 43
0.0
 10
234.2502681534338
 20
86.06163877847206
 10
234.0022212784956
 20
86.1419095032781
  0
LWPOLYLINE
  5
3C1
330
1F
100
AcDbEntity
  8
OBRYS
100
AcDbPolyline
 90
        2
 70
     0
 43
0.0
 10
233.99188599204
 20
86.46368142160117
 10
234.2326981664589
 20
86.56117762383309
  0
LWPOLYLINE
  5
3C2
330
1F
100
AcDbEntity
  8
OBRYS
100
AcDbPolyline
 90
        2
 70
     0
 43
0.0
 10
234.2089270076106
 20
87.10756976779402
 10
233.9615691517698
 20
87.18336186846904
  0
LWPOLYLINE
  5
3C3
330
1F
100
AcDbEntity
  8
OBRYS
100
AcDbPolyline
 90
        2
 70
     0
 43
0.0
 10
233.9446881838922
 20
87.50582280588918
 10
234.1827442819228
 20
87.60710861315505
  0
LWPOLYLINE
  5
3C4
330
1F
100
AcDbEntity
  8
OBRYS
100
AcDbPolyline
 90
        2
 70
     0
 43
0.0
 10
234.1489823461672
 20
88.15315624756721
 10
233.8992129234868
 20
88.2248142336611
  0
LWPOLYLINE
  5
3C5
330
1F
100
AcDbEntity
  8
OBRYS
100
AcDbPolyline
 90
        2
 70
     0
 43
0.0
 10
233.8757862741872
 20
88.54555262333719
 10
234.1145313913149
 20
88.65166156428307
  0
LWPOLYLINE
  5
3C6
330
1F
100
AcDbEntity
  8
OBRYS
100
AcDbPolyline
 90
        2
 70
     0
 43
0.0
 10
234.0714676977493
 20
89.19736468914715
 10
233.8148080840982
 20
89.26626659885113
  0
LWPOLYLINE
  5
3C7
330
1F
100
AcDbEntity
  8
OBRYS
100
AcDbPolyline
 90
        2
 70
     0
 43
0.0
 10
233.784491243828
 20
89.5820096000752
 10
234.028059494635
 20
89.69552549631402
  0
LWPOLYLINE
  5
3C8
330
1F
100
AcDbEntity
  8
OBRYS
100
AcDbPolyline
 90
        2
 70
     0
 43
0.0
 10
233.9753495337107
 20
90.24019509253111
 10
233.7076656145068
 20
90.30685769017117
  0
LWPOLYLINE
  5
3C9
330
1F
100
AcDbEntity
  8
OBRYS
100
AcDbPolyline
 90
        2
 70
     0
 43
0.0
 10
233.6718366214603
 20
90.61484922655308
 10
233.9229840823352
 20
90.73732237105304
  0
LWPOLYLINE
  5
3CA
330
1F
100
AcDbEntity
  8
OBRYS
100
AcDbPolyline
 90
        2
 70
     0
 43
0.0
 10
233.8613168731491
 20
91.28130294817419
 10
233.5784745338101
 20
91.34658750761918
  0
LWPOLYLINE
  5
3CB
330
1F
100
AcDbEntity
  8
OBRYS
100
AcDbPolyline
 90
        2
 70
     0
 43
0.0
 10
233.5374778975355
 20
91.64321022890016
 10
233.8003386830602
 20
91.77756895282408
  0
LWPOLYLINE
  5
3CC
330
1F
100
AcDbEntity
  8
OBRYS
100
AcDbPolyline
 90
        6
 70
     0
 43
0.0
 10
210.0929141013132
 20
97.43303770141
 10
210.0708654902078
 20
97.85110003854601
 10
210.005408675988
 20
98.26451149677604
 10
209.8968881682028
 20
98.66879345196907
 10
209.7470265145941
 20
99.05963953477107
 10
209.5568572438086
 20
99.43291563059819
  0
LWPOLYLINE
  5
3CD
330
1F
100
AcDbEntity
  8
OBRYS
100
AcDbPolyline
 90
        6
 70
     0
 43
0.0
 10
209.5568572438086
 20
69.00152593551519
 10
209.7470265145941
 20
69.37480203134209
 10
209.8968881682028
 20
69.76564811414318
 10
210.005408675988
 20
70.16993006933711
 10
210.0708654902078
 20
70.5835137823421
 10
210.0929141013132
 20
71.00140386470315
  0
LWPOLYLINE
  5
3CE
330
1F
100
AcDbEntity
  8
OBRYS
100
AcDbPolyline
 90
        2
 70
     0
 43
0.0
 10
210.2572451559599
 20
91.34658750761918
 10
209.9744028166208
 20
91.28130294817419
  0
LWPOLYLINE
  5
3CF
330
1F
100
AcDbEntity
  8
OBRYS
100
AcDbPolyline
 90
        2
 70
     0
 43
0.0
 10
210.0353810067098
 20
91.77756895282408
 10
210.2985863017828
 20
91.64321022890016
  0
LWPOLYLINE
  5
3D0
330
1F
100
AcDbEntity
  8
OBRYS
100
AcDbPolyline
 90
        2
 70
     0
 43
0.0
 10
210.1280540752628
 20
90.30685769017117
 10
209.860370156059
 20
90.24019509253111
  0
LWPOLYLINE
  5
3D1
330
1F
100
AcDbEntity
  8
OBRYS
100
AcDbPolyline
 90
        2
 70
     0
 43
0.0
 10
209.9120465883379
 20
90.73732237105304
 10
210.163538558761
 20
90.61484922655308
  0
LWPOLYLINE
  5
3D2
330
1F
100
AcDbEntity
  8
OBRYS
100
AcDbPolyline
 90
        2
 70
     0
 43
0.0
 10
210.0212561152201
 20
89.26626659885113
 10
209.7642519920205
 20
89.19736468914715
  0
LWPOLYLINE
  5
3D3
330
1F
100
AcDbEntity
  8
OBRYS
100
AcDbPolyline
 90
        2
 70
     0
 43
0.0
 10
209.8076601951346
 20
89.69552549631402
 10
210.0512284459417
 20
89.5820096000752
  0
LWPOLYLINE
  5
3D4
330
1F
100
AcDbEntity
  8
OBRYS
100
AcDbPolyline
 90
        2
 70
     0
 43
0.0
 10
209.9365067662829
 20
88.2248142336611
 10
209.6863928340539
 20
88.15315624756721
  0
LWPOLYLINE
  5
3D5
330
1F
100
AcDbEntity
  8
OBRYS
100
AcDbPolyline
 90
        2
 70
     0
 43
0.0
 10
209.7211882984548
 20
88.65166156428307
 10
209.9602779251313
 20
88.54555262333719
  0
LWPOLYLINE
  5
3D6
330
1F
100
AcDbEntity
  8
OBRYS
100
AcDbPolyline
 90
        2
 70
     0
 43
0.0
 10
209.8741505380001
 20
87.18336186846904
 10
209.6267926821591
 20
87.10756976779402
  0
LWPOLYLINE
  5
3D7
330
1F
100
AcDbEntity
  8
OBRYS
100
AcDbPolyline
 90
        2
 70
     0
 43
0.0
 10
209.6529754078469
 20
87.60710861315505
 10
209.8906869963292
 20
87.50582280588918
  0
LWPOLYLINE
  5
3D8
330
1F
100
AcDbEntity
  8
OBRYS
100
AcDbPolyline
 90
        2
 70
     0
 43
0.0
 10
209.8334984112741
 20
86.1419095032781
 10
209.5854515363362
 20
86.06129426892306
  0
LWPOLYLINE
  5
3D9
330
1F
100
AcDbEntity
  8
OBRYS
100
AcDbPolyline
 90
        2
 70
     0
 43
0.0
 10
209.6030215233107
 20
86.56117762383309
 10
209.8441782072783
 20
86.46368142160117
  0
LWPOLYLINE
  5
3DA
330
1F
100
AcDbEntity
  8
OBRYS
100
AcDbPolyline
 90
        2
 70
     0
 43
0.0
 10
209.8159284242991
 20
85.10166292150706
 10
209.562369396585
 20
85.01450200573112
  0
LWPOLYLINE
  5
3DB
330
1F
100
AcDbEntity
  8
OBRYS
100
AcDbPolyline
 90
        2
 70
     0
 43
0.0
 10
209.5713266448467
 20
85.51404085109215
 10
209.819029010236
 20
85.41912847047314
  0
LWPOLYLINE
  5
3DC
330
1F
100
AcDbEntity
  8
OBRYS
100
AcDbPolyline
 90
        2
 70
     0
 43
0.0
 10
210.0353810067098
 20
76.65687261328816
 10
210.0929141013132
 20
76.21693391982211
  0
LWPOLYLINE
  5
3DD
330
1F
100
AcDbEntity
  8
OBRYS
100
AcDbPolyline
 90
        2
 70
     0
 43
0.0
 10
209.9120465883379
 20
77.69694694028516
 10
209.9747473261693
 20
77.153310872713
  0
LWPOLYLINE
  5
3DE
330
1F
100
AcDbEntity
  8
OBRYS
100
AcDbPolyline
 90
        2
 70
     0
 43
0.0
 10
209.8076601951346
 20
78.73891606979913
 10
209.860370156059
 20
78.19424647358113
  0
LWPOLYLINE
  5
3DF
330
1F
100
AcDbEntity
  8
OBRYS
100
AcDbPolyline
 90
        2
 70
     0
 43
0.0
 10
209.7211882984548
 20
79.78243549228108
 10
209.7642519920205
 20
79.237076876966
  0
LWPOLYLINE
  5
3E0
330
1F
100
AcDbEntity
  8
OBRYS
100
AcDbPolyline
 90
        2
 70
     0
 43
0.0
 10
209.6529754078469
 20
80.8273329529581
 10
209.6863928340539
 20
80.28094080899717
  0
LWPOLYLINE
  5
3E1
330
1F
100
AcDbEntity
  8
OBRYS
100
AcDbPolyline
 90
        2
 70
     0
 43
0.0
 10
209.6030215233107
 20
81.8734361970541
 10
209.6267926821591
 20
81.32687179831913
  0
LWPOLYLINE
  5
3E2
330
1F
100
AcDbEntity
  8
OBRYS
100
AcDbPolyline
 90
        2
 70
     0
 43
0.0
 10
209.5713266448467
 20
82.92005620547314
 10
209.5854515363362
 20
82.37297504241513
  0
LWPOLYLINE
  5
3E3
330
1F
100
AcDbEntity
  8
OBRYS
100
AcDbPolyline
 90
        2
 70
     0
 43
0.0
 10
209.5575462629054
 20
83.96719297821409
 10
209.562369396585
 20
83.41993956038317
  0
LWPOLYLINE
  5
3E4
330
1F
100
AcDbEntity
  8
OBRYS
100
AcDbPolyline
 90
        2
 70
     0
 43
0.0
 10
210.0929141013132
 20
92.21750764629104
 10
210.0353810067098
 20
91.77756895282408
  0
LWPOLYLINE
  5
3E5
330
1F
100
AcDbEntity
  8
OBRYS
100
AcDbPolyline
 90
        2
 70
     0
 43
0.0
 10
209.9744028166208
 20
91.28130294817419
 10
209.9120465883379
 20
90.73732237105304
  0
LWPOLYLINE
  5
3E6
330
1F
100
AcDbEntity
  8
OBRYS
100
AcDbPolyline
 90
        2
 70
     0
 43
0.0
 10
209.860370156059
 20
90.24019509253111
 10
209.8076601951346
 20
89.69552549631402
  0
LWPOLYLINE
  5
3E7
330
1F
100
AcDbEntity
  8
OBRYS
100
AcDbPolyline
 90
        2
 70
     0
 43
0.0
 10
209.7642519920205
 20
89.19736468914715
 10
209.7211882984548
 20
88.65166156428307
  0
LWPOLYLINE
  5
3E8
330
1F
100
AcDbEntity
  8
OBRYS
100
AcDbPolyline
 90
        2
 70
     0
 43
0.0
 10
209.6863928340539
 20
88.15315624756721
 10
209.6529754078469
 20
87.60710861315505
  0
LWPOLYLINE
  5
3E9
330
1F
100
AcDbEntity
  8
OBRYS
100
AcDbPolyline
 90
        2
 70
     0
 43
0.0
 10
209.6267926821591
 20
87.10756976779402
 10
209.6030215233107
 20
86.56117762383309
  0
LWPOLYLINE
  5
3EA
330
1F
100
AcDbEntity
  8
OBRYS
100
AcDbPolyline
 90
        2
 70
     0
 43
0.0
 10
209.562369396585
 20
85.01450200573112
 10
209.5575462629054
 20
84.46707633312411
  0
LWPOLYLINE
  5
3EB
330
1F
100
AcDbEntity
  8
OBRYS
100
AcDbPolyline
 90
        2
 70
     0
 43
0.0
 10
209.5854515363362
 20
86.06129426892306
 10
209.5713266448467
 20
85.51404085109215
  0
LWPOLYLINE
  5
3EC
330
1F
100
AcDbEntity
  8
OBRYS
100
AcDbPolyline
 90
        2
 70
     0
 43
0.0
 10
209.8224741057214
 20
84.06348339702703
 10
209.5575462629054
 20
83.96719297821409
  0
LWPOLYLINE
  5
3ED
330
1F
100
AcDbEntity
  8
OBRYS
100
AcDbPolyline
 90
        2
 70
     0
 43
0.0
 10
209.5575462629054
 20
84.46707633312411
 10
209.8162729338479
 20
84.3728529716031
  0
LWPOLYLINE
  5
3EE
330
1F
100
AcDbEntity
  8
OBRYS
100
AcDbPolyline
 90
        4
 70
     0
 43
0.0
 10
209.3928706987107
 20
99.71696375335699
 10
209.3928706987107
 20
101.31694747619
 42
-0.4142135623730836
 10
212.2928706987106
 20
104.2169474761901
 10
215.5930090435149
 20
104.2169474761901
  0
LWPOLYLINE
  5
3EF
330
1F
100
AcDbEntity
  8
OBRYS
100
AcDbPolyline
 90
        2
 70
     0
 43
0.0
 10
209.3928706987107
 20
99.71696375335699
 10
209.5568572438086
 20
99.43291563059819
  0
LWPOLYLINE
  5
3F0
330
1F
100
AcDbEntity
  8
OBRYS
100
AcDbPolyline
 90
        2
 70
     0
 43
0.0
 10
210.0929141013132
 20
97.43303770141
 10
210.0929141013132
 20
92.21750764629104
  0
LWPOLYLINE
  5
3F1
330
1F
100
AcDbEntity
  8
OBRYS
100
AcDbPolyline
 90
        2
 70
     0
 43
0.0
 10
210.0929141013132
 20
76.21693391982211
 10
210.0929141013132
 20
71.00140386470315
  0
LWPOLYLINE
  5
3F2
330
1F
100
AcDbEntity
  8
OBRYS
100
AcDbPolyline
 90
        2
 70
     0
 43
0.0
 10
215.5930090435149
 20
64.21714958037404
 10
215.5179059619362
 20
64.21714958037404
  0
LWPOLYLINE
  5
3F3
330
1F
100
AcDbEntity
  8
OBRYS
100
AcDbPolyline
 90
        2
 70
     0
 43
0.0
 10
212.4180090443083
 20
64.21714958037404
 10
212.3928598472663
 20
64.21714958037404
  0
LWPOLYLINE
  5
3F4
330
1F
100
AcDbEntity
  8
OBRYS
100
AcDbPolyline
 90
        2
 70
     0
 43
0.0
 10
215.5930090435149
 20
64.46657449350613
 10
215.5930090435149
 20
64.21714958037404
  0
LWPOLYLINE
  5
3F5
330
1F
100
AcDbEntity
  8
OBRYS
100
AcDbPolyline
 90
        3
 70
     0
 43
0.0
 10
215.5930090435149
 20
64.46657449350613
 10
215.5919755148693
 20
64.49275721919406
 10
215.5881859098353
 20
64.51876769010818
  0
LWPOLYLINE
  5
3F6
330
1F
100
AcDbEntity
  8
OBRYS
100
AcDbPolyline
 90
        2
 70
     0
 43
0.0
 10
209.562369396585
 20
83.41993956038317
 10
209.8159284242991
 20
83.33277864460518
  0
LWPOLYLINE
  5
3F7
330
1F
100
AcDbEntity
  8
OBRYS
100
AcDbPolyline
 90
        2
 70
     0
 43
0.0
 10
209.819029010236
 20
83.01531309564001
 10
209.5713266448467
 20
82.92005620547314
  0
LWPOLYLINE
  5
3F8
330
1F
100
AcDbEntity
  8
OBRYS
100
AcDbPolyline
 90
        2
 70
     0
 43
0.0
 10
209.5854515363362
 20
82.37297504241513
 10
209.8334984112741
 20
82.29253206283505
  0
LWPOLYLINE
  5
3F9
330
1F
100
AcDbEntity
  8
OBRYS
100
AcDbPolyline
 90
        2
 70
     0
 43
0.0
 10
209.8441782072783
 20
81.97041563496413
 10
209.6030215233107
 20
81.8734361970541
  0
LWPOLYLINE
  5
3FA
330
1F
100
AcDbEntity
  8
OBRYS
100
AcDbPolyline
 90
        2
 70
     0
 43
0.0
 10
209.6267926821591
 20
81.32687179831913
 10
209.8741505380001
 20
81.2510796976432
  0
LWPOLYLINE
  5
3FB
330
1F
100
AcDbEntity
  8
OBRYS
100
AcDbPolyline
 90
        2
 70
     0
 43
0.0
 10
209.8951924845463
 20
80.93047572138056
 10
209.6529754078469
 20
80.8273329529581
  0
LWPOLYLINE
  5
3FC
330
1F
100
AcDbEntity
  8
OBRYS
100
AcDbPolyline
 90
        2
 70
     0
 43
0.0
 10
209.6863928340539
 20
80.28094080899717
 10
209.9365067662829
 20
80.20962733245204
  0
LWPOLYLINE
  5
3FD
330
1F
100
AcDbEntity
  8
OBRYS
100
AcDbPolyline
 90
        2
 70
     0
 43
0.0
 10
209.9602779251313
 20
79.88906119755
 10
209.7211882984548
 20
79.78243549228108
  0
LWPOLYLINE
  5
3FE
330
1F
100
AcDbEntity
  8
OBRYS
100
AcDbPolyline
 90
        2
 70
     0
 43
0.0
 10
209.7642519920205
 20
79.237076876966
 10
210.0212561152201
 20
79.16834722203606
  0
LWPOLYLINE
  5
3FF
330
1F
100
AcDbEntity
  8
OBRYS
100
AcDbPolyline
 90
        2
 70
     0
 43
0.0
 10
210.0518465225349
 20
78.8525473310651
 10
209.8076601951346
 20
78.73891606979913
  0
LWPOLYLINE
  5
400
330
1F
100
AcDbEntity
  8
OBRYS
100
AcDbPolyline
 90
        2
 70
     0
 43
0.0
 10
209.860370156059
 20
78.19424647358113
 10
210.1280540752628
 20
78.12758387594221
  0
LWPOLYLINE
  5
401
330
1F
100
AcDbEntity
  8
OBRYS
100
AcDbPolyline
 90
        2
 70
     0
 43
0.0
 10
210.163538558761
 20
77.81959233956007
 10
209.9120465883379
 20
77.69694694028516
  0
LWPOLYLINE
  5
402
330
1F
100
AcDbEntity
  8
OBRYS
100
AcDbPolyline
 90
        2
 70
     0
 43
0.0
 10
209.9744028166208
 20
77.153310872713
 10
210.2572451559599
 20
77.08802631326802
  0
LWPOLYLINE
  5
403
330
1F
100
AcDbEntity
  8
OBRYS
100
AcDbPolyline
 90
        2
 70
     0
 43
0.0
 10
210.3147782505634
 20
76.79932731160415
 10
210.0353810067098
 20
76.65687261328816
  0
LWPOLYLINE
  5
404
330
1F
100
AcDbEntity
  8
OBRYS
100
AcDbPolyline
 90
        2
 70
     0
 43
0.0
 10
231.4177106454613
 20
53.71753206997817
 10
212.4180090443083
 20
53.71753206997817
  0
LWPOLYLINE
  5
405
330
1F
100
AcDbEntity
  8
OBRYS
100
AcDbPolyline
 90
        3
 70
     0
 43
0.0
 10
212.4180090443083
 20
52.91706413398008
 10
212.4180090443083
 20
56.71717670898504
 10
212.4180090443083
 20
64.21714958037404
  0
LWPOLYLINE
  5
408
330
1F
100
AcDbEntity
  8
OBRYS
100
AcDbPolyline
 90
        2
 70
     0
 43
0.0
 10
231.4177106454613
 20
64.21714958037404
 10
231.4177106454613
 20
52.91706413398008
  0
LWPOLYLINE
  5
409
330
1F
100
AcDbEntity
  8
OBRYS
100
AcDbPolyline
 90
        2
 70
     0
 43
0.0
 10
231.4177106454613
 20
52.91706413398008
 10
230.917482781003
 20
52.91706413398008
  0
LWPOLYLINE
  5
40A
330
1F
100
AcDbEntity
  8
OBRYS
100
AcDbPolyline
 90
        2
 70
     0
 43
0.0
 10
212.9178923992183
 20
52.91706413398008
 10
212.4180090443083
 20
52.91706413398008
  0
LWPOLYLINE
  5
40B
330
1F
100
AcDbEntity
  8
OBRYS
100
AcDbPolyline
 90
        2
 70
     0
 43
0.0
 10
218.7177106486365
 20
65.51750087128215
 10
219.5180063298598
 20
65.51750087128215
  0
LWPOLYLINE
  5
40C
330
1F
100
AcDbEntity
  8
OBRYS
100
AcDbPolyline
 90
        2
 70
     0
 43
0.0
 10
224.3177133599099
 20
65.51750087128215
 10
225.1180090411333
 20
65.51750087128215
  0
LWPOLYLINE
  5
40D
330
1F
100
AcDbEntity
  8
OBRYS
100
AcDbPolyline
 90
        5
 70
     0
 43
0.0
 10
209.5568572438086
 20
69.0011814259662
 10
209.3928706987107
 20
68.71696104843312
 10
209.3928706987107
 20
67.1171495803739
 42
0.4142135623730261
 10
212.2928706987106
 20
64.21714958037404
 10
215.5179059619362
 20
64.21714958037404
  0
LWPOLYLINE
  5
40E
330
1F
100
AcDbEntity
  8
OBRYS
100
AcDbPolyline
 90
        2
 70
     0
 43
0.0
 10
231.4177106454613
 20
56.71717670898504
 10
212.4180090443083
 20
56.71717670898504
  0
LWPOLYLINE
  5
40F
330
1F
100
AcDbEntity
  8
OBRYS
100
AcDbPolyline
 90
        3
 70
     0
 43
0.0
 10
216.1669619513574
 20
104.2176364952872
 10
217.5446556359087
 20
104.041592115991
 10
218.9278614732366
 20
103.9139513282632
  0
LWPOLYLINE
  5
410
330
1F
100
AcDbEntity
  8
OBRYS
100
AcDbPolyline
 90
        3
 70
     0
 43
0.0
 10
224.9540224960357
 20
103.9173964237481
 10
226.3131126649667
 20
104.0443481923791
 10
227.6670351906698
 20
104.2176364952872
  0
LWPOLYLINE
  5
411
330
1F
100
AcDbEntity
  8
OBRYS
100
AcDbPolyline
 90
        2
 70
     0
 43
0.0
 10
215.6670785964477
 20
104.2172919857391
 10
216.1669619513574
 20
104.2172919857391
  0
LWPOLYLINE
  5
412
330
1F
100
AcDbEntity
  8
OBRYS
100
AcDbPolyline
 90
        2
 70
     0
 43
0.0
 10
228.1669185455795
 20
104.2172919857391
 10
228.1669185455795
 20
103.9173964237481
  0
LWPOLYLINE
  5
413
330
1F
100
AcDbEntity
  8
OBRYS
100
AcDbPolyline
 90
        2
 70
     0
 43
0.0
 10
227.6670351906698
 20
104.2172919857391
 10
228.1669185455795
 20
104.2172919857391
  0
LWPOLYLINE
  5
414
330
1F
100
AcDbEntity
  8
OBRYS
100
AcDbPolyline
 90
        2
 70
     0
 43
0.0
 10
212.9178923992183
 20
53.71753206997817
 10
212.9178923992183
 20
49.81716721635319
  0
LWPOLYLINE
  5
415
330
1F
100
AcDbEntity
  8
OBRYS
100
AcDbPolyline
 90
        2
 70
     0
 43
0.0
 10
210.3275251038588
 20
58.82368034344102
 10
210.674101709675
 20
57.86938889402716
  0
LWPOLYLINE
  5
416
330
1F
100
AcDbEntity
  8
OBRYS
100
AcDbPolyline
 90
        2
 70
     0
 43
0.0
 10
209.6894934199907
 20
58.711025721074
 10
210.3275251038588
 20
58.82368034344102
  0
LWPOLYLINE
  5
417
330
1F
100
AcDbEntity
  8
OBRYS
100
AcDbPolyline
 90
        2
 70
     0
 43
0.0
 10
209.6894934199907
 20
57.69575608157009
 10
209.6894934199907
 20
58.711025721074
  0
LWPOLYLINE
  5
418
330
1F
100
AcDbEntity
  8
OBRYS
100
AcDbPolyline
 90
        2
 70
     0
 43
0.0
 10
231.7653207799231
 20
59.28687343143309
 10
231.4904021602
 20
57.73072380074603
  0
LWPOLYLINE
  5
419
330
1F
100
AcDbEntity
  8
OBRYS
100
AcDbPolyline
 90
        2
 70
     0
 43
0.0
 10
232.7499290696074
 20
59.11289610942816
 10
231.7653207799231
 20
59.28687343143309
  0
LWPOLYLINE
  5
41A
330
1F
100
AcDbEntity
  8
OBRYS
100
AcDbPolyline
 90
        2
 70
     0
 43
0.0
 10
231.4177106454613
 20
57.54554991841399
 10
231.4904021602
 20
57.73072380074603
  0
LWPOLYLINE
  5
41B
330
1F
100
AcDbEntity
  8
OBRYS
100
AcDbPolyline
 90
        2
 70
     0
 43
0.0
 10
212.0703989098467
 20
59.28687343143309
 10
211.0857906201622
 20
59.11289610942816
  0
LWPOLYLINE
  5
41C
330
1F
100
AcDbEntity
  8
OBRYS
100
AcDbPolyline
 90
        2
 70
     0
 43
0.0
 10
212.3449730200211
 20
57.73072380074603
 10
212.0703989098467
 20
59.28687343143309
  0
LWPOLYLINE
  5
41D
330
1F
100
AcDbEntity
  8
OBRYS
100
AcDbPolyline
 90
        2
 70
     0
 43
0.0
 10
212.3449730200211
 20
57.73072380074603
 10
212.4180090443083
 20
57.54554991841399
  0
LWPOLYLINE
  5
41E
330
1F
100
AcDbEntity
  8
OBRYS
100
AcDbPolyline
 90
       12
 70
     0
 43
0.0
 10
230.917482781003
 20
50.8169339261721
 10
230.9178706931542
 20
50.8169339261721
 42
0.4142135623732379
 10
231.6178706931542
 20
51.51693392617215
 10
231.6178706931542
 20
52.31727300999903
 10
232.6179819125224
 20
52.31727300999903
 10
232.6179819125224
 20
51.31716721635319
 42
-0.4142135623730729
 10
231.1179819125224
 20
49.81716721635319
 10
230.917482781003
 20
49.81716721635319
 10
212.9178923992183
 20
49.81716721635319
 10
212.3373516026498
 20
49.81716721635319
 42
-0.3639701950151317
 10
210.8601400092429
 20
51.05669474505492
 10
209.6894934199907
 20
57.69575608157009
  0
LWPOLYLINE
  5
41F
330
1F
100
AcDbEntity
  8
OBRYS
100
AcDbPolyline
 90
        5
 70
     0
 43
0.0
 10
212.9178923992183
 20
50.8169339261721
 10
212.5052876792975
 20
50.8169339261721
 42
-0.3639593160610799
 10
211.8159269403245
 20
51.39535361706515
 10
210.7609181159033
 20
57.37725700395907
 10
210.674101709675
 20
57.86938889402716
  0
LWPOLYLINE
  5
420
330
1F
100
AcDbEntity
  8
OBRYS
100
AcDbPolyline
 90
        3
 70
     0
 43
0.0
 10
230.917482781003
 20
49.81716721635319
 10
230.917482781003
 20
51.31716179062999
 10
230.917482781003
 20
53.71753206997817
  0
LWPOLYLINE
  5
421
330
1F
100
AcDbEntity
  8
OBRYS
100
AcDbPolyline
 90
        2
 70
     0
 43
0.0
 10
211.1519364534791
 20
55.16137158784607
 10
211.1519364534791
 20
55.16137158784607
  0
LWPOLYLINE
  5
422
330
1F
100
AcDbEntity
  8
OBRYS
100
AcDbPolyline
 90
        2
 70
     0
 43
0.0
 10
210.7609181159033
 20
57.37725700395907
 10
209.7763098262189
 20
57.20327968195414
  0
LWPOLYLINE
  5
423
330
1F
100
AcDbEntity
  8
OBRYS
100
AcDbPolyline
 90
        2
 70
     0
 43
0.0
 10
230.0176238402558
 20
75.96716449714216
 10
213.818095849514
 20
75.96716449714216
  0
LWPOLYLINE
  5
424
330
1F
100
AcDbEntity
  8
OBRYS
100
AcDbPolyline
 90
        2
 70
     0
 43
0.0
 10
213.9803598468694
 20
75.98438997456805
 10
213.9803598468694
 20
75.96716449714216
  0
LWPOLYLINE
  5
425
330
1F
100
AcDbEntity
  8
OBRYS
100
AcDbPolyline
 90
        2
 70
     0
 43
0.0
 10
213.9803598468694
 20
89.62455652931811
 10
213.9803598468694
 20
75.98438997456805
  0
LWPOLYLINE
  5
426
330
1F
100
AcDbEntity
  8
OBRYS
100
AcDbPolyline
 90
        2
 70
     0
 43
0.0
 10
229.8553598429006
 20
75.98438997456805
 10
229.8553598429006
 20
89.62455652931811
  0
LWPOLYLINE
  5
427
330
1F
100
AcDbEntity
  8
OBRYS
100
AcDbPolyline
 90
        2
 70
     0
 43
0.0
 10
229.8553598429006
 20
75.98438997456805
 10
229.8553598429006
 20
75.96716449714216
  0
LWPOLYLINE
  5
428
330
1F
100
AcDbEntity
  8
OBRYS
100
AcDbPolyline
 90
        2
 70
     0
 43
0.0
 10
219.6320389904215
 20
75.98438997456805
 10
224.2040252088968
 20
75.98438997456805
  0
LWPOLYLINE
  5
429
330
1F
100
AcDbEntity
  8
OBRYS
100
AcDbPolyline
 90
        2
 70
     0
 43
0.0
 10
219.6320389904215
 20
75.98438997456805
 10
219.6320389904215
 20
77.88987228745913
  0
LWPOLYLINE
  5
42A
330
1F
100
AcDbEntity
  8
OBRYS
100
AcDbPolyline
 90
        2
 70
     0
 43
0.0
 10
228.5217633805605
 20
82.080486435718
 10
228.5217633805605
 20
81.57285161596604
  0
LWPOLYLINE
  5
42B
330
1F
100
AcDbEntity
  8
OBRYS
100
AcDbPolyline
 90
        2
 70
     0
 43
0.0
 10
228.5217633805605
 20
84.874803383803
 10
228.5217633805605
 20
84.3664795449551
  0
LWPOLYLINE
  5
42C
330
1F
100
AcDbEntity
  8
OBRYS
100
AcDbPolyline
 90
        4
 70
     0
 43
0.0
 10
215.3139563092097
 20
82.080486435718
 10
215.4989579367674
 20
82.080486435718
 10
216.5931202628828
 20
82.080486435718
 10
216.8380665518841
 20
82.080486435718
  0
LWPOLYLINE
  5
42D
330
1F
100
AcDbEntity
  8
OBRYS
100
AcDbPolyline
 90
        2
 70
     0
 43
0.0
 10
227.2425994268869
 20
82.080486435718
 10
226.9979976474342
 20
82.080486435718
  0
LWPOLYLINE
  5
42E
330
1F
100
AcDbEntity
  8
OBRYS
100
AcDbPolyline
 90
        3
 70
     0
 43
0.0
 10
227.2425994268869
 20
82.080486435718
 10
228.3364172434537
 20
82.080486435718
 10
228.5217633805605
 20
82.080486435718
  0
LWPOLYLINE
  5
42F
330
1F
100
AcDbEntity
  8
OBRYS
100
AcDbPolyline
 90
        4
 70
     0
 43
0.0
 10
215.3139563092097
 20
84.3664795449551
 10
215.4989579367674
 20
84.3664795449551
 10
216.5931202628828
 20
84.3664795449551
 10
216.8380665518841
 20
84.3664795449551
  0
LWPOLYLINE
  5
430
330
1F
100
AcDbEntity
  8
OBRYS
100
AcDbPolyline
 90
        4
 70
     0
 43
0.0
 10
226.9979976474342
 20
84.3664795449551
 10
227.2425994268869
 20
84.3664795449551
 10
228.3364172434537
 20
84.3664795449551
 10
228.5217633805605
 20
84.3664795449551
  0
LWPOLYLINE
  5
431
330
1F
100
AcDbEntity
  8
OBRYS
100
AcDbPolyline
 90
        2
 70
     0
 43
0.0
 10
215.5678598464725
 20
84.3664795449551
 10
215.5678598464725
 20
84.74750710562415
  0
LWPOLYLINE
  5
432
330
1F
100
AcDbEntity
  8
OBRYS
100
AcDbPolyline
 90
        2
 70
     0
 43
0.0
 10
215.5678598464725
 20
81.95387917663419
 10
215.5678598464725
 20
82.080486435718
  0
LWPOLYLINE
  5
433
330
1F
100
AcDbEntity
  8
OBRYS
100
AcDbPolyline
 90
        6
 70
     0
 43
0.0
 10
215.5678598464725
 20
84.74750710562415
 10
215.9616342604364
 20
84.74750710562415
 10
215.9616342604364
 20
86.75410297100706
 10
227.8740854293333
 20
86.75410297100706
 10
227.8740854293333
 20
84.74750710562415
 10
228.2675153337487
 20
84.74750710562415
  0
LWPOLYLINE
  5
434
330
1F
100
AcDbEntity
  8
OBRYS
100
AcDbPolyline
 90
        2
 70
     0
 43
0.0
 10
228.2675153337487
 20
82.080486435718
 10
228.2675153337487
 20
81.95387917663419
  0
LWPOLYLINE
  5
435
330
1F
100
AcDbEntity
  8
OBRYS
100
AcDbPolyline
 90
        2
 70
     0
 43
0.0
 10
228.2675153337487
 20
84.74750710562415
 10
228.2675153337487
 20
84.3664795449551
  0
LWPOLYLINE
  5
436
330
1F
100
AcDbEntity
  8
OBRYS
100
AcDbPolyline
 90
        3
 70
     0
 43
0.0
 10
228.2675153337487
 20
81.95387917663419
 10
227.8740854293333
 20
81.95387917663419
 10
227.8740854293333
 20
79.92144509511121
  0
LWPOLYLINE
  5
437
330
1F
100
AcDbEntity
  8
OBRYS
100
AcDbPolyline
 90
        2
 70
     0
 43
0.0
 10
215.9616342604364
 20
79.92144509511121
 10
215.9616342604364
 20
81.95387917663419
  0
LWPOLYLINE
  5
438
330
1F
100
AcDbEntity
  8
OBRYS
100
AcDbPolyline
 90
        2
 70
     0
 43
0.0
 10
218.7683535522695
 20
79.92144509511121
 10
215.9616342604364
 20
79.92144509511121
  0
LWPOLYLINE
  5
439
330
1F
100
AcDbEntity
  8
OBRYS
100
AcDbPolyline
 90
        2
 70
     0
 43
0.0
 10
217.5997771636728
 20
80.9374037537122
 10
217.5997771636728
 20
79.92144509511121
  0
LWPOLYLINE
  5
43A
330
1F
100
AcDbEntity
  8
OBRYS
100
AcDbPolyline
 90
        2
 70
     0
 43
0.0
 10
226.2359425260971
 20
80.9374037537122
 10
227.8740854293333
 20
80.9374037537122
  0
LWPOLYLINE
  5
43B
330
1F
100
AcDbEntity
  8
OBRYS
100
AcDbPolyline
 90
        2
 70
     0
 43
0.0
 10
226.2359425260971
 20
79.92144509511121
 10
226.2359425260971
 20
80.9374037537122
  0
LWPOLYLINE
  5
43C
330
1F
100
AcDbEntity
  8
OBRYS
100
AcDbPolyline
 90
        9
 70
     0
 43
0.0
 10
227.8740854293333
 20
79.92144509511121
 10
225.0673661375002
 20
79.92144509511121
 10
225.0673661375002
 20
78.2454061415371
 10
223.9497771620852
 20
78.2454061415371
 10
223.9497771620852
 20
77.10215120475704
 10
219.8855980181359
 20
77.10215120475704
 10
219.8855980181359
 20
78.2454061415371
 10
218.7683535522695
 20
78.2454061415371
 10
218.7683535522695
 20
79.92144509511121
  0
LWPOLYLINE
  5
43D
330
1F
100
AcDbEntity
  8
OBRYS
100
AcDbPolyline
 90
        2
 70
     0
 43
0.0
 10
215.9616342604364
 20
80.9374037537122
 10
217.5997771636728
 20
80.9374037537122
  0
LWPOLYLINE
  5
43E
330
1F
100
AcDbEntity
  8
OBRYS
100
AcDbPolyline
 90
        2
 70
     0
 43
0.0
 10
215.9616342604364
 20
81.95387917663419
 10
215.5678598464725
 20
81.95387917663419
  0
LWPOLYLINE
  5
43F
330
1F
100
AcDbEntity
  8
OBRYS
100
AcDbPolyline
 90
        2
 70
     0
 43
0.0
 10
217.7079531619096
 20
83.45249571271819
 10
217.7079531619096
 20
86.75410297100706
  0
LWPOLYLINE
  5
440
330
1F
100
AcDbEntity
  8
OBRYS
100
AcDbPolyline
 90
        2
 70
     0
 43
0.0
 10
217.2376976281731
 20
83.45249571271819
 10
217.2376976281731
 20
86.75410297100706
  0
LWPOLYLINE
  5
441
330
1F
100
AcDbEntity
  8
OBRYS
100
AcDbPolyline
 90
        2
 70
     0
 43
0.0
 10
220.2480220631845
 20
83.45249571271819
 10
220.2480220631845
 20
86.75410297100706
  0
LWPOLYLINE
  5
442
330
1F
100
AcDbEntity
  8
OBRYS
100
AcDbPolyline
 90
        2
 70
     0
 43
0.0
 10
219.7774220198991
 20
83.45249571271819
 10
219.7774220198991
 20
86.75410297100706
  0
LWPOLYLINE
  5
443
330
1F
100
AcDbEntity
  8
OBRYS
100
AcDbPolyline
 90
        2
 70
     0
 43
0.0
 10
222.7877464549103
 20
83.45249571271819
 10
222.7877464549103
 20
86.75410297100706
  0
LWPOLYLINE
  5
444
330
1F
100
AcDbEntity
  8
OBRYS
100
AcDbPolyline
 90
        2
 70
     0
 43
0.0
 10
222.3178354307224
 20
83.45249571271819
 10
222.3178354307224
 20
86.75410297100706
  0
LWPOLYLINE
  5
445
330
1F
100
AcDbEntity
  8
OBRYS
100
AcDbPolyline
 90
        2
 70
     0
 43
0.0
 10
225.327815356185
 20
83.45249571271819
 10
225.327815356185
 20
86.75410297100706
  0
LWPOLYLINE
  5
446
330
1F
100
AcDbEntity
  8
OBRYS
100
AcDbPolyline
 90
        2
 70
     0
 43
0.0
 10
224.8579043319972
 20
83.45249571271819
 10
224.8579043319972
 20
86.75410297100706
  0
LWPOLYLINE
  5
447
330
1F
100
AcDbEntity
  8
OBRYS
100
AcDbPolyline
 90
        2
 70
     0
 43
0.0
 10
218.9778153577726
 20
83.45249571271819
 10
218.9778153577726
 20
86.75410297100706
  0
LWPOLYLINE
  5
448
330
1F
100
AcDbEntity
  8
OBRYS
100
AcDbPolyline
 90
        2
 70
     0
 43
0.0
 10
218.5079043335847
 20
83.45249571271819
 10
218.5079043335847
 20
86.75410297100706
  0
LWPOLYLINE
  5
449
330
1F
100
AcDbEntity
  8
OBRYS
100
AcDbPolyline
 90
        2
 70
     0
 43
0.0
 10
221.5178842590475
 20
83.45249571271819
 10
221.5178842590475
 20
86.75410297100706
  0
LWPOLYLINE
  5
44A
330
1F
100
AcDbEntity
  8
OBRYS
100
AcDbPolyline
 90
        2
 70
     0
 43
0.0
 10
221.0479732348593
 20
83.45249571271819
 10
221.0479732348593
 20
86.75410297100706
  0
LWPOLYLINE
  5
44B
330
1F
100
AcDbEntity
  8
OBRYS
100
AcDbPolyline
 90
        2
 70
     0
 43
0.0
 10
224.0579531603222
 20
83.45249571271819
 10
224.0579531603222
 20
86.75410297100706
  0
LWPOLYLINE
  5
44C
330
1F
100
AcDbEntity
  8
OBRYS
100
AcDbPolyline
 90
        2
 70
     0
 43
0.0
 10
223.588042136134
 20
83.45249571271819
 10
223.588042136134
 20
86.75410297100706
  0
LWPOLYLINE
  5
44D
330
1F
100
AcDbEntity
  8
OBRYS
100
AcDbPolyline
 90
        2
 70
     0
 43
0.0
 10
226.5980220615969
 20
83.45249571271819
 10
226.5980220615969
 20
86.75410297100706
  0
LWPOLYLINE
  5
44E
330
1F
100
AcDbEntity
  8
OBRYS
100
AcDbPolyline
 90
        2
 70
     0
 43
0.0
 10
226.1281110374086
 20
83.45249571271819
 10
226.1281110374086
 20
86.75410297100706
  0
LWPOLYLINE
  5
44F
330
1F
100
AcDbEntity
  8
OBRYS
100
AcDbPolyline
 90
        2
 70
     0
 43
0.0
 10
218.3618322850101
 20
81.01405712825812
 10
219.1683291381071
 20
81.01405712825812
  0
LWPOLYLINE
  5
450
330
1F
100
AcDbEntity
  8
OBRYS
100
AcDbPolyline
 90
        2
 70
     0
 43
0.0
 10
219.0735890122625
 20
82.2978719608372
 10
218.3618322850101
 20
81.01405712825812
  0
LWPOLYLINE
  5
451
330
1F
100
AcDbEntity
  8
OBRYS
100
AcDbPolyline
 90
        2
 70
     0
 43
0.0
 10
220.0433833913603
 20
82.2978719608372
 10
219.0735890122625
 20
82.2978719608372
  0
LWPOLYLINE
  5
452
330
1F
100
AcDbEntity
  8
OBRYS
100
AcDbPolyline
 90
        2
 70
     0
 43
0.0
 10
220.7544510995161
 20
81.01405712825812
 10
220.0433833913603
 20
82.2978719608372
  0
LWPOLYLINE
  5
453
330
1F
100
AcDbEntity
  8
OBRYS
100
AcDbPolyline
 90
        2
 70
     0
 43
0.0
 10
219.947954246419
 20
81.01405712825812
 10
220.7544510995161
 20
81.01405712825812
  0
LWPOLYLINE
  5
454
330
1F
100
AcDbEntity
  8
OBRYS
100
AcDbPolyline
 90
        2
 70
     0
 43
0.0
 10
219.8831864512964
 20
81.15048290947419
 10
219.947954246419
 20
81.01405712825812
  0
LWPOLYLINE
  5
455
330
1F
100
AcDbEntity
  8
OBRYS
100
AcDbPolyline
 90
        2
 70
     0
 43
0.0
 10
219.2320634045842
 20
81.15048290947419
 10
219.8831864512964
 20
81.15048290947419
  0
LWPOLYLINE
  5
456
330
1F
100
AcDbEntity
  8
OBRYS
100
AcDbPolyline
 90
        2
 70
     0
 43
0.0
 10
219.1683291381071
 20
81.01405712825812
 10
219.2320634045842
 20
81.15048290947419
  0
LWPOLYLINE
  5
457
330
1F
100
AcDbEntity
  8
OBRYS
100
AcDbPolyline
 90
        4
 70
     0
 43
0.0
 10
219.7295351926543
 20
81.47363286599119
 10
219.5545243420034
 20
81.84277484723515
 10
219.3826140772895
 20
81.47363286599119
 10
219.7295351926543
 20
81.47363286599119
  0
LWPOLYLINE
  5
458
330
1F
100
AcDbEntity
  8
OBRYS
100
AcDbPolyline
 90
       14
 70
     0
 43
0.0
 10
222.4466820018708
 20
82.2978719608372
 10
223.5622039199945
 20
82.2978719608372
 10
223.5622039199945
 20
81.01405712825812
 10
222.8566483646154
 20
81.01405712825812
 10
222.8566483646154
 20
81.84277484723515
 10
222.505937644217
 20
81.01405712825812
 10
221.851024992471
 20
81.01405712825812
 10
221.5010032911698
 20
81.84277484723515
 10
221.5010032911698
 20
81.01405712825812
 10
220.7947587166934
 20
81.01405712825812
 10
220.7947587166934
 20
82.2978719608372
 10
221.9106251443659
 20
82.2978719608372
 10
222.1786535731182
 20
81.63382980605519
 10
222.4466820018708
 20
82.2978719608372
  0
LWPOLYLINE
  5
459
330
1F
100
AcDbEntity
  8
OBRYS
100
AcDbPolyline
 90
        3
 70
     0
 43
0.0
 10
224.4637854084845
 20
81.01405712825812
 10
223.7547847576202
 20
81.01405712825812
 10
223.7547847576202
 20
82.2978719608372
  0
LWPOLYLINE
  5
45A
330
1F
100
AcDbEntity
  8
OBRYS
100
AcDbPolyline
 90
        2
 70
     0
 43
0.0
 10
223.7547847576202
 20
82.2978719608372
 10
225.0590979083357
 20
82.2978719608372
  0
LWPOLYLINE
  5
45B
330
1F
100
AcDbEntity
  8
OBRYS
100
AcDbPolyline
 90
       71
 70
     0
 43
0.0
 10
225.9131370791291
 20
81.84277484723515
 10
225.9124480600321
 20
81.85569395530518
 10
225.9121035504837
 20
81.86912982769803
 10
225.9114145313866
 20
81.88153217144412
 10
225.9100364931925
 20
81.89376226041708
 10
225.9083139454497
 20
81.90650911371216
 10
225.9062468881586
 20
81.91822243836208
 10
225.903835321319
 20
81.93028027256099
 10
225.9014237544795
 20
81.9411323233391
 10
225.898667678091
 20
81.95232888366621
 10
225.8955670921542
 20
81.96335318921905
 10
225.8917774871207
 20
81.97386073044908
 10
225.8883323916353
 20
81.98419601690506
 10
225.8841982770529
 20
81.994014539038
 10
225.8800641624708
 20
82.004005315945
 10
225.8755855383398
 20
82.01347932853008
 10
225.8704178951121
 20
82.02295334111403
 10
225.8652502518841
 20
82.03242735369821
 10
225.8597380991077
 20
82.04138460196003
 10
225.8542259463313
 20
82.05016959544713
 10
225.8483692840063
 20
82.058954588934
 10
225.8414790930359
 20
82.067739582422
 10
225.8349334116139
 20
82.07618006636102
 10
225.8276987110949
 20
82.08427604075104
 10
225.8208085201245
 20
82.092544269916
 10
225.8128848005084
 20
82.1009847538541
 10
225.8049610808923
 20
82.10908072824503
 10
225.796348342179
 20
82.11683219308719
 10
225.7873910939174
 20
82.12458365792912
 10
225.7784338456558
 20
82.13233512277014
 10
225.7687875782972
 20
82.139397568515
 10
225.7594858204871
 20
82.14680452380816
 10
225.7491505340313
 20
82.154211479102
 10
225.738470738027
 20
82.16092941529809
 10
225.7274464324741
 20
82.16799186104316
 10
225.7167666364698
 20
82.17470979723902
 10
225.70505331182
 20
82.1814277334351
 10
225.6929954776217
 20
82.18762890530905
 10
225.6802486243263
 20
82.19365782240806
 10
225.6675017710308
 20
82.19968673950706
 10
225.6540658986383
 20
82.20571565660606
 10
225.6406300262458
 20
82.2114000641572
 10
225.6265051347562
 20
82.21691221693317
 10
225.6116912241698
 20
82.22259662448408
 10
225.5972218231317
 20
82.22759201293815
 10
225.5820634029966
 20
82.23293191094007
 10
225.5662159637646
 20
82.23741053507018
 10
225.5503685245322
 20
82.24240592352402
 10
225.5341765757515
 20
82.24705680242909
 10
225.5169510983254
 20
82.25119091701202
 10
225.4997256208991
 20
82.2554972863681
 10
225.4821556339244
 20
82.25928689140204
 10
225.4635521183041
 20
82.26324875121003
 10
225.4452931122323
 20
82.2670383562442
 10
225.4263450870633
 20
82.27065570650319
 10
225.4067080427974
 20
82.27375629244005
 10
225.3867264889828
 20
82.2766846236031
 10
225.3664004256201
 20
82.27978520953906
 10
225.3453853431599
 20
82.28219677637907
 10
225.3243702606999
 20
82.28478059799312
 10
225.3023216495943
 20
82.28684765528413
 10
225.2799285289404
 20
82.28891471257515
 10
225.2571908987374
 20
82.29063726031808
 10
225.2341087589865
 20
82.29253206283505
 10
225.2103376001381
 20
82.29391010102921
 10
225.1862219317414
 20
82.29528813922315
 10
225.1617617537961
 20
82.29597715832
 10
225.1369570663023
 20
82.29666617741708
 10
225.1107743406145
 20
82.2975274512882
 10
225.0852806340236
 20
82.2978719608372
 10
225.0590979083357
 20
82.2978719608372
  0
LWPOLYLINE
  5
45C
330
1F
100
AcDbEntity
  8
OBRYS
100
AcDbPolyline
 90
       71
 70
     0
 43
0.0
 10
225.0590979083357
 20
81.38905577182817
 10
225.0852806340236
 20
81.38905577182817
 10
225.1107743406145
 20
81.38974479092502
 10
225.1369570663023
 20
81.39008930047311
 10
225.1617617537961
 20
81.39077831957019
 10
225.1862219317414
 20
81.39181184821604
 10
225.2103376001381
 20
81.3928453768612
 10
225.2341087589865
 20
81.39422341505605
 10
225.2571908987374
 20
81.39611821757302
 10
225.2799285289404
 20
81.39784076531504
 10
225.3023216495943
 20
81.39990782260605
 10
225.3240257511514
 20
81.40214713467202
 10
225.3453853431599
 20
81.40455870151203
 10
225.3660559160714
 20
81.40697026835113
 10
225.3867264889828
 20
81.41024310906204
 10
225.4063635332488
 20
81.41334369499913
 10
225.4260005775147
 20
81.41627202616104
 10
225.4452931122323
 20
81.41971712164622
 10
225.4635521183041
 20
81.42316221713207
 10
225.4818111243759
 20
81.42712407694006
 10
225.4993811113507
 20
81.43108593674805
 10
225.5169510983254
 20
81.43522005133008
 10
225.5338320662032
 20
81.43952642068706
 10
225.5500240149837
 20
81.44400504481808
 10
225.5662159637646
 20
81.44900043327101
 10
225.581718893448
 20
81.45365131217608
 10
225.5968773135831
 20
81.45881895540418
 10
225.6116912241698
 20
81.46381434385802
 10
225.6261606252078
 20
81.46949875140916
 10
225.6402855166973
 20
81.47518315895917
 10
225.6540658986383
 20
81.48069531173513
 10
225.6675017710308
 20
81.48672422883413
 10
225.6799041147777
 20
81.49275314593405
 10
225.6923064585248
 20
81.49878206303305
 10
225.7047088022716
 20
81.50515548968104
 10
225.7160776173727
 20
81.51170117110308
 10
225.7274464324741
 20
81.51859136207321
 10
225.738470738027
 20
81.52548155304402
 10
225.7491505340313
 20
81.5321994892401
 10
225.7587968013898
 20
81.53926193498518
 10
225.7687875782972
 20
81.54632438072912
 10
225.7784338456558
 20
81.55407584557105
 10
225.7873910939174
 20
81.56148280086512
 10
225.796348342179
 20
81.56923426570614
 10
225.8049610808923
 20
81.57698573054807
 10
225.8128848005084
 20
81.585081704939
 10
225.8208085201245
 20
81.59334993410306
 10
225.8276987110949
 20
81.60144590849308
 10
225.8349334116139
 20
81.60988639243209
 10
225.8414790930359
 20
81.6183268763711
 10
225.8483692840063
 20
81.62676736031011
 10
225.8542259463313
 20
81.63555235379721
 10
225.8597380991077
 20
81.64450960205903
 10
225.8652502518841
 20
81.65363910509512
 10
225.8704178951121
 20
81.66276860813122
 10
225.8755855383398
 20
81.67189811116708
 10
225.8800641624708
 20
81.68154437852621
 10
225.8841982770529
 20
81.69136290065802
 10
225.8883323916353
 20
81.7011814227921
 10
225.8917774871207
 20
81.71151670924718
 10
225.8955670921542
 20
81.7223687600262
 10
225.898667678091
 20
81.73304855603004
 10
225.9014237544795
 20
81.74424511635715
 10
225.903835321319
 20
81.75561393145807
 10
225.9062468881586
 20
81.76715500133417
 10
225.9083139454497
 20
81.77921283553218
 10
225.9100364931925
 20
81.79109841495614
 10
225.9114145313866
 20
81.80350075870314
 10
225.9121035504837
 20
81.81659212154813
 10
225.9124480600321
 20
81.82933897484321
 10
225.9131370791291
 20
81.84277484723515
  0
LWPOLYLINE
  5
45D
330
1F
100
AcDbEntity
  8
OBRYS
100
AcDbPolyline
 90
        2
 70
     0
 43
0.0
 10
225.0590979083357
 20
81.38905577182817
 10
224.4637854084845
 20
81.38905577182817
  0
LWPOLYLINE
  5
45E
330
1F
100
AcDbEntity
  8
OBRYS
100
AcDbPolyline
 90
        2
 70
     0
 43
0.0
 10
224.4637854084845
 20
81.38905577182817
 10
224.4637854084845
 20
81.01405712825812
  0
LWPOLYLINE
  5
45F
330
1F
100
AcDbEntity
  8
OBRYS
100
AcDbPolyline
 90
        3
 70
     0
 43
0.0
 10
224.4637854084845
 20
81.93837624695101
 10
224.4637854084845
 20
81.74751795706806
 10
225.0590979083357
 20
81.74751795706806
  0
LWPOLYLINE
  5
460
330
1F
100
AcDbEntity
  8
OBRYS
100
AcDbPolyline
 90
        6
 70
     0
 43
0.0
 10
225.0590979083357
 20
81.74751795706806
 10
225.1152529647452
 20
81.76543245359102
 10
225.1497039195976
 20
81.81349153561013
 10
225.1497039195976
 20
81.87240266840803
 10
225.1152529647452
 20
81.91994498610501
 10
225.0590979083357
 20
81.93837624695101
  0
LWPOLYLINE
  5
461
330
1F
100
AcDbEntity
  8
OBRYS
100
AcDbPolyline
 90
        2
 70
     0
 43
0.0
 10
225.0590979083357
 20
81.93837624695101
 10
224.4637854084845
 20
81.93837624695101
  0
LWPOLYLINE
  5
462
330
1F
100
AcDbEntity
  8
OBRYS
100
AcDbPolyline
 90
        2
 70
     0
 43
0.0
 10
215.3139563092097
 20
84.3664795449551
 10
215.3139563092097
 20
84.874803383803
  0
LWPOLYLINE
  5
463
330
1F
100
AcDbEntity
  8
OBRYS
100
AcDbPolyline
 90
        2
 70
     0
 43
0.0
 10
215.3139563092097
 20
81.57285161596604
 10
215.3139563092097
 20
82.080486435718
  0
LWPOLYLINE
  5
464
330
1F
100
AcDbEntity
  8
OBRYS
100
AcDbPolyline
 90
        6
 70
     0
 43
0.0
 10
215.3139563092097
 20
84.874803383803
 10
215.6949838698782
 20
84.874803383803
 10
215.6949838698782
 20
86.90637619145508
 10
228.1407358198917
 20
86.90637619145508
 10
228.1407358198917
 20
84.874803383803
 10
228.5217633805605
 20
84.874803383803
  0
LWPOLYLINE
  5
465
330
1F
100
AcDbEntity
  8
OBRYS
100
AcDbPolyline
 90
        2
 70
     0
 43
0.0
 10
215.6949838698782
 20
81.57285161596604
 10
215.3139563092097
 20
81.57285161596604
  0
LWPOLYLINE
  5
466
330
1F
100
AcDbEntity
  8
OBRYS
100
AcDbPolyline
 90
        2
 70
     0
 43
0.0
 10
215.6949838698782
 20
79.54041753444307
 10
215.6949838698782
 20
81.57285161596604
  0
LWPOLYLINE
  5
467
330
1F
100
AcDbEntity
  8
OBRYS
100
AcDbPolyline
 90
        2
 70
     0
 43
0.0
 10
218.5144500150065
 20
79.54041753444307
 10
215.6949838698782
 20
79.54041753444307
  0
LWPOLYLINE
  5
468
330
1F
100
AcDbEntity
  8
OBRYS
100
AcDbPolyline
 90
        2
 70
     0
 43
0.0
 10
218.5144500150065
 20
77.88987228745913
 10
218.5144500150065
 20
79.54041753444307
  0
LWPOLYLINE
  5
469
330
1F
100
AcDbEntity
  8
OBRYS
100
AcDbPolyline
 90
        2
 70
     0
 43
0.0
 10
219.6320389904215
 20
77.88987228745913
 10
218.5144500150065
 20
77.88987228745913
  0
LWPOLYLINE
  5
46A
330
1F
100
AcDbEntity
  8
OBRYS
100
AcDbPolyline
 90
        7
 70
     0
 43
0.0
 10
228.5217633805605
 20
81.57285161596604
 10
228.1407358198917
 20
81.57285161596604
 10
228.1407358198917
 20
79.54041753444307
 10
225.3216141843116
 20
79.54041753444307
 10
225.3216141843116
 20
77.88987228745913
 10
224.2040252088968
 20
77.88987228745913
 10
224.2040252088968
 20
75.98438997456805
  0
LWPOLYLINE
  5
46B
330
1F
100
AcDbEntity
  8
OBRYS
100
AcDbPolyline
 90
        2
 70
     0
 43
0.0
 10
213.9803598468694
 20
89.62455652931811
 10
229.8553598429006
 20
89.62455652931811
  0
LWPOLYLINE
  5
46C
330
1F
100
AcDbEntity
  8
OBRYS
100
AcDbPolyline
 90
        2
 70
     0
 43
0.0
 10
215.4989579367674
 20
84.3664795449551
 10
215.4989579367674
 20
82.080486435718
  0
LWPOLYLINE
  5
46D
330
1F
100
AcDbEntity
  8
OBRYS
100
AcDbPolyline
 90
        2
 70
     0
 43
0.0
 10
228.3364172434537
 20
82.080486435718
 10
228.3364172434537
 20
84.3664795449551
  0
LWPOLYLINE
  5
46E
330
1F
100
AcDbEntity
  8
OBRYS
100
AcDbPolyline
 90
        2
 70
     0
 43
0.0
 10
226.1281110374086
 20
83.45249571271819
 10
226.5980220615969
 20
83.45249571271819
  0
LWPOLYLINE
  5
46F
330
1F
100
AcDbEntity
  8
OBRYS
100
AcDbPolyline
 90
        2
 70
     0
 43
0.0
 10
223.588042136134
 20
83.45249571271819
 10
224.0579531603222
 20
83.45249571271819
  0
LWPOLYLINE
  5
470
330
1F
100
AcDbEntity
  8
OBRYS
100
AcDbPolyline
 90
        2
 70
     0
 43
0.0
 10
221.0479732348593
 20
83.45249571271819
 10
221.5178842590475
 20
83.45249571271819
  0
LWPOLYLINE
  5
471
330
1F
100
AcDbEntity
  8
OBRYS
100
AcDbPolyline
 90
        2
 70
     0
 43
0.0
 10
218.5079043335847
 20
83.45249571271819
 10
218.9778153577726
 20
83.45249571271819
  0
LWPOLYLINE
  5
472
330
1F
100
AcDbEntity
  8
OBRYS
100
AcDbPolyline
 90
        2
 70
     0
 43
0.0
 10
224.8579043319972
 20
83.45249571271819
 10
225.327815356185
 20
83.45249571271819
  0
LWPOLYLINE
  5
473
330
1F
100
AcDbEntity
  8
OBRYS
100
AcDbPolyline
 90
        2
 70
     0
 43
0.0
 10
222.3178354307224
 20
83.45249571271819
 10
222.7877464549103
 20
83.45249571271819
  0
LWPOLYLINE
  5
474
330
1F
100
AcDbEntity
  8
OBRYS
100
AcDbPolyline
 90
        2
 70
     0
 43
0.0
 10
219.7774220198991
 20
83.45249571271819
 10
220.2480220631845
 20
83.45249571271819
  0
LWPOLYLINE
  5
475
330
1F
100
AcDbEntity
  8
OBRYS
100
AcDbPolyline
 90
        2
 70
     0
 43
0.0
 10
217.2376976281731
 20
83.45249571271819
 10
217.7079531619096
 20
83.45249571271819
  0
LWPOLYLINE
  5
476
330
1F
100
AcDbEntity
  8
OBRYS
100
AcDbPolyline
 90
        2
 70
     0
 43
0.0
 10
226.9979976474342
 20
84.3664795449551
 10
226.9979976474342
 20
82.080486435718
  0
LWPOLYLINE
  5
477
330
1F
100
AcDbEntity
  8
OBRYS
100
AcDbPolyline
 90
        2
 70
     0
 43
0.0
 10
216.8380665518841
 20
82.080486435718
 10
216.8380665518841
 20
84.3664795449551
  0
LWPOLYLINE
  5
478
330
1F
100
AcDbEntity
  8
OBRYS
100
AcDbPolyline
 90
        2
 70
     0
 43
0.0
 10
222.0670324793961
 20
70.99451367373211
 10
221.9178598448851
 20
71.01707904916015
  0
LWPOLYLINE
  5
479
330
1F
100
AcDbEntity
  8
OBRYS
100
AcDbPolyline
 90
        4
 70
     0
 43
0.0
 10
224.3177133599099
 20
64.71703293528407
 10
223.8178300050002
 20
64.71703293528407
 10
220.0178896847695
 20
64.71703293528407
 10
219.5180063298598
 20
64.71703293528407
  0
LWPOLYLINE
  5
47A
330
1F
100
AcDbEntity
  8
OBRYS
100
AcDbPolyline
 90
        3
 70
     0
 43
0.0
 10
219.5180063298598
 20
65.51750087128215
 10
220.0178896847695
 20
65.51750087128215
 10
224.3177133599099
 20
65.51750087128215
  0
LWPOLYLINE
  5
47B
330
1F
100
AcDbEntity
  8
OBRYS
100
AcDbPolyline
 90
        2
 70
     0
 43
0.0
 10
210.3678327210364
 20
71.27425542713416
 10
210.3678327210364
 20
76.31718619844304
  0
LWPOLYLINE
  5
47C
330
1F
100
AcDbEntity
  8
OBRYS
100
AcDbPolyline
 90
        2
 70
     0
 43
0.0
 10
233.4678869687336
 20
76.31718619844304
 10
233.4678869687336
 20
71.27425542713416
  0
LWPOLYLINE
  5
47D
330
1F
100
AcDbEntity
  8
OBRYS
100
AcDbPolyline
 90
        7
 70
     0
 43
0.0
 10
233.4678869687336
 20
71.27425542713416
 10
233.4889020511935
 20
70.84034565076712
 10
233.5533253367676
 20
70.4109144985311
 10
233.6594342777134
 20
69.98975157545914
 10
233.8065398549336
 20
69.58081874136013
 10
233.9932640302341
 20
69.18893912991206
 10
234.2178842558725
 20
68.81704107228
  0
LWPOLYLINE
  5
47E
330
1F
100
AcDbEntity
  8
OBRYS
100
AcDbPolyline
 90
        7
 70
     0
 43
0.0
 10
209.6178354338976
 20
68.81704107228
 10
209.8428001690843
 20
69.18893912991206
 10
210.0291798348364
 20
69.58081874136013
 10
210.1762854120564
 20
69.98975157545914
 10
210.2827388625505
 20
70.4109144985311
 10
210.3468176385762
 20
70.84034565076712
 10
210.3678327210364
 20
71.27425542713416
  0
LWPOLYLINE
  5
47F
330
1F
100
AcDbEntity
  8
OBRYS
100
AcDbPolyline
 90
        2
 70
     0
 43
0.0
 10
210.3674882114877
 20
97.16035839375303
 10
210.3674882114877
 20
92.11742762244415
  0
LWPOLYLINE
  5
480
330
1F
100
AcDbEntity
  8
OBRYS
100
AcDbPolyline
 90
        2
 70
     0
 43
0.0
 10
233.4678869687336
 20
92.11742762244415
 10
233.4678869687336
 20
97.16035839375303
  0
LWPOLYLINE
  5
481
330
1F
100
AcDbEntity
  8
OBRYS
100
AcDbPolyline
 90
        7
 70
     0
 43
0.0
 10
234.2178842558725
 20
99.61740049383314
 10
233.9932640302341
 20
99.24567469097514
 10
233.8065398549336
 20
98.85327831520516
 10
233.6594342777134
 20
98.44468999065401
 10
233.5533253367676
 20
98.02352706758205
 10
233.4889020511935
 20
97.59426817012007
 10
233.4678869687336
 20
97.16035839375303
  0
LWPOLYLINE
  5
482
330
1F
100
AcDbEntity
  8
OBRYS
100
AcDbPolyline
 90
        6
 70
     0
 43
0.0
 10
234.2178842558725
 20
99.61740049383314
 10
234.2178842558725
 20
101.017396423748
 42
0.4142135623730835
 10
231.3178842558725
 20
103.9173964237481
 10
212.5174909243491
 20
103.9173964237481
 42
0.4142135623730606
 10
209.6174909243491
 20
101.017396423748
 10
209.6174909243491
 20
99.61740049383314
  0
LWPOLYLINE
  5
483
330
1F
100
AcDbEntity
  8
OBRYS
100
AcDbPolyline
 90
        7
 70
     0
 43
0.0
 10
210.3678327210364
 20
97.16035839375303
 10
210.3468176385762
 20
97.59426817012007
 10
210.2827388625505
 20
98.02352706758205
 10
210.1762854120564
 20
98.44468999065401
 10
210.0291798348364
 20
98.85362282475302
 10
209.8428001690843
 20
99.24567469097514
 10
209.6178354338976
 20
99.61740049383314
  0
LWPOLYLINE
  5
484
330
1F
100
AcDbEntity
  8
OBRYS
100
AcDbPolyline
 90
        7
 70
     0
 43
0.0
 10
209.8179954815904
 20
84.21730691044417
 10
209.8204070484302
 20
82.89576828230219
 10
209.858992117865
 20
81.57526318280605
 10
209.9330616707976
 20
80.25596386672913
 10
210.0422711976803
 20
78.93924837226717
 10
210.1873097176092
 20
77.62597797328903
 10
210.3678327210364
 20
76.31718619844304
  0
LWPOLYLINE
  5
485
330
1F
100
AcDbEntity
  8
OBRYS
100
AcDbPolyline
 90
        7
 70
     0
 43
0.0
 10
233.467542459185
 20
76.31718619844304
 10
233.6477209530637
 20
77.62597797328903
 10
233.7927594729924
 20
78.93924837226717
 10
233.9023135094235
 20
80.25596386672913
 10
233.9760385528079
 20
81.57526318280605
 10
234.0146236222426
 20
82.89576828230219
 10
234.0173796986307
 20
84.21730691044417
  0
LWPOLYLINE
  5
486
330
1F
100
AcDbEntity
  8
OBRYS
100
AcDbPolyline
 90
        7
 70
     0
 43
0.0
 10
210.3678327210364
 20
92.11742762244415
 10
210.1873097176092
 20
90.80863584759817
 10
210.0422711976803
 20
89.4951931938462
 10
209.9330616707976
 20
88.17864995415806
 10
209.858992117865
 20
86.859178383308
 10
209.8204070484302
 20
85.53867328381119
 10
209.8179954815904
 20
84.21730691044417
  0
LWPOLYLINE
  5
487
330
1F
100
AcDbEntity
  8
OBRYS
100
AcDbPolyline
 90
        7
 70
     0
 43
0.0
 10
234.0173796986307
 20
84.21730691044417
 10
234.0146236222426
 20
85.53867328381119
 10
233.9760385528079
 20
86.859178383308
 10
233.9023135094235
 20
88.17864995415806
 10
233.7927594729924
 20
89.4951931938462
 10
233.6477209530637
 20
90.80863584759817
 10
233.467542459185
 20
92.11742762244415
  0
LWPOLYLINE
  5
488
330
1F
100
AcDbEntity
  8
OBRYS
100
AcDbPolyline
 90
        2
 70
     0
 43
0.0
 10
225.1180090411333
 20
65.91730420234506
 10
225.1180090411333
 20
64.51704514236502
  0
LWPOLYLINE
  5
489
330
1F
100
AcDbEntity
  8
OBRYS
100
AcDbPolyline
 90
        2
 70
     0
 43
0.0
 10
218.7177106486365
 20
64.51704514236502
 10
218.7177106486365
 20
65.91730420234506
  0
LWPOLYLINE
  5
48A
330
1F
100
AcDbEntity
  8
OBRYS
100
AcDbPolyline
 90
        4
 70
     0
 43
0.0
 10
219.5180063298598
 20
64.71703293528407
 10
219.5180063298598
 20
65.51750087128215
 10
219.5180063298598
 20
65.71731640942602
 10
219.5180063298598
 20
65.91730420234506
  0
LWPOLYLINE
  5
48B
330
1F
100
AcDbEntity
  8
OBRYS
100
AcDbPolyline
 90
        2
 70
     0
 43
0.0
 10
224.3177133599099
 20
65.71731640942602
 10
224.3177133599099
 20
65.91730420234506
  0
LWPOLYLINE
  5
48C
330
1F
100
AcDbEntity
  8
OBRYS
100
AcDbPolyline
 90
        3
 70
     0
 43
0.0
 10
224.3177133599099
 20
65.71731640942602
 10
224.3177133599099
 20
65.51750087128215
 10
224.3177133599099
 20
64.71703293528407
  0
LWPOLYLINE
  5
48D
330
1F
100
AcDbEntity
  8
OBRYS
100
AcDbPolyline
 90
        4
 70
     0
 43
0.0
 10
234.2178842558725
 20
68.81704107228
 10
234.2178842558725
 20
67.41704514236511
 42
-0.4142135623731294
 10
231.3178842558725
 20
64.51704514236502
 10
225.1180090411333
 20
64.51704514236502
  0
LWPOLYLINE
  5
48E
330
1F
100
AcDbEntity
  8
OBRYS
100
AcDbPolyline
 90
        4
 70
     0
 43
0.0
 10
218.7177106486365
 20
64.51704514236502
 10
212.5174909243491
 20
64.51704514236502
 42
-0.4142135623731294
 10
209.6174909243491
 20
67.41704514236511
 10
209.6174909243491
 20
68.81704107228
  0
LWPOLYLINE
  5
48F
330
1F
100
AcDbEntity
  8
OBRYS
100
AcDbPolyline
 90
        2
 70
     0
 43
0.0
 10
213.818095849514
 20
89.81730962171713
 10
230.0176238402558
 20
89.81730962171713
  0
LWPOLYLINE
  5
490
330
1F
100
AcDbEntity
  8
OBRYS
100
AcDbPolyline
 90
        2
 70
     0
 43
0.0
 10
213.818095849514
 20
75.81730284353301
 10
213.818095849514
 20
89.81730962171713
  0
LWPOLYLINE
  5
491
330
1F
100
AcDbEntity
  8
OBRYS
100
AcDbPolyline
 90
        2
 70
     0
 43
0.0
 10
230.0176238402558
 20
75.81730284353301
 10
213.818095849514
 20
75.81730284353301
  0
LWPOLYLINE
  5
492
330
1F
100
AcDbEntity
  8
OBRYS
100
AcDbPolyline
 90
        2
 70
     0
 43
0.0
 10
230.0176238402558
 20
89.81730962171713
 10
230.0176238402558
 20
75.81730284353301
  0
LWPOLYLINE
  5
493
330
1F
100
AcDbEntity
  8
OBRYS
100
AcDbPolyline
 90
        2
 70
     0
 43
0.0
 10
223.8178300050002
 20
64.71703293528407
 10
222.8177187856323
 20
64.893421824129
  0
LWPOLYLINE
  5
494
330
1F
100
AcDbEntity
  8
OBRYS
100
AcDbPolyline
 90
        2
 70
     0
 43
0.0
 10
222.8177187856323
 20
65.34111198243721
 10
223.8178300050002
 20
65.51750087128215
  0
LWPOLYLINE
  5
495
330
1F
100
AcDbEntity
  8
OBRYS
100
AcDbPolyline
 90
        2
 70
     0
 43
0.0
 10
222.8177187856323
 20
64.893421824129
 10
222.8177187856323
 20
65.34111198243721
  0
LWPOLYLINE
  5
496
330
1F
100
AcDbEntity
  8
OBRYS
100
AcDbPolyline
 90
        2
 70
     0
 43
0.0
 10
220.0178896847695
 20
65.51750087128215
 10
221.0180009041377
 20
65.34111198243721
  0
LWPOLYLINE
  5
497
330
1F
100
AcDbEntity
  8
OBRYS
100
AcDbPolyline
 90
        2
 70
     0
 43
0.0
 10
221.0180009041377
 20
64.893421824129
 10
220.0178896847695
 20
64.71703293528407
  0
LWPOLYLINE
  5
498
330
1F
100
AcDbEntity
  8
OBRYS
100
AcDbPolyline
 90
        2
 70
     0
 43
0.0
 10
221.0180009041377
 20
65.34111198243721
 10
221.0180009041377
 20
64.893421824129
  0
LWPOLYLINE
  5
499
330
1F
100
AcDbEntity
  8
OBRYS
100
AcDbPolyline
 90
        2
 70
     0
 43
0.0
 10
222.8177187856323
 20
65.34111198243721
 10
221.0180009041377
 20
65.34111198243721
  0
LWPOLYLINE
  5
49A
330
1F
100
AcDbEntity
  8
OBRYS
100
AcDbPolyline
 90
        2
 70
     0
 43
0.0
 10
221.0180009041377
 20
64.893421824129
 10
222.8177187856323
 20
64.893421824129
  0
LWPOLYLINE
  5
49B
330
1F
100
AcDbEntity
  8
OBRYS
100
AcDbPolyline
 90
        2
 70
     0
 43
0.0
 10
177.2721343965554
 20
97.86760609732954
 10
177.2643829317137
 20
97.87225697623461
  0
LWPOLYLINE
  5
49C
330
1F
100
AcDbEntity
  8
OBRYS
100
AcDbPolyline
 90
        2
 70
     0
 43
0.0
 10
177.2643829317137
 20
100.8622553478826
 10
177.2721343965554
 20
100.8675952458854
  0
LWPOLYLINE
  5
49D
330
1F
100
AcDbEntity
  8
OBRYS
100
AcDbPolyline
 90
        7
 70
     0
 43
0.0
 10
175.1029300242678
 20
96.56759931597043
 10
176.516471147646
 20
96.56759931597043
 42
0.277506992092949
 10
176.7372875284916
 20
96.7003810326259
 10
177.0542321071133
 20
97.29744279452046
 10
177.6021354207927
 20
98.7279591020594
 42
0.5248895955304514
 10
177.3694562093366
 20
99.06737624176793
 10
177.2643829317137
 20
99.0677051096165
  0
LWPOLYLINE
  5
49E
330
1F
100
AcDbEntity
  8
OBRYS
100
AcDbPolyline
 90
        7
 70
     0
 43
0.0
 10
177.2643829317137
 20
99.66749623359846
 10
177.3686349709471
 20
99.66749623359846
 42
0.5259202862586583
 10
177.6020876189478
 20
100.0069381764521
 10
177.0542321071133
 20
101.4368972748225
 10
176.7369472419102
 20
102.0347910906482
 42
0.2775426205144201
 10
176.5161153524138
 20
102.1676020272445
 10
175.1029300242678
 20
102.1676020272445
  0
LWPOLYLINE
  5
49F
330
1F
100
AcDbEntity
  8
OBRYS
100
AcDbPolyline
 90
        2
 70
     0
 43
0.0
 10
177.4845245332213
 20
99.06701609051942
 10
177.4845245332213
 20
99.06701609051942
  0
LWPOLYLINE
  5
4A0
330
1F
100
AcDbEntity
  8
OBRYS
100
AcDbPolyline
 90
        2
 70
     0
 43
0.0
 10
177.2721343965554
 20
97.86760609732954
 10
177.2721343965554
 20
97.86760609732954
  0
LWPOLYLINE
  5
4A1
330
1F
100
AcDbEntity
  8
OBRYS
100
AcDbPolyline
 90
        2
 70
     0
 43
0.0
 10
177.2643829317137
 20
100.8622553478826
 10
177.2643829317137
 20
100.8622553478826
  0
LWPOLYLINE
  5
4A2
330
1F
100
AcDbEntity
  8
OBRYS
100
AcDbPolyline
 90
        2
 70
     0
 43
0.0
 10
177.2721343965554
 20
100.8672507363364
 10
177.2721343965554
 20
100.8675952458854
  0
LWPOLYLINE
  5
4A3
330
1F
100
AcDbEntity
  8
OBRYS
100
AcDbPolyline
 90
        2
 70
     0
 43
0.0
 10
177.4845245332213
 20
99.66749623359846
 10
177.4845245332213
 20
99.66749623359846
  0
LWPOLYLINE
  5
4A4
330
1F
100
AcDbEntity
  8
OBRYS
100
AcDbPolyline
 90
        2
 70
     0
 43
0.0
 10
177.2721343965554
 20
67.56747454023451
 10
177.2643829317137
 20
67.57212541913958
  0
LWPOLYLINE
  5
4A5
330
1F
100
AcDbEntity
  8
OBRYS
100
AcDbPolyline
 90
        2
 70
     0
 43
0.0
 10
177.2643829317137
 20
70.56264055511059
 10
177.2721343965554
 20
70.56711917924162
  0
LWPOLYLINE
  5
4A6
330
1F
100
AcDbEntity
  8
OBRYS
100
AcDbPolyline
 90
        7
 70
     0
 43
0.0
 10
175.1029300242678
 20
66.2671232493264
 10
176.5160954130303
 20
66.2671232493264
 42
0.2774713465558348
 10
176.7368962736207
 20
66.39987573352067
 10
177.0542321071133
 20
66.99748349219948
 10
177.602219609754
 20
68.42778710011879
 42
0.5259202862584886
 10
177.3687669617532
 20
68.76722904297247
 10
177.2643829317137
 20
68.76722904297247
  0
LWPOLYLINE
  5
4A7
330
1F
100
AcDbEntity
  8
OBRYS
100
AcDbPolyline
 90
        7
 70
     0
 43
0.0
 10
177.2643829317137
 20
69.36736467650343
 10
177.3683362196579
 20
69.36736467650343
 42
0.525823641449903
 10
177.6018159429532
 20
69.70673591801864
 10
177.0542321071133
 20
71.13728248205047
 10
176.7368707550478
 20
71.73474723094245
 42
0.2774356838908463
 10
176.5160854263285
 20
71.86747047014859
 10
175.1029300242678
 20
71.86747047014859
  0
LWPOLYLINE
  5
4A8
330
1F
100
AcDbEntity
  8
OBRYS
100
AcDbPolyline
 90
        2
 70
     0
 43
0.0
 10
177.4845245332213
 20
68.76722904297247
 10
177.4845245332213
 20
68.76722904297247
  0
LWPOLYLINE
  5
4A9
330
1F
100
AcDbEntity
  8
OBRYS
100
AcDbPolyline
 90
        2
 70
     0
 43
0.0
 10
177.2721343965554
 20
67.56747454023451
 10
177.2721343965554
 20
67.56747454023451
  0
LWPOLYLINE
  5
4AA
330
1F
100
AcDbEntity
  8
OBRYS
100
AcDbPolyline
 90
        2
 70
     0
 43
0.0
 10
177.2643829317137
 20
70.56264055511059
 10
177.2643829317137
 20
70.56264055511059
  0
LWPOLYLINE
  5
4AB
330
1F
100
AcDbEntity
  8
OBRYS
100
AcDbPolyline
 90
        2
 70
     0
 43
0.0
 10
177.2721343965554
 20
70.56711917924162
 10
177.2721343965554
 20
70.56711917924162
  0
LWPOLYLINE
  5
4AC
330
1F
100
AcDbEntity
  8
OBRYS
100
AcDbPolyline
 90
        2
 70
     0
 43
0.0
 10
177.4845245332213
 20
69.36736467650343
 10
177.4845245332213
 20
69.36736467650343
  0
LWPOLYLINE
  5
4AD
330
1F
100
AcDbEntity
  8
OBRYS
100
AcDbPolyline
 90
        2
 70
     0
 43
0.0
 10
83.12077537061404
 20
99.06701609051942
 10
83.12077537061404
 20
99.06701609051942
  0
LWPOLYLINE
  5
4AE
330
1F
100
AcDbEntity
  8
OBRYS
100
AcDbPolyline
 90
        2
 70
     0
 43
0.0
 10
83.33316550727974
 20
97.86760609732954
 10
83.33316550727974
 20
97.86760609732954
  0
LWPOLYLINE
  5
4AF
330
1F
100
AcDbEntity
  8
OBRYS
100
AcDbPolyline
 90
        2
 70
     0
 43
0.0
 10
83.34091697212168
 20
100.8622553478826
 10
83.34091697212168
 20
100.8622553478826
  0
LWPOLYLINE
  5
4B0
330
1F
100
AcDbEntity
  8
OBRYS
100
AcDbPolyline
 90
        2
 70
     0
 43
0.0
 10
83.33316550727974
 20
100.8672507363364
 10
83.33316550727974
 20
100.8675952458854
  0
LWPOLYLINE
  5
4B1
330
1F
100
AcDbEntity
  8
OBRYS
100
AcDbPolyline
 90
        2
 70
     0
 43
0.0
 10
83.12077537061404
 20
99.66749623359846
 10
83.12077537061404
 20
99.66749623359846
  0
LWPOLYLINE
  5
4B2
330
1F
100
AcDbEntity
  8
OBRYS
100
AcDbPolyline
 90
        2
 70
     0
 43
0.0
 10
83.12077537061404
 20
68.76722904297247
 10
83.12077537061404
 20
68.76722904297247
  0
LWPOLYLINE
  5
4B3
330
1F
100
AcDbEntity
  8
OBRYS
100
AcDbPolyline
 90
        2
 70
     0
 43
0.0
 10
83.33316550727974
 20
67.56747454023451
 10
83.33316550727974
 20
67.56747454023451
  0
LWPOLYLINE
  5
4B4
330
1F
100
AcDbEntity
  8
OBRYS
100
AcDbPolyline
 90
        2
 70
     0
 43
0.0
 10
83.12077537061404
 20
69.36736467650343
 10
83.12077537061404
 20
69.36736467650343
  0
LWPOLYLINE
  5
4B5
330
1F
100
AcDbEntity
  8
OBRYS
100
AcDbPolyline
 90
        7
 70
     0
 43
0.0
 10
83.34091697212168
 20
99.0677051096165
 10
83.23670758063517
 20
99.06737894563679
 42
0.5247214455279277
 10
83.00398124639102
 20
98.72808493562428
 10
83.55106779672175
 20
97.29744279452046
 10
83.86801237534357
 20
96.7003810326259
 42
0.2775069920927901
 10
84.08882875618926
 20
96.56759931597043
 10
85.50236987956734
 20
96.56759931597043
  0
LWPOLYLINE
  5
4B6
330
1F
100
AcDbEntity
  8
OBRYS
100
AcDbPolyline
 90
        7
 70
     0
 43
0.0
 10
83.34091697212168
 20
99.66749623359846
 10
83.23752977756257
 20
99.66749623359846
 42
-0.525751955619958
 10
83.00402998373565
 20
100.0068150237984
 10
83.55106779672175
 20
101.4368972748225
 10
83.86835266192472
 20
102.0347910906482
 42
-0.2775426205137559
 10
84.08918455142131
 20
102.1676020272445
 10
85.50236987956734
 20
102.1676020272445
  0
LWPOLYLINE
  5
4B7
330
1F
100
AcDbEntity
  8
OBRYS
100
AcDbPolyline
 90
        7
 70
     0
 43
0.0
 10
85.50236987956734
 20
66.2671232493264
 10
84.08920449080503
 20
66.2671232493264
 42
-0.2774713465551575
 10
83.86840363021494
 20
66.39987573352045
 10
83.55106779672175
 20
66.99748349219948
 10
83.0038982012812
 20
68.42791025277273
 42
-0.5257519556197878
 10
83.23739799510824
 20
68.76722904297247
 10
83.34091697212168
 20
68.76722904297247
  0
LWPOLYLINE
  5
4B8
330
1F
100
AcDbEntity
  8
OBRYS
100
AcDbPolyline
 90
        7
 70
     0
 43
0.0
 10
83.34091697212168
 20
69.36736467650343
 10
83.23782809994802
 20
69.36736467650343
 42
-0.5256554378022379
 10
83.00430129989522
 20
69.70661283422754
 10
83.55106779672175
 20
71.13728248205047
 10
83.8684291487875
 20
71.73474723094245
 42
-0.2774356838905651
 10
84.08921447750672
 20
71.86747047014859
 10
85.50236987956734
 20
71.86747047014859
  0
LWPOLYLINE
  5
4B9
330
1F
100
AcDbEntity
  8
OBRYS
100
AcDbPolyline
 90
        2
 70
     0
 43
0.0
 10
175.1029300242678
 20
64.4672331130584
 10
174.3024620882702
 20
64.4672331130584
  0
LWPOLYLINE
  5
4BA
330
1F
100
AcDbEntity
  8
OBRYS
100
AcDbPolyline
 90
        2
 70
     0
 43
0.0
 10
174.3024620882702
 20
84.16715037158741
 10
174.3024620882702
 20
84.11237335337245
  0
LWPOLYLINE
  5
4BB
330
1F
100
AcDbEntity
  8
OBRYS
100
AcDbPolyline
 90
        2
 70
     0
 43
0.0
 10
174.3024620882702
 20
78.09120771902661
 10
174.3024620882702
 20
77.88381297081554
  0
LWPOLYLINE
  5
4BC
330
1F
100
AcDbEntity
  8
OBRYS
100
AcDbPolyline
 90
        2
 70
     0
 43
0.0
 10
174.3024620882702
 20
77.05750681867761
 10
174.3024620882702
 20
76.8504565800144
  0
LWPOLYLINE
  5
4BD
330
1F
100
AcDbEntity
  8
OBRYS
100
AcDbPolyline
 90
        2
 70
     0
 43
0.0
 10
175.1029300242678
 20
76.26737416913551
 10
174.3024620882702
 20
76.26737416913551
  0
LWPOLYLINE
  5
4BE
330
1F
100
AcDbEntity
  8
OBRYS
100
AcDbPolyline
 90
        2
 70
     0
 43
0.0
 10
175.1029300242678
 20
68.76722904297247
 10
174.3024620882702
 20
68.76722904297247
  0
LWPOLYLINE
  5
4BF
330
1F
100
AcDbEntity
  8
OBRYS
100
AcDbPolyline
 90
        2
 70
     0
 43
0.0
 10
85.50236987956734
 20
103.8672398848925
 10
86.30283781556508
 20
103.8672398848925
  0
LWPOLYLINE
  5
4C0
330
1F
100
AcDbEntity
  8
OBRYS
100
AcDbPolyline
 90
        2
 70
     0
 43
0.0
 10
86.30283781556508
 20
84.16715037158741
 10
86.30283781556508
 20
84.32200741364949
  0
LWPOLYLINE
  5
4C1
330
1F
100
AcDbEntity
  8
OBRYS
100
AcDbPolyline
 90
        2
 70
     0
 43
0.0
 10
85.50236987956734
 20
92.06761559313753
 10
86.30283781556508
 20
92.06761559313753
  0
LWPOLYLINE
  5
4C2
330
1F
100
AcDbEntity
  8
OBRYS
100
AcDbPolyline
 90
        2
 70
     0
 43
0.0
 10
85.50236987956734
 20
103.8672398848925
 10
85.50236987956734
 20
103.8672398848925
  0
LWPOLYLINE
  5
4C3
330
1F
100
AcDbEntity
  8
OBRYS
100
AcDbPolyline
 90
        2
 70
     0
 43
0.0
 10
85.50236987956734
 20
99.56724395497753
 10
86.30283781556508
 20
99.56724395497753
  0
LWPOLYLINE
  5
4C4
330
1F
100
AcDbEntity
  8
OBRYS
100
AcDbPolyline
 90
        2
 70
     0
 43
0.0
 10
174.3024620882702
 20
64.21746369037754
 10
86.30283781556508
 20
64.21746369037754
  0
LWPOLYLINE
  5
4C5
330
1F
100
AcDbEntity
  8
OBRYS
100
AcDbPolyline
 90
        2
 70
     0
 43
0.0
 10
174.3024620882702
 20
104.2172615861936
 10
86.30283781556508
 20
104.2172615861936
  0
LWPOLYLINE
  5
4C6
330
1F
100
AcDbEntity
  8
OBRYS
100
AcDbPolyline
 90
        2
 70
     0
 43
0.0
 10
86.30283781556508
 20
77.15345272794156
 10
174.3024620882702
 20
77.15345272794156
  0
LWPOLYLINE
  5
4C7
330
1F
100
AcDbEntity
  8
OBRYS
100
AcDbPolyline
 90
        2
 70
     0
 43
0.0
 10
174.3024620882702
 20
76.65718672329143
 10
86.30283781556508
 20
76.65718672329143
  0
LWPOLYLINE
  5
4C8
330
1F
100
AcDbEntity
  8
OBRYS
100
AcDbPolyline
 90
        2
 70
     0
 43
0.0
 10
86.30283781556508
 20
78.1945605835844
 10
174.3024620882702
 20
78.1945605835844
  0
LWPOLYLINE
  5
4C9
330
1F
100
AcDbEntity
  8
OBRYS
100
AcDbPolyline
 90
        2
 70
     0
 43
0.0
 10
86.30283781556508
 20
77.88381297081554
 10
174.3024620882702
 20
77.88381297081554
  0
LWPOLYLINE
  5
4CA
330
1F
100
AcDbEntity
  8
OBRYS
100
AcDbPolyline
 90
        2
 70
     0
 43
0.0
 10
86.30283781556508
 20
79.2373909869695
 10
174.3024620882702
 20
79.2373909869695
  0
LWPOLYLINE
  5
4CB
330
1F
100
AcDbEntity
  8
OBRYS
100
AcDbPolyline
 90
        2
 70
     0
 43
0.0
 10
86.30283781556508
 20
78.91837514503544
 10
174.3024620882702
 20
78.91837514503544
  0
LWPOLYLINE
  5
4CC
330
1F
100
AcDbEntity
  8
OBRYS
100
AcDbPolyline
 90
        2
 70
     0
 43
0.0
 10
86.30283781556508
 20
80.28125491900045
 10
174.3024620882702
 20
80.28125491900045
  0
LWPOLYLINE
  5
4CD
330
1F
100
AcDbEntity
  8
OBRYS
100
AcDbPolyline
 90
        2
 70
     0
 43
0.0
 10
86.30283781556508
 20
79.95569339564457
 10
174.3024620882702
 20
79.95569339564457
  0
LWPOLYLINE
  5
4CE
330
1F
100
AcDbEntity
  8
OBRYS
100
AcDbPolyline
 90
        2
 70
     0
 43
0.0
 10
86.30283781556508
 20
81.32684139877341
 10
174.3024620882702
 20
81.32684139877341
  0
LWPOLYLINE
  5
4CF
330
1F
100
AcDbEntity
  8
OBRYS
100
AcDbPolyline
 90
        2
 70
     0
 43
0.0
 10
86.30283781556508
 20
80.9938729201246
 10
174.3024620882702
 20
80.9938729201246
  0
LWPOLYLINE
  5
4D0
330
1F
100
AcDbEntity
  8
OBRYS
100
AcDbPolyline
 90
        2
 70
     0
 43
0.0
 10
86.30283781556508
 20
82.37328915241841
 10
174.3024620882702
 20
82.37328915241841
  0
LWPOLYLINE
  5
4D1
330
1F
100
AcDbEntity
  8
OBRYS
100
AcDbPolyline
 90
        2
 70
     0
 43
0.0
 10
86.30283781556508
 20
82.03274146370148
 10
174.3024620882702
 20
82.03274146370148
  0
LWPOLYLINE
  5
4D2
330
1F
100
AcDbEntity
  8
OBRYS
100
AcDbPolyline
 90
        2
 70
     0
 43
0.0
 10
86.30283781556508
 20
83.42025367038553
 10
174.3024620882702
 20
83.42025367038553
  0
LWPOLYLINE
  5
4D3
330
1F
100
AcDbEntity
  8
OBRYS
100
AcDbPolyline
 90
        2
 70
     0
 43
0.0
 10
86.30283781556508
 20
83.07281579069848
 10
174.3024620882702
 20
83.07281579069848
  0
LWPOLYLINE
  5
4D4
330
1F
100
AcDbEntity
  8
OBRYS
100
AcDbPolyline
 90
        2
 70
     0
 43
0.0
 10
174.3024620882702
 20
92.21713273719746
 10
86.30283781556508
 20
92.21713273719746
  0
LWPOLYLINE
  5
4D5
330
1F
100
AcDbEntity
  8
OBRYS
100
AcDbPolyline
 90
        2
 70
     0
 43
0.0
 10
86.30283781556508
 20
90.73763648105654
 10
174.3024620882702
 20
90.73763648105654
  0
LWPOLYLINE
  5
4D6
330
1F
100
AcDbEntity
  8
OBRYS
100
AcDbPolyline
 90
        2
 70
     0
 43
0.0
 10
174.3024620882702
 20
91.28161705817746
 10
86.30283781556508
 20
91.28161705817746
  0
LWPOLYLINE
  5
4D7
330
1F
100
AcDbEntity
  8
OBRYS
100
AcDbPolyline
 90
        2
 70
     0
 43
0.0
 10
86.30283781556508
 20
89.69583960631661
 10
174.3024620882702
 20
89.69583960631661
  0
LWPOLYLINE
  5
4D8
330
1F
100
AcDbEntity
  8
OBRYS
100
AcDbPolyline
 90
        2
 70
     0
 43
0.0
 10
86.30283781556508
 20
88.65197567428658
 10
174.3024620882702
 20
88.65197567428658
  0
LWPOLYLINE
  5
4D9
330
1F
100
AcDbEntity
  8
OBRYS
100
AcDbPolyline
 90
        2
 70
     0
 43
0.0
 10
86.30283781556508
 20
87.60707821360955
 10
174.3024620882702
 20
87.60707821360955
  0
LWPOLYLINE
  5
4DA
330
1F
100
AcDbEntity
  8
OBRYS
100
AcDbPolyline
 90
        2
 70
     0
 43
0.0
 10
86.30283781556508
 20
86.56097496951355
 10
174.3024620882702
 20
86.56097496951355
  0
LWPOLYLINE
  5
4DB
330
1F
100
AcDbEntity
  8
OBRYS
100
AcDbPolyline
 90
        2
 70
     0
 43
0.0
 10
86.30283781556508
 20
85.51435496109451
 10
174.3024620882702
 20
85.51435496109451
  0
LWPOLYLINE
  5
4DC
330
1F
100
AcDbEntity
  8
OBRYS
100
AcDbPolyline
 90
        2
 70
     0
 43
0.0
 10
86.30283781556508
 20
84.46739044312761
 10
174.3024620882702
 20
84.46739044312761
  0
LWPOLYLINE
  5
4DD
330
1F
100
AcDbEntity
  8
OBRYS
100
AcDbPolyline
 90
        2
 70
     0
 43
0.0
 10
86.30283781556508
 20
76.21724802982561
 10
174.3024620882702
 20
76.21724802982561
  0
LWPOLYLINE
  5
4DE
330
1F
100
AcDbEntity
  8
OBRYS
100
AcDbPolyline
 90
        2
 70
     0
 43
0.0
 10
86.30283781556508
 20
84.11306237246953
 10
174.3024620882702
 20
84.11306237246953
  0
LWPOLYLINE
  5
4DF
330
1F
100
AcDbEntity
  8
OBRYS
100
AcDbPolyline
 90
        2
 70
     0
 43
0.0
 10
174.3024620882702
 20
68.7172751584364
 10
86.30283781556508
 20
68.7172751584364
  0
LWPOLYLINE
  5
4E0
330
1F
100
AcDbEntity
  8
OBRYS
100
AcDbPolyline
 90
        2
 70
     0
 43
0.0
 10
174.3024620882702
 20
99.71710560858554
 10
86.30283781556508
 20
99.71710560858554
  0
LWPOLYLINE
  5
4E1
330
1F
100
AcDbEntity
  8
OBRYS
100
AcDbPolyline
 90
        2
 70
     0
 43
0.0
 10
86.30283781556508
 20
85.15279218991844
 10
174.3024620882702
 20
85.15279218991844
  0
LWPOLYLINE
  5
4E2
330
1F
100
AcDbEntity
  8
OBRYS
100
AcDbPolyline
 90
        2
 70
     0
 43
0.0
 10
86.30283781556508
 20
86.19303877168949
 10
174.3024620882702
 20
86.19303877168949
  0
LWPOLYLINE
  5
4E3
330
1F
100
AcDbEntity
  8
OBRYS
100
AcDbPolyline
 90
        2
 70
     0
 43
0.0
 10
86.30283781556508
 20
87.2324240795885
 10
174.3024620882702
 20
87.2324240795885
  0
LWPOLYLINE
  5
4E4
330
1F
100
AcDbEntity
  8
OBRYS
100
AcDbPolyline
 90
        2
 70
     0
 43
0.0
 10
86.30283781556508
 20
88.27060360406853
 10
174.3024620882702
 20
88.27060360406853
  0
LWPOLYLINE
  5
4E5
330
1F
100
AcDbEntity
  8
OBRYS
100
AcDbPolyline
 90
        2
 70
     0
 43
0.0
 10
86.30283781556508
 20
89.30774959990362
 10
174.3024620882702
 20
89.30774959990362
  0
LWPOLYLINE
  5
4E6
330
1F
100
AcDbEntity
  8
OBRYS
100
AcDbPolyline
 90
        2
 70
     0
 43
0.0
 10
86.30283781556508
 20
90.34317304799555
 10
174.3024620882702
 20
90.34317304799555
  0
LWPOLYLINE
  5
4E7
330
1F
100
AcDbEntity
  8
OBRYS
100
AcDbPolyline
 90
        2
 70
     0
 43
0.0
 10
86.30283781556508
 20
91.58461320610553
 10
174.3024620882702
 20
91.58461320610553
  0
LWPOLYLINE
  5
4E8
330
1F
100
AcDbEntity
  8
OBRYS
100
AcDbPolyline
 90
        5
 70
     0
 43
0.0
 10
122.6144887396469
 20
53.54249081978258
 10
122.7841596922956
 20
53.64222633408047
 10
122.9309207599672
 20
53.77348447206844
 10
123.0496042994341
 20
53.93092533574457
 10
123.1345259031454
 20
54.10834775323445
  0
LWPOLYLINE
  5
4E9
330
1F
100
AcDbEntity
  8
OBRYS
100
AcDbPolyline
 90
        3
 70
     0
 43
0.0
 10
121.0424916697275
 20
52.9170337344355
 10
121.2574656280071
 20
52.94028812896061
 10
121.462104299831
 20
53.00936229344045
  0
LWPOLYLINE
  5
4EA
330
1F
100
AcDbEntity
  8
OBRYS
100
AcDbPolyline
 90
        2
 70
     0
 43
0.0
 10
176.3757205512933
 20
56.71749081898854
 10
176.2032935222568
 20
56.71749081898854
  0
LWPOLYLINE
  5
4EB
330
1F
100
AcDbEntity
  8
OBRYS
100
AcDbPolyline
 90
        2
 70
     0
 43
0.0
 10
174.3024620882702
 20
56.71749081898854
 10
174.3024620882702
 20
60.65023957017541
  0
LWPOLYLINE
  5
4EC
330
1F
100
AcDbEntity
  8
OBRYS
100
AcDbPolyline
 90
        2
 70
     0
 43
0.0
 10
174.3024620882702
 20
64.21746369037754
 10
174.3024620882702
 20
64.21746369037754
  0
LWPOLYLINE
  5
4ED
330
1F
100
AcDbEntity
  8
OBRYS
100
AcDbPolyline
 90
        3
 70
     0
 43
0.0
 10
174.3024620882702
 20
56.71749081898854
 10
175.8024566625478
 20
57.97581194497541
 10
175.8024566625478
 20
58.0777867713395
  0
LWPOLYLINE
  5
4EE
330
1F
100
AcDbEntity
  8
OBRYS
100
AcDbPolyline
 90
        2
 70
     0
 43
0.0
 10
112.8023400333327
 20
56.25843184557851
 10
112.8316233449573
 20
56.18763513335755
  0
LWPOLYLINE
  5
4EF
330
1F
100
AcDbEntity
  8
OBRYS
100
AcDbPolyline
 90
        3
 70
     0
 43
0.0
 10
136.1953996520503
 20
60.24389055769046
 10
136.2057349385062
 20
60.2187413606486
 10
136.2219268872867
 20
60.1972095138646
  0
LWPOLYLINE
  5
4F0
330
1F
100
AcDbEntity
  8
OBRYS
100
AcDbPolyline
 90
        2
 70
     0
 43
0.0
 10
121.462104299831
 20
53.00936229344045
 10
122.6148332491955
 20
53.54249081978258
  0
LWPOLYLINE
  5
4F1
330
1F
100
AcDbEntity
  8
OBRYS
100
AcDbPolyline
 90
        2
 70
     0
 43
0.0
 10
123.1348704126939
 20
54.10800324368545
 10
125.7769141403321
 20
61.36733619543059
  0
LWPOLYLINE
  5
4F2
330
1F
100
AcDbEntity
  8
OBRYS
100
AcDbPolyline
 90
       14
 70
     0
 43
0.0
 10
117.5527238753984
 20
57.31710968819646
 10
118.2529395327755
 20
57.31710968819646
 42
-0.414213562373095
 10
118.5029395327755
 20
57.06710968819646
 10
118.5029395327755
 20
56.06711511391853
 42
0.4142135623732282
 10
118.7529395327755
 20
55.81711511391853
 10
119.0527184496765
 20
55.81711511391853
 42
-0.4142135623732282
 10
119.3027184496765
 20
55.56711511391853
 10
119.3027184496765
 20
54.39243832248274
 42
-0.3155564368973375
 10
119.1380032468552
 20
54.15743512384454
 10
118.9672057880396
 20
54.09545117333658
 42
0.315556436897258
 10
118.802490585218
 20
53.86044797469815
 10
118.802490585218
 20
53.16737824398381
 42
0.4142135623729619
 10
119.0524905852179
 20
52.91737824398381
 10
121.0424916697275
 20
52.91737824398358
  0
LWPOLYLINE
  5
4F3
330
1F
100
AcDbEntity
  8
OBRYS
100
AcDbPolyline
 90
        2
 70
     0
 43
0.0
 10
112.802684542881
 20
56.25843184557851
 10
112.802684542881
 20
56.31734297837641
  0
LWPOLYLINE
  5
4F4
330
1F
100
AcDbEntity
  8
OBRYS
100
AcDbPolyline
 90
        6
 70
     0
 43
0.0
 10
115.8028459462109
 20
57.31710968819646
 10
117.5527238753984
 20
57.31710968819646
 42
-0.4142135623732282
 10
117.8027238753984
 20
57.06710968819646
 10
117.8027238753984
 20
51.06870928025767
 42
0.4125091737027842
 10
118.0512682207514
 20
50.81871351815442
 10
118.3029517398566
 20
50.81363295158638
  0
LWPOLYLINE
  5
4F5
330
1F
100
AcDbEntity
  8
OBRYS
100
AcDbPolyline
 90
        7
 70
     0
 43
0.0
 10
149.2027021661597
 20
56.95916426727847
 10
149.1818593384739
 20
57.16121911748854
 10
149.120881148385
 20
57.3553502480824
 10
149.0216623984097
 20
57.5327726655725
 10
148.888681712679
 20
57.68659617898941
 10
148.7274512439694
 20
57.81027510690949
 10
148.5443444189283
 20
57.89898631565546
  0
LWPOLYLINE
  5
4F6
330
1F
100
AcDbEntity
  8
OBRYS
100
AcDbPolyline
 90
        2
 70
     0
 43
0.0
 10
148.5443444189283
 20
57.89898631565546
 10
147.861009729429
 20
58.14754995491551
  0
LWPOLYLINE
  5
4F7
330
1F
100
AcDbEntity
  8
OBRYS
100
AcDbPolyline
 90
        3
 70
     0
 43
0.0
 10
147.8024431061798
 20
58.17028758511849
 10
147.8313819082559
 20
58.15822975092049
 10
147.8606652198805
 20
58.14686093581843
  0
LWPOLYLINE
  5
4F8
330
1F
100
AcDbEntity
  8
OBRYS
100
AcDbPolyline
 90
        8
 70
     0
 43
0.0
 10
147.2028242369721
 20
59.28701528666254
 10
147.2028242369721
 20
62.63852814414161
 42
-0.4836672144663662
 10
147.5715646153106
 20
62.93054656887846
 10
152.0713394621261
 20
61.87131126313687
 42
-0.3480111850547431
 10
152.3025990837876
 20
61.57929283839979
 10
152.3025990837875
 20
57.0174908189885
 42
0.414213562373428
 10
152.6025990837875
 20
56.71749081898854
 10
174.3024620882702
 20
56.71749081898854
  0
LWPOLYLINE
  5
4F9
330
1F
100
AcDbEntity
  8
OBRYS
100
AcDbPolyline
 90
        7
 70
     0
 43
0.0
 10
134.570864875981
 20
57.66713138949756
 10
134.8414771263471
 20
57.71898007655039
 10
135.1024431093548
 20
57.80717452097354
 10
135.3487674365502
 20
57.93068119411958
 10
135.5756269742539
 20
58.08657176482659
 10
135.7792321174321
 20
58.27243466625549
 10
135.9547597324056
 20
58.48413578382445
  0
LWPOLYLINE
  5
4FA
330
1F
100
AcDbEntity
  8
OBRYS
100
AcDbPolyline
 90
        4
 70
     0
 43
0.0
 10
135.9552764967285
 20
58.48448029337344
 10
136.6352233931628
 20
59.42919185497743
 42
0.3678797016628993
 10
136.6036944034587
 20
59.81674423705811
 10
136.2222713968352
 20
60.19755402341359
  0
LWPOLYLINE
  5
4FB
330
1F
100
AcDbEntity
  8
OBRYS
100
AcDbPolyline
 90
       10
 70
     0
 43
0.0
 10
136.1960886711474
 20
60.24423506723854
 10
135.5959030905011
 20
62.64459302505855
 42
-0.4879400266617023
 10
135.886943098945
 20
63.01736467809058
 10
136.7025855242443
 20
63.01736467809058
 42
-0.4142135623728732
 10
137.0025855242444
 20
62.71736467809063
 10
137.0025855242444
 20
62.11726566580335
 42
0.414213562373872
 10
137.3025855242443
 20
61.8172656658034
 10
146.1023563009744
 20
61.8172656658034
 42
-0.414213562373206
 10
146.4023563009744
 20
61.51726566580344
 10
146.4023563009743
 20
59.28701528666254
  0
LWPOLYLINE
  5
4FC
330
1F
100
AcDbEntity
  8
OBRYS
100
AcDbPolyline
 90
        5
 70
     0
 43
0.0
 10
147.4028120298909
 20
56.21726295453043
 10
147.2115575484201
 20
56.21726295453043
 42
0.4574379185147027
 10
146.9147184428035
 20
55.87382857440678
 10
146.9361738464137
 20
55.72719812175358
 10
147.0324642652264
 20
55.51876984489552
  0
LWPOLYLINE
  5
4FD
330
1F
100
AcDbEntity
  8
OBRYS
100
AcDbPolyline
 90
        6
 70
     0
 43
0.0
 10
147.0321197556779
 20
55.51842533534744
 10
148.1140112905872
 20
53.85368107587458
 42
0.2538783936153234
 10
148.3655576474079
 20
53.71715716088459
 10
178.2718389026806
 20
53.71715716088459
 42
0.5363848947619309
 10
178.5483293264878
 20
54.13357470914496
 10
174.3024620882702
 20
64.21746369037754
  0
LWPOLYLINE
  5
4FE
330
1F
100
AcDbEntity
  8
OBRYS
100
AcDbPolyline
 90
       25
 70
     0
 43
0.0
 10
127.1029313926047
 20
61.13393097630449
 10
127.1029313926047
 20
57.69886330208458
 42
0.3381495855721574
 10
127.2870968883031
 20
57.45768739523776
 10
127.5612449865989
 20
57.38285237381086
 42
-0.4141040482018554
 10
127.7366109890715
 20
57.07593214757565
 10
127.5025624688937
 20
56.21726295453043
 10
127.035137806624
 20
55.7494168092466
 42
0.3521401432927004
 10
127.0014343617384
 20
55.43794377533975
 10
128.0291298552984
 20
53.83238113930445
 42
0.2557209825123939
 10
128.239689642549
 20
53.71715716088459
 10
128.9372521538985
 20
53.71715716088459
 42
0.2689990366824321
 10
129.1542464729873
 20
53.84300618230139
 10
129.4933108950453
 20
54.43563182433348
 10
129.7837324444517
 20
54.86540748611849
 10
130.1051598532256
 20
55.27210100815244
 10
130.4560428283985
 20
55.65416209746643
 10
130.8343143126789
 20
56.00866242289856
 10
131.2379072487758
 20
56.33439620102848
 10
131.6647545793982
 20
56.62895186501753
 10
132.1124447377065
 20
56.89060686712258
 10
132.5780493925381
 20
57.11849993347158
 10
133.0596737413759
 20
57.3112530258715
 10
133.5542171982836
 20
57.46748810612751
 10
134.0585791773242
 20
57.58634390036848
 10
134.570864875981
 20
57.66747589904656
  0
LWPOLYLINE
  5
4FF
330
1F
100
AcDbEntity
  8
OBRYS
100
AcDbPolyline
 90
        6
 70
     0
 43
0.0
 10
174.6871069991981
 20
60.7274097090455
 10
177.0424239755273
 20
55.13368824428579
 42
-0.5363875911034958
 10
176.7659345267982
 20
54.7172683802525
 10
149.5027021661597
 20
54.7172683802525
 42
-0.414213562373095
 10
149.2027021661597
 20
55.01726838025245
 10
149.2027021661597
 20
56.95916426727847
  0
LWPOLYLINE
  5
500
330
1F
100
AcDbEntity
  8
OBRYS
100
AcDbPolyline
 90
        2
 70
     0
 43
0.0
 10
154.302477012975
 20
64.21746369037754
 10
154.302477012975
 20
64.21746369037754
  0
LWPOLYLINE
  5
501
330
1F
100
AcDbEntity
  8
OBRYS
100
AcDbPolyline
 90
        2
 70
     0
 43
0.0
 10
172.8028120235408
 20
64.21746369037754
 10
172.8028120235408
 20
64.21746369037754
  0
LWPOLYLINE
  5
502
330
1F
100
AcDbEntity
  8
OBRYS
100
AcDbPolyline
 90
        2
 70
     0
 43
0.0
 10
86.30283781556508
 20
64.21746369037754
 10
86.30283781556508
 20
56.71749081898854
  0
LWPOLYLINE
  5
503
330
1F
100
AcDbEntity
  8
OBRYS
100
AcDbPolyline
 90
        2
 70
     0
 43
0.0
 10
87.80248788029448
 20
64.21746369037754
 10
87.80248788029448
 20
64.21746369037754
  0
LWPOLYLINE
  5
504
330
1F
100
AcDbEntity
  8
OBRYS
100
AcDbPolyline
 90
        2
 70
     0
 43
0.0
 10
174.8026899527284
 20
54.7172683802525
 10
176.2032935222568
 20
56.71749081898854
  0
LWPOLYLINE
  5
505
330
1F
100
AcDbEntity
  8
OBRYS
100
AcDbPolyline
 90
       12
 70
     0
 43
0.0
 10
86.30283781556508
 20
56.71749081898854
 10
108.0527008200476
 20
56.71749081898854
 42
-0.4142135623732282
 10
108.3027008200476
 20
56.46749081898854
 10
108.3027008200479
 20
53.96715716088459
 42
0.4142135623732282
 10
108.5527008200479
 20
53.71715716088459
 10
112.0476780670653
 20
53.71715716088459
 42
0.3589784147481687
 10
112.2930750083535
 20
53.9194042425824
 10
112.3117042691
 20
54.01513794364512
 42
-0.358978414747413
 10
112.5571012103883
 20
54.21738502534247
 10
113.3540343346453
 20
54.21738502534247
 42
0.6681786379193959
 10
113.7782984033572
 20
55.24164909405447
 10
112.8319678545058
 20
56.18797964290541
  0
LWPOLYLINE
  5
506
330
1F
100
AcDbEntity
  8
OBRYS
100
AcDbPolyline
 90
        2
 70
     0
 43
0.0
 10
86.30283781556508
 20
104.2176060957415
 10
86.30283781556508
 20
104.2172615861936
  0
LWPOLYLINE
  5
507
330
1F
100
AcDbEntity
  8
OBRYS
100
AcDbPolyline
 90
        2
 70
     0
 43
0.0
 10
174.3024620882702
 20
104.2172615861936
 10
174.3024620882702
 20
104.2176060957415
  0
LWPOLYLINE
  5
508
330
1F
100
AcDbEntity
  8
OBRYS
100
AcDbPolyline
 90
        2
 70
     0
 43
0.0
 10
85.50236987956734
 20
64.4672331130584
 10
86.30283781556508
 20
64.4672331130584
  0
LWPOLYLINE
  5
509
330
1F
100
AcDbEntity
  8
OBRYS
100
AcDbPolyline
 90
        4
 70
     0
 43
0.0
 10
78.50245261786242
 20
64.66739316075149
 10
77.50268590804316
 20
64.84378204959552
 10
77.50268590804316
 20
65.2909554435816
 10
78.50245261786242
 20
65.46734433242653
  0
LWPOLYLINE
  5
50A
330
1F
100
AcDbEntity
  8
OBRYS
100
AcDbPolyline
 90
        2
 70
     0
 43
0.0
 10
86.30283781556508
 20
84.16715037158741
 10
85.50236987956734
 20
84.16715037158741
  0
LWPOLYLINE
  5
50B
330
1F
100
AcDbEntity
  8
OBRYS
100
AcDbPolyline
 90
        2
 70
     0
 43
0.0
 10
78.50245261786242
 20
64.66739316075149
 10
85.50236987956734
 20
64.66739316075149
  0
LWPOLYLINE
  5
50C
330
1F
100
AcDbEntity
  8
OBRYS
100
AcDbPolyline
 90
        2
 70
     0
 43
0.0
 10
86.30283781556508
 20
78.91837514503544
 10
86.30283781556508
 20
79.1273201862154
  0
LWPOLYLINE
  5
50D
330
1F
100
AcDbEntity
  8
OBRYS
100
AcDbPolyline
 90
        2
 70
     0
 43
0.0
 10
86.30283781556508
 20
84.11237335337245
 10
86.30283781556508
 20
84.16715037158741
  0
LWPOLYLINE
  5
50E
330
1F
100
AcDbEntity
  8
OBRYS
100
AcDbPolyline
 90
        2
 70
     0
 43
0.0
 10
79.00268048232076
 20
65.46734433242653
 10
79.00268048232076
 20
64.66739316075149
  0
LWPOLYLINE
  5
50F
330
1F
100
AcDbEntity
  8
OBRYS
100
AcDbPolyline
 90
        2
 70
     0
 43
0.0
 10
85.50236987956734
 20
68.76722904297247
 10
86.30283781556508
 20
68.76722904297247
  0
LWPOLYLINE
  5
510
330
1F
100
AcDbEntity
  8
OBRYS
100
AcDbPolyline
 90
        2
 70
     0
 43
0.0
 10
85.50236987956734
 20
76.26737416913551
 10
86.30283781556508
 20
76.26737416913551
  0
LWPOLYLINE
  5
511
330
1F
100
AcDbEntity
  8
OBRYS
100
AcDbPolyline
 90
        2
 70
     0
 43
0.0
 10
174.3024620882702
 20
84.16715037158741
 10
175.1029300242678
 20
84.16715037158741
  0
LWPOLYLINE
  5
512
330
1F
100
AcDbEntity
  8
OBRYS
100
AcDbPolyline
 90
        2
 70
     0
 43
0.0
 10
175.1029300242678
 20
103.8672398848925
 10
174.3024620882702
 20
103.8672398848925
  0
LWPOLYLINE
  5
513
330
1F
100
AcDbEntity
  8
OBRYS
100
AcDbPolyline
 90
        2
 70
     0
 43
0.0
 10
174.3024620882702
 20
86.40198381286945
 10
174.3024620882702
 20
86.19303877168949
  0
LWPOLYLINE
  5
514
330
1F
100
AcDbEntity
  8
OBRYS
100
AcDbPolyline
 90
        2
 70
     0
 43
0.0
 10
175.1029300242678
 20
92.06761559313753
 10
174.3024620882702
 20
92.06761559313753
  0
LWPOLYLINE
  5
515
330
1F
100
AcDbEntity
  8
OBRYS
100
AcDbPolyline
 90
        2
 70
     0
 43
0.0
 10
175.1029300242678
 20
99.56724395497753
 10
174.3024620882702
 20
99.56724395497753
  0
LWPOLYLINE
  5
516
330
1F
100
AcDbEntity
  8
OBRYS
100
AcDbPolyline
 90
        2
 70
     0
 43
0.0
 10
175.1029300242678
 20
103.8672398848925
 10
175.1029300242678
 20
103.8672398848925
  0
LWPOLYLINE
  5
517
330
1F
100
AcDbEntity
  8
OBRYS
100
AcDbPolyline
 90
        2
 70
     0
 43
0.0
 10
174.3024620882702
 20
103.8672398848925
 10
174.3024620882702
 20
103.8672398848925
  0
LWPOLYLINE
  5
518
330
1F
100
AcDbEntity
  8
OBRYS
100
AcDbPolyline
 90
        2
 70
     0
 43
0.0
 10
122.4024431125299
 20
53.44430559845244
 10
122.4024431125299
 20
52.31724261045354
  0
LWPOLYLINE
  5
519
330
1F
100
AcDbEntity
  8
OBRYS
100
AcDbPolyline
 90
        2
 70
     0
 43
0.0
 10
127.2024946521285
 20
52.31724261045354
 10
127.2024946521285
 20
55.12361739273745
  0
LWPOLYLINE
  5
51A
330
1F
100
AcDbEntity
  8
OBRYS
100
AcDbPolyline
 90
        2
 70
     0
 43
0.0
 10
127.2024946521285
 20
55.91702288299046
 10
127.2024946521285
 20
57.37688209486549
  0
LWPOLYLINE
  5
51B
330
1F
100
AcDbEntity
  8
OBRYS
100
AcDbPolyline
 90
        4
 70
     0
 43
0.0
 10
147.8024431061798
 20
59.28701528666254
 10
147.8024431061798
 20
59.11321021943143
 10
147.8024431061798
 20
57.5567160791956
 10
147.8024431061798
 20
56.31734297837641
  0
LWPOLYLINE
  5
51C
330
1F
100
AcDbEntity
  8
OBRYS
100
AcDbPolyline
 90
        2
 70
     0
 43
0.0
 10
144.8024539576242
 20
59.28701528666254
 10
144.8024539576242
 20
56.31734297837641
  0
LWPOLYLINE
  5
51F
330
1F
100
AcDbEntity
  8
OBRYS
100
AcDbPolyline
 90
        6
 70
     0
 43
0.0
 10
144.8024539576242
 20
57.31710968819646
 10
143.1025760284367
 20
57.31710968819646
 42
0.414213562373428
 10
142.8025760284367
 20
57.01710968819651
 10
142.8025760284367
 20
51.1180032853453
 42
-0.4131123223598102
 10
142.5037044253594
 20
50.81800540748548
 10
142.3023481639783
 20
50.81724803617561
  0
LWPOLYLINE
  5
522
330
1F
100
AcDbEntity
  8
OBRYS
100
AcDbPolyline
 90
        2
 70
     0
 43
0.0
 10
115.8028459462109
 20
56.31734297837641
 10
115.8028459462109
 20
59.28701528666254
  0
LWPOLYLINE
  5
523
330
1F
100
AcDbEntity
  8
OBRYS
100
AcDbPolyline
 90
        2
 70
     0
 43
0.0
 10
115.8028459462109
 20
56.31734297837641
 10
112.802684542881
 20
56.31734297837641
  0
LWPOLYLINE
  5
524
330
1F
100
AcDbEntity
  8
OBRYS
100
AcDbPolyline
 90
       11
 70
     0
 43
0.0
 10
147.8024431061798
 20
56.31734297837641
 10
144.8024539576242
 20
56.31734297837641
 10
144.1026872478047
 20
56.31734297837641
 42
0.4142135623738721
 10
143.8026872478048
 20
56.01734297837645
 10
143.8026872478048
 20
50.11713681680742
 42
-0.4142135623733169
 10
143.5026872478048
 20
49.81713681680747
 10
117.0526126560305
 20
49.81713681680747
 42
-0.4142135623732282
 10
116.8026126560305
 20
50.06713681680747
 10
116.8026126560306
 20
56.06734297837641
 42
0.4142135623732282
 10
116.5526126560306
 20
56.31734297837641
 10
115.8028459462109
 20
56.31734297837641
  0
LWPOLYLINE
  5
525
330
1F
100
AcDbEntity
  8
OBRYS
100
AcDbPolyline
 90
        4
 70
     0
 43
0.0
 10
112.802684542881
 20
56.31734297837641
 10
112.802684542881
 20
57.5567160791956
 10
112.802684542881
 20
59.11321021943143
 10
112.802684542881
 20
59.28701528666254
  0
LWPOLYLINE
  5
526
330
1F
100
AcDbEntity
  8
OBRYS
100
AcDbPolyline
 90
        2
 70
     0
 43
0.0
 10
138.2026845365312
 20
52.31724261045354
 10
138.2026845365312
 20
57.37688209486549
  0
LWPOLYLINE
  5
527
330
1F
100
AcDbEntity
  8
OBRYS
100
AcDbPolyline
 90
        2
 70
     0
 43
0.0
 10
133.4028052517068
 20
57.37688209486549
 10
133.4028052517068
 20
52.31724261045354
  0
LWPOLYLINE
  5
528
330
1F
100
AcDbEntity
  8
OBRYS
100
AcDbPolyline
 90
        2
 70
     0
 43
0.0
 10
142.3023481639783
 20
52.31724261045354
 10
118.3029517398566
 20
52.31724261045354
  0
LWPOLYLINE
  5
52A
330
1F
100
AcDbEntity
  8
OBRYS
100
AcDbPolyline
 90
        2
 70
     0
 43
0.0
 10
142.3023481639783
 20
52.31724261045354
 10
142.3023481639783
 20
49.81713681680747
  0
LWPOLYLINE
  5
52B
330
1F
100
AcDbEntity
  8
OBRYS
100
AcDbPolyline
 90
        2
 70
     0
 43
0.0
 10
118.3029517398566
 20
49.81713681680747
 10
118.3029517398566
 20
52.31724261045354
  0
LWPOLYLINE
  5
52D
330
1F
100
AcDbEntity
  8
OBRYS
100
AcDbPolyline
 90
        3
 70
     0
 43
0.0
 10
127.2024946521285
 20
57.37688209486549
 10
126.7024390424444
 20
57.86935849448144
 10
124.5032623394352
 20
57.86935849448144
  0
LWPOLYLINE
  5
52E
330
1F
100
AcDbEntity
  8
OBRYS
100
AcDbPolyline
 90
        2
 70
     0
 43
0.0
 10
133.4028052517068
 20
57.37688209486549
 10
133.4701568684434
 20
57.44354469250441
  0
LWPOLYLINE
  5
52F
330
1F
100
AcDbEntity
  8
OBRYS
100
AcDbPolyline
 90
        2
 70
     0
 43
0.0
 10
136.7026899622534
 20
58.82347768912148
 10
138.2026845365312
 20
57.37688209486549
  0
LWPOLYLINE
  5
530
330
1F
100
AcDbEntity
  8
OBRYS
100
AcDbPolyline
 90
        2
 70
     0
 43
0.0
 10
137.7028011816213
 20
57.86935849448144
 10
135.2366295785054
 20
57.86935849448144
  0
LWPOLYLINE
  5
531
330
1F
100
AcDbEntity
  8
OBRYS
100
AcDbPolyline
 90
        3
 70
     0
 43
0.0
 10
126.7024390424444
 20
57.86935849448144
 10
125.7026723326249
 20
58.82347768912148
 10
124.8508724738969
 20
58.82347768912148
  0
LWPOLYLINE
  5
532
330
1F
100
AcDbEntity
  8
OBRYS
100
AcDbPolyline
 90
        2
 70
     0
 43
0.0
 10
147.8024431061798
 20
59.28701528666254
 10
144.8024539576242
 20
59.28701528666254
  0
LWPOLYLINE
  5
533
330
1F
100
AcDbEntity
  8
OBRYS
100
AcDbPolyline
 90
        2
 70
     0
 43
0.0
 10
115.8028459462109
 20
59.28701528666254
 10
112.802684542881
 20
59.28701528666254
  0
LWPOLYLINE
  5
534
330
1F
100
AcDbEntity
  8
OBRYS
100
AcDbPolyline
 90
        2
 70
     0
 43
0.0
 10
136.7026899622534
 20
58.82347768912148
 10
136.1990170023099
 20
58.82347768912148
  0
LWPOLYLINE
  5
537
330
1F
100
AcDbEntity
  8
OBRYS
100
AcDbPolyline
 90
        2
 70
     0
 43
0.0
 10
147.4028120298909
 20
56.21726295453043
 10
147.4391577872602
 20
56.31734297837641
  0
LINE
  5
538
330
1F
100
AcDbEntity
  8
OBRYS
100
AcDbLine
 10
78.50245261786242
 20
65.46734433242653
 30
0.0
 11
85.50236987956734
 21
65.46734433242653
 31
0.0
  0
LINE
  5
539
330
1F
100
AcDbEntity
  8
OBRYS
100
AcDbLine
 10
83.34091697212168
 20
68.76722904297247
 30
0.0
 11
83.34091697212168
 21
69.36736467650343
 31
0.0
  0
LINE
  5
53A
330
1F
100
AcDbEntity
  8
OBRYS
100
AcDbLine
 10
83.34091697212168
 20
99.0677051096165
 30
0.0
 11
83.34091697212168
 21
99.66749623359846
 31
0.0
  0
ELLIPSE
  5
53B
330
1F
100
AcDbEntity
  8
OBRYS
100
AcDbEllipse
 10
126.4399227664685
 20
61.25063358586743
 30
0.0
 11
-0.6630086261363886
 21
0.1167026095631627
 31
0.0
210
0.0
220
0.0
230
1.0
 40
0.5976804459346348
 41
3.14159265359014
 42
6.283185307179586
  0
LINE
  5
53C
330
1F
100
AcDbEntity
  8
OBRYS
100
AcDbLine
 10
133.7182566420242
 20
58.29763625959134
 30
0.0
 11
133.5549062173806
 21
58.26330516322053
 31
0.0
  0
LINE
  5
53D
330
1F
100
AcDbEntity
  8
OBRYS
100
AcDbLine
 10
133.5549062173806
 20
58.26330516322053
 30
0.0
 11
133.0321129774939
 21
58.11447703825745
 31
0.0
  0
LINE
  5
53E
330
1F
100
AcDbEntity
  8
OBRYS
100
AcDbLine
 10
133.0321129774939
 20
58.11447703825745
 30
0.0
 11
132.5212053170313
 21
57.92895864637642
 31
0.0
  0
LINE
  5
53F
330
1F
100
AcDbEntity
  8
OBRYS
100
AcDbLine
 10
132.5212053170313
 20
57.92895864637642
 30
0.0
 11
132.0245948028326
 21
57.70778351622351
 31
0.0
  0
LINE
  5
540
330
1F
100
AcDbEntity
  8
OBRYS
100
AcDbLine
 10
132.0245948028326
 20
57.70778351622351
 30
0.0
 11
131.5446930017373
 21
57.45232968599242
 31
0.0
  0
LINE
  5
541
330
1F
100
AcDbEntity
  8
OBRYS
100
AcDbLine
 10
131.5446930017373
 20
57.45232968599242
 30
0.0
 11
131.0844282449079
 21
57.16328617478046
 31
0.0
  0
LINE
  5
542
330
1F
100
AcDbEntity
  8
OBRYS
100
AcDbLine
 10
131.0844282449079
 20
57.16328617478046
 30
0.0
 11
130.6451785705386
 21
56.8430645494256
 31
0.0
  0
LINE
  5
543
330
1F
100
AcDbEntity
  8
OBRYS
100
AcDbLine
 10
130.6451785705386
 20
56.8430645494256
 30
0.0
 11
130.2298723097916
 21
56.49235382902742
 31
0.0
  0
LINE
  5
544
330
1F
100
AcDbEntity
  8
OBRYS
100
AcDbLine
 10
130.2298723097916
 20
56.49235382902742
 30
0.0
 11
129.8405765199586
 21
56.11322107087556
 31
0.0
  0
LINE
  5
545
330
1F
100
AcDbEntity
  8
OBRYS
100
AcDbLine
 10
129.8405765199586
 20
56.11322107087556
 30
0.0
 11
129.4784969844587
 21
55.70738882271342
 31
0.0
  0
LINE
  5
546
330
1F
100
AcDbEntity
  8
OBRYS
100
AcDbLine
 10
129.4784969844587
 20
55.70738882271342
 30
0.0
 11
129.0504689453386
 21
55.15297367707574
 31
0.0
  0
ARC
  5
547
330
1F
100
AcDbEntity
  8
OBRYS
100
AcDbCircle
 10
128.8525814573339
 20
55.30574979461783
 30
0.0
 40
0.250000000000026
100
AcDbArc
 50
180.0
 51
322.3305937371464
  0
LINE
  5
548
330
1F
100
AcDbEntity
  8
OBRYS
100
AcDbLine
 10
128.6025814573339
 20
55.30574979461783
 30
0.0
 11
128.6025814573339
 21
57.86723311464555
 31
0.0
  0
ARC
  5
549
330
1F
100
AcDbEntity
  8
OBRYS
100
AcDbCircle
 10
128.3525814573339
 20
57.86723311464555
 30
0.0
 40
0.2499999999999432
100
AcDbArc
 50
0.0
 51
90.0
  0
LINE
  5
54A
330
1F
100
AcDbEntity
  8
OBRYS
100
AcDbLine
 10
128.3525814573339
 20
58.11723311464555
 30
0.0
 11
128.1527103095054
 21
58.11723311464555
 31
0.0
  0
ARC
  5
54B
330
1F
100
AcDbEntity
  8
OBRYS
100
AcDbCircle
 10
128.1527103095054
 20
58.36723311464555
 30
0.0
 40
0.2499999999999432
100
AcDbArc
 50
180.0
 51
270.0
  0
LINE
  5
54C
330
1F
100
AcDbEntity
  8
OBRYS
100
AcDbLine
 10
127.9027103095054
 20
58.36723311464555
 30
0.0
 11
127.9027103095054
 21
61.60776955485556
 31
0.0
  0
ARC
  5
54D
330
1F
100
AcDbEntity
  8
OBRYS
100
AcDbCircle
 10
128.1527103095057
 20
61.60776955485533
 30
0.0
 40
0.2500000000002957
100
AcDbArc
 50
100.0056301602125
 51
179.9999999999479
  0
LINE
  5
54E
330
1F
100
AcDbEntity
  8
OBRYS
100
AcDbLine
 10
128.1092740723062
 20
61.8539672260428
 30
0.0
 11
134.450072257548
 21
62.97266348615806
 31
0.0
  0
ARC
  5
54F
330
1F
100
AcDbEntity
  8
OBRYS
100
AcDbCircle
 10
134.493508494747
 20
62.72646581497059
 30
0.0
 40
0.2500000000002673
100
AcDbArc
 50
14.01937268405249
 51
100.0056301600881
  0
LINE
  5
550
330
1F
100
AcDbEntity
  8
OBRYS
100
AcDbLine
 10
134.736061962967
 20
62.78702830381138
 30
0.0
 11
135.247334258279
 21
60.73937684814512
 31
0.0
  0
ARC
  5
551
330
1F
100
AcDbEntity
  8
OBRYS
100
AcDbCircle
 10
133.3069065125204
 20
60.25487693742269
 30
0.0
 40
2.000000000000001
100
AcDbArc
 50
281.8690195444073
 51
14.01937268395295
  0
ELLIPSE
  5
552
330
1F
100
AcDbEntity
  8
OBRYS
100
AcDbEllipse
 10
174.4947845437341
 20
60.6890830217714
 30
0.0
 11
-0.1923224554639091
 21
-0.03884345159599434
 31
0.0
210
0.0
220
0.0
230
1.0
 40
0.6726905110995991
 41
3.137255986357017
 42
6.285917136582214
  0
LINE
  5
553
330
1F
100
AcDbEntity
  8
OBRYS
100
AcDbLine
 10
177.2643829317137
 20
69.36736467650343
 30
0.0
 11
177.2643829317137
 21
68.76722904297247
 31
0.0
  0
LINE
  5
554
330
1F
100
AcDbEntity
  8
OBRYS
100
AcDbLine
 10
177.2643829317137
 20
99.66749623359846
 30
0.0
 11
177.2643829317137
 21
99.0677051096165
 31
0.0
  0
CIRCLE
  5
555
330
1F
100
AcDbEntity
  8
OBRYS
100
AcDbCircle
 10
124.8054402771852
 20
55.88959131018913
 30
0.0
 40
0.743272328504955
  0
CIRCLE
  5
556
330
1F
100
AcDbEntity
  8
OBRYS
100
AcDbCircle
 10
135.8123911614777
 20
55.8772750938296
 30
0.0
 40
0.7080004021513181
  0
DIMENSION
  5
557
330
1F
100
AcDbEntity
  8
KOTY
100
AcDbDimension
  2
*D1
 10
175.1029300242678
 20
121.5504493592366
 30
0.0
 11
130.3026499519176
 21
124.5924493592366
 31
0.0
 70
    32
  3
ISO-25
100
AcDbAlignedDimension
 13
85.50236987956734
 23
103.8672398848925
 33
0.0
 14
175.1029300242678
 24
103.8672398848925
 34
0.0
100
AcDbRotatedDimension
1001
ACAD
1000
DSTYLE
1002
{
1070
   287
1070
     5
1070
   271
1070
     0
1070
   278
1070
    44
1070
   140
1040
4.0
1070
   147
1040
1.0
1070
    41
1040
4.0
1070
   178
1070
   256
1070
   176
1070
   256
1070
   177
1070
   256
1070
   279
1070
     2
1002
}
  0
DIMENSION
  5
559
330
1F
100
AcDbEntity
  8
KOTY
100
AcDbDimension
  2
*D2
 10
66.24713736595558
 20
56.71749081898854
 30
0.0
 11
63.20513736595558
 21
80.46754845736501
 31
0.0
 70
    32
  3
ISO-25
100
AcDbAlignedDimension
 13
86.30283781556508
 23
104.2176060957415
 33
0.0
 14
86.30283781556508
 24
56.71749081898854
 34
0.0
 50
90.0
100
AcDbRotatedDimension
1001
ACAD
1000
DSTYLE
1002
{
1070
   287
1070
     5
1070
   271
1070
     0
1070
   278
1070
    44
1070
   140
1040
4.0
1070
   147
1040
1.0
1070
    41
1040
4.0
1070
   178
1070
   256
1070
   176
1070
   256
1070
   177
1070
   256
1070
   279
1070
     2
1002
}
  0
DIMENSION
  5
55C
330
1F
100
AcDbEntity
  8
KOTY
100
AcDbDimension
  2
*D3
 10
49.2744460197766
 20
49.81713681680748
 30
0.0
 11
46.24044601977659
 21
77.01737145627449
 31
0.0
 70
    32
  3
ISO-25
100
AcDbAlignedDimension
 13
86.30283781556508
 23
104.2176060957415
 33
0.0
 14
117.0526126560306
 24
49.81713681680747
 34
0.0
 50
90.0
100
AcDbRotatedDimension
1001
ACAD
1000
DSTYLE
1002
{
1070
   287
1070
     5
1070
   271
1070
     0
1070
   278
1070
    44
1070
   140
1040
4.0
1070
   147
1040
1.0
1070
    41
1040
4.0
1070
   178
1070
   256
1070
   176
1070
   256
1070
   177
1070
   256
1070
   279
1070
     2
1002
}
  0
LINE
  5
55F
330
1F
100
AcDbEntity
  8
OBRYS
100
AcDbLine
 10
86.30283781556508
 20
64.21746369037754
 30
0.0
 11
86.30283781556508
 21
104.2176060957415
 31
0.0
  0
LINE
  5
560
330
1F
100
AcDbEntity
  8
OBRYS
100
AcDbLine
 10
85.50236987956734
 20
103.8672398848925
 30
0.0
 11
85.50236987956734
 21
64.4672331130584
 31
0.0
  0
LINE
  5
561
330
1F
100
AcDbEntity
  8
OBRYS
100
AcDbLine
 10
174.3024620882702
 20
104.2172615861936
 30
0.0
 11
174.3024620882702
 21
64.21746369037754
 31
0.0
  0
LINE
  5
562
330
1F
100
AcDbEntity
  8
OBRYS
100
AcDbLine
 10
175.1029300242678
 20
64.4672331130584
 30
0.0
 11
175.1029300242678
 21
103.8672398848925
 31
0.0
  0
LINE
  5
563
330
1F
100
AcDbEntity
  8
OBRYS
100
AcDbLine
 10
211.0857906201622
 20
59.11289610942816
 30
0.0
 11
211.3502923143809
 21
57.61194868130513
 31
0.0
  0
ARC
  5
564
330
1F
100
AcDbEntity
  8
OBRYS
100
AcDbCircle
 10
212.8275301646295
 20
57.87227219886056
 30
0.0
 40
1.499999999999818
100
AcDbArc
 50
189.9942306092539
 51
254.1562987951538
  0
ARC
  5
565
330
1F
100
AcDbEntity
  8
OBRYS
100
AcDbCircle
 10
231.0091090743633
 20
57.87749029414015
 30
0.0
 40
1.500000000000132
100
AcDbArc
 50
285.8071932490247
 51
350.0057693907481
  0
LINE
  5
566
330
1F
100
AcDbEntity
  8
OBRYS
100
AcDbLine
 10
232.4863469246122
 20
57.61716677658472
 30
0.0
 11
232.7499290696074
 21
59.11289610942816
 31
0.0
  0
ARC
  5
567
330
1F
100
AcDbEntity
  8
OBRYS
100
AcDbCircle
 10
219.1178584892482
 20
65.91730420234529
 30
0.0
 40
0.4001478406116803
100
AcDbArc
 50
359.9999999999674
 51
179.9999999999675
  0
ARC
  5
568
330
1F
100
AcDbEntity
  8
OBRYS
100
AcDbCircle
 10
224.7178612005216
 20
65.91730420234506
 30
0.0
 40
0.4001478406116803
100
AcDbArc
 50
0.0
 51
180.0
  0
CIRCLE
  5
569
330
1F
100
AcDbEntity
  8
OBRYS
100
AcDbCircle
 10
213.0927309950947
 20
69.06715500450917
 30
0.0
 40
2.795178221957485
  0
CIRCLE
  5
56A
330
1F
100
AcDbEntity
  8
OBRYS
100
AcDbCircle
 10
230.7429886946752
 20
69.06715500450917
 30
0.0
 40
2.795867241054566
  0
CIRCLE
  5
56B
330
1F
100
AcDbEntity
  8
OBRYS
100
AcDbCircle
 10
213.0927309950947
 20
99.3672865616042
 30
0.0
 40
2.795295446849343
  0
CIRCLE
  5
56C
330
1F
100
AcDbEntity
  8
OBRYS
100
AcDbCircle
 10
230.7429886946752
 20
99.3672865616042
 30
0.0
 40
2.795821162529823
  0
CIRCLE
  5
56D
330
1F
100
AcDbEntity
  8
OBRYS
100
AcDbCircle
 10
221.9202714117245
 20
70.51715263055684
 30
0.0
 40
0.4978162976186695
  0
DIMENSION
  5
56E
330
1F
100
AcDbEntity
  8
KOTY
100
AcDbDimension
  2
*D4
 10
234.4428489910593
 20
121.5504493592366
 30
0.0
 11
221.9178947852252
 21
124.2174493592366
 31
0.0
 70
    32
  3
ISO-25
100
AcDbAlignedDimension
 13
209.3929405793911
 23
101.337079616255
 33
0.0
 14
234.4428489910593
 24
101.3172919857388
 34
0.0
100
AcDbRotatedDimension
1001
ACAD
1000
DSTYLE
1002
{
1070
   287
1070
     5
1070
   271
1070
     0
1070
   278
1070
    44
1070
   140
1040
4.0
1070
   178
1070
   256
1070
   176
1070
   256
1070
   177
1070
   256
1070
    41
1040
4.0
1070
   279
1070
     2
1002
}
  0
LINE
  5
56F
330
1F
100
AcDbEntity
  8
OBRYS
100
AcDbLine
 10
215.5930090435149
 20
104.2169474761901
 30
0.0
 11
215.5930090435149
 21
103.9173964237481
 31
0.0
  0
LINE
  5
570
330
1F
100
AcDbEntity
  8
OBRYS
100
AcDbLine
 10
215.6670785964477
 20
104.2172919857391
 30
0.0
 11
215.6670785964477
 21
103.9173964237481
 31
0.0
  0
LINE
  5
571
330
1F
100
AcDbEntity
  8
OBRYS
100
AcDbLine
 10
212.7928354331038
 20
100.8619412378802
 30
0.0
 11
213.3926265570855
 21
100.8619412378802
 31
0.0
  0
LINE
  5
572
330
1F
100
AcDbEntity
  8
OBRYS
100
AcDbLine
 10
211.5977318092705
 20
99.66718212359518
 30
0.0
 11
211.5977318092705
 21
99.067390999613
 31
0.0
  0
LINE
  5
573
330
1F
100
AcDbEntity
  8
OBRYS
100
AcDbLine
 10
212.7928354331038
 20
97.8722873757801
 30
0.0
 11
213.3926265570855
 21
97.8722873757801
 31
0.0
  0
LINE
  5
574
330
1F
100
AcDbEntity
  8
OBRYS
100
AcDbLine
 10
214.5884192000157
 20
99.66718212359518
 30
0.0
 11
214.5884192000157
 21
99.067390999613
 31
0.0
  0
LINE
  5
575
330
1F
100
AcDbEntity
  8
OBRYS
100
AcDbLine
 10
212.7928354331038
 20
100.8619412378802
 30
0.0
 11
212.7928354331038
 21
97.8722873757801
 31
0.0
  0
LINE
  5
576
330
1F
100
AcDbEntity
  8
OBRYS
100
AcDbLine
 10
213.3926265570855
 20
100.8619412378802
 30
0.0
 11
213.3926265570855
 21
97.8722873757801
 31
0.0
  0
LINE
  5
577
330
1F
100
AcDbEntity
  8
OBRYS
100
AcDbLine
 10
211.5977318092705
 20
99.66718212359518
 30
0.0
 11
214.5884192000157
 21
99.66718212359518
 31
0.0
  0
LINE
  5
578
330
1F
100
AcDbEntity
  8
OBRYS
100
AcDbLine
 10
211.5977318092705
 20
99.067390999613
 30
0.0
 11
214.5884192000157
 21
99.067390999613
 31
0.0
  0
LINE
  5
579
330
1F
100
AcDbEntity
  8
OBRYS
100
AcDbLine
 10
229.2476449993024
 20
99.66718212359518
 30
0.0
 11
229.2476449993024
 21
99.067390999613
 31
0.0
  0
LINE
  5
57A
330
1F
100
AcDbEntity
  8
OBRYS
100
AcDbLine
 10
231.0428842566662
 20
100.8619412378802
 30
0.0
 11
230.4427486231355
 21
100.8619412378802
 31
0.0
  0
LINE
  5
57B
330
1F
100
AcDbEntity
  8
OBRYS
100
AcDbLine
 10
232.2376433709506
 20
99.66718212359518
 30
0.0
 11
232.2376433709506
 21
99.067390999613
 31
0.0
  0
LINE
  5
57C
330
1F
100
AcDbEntity
  8
OBRYS
100
AcDbLine
 10
230.4427486231355
 20
97.8722873757801
 30
0.0
 11
231.0428842566662
 21
97.8722873757801
 31
0.0
  0
LINE
  5
57D
330
1F
100
AcDbEntity
  8
OBRYS
100
AcDbLine
 10
230.4427486231355
 20
100.8619412378802
 30
0.0
 11
230.4430931326841
 21
97.8722873757801
 31
0.0
  0
LINE
  5
57E
330
1F
100
AcDbEntity
  8
OBRYS
100
AcDbLine
 10
231.0428842566662
 20
100.8619412378802
 30
0.0
 11
231.0428842566662
 21
97.8722873757801
 31
0.0
  0
LINE
  5
57F
330
1F
100
AcDbEntity
  8
OBRYS
100
AcDbLine
 10
229.2476449993024
 20
99.66718212359518
 30
0.0
 11
232.2376433709506
 21
99.66718212359518
 31
0.0
  0
LINE
  5
580
330
1F
100
AcDbEntity
  8
OBRYS
100
AcDbLine
 10
229.2476449993024
 20
99.067390999613
 30
0.0
 11
232.2376433709506
 21
99.067390999613
 31
0.0
  0
LINE
  5
581
330
1F
100
AcDbEntity
  8
OBRYS
100
AcDbLine
 10
213.3926265570855
 20
70.56232644510709
 30
0.0
 11
212.7928354331038
 21
70.56232644510709
 31
0.0
  0
LINE
  5
582
330
1F
100
AcDbEntity
  8
OBRYS
100
AcDbLine
 10
211.5977318092705
 20
69.36705056650015
 30
0.0
 11
211.5977318092705
 21
68.7672594425182
 31
0.0
  0
LINE
  5
583
330
1F
100
AcDbEntity
  8
OBRYS
100
AcDbLine
 10
212.7928354331038
 20
67.57181130913608
 30
0.0
 11
213.3926265570855
 21
67.57181130913608
 31
0.0
  0
LINE
  5
584
330
1F
100
AcDbEntity
  8
OBRYS
100
AcDbLine
 10
214.5884192000157
 20
69.36705056650015
 30
0.0
 11
214.5884192000157
 21
68.7672594425182
 31
0.0
  0
LINE
  5
585
330
1F
100
AcDbEntity
  8
OBRYS
100
AcDbLine
 10
212.7928354331038
 20
70.56232644510709
 30
0.0
 11
212.7928354331038
 21
67.57181130913608
 31
0.0
  0
LINE
  5
586
330
1F
100
AcDbEntity
  8
OBRYS
100
AcDbLine
 10
213.3926265570855
 20
70.56232644510709
 30
0.0
 11
213.3926265570855
 21
67.57181130913608
 31
0.0
  0
LINE
  5
587
330
1F
100
AcDbEntity
  8
OBRYS
100
AcDbLine
 10
211.5977318092705
 20
69.36705056650015
 30
0.0
 11
214.5884192000157
 21
69.36705056650015
 31
0.0
  0
LINE
  5
588
330
1F
100
AcDbEntity
  8
OBRYS
100
AcDbLine
 10
211.5977318092705
 20
68.7672594425182
 30
0.0
 11
214.5884192000157
 21
68.7672594425182
 31
0.0
  0
LINE
  5
589
330
1F
100
AcDbEntity
  8
OBRYS
100
AcDbLine
 10
231.0428842566662
 20
70.56232644510709
 30
0.0
 11
230.4427486231355
 21
70.56232644510709
 31
0.0
  0
LINE
  5
58A
330
1F
100
AcDbEntity
  8
OBRYS
100
AcDbLine
 10
229.2476449993024
 20
69.36705056650015
 30
0.0
 11
229.2476449993024
 21
68.7672594425182
 31
0.0
  0
LINE
  5
58B
330
1F
100
AcDbEntity
  8
OBRYS
100
AcDbLine
 10
232.2376433709506
 20
69.36705056650015
 30
0.0
 11
232.2376433709506
 21
68.7672594425182
 31
0.0
  0
LINE
  5
58C
330
1F
100
AcDbEntity
  8
OBRYS
100
AcDbLine
 10
231.0428842566662
 20
67.57181130913608
 30
0.0
 11
230.4430931326841
 21
67.57181130913608
 31
0.0
  0
LINE
  5
58D
330
1F
100
AcDbEntity
  8
OBRYS
100
AcDbLine
 10
230.4427486231355
 20
70.56232644510709
 30
0.0
 11
230.4427486231355
 21
67.57181130913608
 31
0.0
  0
LINE
  5
58E
330
1F
100
AcDbEntity
  8
OBRYS
100
AcDbLine
 10
231.0428842566662
 20
70.56232644510709
 30
0.0
 11
231.0428842566662
 21
67.57181130913608
 31
0.0
  0
LINE
  5
58F
330
1F
100
AcDbEntity
  8
OBRYS
100
AcDbLine
 10
229.2476449993024
 20
69.36705056650015
 30
0.0
 11
232.2376433709506
 21
69.36705056650015
 31
0.0
  0
LINE
  5
590
330
1F
100
AcDbEntity
  8
OBRYS
100
AcDbLine
 10
229.2476449993024
 20
68.7672594425182
 30
0.0
 11
232.2376433709506
 21
68.7672594425182
 31
0.0
  0
VIEWPORT
  5
5C1
330
58
100
AcDbEntity
 67
     1
  8
0
100
AcDbViewport
 10
0.0
 20
0.0
 30
0.0
 40
8.976
 41
6.936000000000001
 68
     1
 69
     1
1001
ACAD
1000
MVIEW
1002
{
1070
    16
1010
0.0
1020
0.0
1030
0.0
1010
0.0
1020
0.0
1030
1.0
1040
0.0
1040
6.936000000000001
1040
5.25
1040
4.0
1040
50.0
1040
0.0
1040
0.0
1070
     0
1070
   100
1070
     0
1070
     3
1070
     0
1070
     0
1070
     0
1070
     0
1040
0.0
1040
0.0
1040
0.0
1040
0.5
1040
0.5
1040
0.0
1040
0.0
1070
     0
1002
{
1002
}
1002
}
  0
VIEWPORT
  5
5C2
330
58
100
AcDbEntity
 67
     1
  8
0
100
AcDbViewport
 10
5.25
 20
4.0
 30
0.0
 40
8.4
 41
6.4
 68
     2
 69
     2
1001
ACAD
1000
MVIEW
1002
{
1070
    16
1010
0.0
1020
0.0
1030
0.0
1010
0.0
1020
0.0
1030
1.0
1040
0.0
1040
148.6273303091112
1040
138.818647505418
1040
88.74129308802202
1040
50.0
1040
0.0
1040
0.0
1070
     0
1070
   100
1070
     0
1070
     3
1070
     0
1070
     0
1070
     0
1070
     0
1040
0.0
1040
0.0
1040
0.0
1040
0.5
1040
0.5
1040
0.0
1040
0.0
1070
     0
1002
{
1002
}
1002
}
  0
ENDSEC
  0
SECTION
  2
OBJECTS
  0
DICTIONARY
  5
C
330
0
100
AcDbDictionary
  3
ACAD_DETAILVIEWSTYLE
350
122
  3
ACAD_GROUP
350
D
  3
ACAD_IMAGE_VARS
350
DC
  3
ACAD_MLINESTYLE
350
17
  3
ACAD_SCALELIST
350
69A
  3
ACAD_SECTIONVIEWSTYLE
350
123
  3
ACDBVARIABLEDICTIONARY
350
66
  3
APPDATA
350
E1
  3
DWGPROPS
350
6E0
  0
DICTIONARY
  5
122
102
{ACAD_REACTORS
330
C
102
}
330
C
100
AcDbDictionary
  0
DICTIONARY
  5
D
102
{ACAD_REACTORS
330
C
102
}
330
C
100
AcDbDictionary
  0
RASTERVARIABLES
  5
DC
102
{ACAD_REACTORS
330
C
102
}
330
C
100
AcDbRasterVariables
 90
        0
 70
     1
 71
     1
 72
     5
  0
DICTIONARY
  5
17
102
{ACAD_REACTORS
330
C
102
}
330
C
100
AcDbDictionary
  3
STANDARD
350
18
  0
DICTIONARY
  5
69A
102
{ACAD_REACTORS
330
C
102
}
330
C
100
AcDbDictionary
  0
DICTIONARY
  5
123
102
{ACAD_REACTORS
330
C
102
}
330
C
100
AcDbDictionary
  0
DICTIONARY
  5
66
102
{ACAD_REACTORS
330
C
102
}
330
C
100
AcDbDictionary
  3
DIMASSOC
350
67
  3
HIDETEXT
350
6B
  0
DICTIONARY
  5
E1
102
{ACAD_REACTORS
330
C
102
}
330
C
100
AcDbDictionary
  0
XRECORD
  5
6E0
102
{ACAD_REACTORS
330
C
102
}
330
C
100
AcDbXrecord
  1
DWGPROPS COOKIE
  2

  3

  4

  6

  7

  8
jaromir.podrabsky
  9

300
=
301
=
302
=
303
=
304
=
305
=
306
=
307
=
308
=
309
=
 40
0.0
 41
2452643.021717593
 42
2456765.226087037
  1

 90
        0
  0
MLINESTYLE
  5
18
102
{ACAD_REACTORS
330
17
102
}
330
17
100
AcDbMlineStyle
  2
STANDARD
 70
     0
  3

 62
   256
 51
90.0
 52
90.0
 71
     2
 49
0.5
 62
   256
  6
BYLAYER
 49
-0.5
 62
   256
  6
BYLAYER
  0
DICTIONARYVAR
  5
67
102
{ACAD_REACTORS
330
66
102
}
330
66
100
DictionaryVariables
280
     0
  1
2
  0
DICTIONARYVAR
  5
6B
102
{ACAD_REACTORS
330
66
102
}
330
66
100
DictionaryVariables
280
     0
  1
1
  0
ENDSEC
  0
EOF
