  0
SECTION
  2
HEADER
  9
$ACADVER
  1
AC1014
  9
$ACADMAINTVER
 70
     9
  9
$DWGCODEPAGE
  3
ANSI_1250
  9
$INSBASE
 10
0.0
 20
0.0
 30
0.0
  9
$EXTMIN
 10
93.1564303763213
 20
103.0049537012406
 30
0.0
  9
$EXTMAX
 10
267.5483383620997
 20
172.1540352129351
 30
0.0
  9
$LIMMIN
 10
0.0
 20
0.0
  9
$LIMMAX
 10
12.0
 20
9.0
  9
$ORTHOMODE
 70
     0
  9
$REGENMODE
 70
     1
  9
$FILLMODE
 70
     1
  9
$QTEXTMODE
 70
     0
  9
$MIRRTEXT
 70
     0
  9
$DRAGMODE
 70
     2
  9
$LTSCALE
 40
1.0
  9
$OSMODE
 70
 15359
  9
$ATTMODE
 70
     1
  9
$TEXTSIZE
 40
0.2
  9
$TRACEWID
 40
0.05
  9
$TEXTSTYLE
  7
STANDARD
  9
$CLAYER
  8
KOTY
  9
$CELTYPE
  6
BYLAYER
  9
$CECOLOR
 62
   256
  9
$CELTSCALE
 40
1.0
  9
$DELOBJ
 70
     1
  9
$DISPSILH
 70
     0
  9
$DIMSCALE
 40
1.0
  9
$DIMASZ
 40
0.18
  9
$DIMEXO
 40
0.0625
  9
$DIMDLI
 40
0.38
  9
$DIMRND
 40
0.0
  9
$DIMDLE
 40
0.0
  9
$DIMEXE
 40
0.18
  9
$DIMTP
 40
0.0
  9
$DIMTM
 40
0.0
  9
$DIMTXT
 40
0.18
  9
$DIMCEN
 40
0.09
  9
$DIMTSZ
 40
0.0
  9
$DIMTOL
 70
     0
  9
$DIMLIM
 70
     0
  9
$DIMTIH
 70
     1
  9
$DIMTOH
 70
     1
  9
$DIMSE1
 70
     0
  9
$DIMSE2
 70
     0
  9
$DIMTAD
 70
     0
  9
$DIMZIN
 70
     0
  9
$DIMBLK
  1

  9
$DIMASO
 70
     1
  9
$DIMSHO
 70
     1
  9
$DIMPOST
  1

  9
$DIMAPOST
  1

  9
$DIMALT
 70
     0
  9
$DIMALTD
 70
     2
  9
$DIMALTF
 40
25.4
  9
$DIMLFAC
 40
1.0
  9
$DIMTOFL
 70
     0
  9
$DIMTVP
 40
0.0
  9
$DIMTIX
 70
     0
  9
$DIMSOXD
 70
     0
  9
$DIMSAH
 70
     0
  9
$DIMBLK1
  1

  9
$DIMBLK2
  1

  9
$DIMSTYLE
  2
STANDARD
  9
$DIMCLRD
 70
     0
  9
$DIMCLRE
 70
     0
  9
$DIMCLRT
 70
     0
  9
$DIMTFAC
 40
1.0
  9
$DIMGAP
 40
0.09
  9
$DIMJUST
 70
     0
  9
$DIMSD1
 70
     0
  9
$DIMSD2
 70
     0
  9
$DIMTOLJ
 70
     1
  9
$DIMTZIN
 70
     0
  9
$DIMALTZ
 70
     0
  9
$DIMALTTZ
 70
     0
  9
$DIMFIT
 70
     5
  9
$DIMUPT
 70
     0
  9
$DIMUNIT
 70
     2
  9
$DIMDEC
 70
     4
  9
$DIMTDEC
 70
     4
  9
$DIMALTU
 70
     2
  9
$DIMALTTD
 70
     2
  9
$DIMTXSTY
  7
STANDARD
  9
$DIMAUNIT
 70
     0
  9
$LUNITS
 70
     2
  9
$LUPREC
 70
     4
  9
$SKETCHINC
 40
0.1
  9
$FILLETRAD
 40
0.0
  9
$AUNITS
 70
     0
  9
$AUPREC
 70
     0
  9
$MENU
  1
.
  9
$ELEVATION
 40
0.0
  9
$PELEVATION
 40
0.0
  9
$THICKNESS
 40
0.0
  9
$LIMCHECK
 70
     0
  9
$CHAMFERA
 40
0.0
  9
$CHAMFERB
 40
0.0
  9
$CHAMFERC
 40
0.0
  9
$CHAMFERD
 40
0.0
  9
$SKPOLY
 70
     0
  9
$TDCREATE
 40
2452643.105050926
  9
$TDUPDATE
 40
2456764.620722326
  9
$TDINDWG
 40
0.006216875
  9
$TDUSRTIMER
 40
2456764.536526342
  9
$USRTIMER
 70
     1
  9
$ANGBASE
 50
0.0
  9
$ANGDIR
 70
     0
  9
$PDMODE
 70
     0
  9
$PDSIZE
 40
0.0
  9
$PLINEWID
 40
0.0
  9
$COORDS
 70
     2
  9
$SPLFRAME
 70
     0
  9
$SPLINETYPE
 70
     6
  9
$SPLINESEGS
 70
     8
  9
$ATTDIA
 70
     0
  9
$ATTREQ
 70
     1
  9
$HANDLING
 70
     1
  9
$HANDSEED
  5
6D2
  9
$SURFTAB1
 70
     6
  9
$SURFTAB2
 70
     6
  9
$SURFTYPE
 70
     6
  9
$SURFU
 70
     6
  9
$SURFV
 70
     6
  9
$UCSNAME
  2

  9
$UCSORG
 10
0.0
 20
0.0
 30
0.0
  9
$UCSXDIR
 10
1.0
 20
0.0
 30
0.0
  9
$UCSYDIR
 10
0.0
 20
1.0
 30
0.0
  9
$PUCSNAME
  2

  9
$PUCSORG
 10
0.0
 20
0.0
 30
0.0
  9
$PUCSXDIR
 10
1.0
 20
0.0
 30
0.0
  9
$PUCSYDIR
 10
0.0
 20
1.0
 30
0.0
  9
$USERI1
 70
     0
  9
$USERI2
 70
     0
  9
$USERI3
 70
     0
  9
$USERI4
 70
     0
  9
$USERI5
 70
     0
  9
$USERR1
 40
0.0
  9
$USERR2
 40
0.0
  9
$USERR3
 40
0.0
  9
$USERR4
 40
0.0
  9
$USERR5
 40
0.0
  9
$WORLDVIEW
 70
     1
  9
$SHADEDGE
 70
     3
  9
$SHADEDIF
 70
    70
  9
$TILEMODE
 70
     0
  9
$MAXACTVP
 70
    64
  9
$PINSBASE
 10
0.0
 20
0.0
 30
0.0
  9
$PLIMCHECK
 70
     0
  9
$PEXTMIN
 10
1.05
 20
0.7999999999999998
 30
0.0
  9
$PEXTMAX
 10
9.45
 20
7.2
 30
0.0
  9
$PLIMMIN
 10
0.8500000000000006
 20
0.5999999999999998
  9
$PLIMMAX
 10
9.650000000000002
 20
7.4
  9
$UNITMODE
 70
     0
  9
$VISRETAIN
 70
     1
  9
$PLINEGEN
 70
     0
  9
$PSLTSCALE
 70
     1
  9
$TREEDEPTH
 70
  3020
  9
$PICKSTYLE
 70
     0
  9
$CMLSTYLE
  2
STANDARD
  9
$CMLJUST
 70
     0
  9
$CMLSCALE
 40
1.0
  9
$PROXYGRAPHICS
 70
     1
  9
$MEASUREMENT
 70
     0
  0
ENDSEC
  0
SECTION
  2
CLASSES
  0
CLASS
  1
ACDBDICTIONARYWDFLT
  2
AcDbDictionaryWithDefault
  3
ObjectDBX Classes
 90
        0
280
     0
281
     0
  0
CLASS
  1
ACDBPLACEHOLDER
  2
AcDbPlaceHolder
  3
ObjectDBX Classes
 90
        0
280
     0
281
     0
  0
CLASS
  1
LAYOUT
  2
AcDbLayout
  3
ObjectDBX Classes
 90
        0
280
     0
281
     0
  0
CLASS
  1
DICTIONARYVAR
  2
AcDbDictionaryVar
  3
ObjectDBX Classes
 90
        0
280
     0
281
     0
  0
CLASS
  1
TABLESTYLE
  2
AcDbTableStyle
  3
ObjectDBX Classes
 90
     4095
280
     0
281
     0
  0
CLASS
  1
MATERIAL
  2
AcDbMaterial
  3
ObjectDBX Classes
 90
     1153
280
     0
281
     0
  0
CLASS
  1
VISUALSTYLE
  2
AcDbVisualStyle
  3
ObjectDBX Classes
 90
     4095
280
     0
281
     0
  0
CLASS
  1
SCALE
  2
AcDbScale
  3
ObjectDBX Classes
 90
     1153
280
     0
281
     0
  0
CLASS
  1
CELLSTYLEMAP
  2
AcDbCellStyleMap
  3
ObjectDBX Classes
 90
     1152
280
     0
281
     0
  0
CLASS
  1
RASTERVARIABLES
  2
AcDbRasterVariables
  3
ISM
 90
        0
280
     0
281
     0
  0
CLASS
  1
SUN
  2
AcDbSun
  3
SCENEOE
 90
     1153
280
     0
281
     0
  0
CLASS
  1
DIMASSOC
  2
AcDbDimAssoc
  3
"AcDbDimAssoc|Product Desc:     AcDim ARX App For Dimension|Company:          Autodesk, Inc.|WEB Address:      www.autodesk.com"
 90
        0
280
     0
281
     0
  0
CLASS
  1
XRECORD
  2
AcDbXrecord
  3
ObjectDBX Classes
 90
        0
280
     0
281
     0
  0
CLASS
  1
LWPOLYLINE
  2
AcDbPolyline
  3
ObjectDBX Classes
 90
        0
280
     0
281
     1
  0
CLASS
  1
HATCH
  2
AcDbHatch
  3
ObjectDBX Classes
 90
        0
280
     0
281
     1
  0
ENDSEC
  0
SECTION
  2
TABLES
  0
TABLE
  2
VPORT
  5
8
330
0
100
AcDbSymbolTable
 70
     1
  0
VPORT
  5
94
330
8
100
AcDbSymbolTableRecord
100
AcDbViewportTableRecord
  2
*ACTIVE
 70
     0
 10
0.0
 20
0.0
 11
1.0
 21
1.0
 12
215.6632482257931
 22
168.1959239010045
 13
0.0
 23
0.0
 14
0.5
 24
0.5
 15
0.5
 25
0.5
 16
0.0
 26
0.0
 36
1.0
 17
-27.66959356597977
 27
-19.53870295786191
 37
0.0
 40
179.518103106415
 41
1.259351620947631
 42
50.0
 43
0.0
 44
0.0
 50
0.0
 51
0.0
 71
    16
 72
  1000
 73
     1
 74
     3
 75
     0
 76
     0
 77
     0
 78
     0
  0
ENDTAB
  0
TABLE
  2
LTYPE
  5
5
330
0
100
AcDbSymbolTable
 70
     1
  0
LTYPE
  5
14
330
5
100
AcDbSymbolTableRecord
100
AcDbLinetypeTableRecord
  2
BYBLOCK
 70
     0
  3

 72
    65
 73
     0
 40
0.0
  0
LTYPE
  5
15
330
5
100
AcDbSymbolTableRecord
100
AcDbLinetypeTableRecord
  2
BYLAYER
 70
     0
  3
Solid line
 72
    65
 73
     0
 40
0.0
  0
LTYPE
  5
16
330
5
100
AcDbSymbolTableRecord
100
AcDbLinetypeTableRecord
  2
CONTINUOUS
 70
     0
  3
Solid line
 72
    65
 73
     0
 40
0.0
  0
ENDTAB
  0
TABLE
  2
LAYER
  5
2
102
{ACAD_XDICTIONARY
360
63D
102
}
330
0
100
AcDbSymbolTable
 70
     6
  0
LAYER
  5
10
330
2
100
AcDbSymbolTableRecord
100
AcDbLayerTableRecord
  2
0
 70
     0
 62
     7
  6
CONTINUOUS
  0
LAYER
  5
125
330
2
100
AcDbSymbolTableRecord
100
AcDbLayerTableRecord
  2
VRSTVA_1
 70
     0
 62
     7
  6
CONTINUOUS
  0
LAYER
  5
640
330
2
100
AcDbSymbolTableRecord
100
AcDbLayerTableRecord
  2
HLADINA_1
 70
     0
 62
     7
  6
CONTINUOUS
1001
ACAECLAYERSTANDARD
1000

1000

  0
LAYER
  5
642
330
2
100
AcDbSymbolTableRecord
100
AcDbLayerTableRecord
  2
OBRYS
 70
     0
 62
     5
  6
CONTINUOUS
1001
ACAECLAYERSTANDARD
1000

1000

  0
LAYER
  5
643
330
2
100
AcDbSymbolTableRecord
100
AcDbLayerTableRecord
  2
KOTY
 70
     0
 62
     1
  6
CONTINUOUS
1001
ACAECLAYERSTANDARD
1000

1000

  0
LAYER
  5
648
330
2
100
AcDbSymbolTableRecord
100
AcDbLayerTableRecord
  2
DEFPOINTS
 70
     0
 62
     7
  6
CONTINUOUS
  0
ENDTAB
  0
TABLE
  2
STYLE
  5
3
330
0
100
AcDbSymbolTable
 70
     1
  0
STYLE
  5
11
330
3
100
AcDbSymbolTableRecord
100
AcDbTextStyleTableRecord
  2
STANDARD
 70
     0
 40
0.0
 41
1.0
 50
0.0
 71
     0
 42
0.2
  3
arial.ttf
  4

1001
ACAD
1000
Arial
1071
        0
  0
ENDTAB
  0
TABLE
  2
VIEW
  5
6
330
0
100
AcDbSymbolTable
 70
     0
  0
ENDTAB
  0
TABLE
  2
UCS
  5
7
330
0
100
AcDbSymbolTable
 70
     0
  0
ENDTAB
  0
TABLE
  2
APPID
  5
9
330
0
100
AcDbSymbolTable
 70
     2
  0
APPID
  5
12
330
9
100
AcDbSymbolTableRecord
100
AcDbRegAppTableRecord
  2
ACAD
 70
     0
  0
APPID
  5
641
330
9
100
AcDbSymbolTableRecord
100
AcDbRegAppTableRecord
  2
ACAECLAYERSTANDARD
 70
     0
  0
ENDTAB
  0
TABLE
  2
DIMSTYLE
  5
A
330
0
100
AcDbSymbolTable
 70
     1
  0
DIMSTYLE
105
27
102
{ACAD_REACTORS
330
649
330
659
330
667
330
677
102
}
330
A
100
AcDbSymbolTableRecord
100
AcDbDimStyleTableRecord
  2
STANDARD
 70
     0
  3

  4

  5

  6

  7

 40
1.0
 41
0.18
 42
0.0625
 43
0.38
 44
0.18
 45
0.0
 46
0.0
 47
0.0
 48
0.0
140
0.18
141
0.09
142
0.0
143
25.4
144
1.0
145
0.0
146
1.0
147
0.09
 71
     0
 72
     0
 73
     1
 74
     1
 75
     0
 76
     0
 77
     0
 78
     0
170
     0
171
     2
172
     0
173
     0
174
     0
175
     0
176
     0
177
     0
178
     0
270
     2
271
     4
272
     4
273
     2
274
     2
340
11
275
     0
280
     0
281
     0
282
     0
283
     1
284
     0
285
     0
286
     0
287
     3
288
     0
  0
ENDTAB
  0
TABLE
  2
BLOCK_RECORD
  5
1
330
0
100
AcDbSymbolTable
 70
     5
  0
BLOCK_RECORD
  5
1F
330
1
100
AcDbSymbolTableRecord
100
AcDbBlockTableRecord
  2
*MODEL_SPACE
  0
BLOCK_RECORD
  5
58
330
1
100
AcDbSymbolTableRecord
100
AcDbBlockTableRecord
  2
*PAPER_SPACE
  0
BLOCK_RECORD
  5
5D
330
1
100
AcDbSymbolTableRecord
100
AcDbBlockTableRecord
  2
*PAPER_SPACE0
  0
BLOCK_RECORD
  5
64C
330
1
100
AcDbSymbolTableRecord
100
AcDbBlockTableRecord
  2
*D1
  0
BLOCK_RECORD
  5
65A
330
1
100
AcDbSymbolTableRecord
100
AcDbBlockTableRecord
  2
*D2
  0
BLOCK_RECORD
  5
66A
330
1
100
AcDbSymbolTableRecord
100
AcDbBlockTableRecord
  2
*D3
  0
BLOCK_RECORD
  5
67A
330
1
100
AcDbSymbolTableRecord
100
AcDbBlockTableRecord
  2
*D4
  0
ENDTAB
  0
ENDSEC
  0
SECTION
  2
BLOCKS
  0
BLOCK
  5
20
330
1F
100
AcDbEntity
  8
0
100
AcDbBlockBegin
  2
*MODEL_SPACE
 70
     0
 10
0.0
 20
0.0
 30
0.0
  3
*MODEL_SPACE
  1

  0
ENDBLK
  5
21
330
1F
100
AcDbEntity
  8
0
100
AcDbBlockEnd
  0
BLOCK
  5
5A
330
58
100
AcDbEntity
 67
     1
  8
0
100
AcDbBlockBegin
  2
*PAPER_SPACE
 70
     0
 10
0.0
 20
0.0
 30
0.0
  3
*PAPER_SPACE
  1

  0
ENDBLK
  5
5B
330
58
100
AcDbEntity
 67
     1
  8
0
100
AcDbBlockEnd
  0
BLOCK
  5
5F
330
5D
100
AcDbEntity
  8
0
100
AcDbBlockBegin
  2
*PAPER_SPACE0
 70
     0
 10
0.0
 20
0.0
 30
0.0
  3
*PAPER_SPACE0
  1
*PAPER_SPACE0
  0
ENDBLK
  5
60
330
5D
100
AcDbEntity
  8
0
100
AcDbBlockEnd
  0
BLOCK
  5
64D
330
64C
100
AcDbEntity
  8
0
100
AcDbBlockBegin
  2
*D1
 70
     1
 10
0.0
 20
0.0
 30
0.0
  3
*D1
  1
*D2
  0
LINE
  5
64F
330
64C
100
AcDbEntity
  8
KOTY
 62
     0
100
AcDbLine
 10
242.3481539065941
 20
152.7670901905519
 30
0.0
 11
242.3481539065941
 21
168.2650352129351
 31
0.0
  0
LINE
  5
650
330
64C
100
AcDbEntity
  8
KOTY
 62
     0
100
AcDbLine
 10
267.5483383620997
 20
152.7670901905519
 30
0.0
 11
267.5483383620997
 21
168.2650352129351
 31
0.0
  0
LINE
  5
651
330
64C
100
AcDbEntity
  8
KOTY
 62
     0
100
AcDbLine
 10
246.3481539065941
 20
168.0850352129351
 30
0.0
 11
263.5483383620997
 21
168.0850352129351
 31
0.0
  0
SOLID
  5
652
330
64C
100
AcDbEntity
  8
KOTY
 62
     0
100
AcDbTrace
 10
246.3481539065941
 20
168.7517018796018
 30
0.0
 11
246.3481539065941
 21
167.4183685462685
 31
0.0
 12
242.3481539065941
 22
168.0850352129351
 32
0.0
 13
242.3481539065941
 23
168.0850352129351
 33
0.0
  0
SOLID
  5
653
330
64C
100
AcDbEntity
  8
KOTY
 62
     0
100
AcDbTrace
 10
263.5483383620997
 20
167.4183685462685
 30
0.0
 11
263.5483383620997
 21
168.7517018796018
 31
0.0
 12
267.5483383620997
 22
168.0850352129351
 32
0.0
 13
267.5483383620997
 23
168.0850352129351
 33
0.0
  0
MTEXT
  5
654
330
64C
100
AcDbEntity
  8
KOTY
 62
     0
100
AcDbMText
 10
254.9482461343469
 20
171.1270352129351
 30
0.0
 40
4.0
 41
0.0
 71
     5
 72
     1
  1
\A1;25
  0
POINT
  5
655
330
64C
100
AcDbEntity
  8
DEFPOINTS
 62
     0
100
AcDbPoint
 10
242.3481539065941
 20
152.7045901905519
 30
0.0
  0
POINT
  5
656
330
64C
100
AcDbEntity
  8
DEFPOINTS
 62
     0
100
AcDbPoint
 10
267.5483383620997
 20
152.7045901905519
 30
0.0
  0
POINT
  5
657
330
64C
100
AcDbEntity
  8
DEFPOINTS
 62
     0
100
AcDbPoint
 10
267.5483383620997
 20
168.0850352129351
 30
0.0
  0
ENDBLK
  5
64E
330
64C
100
AcDbEntity
  8
0
100
AcDbBlockEnd
  0
BLOCK
  5
65B
330
65A
100
AcDbEntity
  8
0
100
AcDbBlockBegin
  2
*D2
 70
     1
 10
0.0
 20
0.0
 30
0.0
  3
*D2
  1
*D3
  0
LINE
  5
65D
330
65A
100
AcDbEntity
  8
KOTY
 62
     0
100
AcDbLine
 10
126.0903061709016
 20
156.9673506061683
 30
0.0
 11
126.0903061709016
 21
168.2650352129351
 31
0.0
  0
LINE
  5
65E
330
65A
100
AcDbEntity
  8
KOTY
 62
     0
100
AcDbLine
 10
215.690694060828
 20
156.9673506061683
 30
0.0
 11
215.690694060828
 21
168.2650352129351
 31
0.0
  0
LINE
  5
65F
330
65A
100
AcDbEntity
  8
KOTY
 62
     0
100
AcDbLine
 10
130.0903061709016
 20
168.0850352129351
 30
0.0
 11
211.690694060828
 21
168.0850352129351
 31
0.0
  0
SOLID
  5
660
330
65A
100
AcDbEntity
  8
KOTY
 62
     0
100
AcDbTrace
 10
130.0903061709016
 20
168.7517018796018
 30
0.0
 11
130.0903061709016
 21
167.4183685462685
 31
0.0
 12
126.0903061709016
 22
168.0850352129351
 32
0.0
 13
126.0903061709016
 23
168.0850352129351
 33
0.0
  0
SOLID
  5
661
330
65A
100
AcDbEntity
  8
KOTY
 62
     0
100
AcDbTrace
 10
211.690694060828
 20
167.4183685462685
 30
0.0
 11
211.690694060828
 21
168.7517018796018
 31
0.0
 12
215.690694060828
 22
168.0850352129351
 32
0.0
 13
215.690694060828
 23
168.0850352129351
 33
0.0
  0
MTEXT
  5
662
330
65A
100
AcDbEntity
  8
KOTY
 62
     0
100
AcDbMText
 10
170.8905001158648
 20
171.1270352129351
 30
0.0
 40
4.0
 41
0.0
 71
     5
 72
     1
  1
\A1;90
  0
POINT
  5
663
330
65A
100
AcDbEntity
  8
DEFPOINTS
 62
     0
100
AcDbPoint
 10
126.0903061709016
 20
156.9048506061683
 30
0.0
  0
POINT
  5
664
330
65A
100
AcDbEntity
  8
DEFPOINTS
 62
     0
100
AcDbPoint
 10
215.690694060828
 20
156.9048506061683
 30
0.0
  0
POINT
  5
665
330
65A
100
AcDbEntity
  8
DEFPOINTS
 62
     0
100
AcDbPoint
 10
215.690694060828
 20
168.0850352129351
 30
0.0
  0
ENDBLK
  5
65C
330
65A
100
AcDbEntity
  8
0
100
AcDbBlockEnd
  0
BLOCK
  5
66B
330
66A
100
AcDbEntity
  8
0
100
AcDbBlockBegin
  2
*D3
 70
     1
 10
0.0
 20
0.0
 30
0.0
  3
*D3
  1
*D4
  0
LINE
  5
66D
330
66A
100
AcDbEntity
  8
KOTY
 62
     0
100
AcDbLine
 10
126.8279295973509
 20
157.2045739133852
 30
0.0
 11
97.02443037632126
 21
157.2045739133852
 31
0.0
  0
LINE
  5
66E
330
66A
100
AcDbEntity
  8
KOTY
 62
     0
100
AcDbLine
 10
158.8280435216426
 20
103.0049537012406
 30
0.0
 11
97.02443037632126
 21
103.0049537012406
 31
0.0
  0
LINE
  5
66F
330
66A
100
AcDbEntity
  8
KOTY
 62
     0
100
AcDbLine
 10
97.20443037632127
 20
153.2045739133852
 30
0.0
 11
97.20443037632127
 21
107.0049537012406
 31
0.0
  0
SOLID
  5
670
330
66A
100
AcDbEntity
  8
KOTY
 62
     0
100
AcDbTrace
 10
97.87109704298794
 20
153.2045739133852
 30
0.0
 11
96.5377637096546
 21
153.2045739133852
 31
0.0
 12
97.20443037632127
 22
157.2045739133852
 32
0.0
 13
97.20443037632127
 23
157.2045739133852
 33
0.0
  0
SOLID
  5
671
330
66A
100
AcDbEntity
  8
KOTY
 62
     0
100
AcDbTrace
 10
96.5377637096546
 20
107.0049537012406
 30
0.0
 11
97.87109704298794
 21
107.0049537012406
 31
0.0
 12
97.20443037632127
 22
103.0049537012406
 32
0.0
 13
97.20443037632127
 23
103.0049537012406
 33
0.0
  0
MTEXT
  5
672
330
66A
100
AcDbEntity
  8
KOTY
 62
     0
100
AcDbMText
 10
94.17043037632128
 20
130.1047638073129
 30
0.0
 40
4.0
 41
0.0
 71
     5
 72
     1
  1
\A1;54
 11
0.0
 21
1.0
 31
0.0
  0
POINT
  5
673
330
66A
100
AcDbEntity
  8
DEFPOINTS
 62
     0
100
AcDbPoint
 10
126.8904295973509
 20
157.2045739133852
 30
0.0
  0
POINT
  5
674
330
66A
100
AcDbEntity
  8
DEFPOINTS
 62
     0
100
AcDbPoint
 10
158.8905435216426
 20
103.0049537012406
 30
0.0
  0
POINT
  5
675
330
66A
100
AcDbEntity
  8
DEFPOINTS
 62
     0
100
AcDbPoint
 10
97.20443037632127
 20
103.0049537012406
 30
0.0
  0
ENDBLK
  5
66C
330
66A
100
AcDbEntity
  8
0
100
AcDbBlockEnd
  0
BLOCK
  5
67B
330
67A
100
AcDbEntity
  8
0
100
AcDbBlockBegin
  2
*D4
 70
     1
 10
0.0
 20
0.0
 30
0.0
  3
*D4
  1
*D5
  0
LINE
  5
67D
330
67A
100
AcDbEntity
  8
KOTY
 62
     0
100
AcDbLine
 10
126.7654295973509
 20
157.2045739133852
 30
0.0
 11
112.2514046107112
 21
157.2045739133852
 31
0.0
  0
LINE
  5
67E
330
67A
100
AcDbEntity
  8
KOTY
 62
     0
100
AcDbLine
 10
156.3279377279968
 20
110.304422015388
 30
0.0
 11
112.2514046107112
 21
110.304422015388
 31
0.0
  0
LINE
  5
67F
330
67A
100
AcDbEntity
  8
KOTY
 62
     0
100
AcDbLine
 10
112.4314046107112
 20
153.2045739133852
 30
0.0
 11
112.4314046107112
 21
114.304422015388
 31
0.0
  0
SOLID
  5
680
330
67A
100
AcDbEntity
  8
KOTY
 62
     0
100
AcDbTrace
 10
113.0980712773779
 20
153.2045739133852
 30
0.0
 11
111.7647379440445
 21
153.2045739133852
 31
0.0
 12
112.4314046107112
 22
157.2045739133852
 32
0.0
 13
112.4314046107112
 23
157.2045739133852
 33
0.0
  0
SOLID
  5
681
330
67A
100
AcDbEntity
  8
KOTY
 62
     0
100
AcDbTrace
 10
111.7647379440445
 20
114.304422015388
 30
0.0
 11
113.0980712773779
 21
114.304422015388
 31
0.0
 12
112.4314046107112
 22
110.304422015388
 32
0.0
 13
112.4314046107112
 23
110.304422015388
 33
0.0
  0
MTEXT
  5
682
330
67A
100
AcDbEntity
  8
KOTY
 62
     0
100
AcDbMText
 10
109.4314046107112
 20
133.7544979643866
 30
0.0
 40
4.0
 41
0.0
 71
     5
 72
     1
  1
\A1;47
 11
0.0
 21
1.0
 31
0.0
  0
POINT
  5
683
330
67A
100
AcDbEntity
  8
DEFPOINTS
 62
     0
100
AcDbPoint
 10
126.8279295973509
 20
157.2045739133852
 30
0.0
  0
POINT
  5
684
330
67A
100
AcDbEntity
  8
DEFPOINTS
 62
     0
100
AcDbPoint
 10
156.3904377279968
 20
110.304422015388
 30
0.0
  0
POINT
  5
685
330
67A
100
AcDbEntity
  8
DEFPOINTS
 62
     0
100
AcDbPoint
 10
112.4314046107112
 20
110.304422015388
 30
0.0
  0
ENDBLK
  5
67C
330
67A
100
AcDbEntity
  8
0
100
AcDbBlockEnd
  0
ENDSEC
  0
SECTION
  2
ENTITIES
  0
SPLINE
  5
3C3
330
1F
100
AcDbEntity
  8
OBRYS
100
AcDbSpline
210
0.0
220
0.0
230
1.0
 70
     8
 71
     3
 72
     8
 73
     4
 74
     0
 42
0.000000001
 43
0.0000000001
 40
0.0
 40
0.0
 40
0.0
 40
0.0
 40
1.0
 40
1.0
 40
1.0
 40
1.0
 10
264.1480291181581
 20
103.8045603633671
 30
0.0
 10
264.477380246548
 20
103.8045603633671
 30
0.0
 10
264.7481647516886
 20
104.0756893780563
 30
0.0
 10
264.7481647516886
 20
104.4046959968976
 30
0.0
  0
LWPOLYLINE
  5
3C4
330
1F
100
AcDbEntity
  8
OBRYS
100
AcDbPolyline
 90
        2
 70
     0
 43
0.0
 10
264.1480291181581
 20
103.0049537012406
 10
263.9482135800135
 20
103.0049537012406
  0
LWPOLYLINE
  5
3C5
330
1F
100
AcDbEntity
  8
OBRYS
100
AcDbPolyline
 90
        2
 70
     0
 43
0.0
 10
264.1480291181581
 20
103.8045603633671
 10
263.9482135800135
 20
103.8045603633671
  0
LWPOLYLINE
  5
3C6
330
1F
100
AcDbEntity
  8
OBRYS
100
AcDbPolyline
 90
        3
 70
     0
 43
0.0
 10
245.9482786886802
 20
103.0049537012406
 10
245.8018621305571
 20
103.0049537012406
 10
245.4480508242219
 20
103.0049537012406
  0
LWPOLYLINE
  5
3C7
330
1F
100
AcDbEntity
  8
OBRYS
100
AcDbPolyline
 90
        3
 70
     0
 43
0.0
 10
245.9482786886802
 20
103.8045603633671
 10
245.8018621305571
 20
103.8045603633671
 10
245.4480508242219
 20
103.8045603633671
  0
LWPOLYLINE
  5
3C8
330
1F
100
AcDbEntity
  8
OBRYS
100
AcDbPolyline
 90
        2
 70
     0
 43
0.0
 10
245.4480508242219
 20
103.0049537012406
 10
245.3677800994156
 20
103.0049537012406
  0
LWPOLYLINE
  5
3C9
330
1F
100
AcDbEntity
  8
OBRYS
100
AcDbPolyline
 90
        2
 70
     0
 43
0.0
 10
245.4480508242219
 20
103.8045603633671
 10
245.3677800994156
 20
103.8045603633671
  0
SPLINE
  5
3CA
330
1F
100
AcDbEntity
  8
OBRYS
100
AcDbSpline
210
0.0
220
0.0
230
1.0
 70
     8
 71
     3
 72
     8
 73
     4
 74
     0
 42
0.000000001
 43
0.0000000001
 40
0.0
 40
0.0
 40
0.0
 40
0.0
 40
1.0
 40
1.0
 40
1.0
 40
1.0
 10
244.7766017141468
 20
104.3006541132431
 30
0.0
 10
244.8272446177799
 20
104.0150556975159
 30
0.0
 10
245.0777030595576
 20
103.8045603633671
 30
0.0
 10
245.3677800994156
 20
103.8045603633671
 30
0.0
  0
SPLINE
  5
3CB
330
1F
100
AcDbEntity
  8
OBRYS
100
AcDbSpline
210
0.0
220
0.0
230
1.0
 70
     8
 71
     3
 72
     8
 73
     4
 74
     0
 42
0.000000001
 43
0.0000000001
 40
0.0
 40
0.0
 40
0.0
 40
0.0
 40
1.0
 40
1.0
 40
1.0
 40
1.0
 10
243.9890528862186
 20
104.1618167651875
 30
0.0
 10
244.1065306422657
 20
103.4951907887917
 30
0.0
 10
244.6911633461126
 20
103.0049537012406
 30
0.0
 10
245.3677800994156
 20
103.0049537012406
 30
0.0
  0
LWPOLYLINE
  5
3CC
330
1F
100
AcDbEntity
  8
OBRYS
100
AcDbPolyline
 90
        2
 70
     0
 43
0.0
 10
243.9890528862186
 20
104.1618167651875
 10
242.8091076825206
 20
110.8549482739309
  0
LWPOLYLINE
  5
3CD
330
1F
100
AcDbEntity
  8
OBRYS
100
AcDbPolyline
 90
        2
 70
     0
 43
0.0
 10
243.5966565104487
 20
110.9937856219865
 10
243.2493908855355
 20
111.9480770714007
  0
LWPOLYLINE
  5
3CE
330
1F
100
AcDbEntity
  8
OBRYS
100
AcDbPolyline
 90
        2
 70
     0
 43
0.0
 10
243.683472916677
 20
110.5014814771443
 10
242.8955795792004
 20
110.3622996195402
  0
LWPOLYLINE
  5
3CF
330
1F
100
AcDbEntity
  8
OBRYS
100
AcDbPolyline
 90
        2
 70
     0
 43
0.0
 10
242.8091076825206
 20
111.870217913434
 10
242.8091076825206
 20
110.8549482739309
  0
LWPOLYLINE
  5
3D0
330
1F
100
AcDbEntity
  8
OBRYS
100
AcDbPolyline
 90
        2
 70
     0
 43
0.0
 10
242.8091076825206
 20
111.870217913434
 10
243.2493908855355
 20
111.9480770714007
  0
LWPOLYLINE
  5
3D1
330
1F
100
AcDbEntity
  8
OBRYS
100
AcDbPolyline
 90
        2
 70
     0
 43
0.0
 10
243.5966565104487
 20
110.9937856219865
 10
244.7766017141468
 20
104.3006541132431
  0
LWPOLYLINE
  5
3D2
330
1F
100
AcDbEntity
  8
OBRYS
100
AcDbPolyline
 90
        2
 70
     0
 43
0.0
 10
263.9482135800135
 20
103.0049537012406
 10
245.9482786886802
 20
103.0049537012406
  0
LWPOLYLINE
  5
3D3
330
1F
100
AcDbEntity
  8
OBRYS
100
AcDbPolyline
 90
        5
 70
     0
 43
0.0
 10
245.9482786886802
 20
104.4046959968976
 10
245.9482786886802
 20
103.8689836489413
 10
245.9482786886802
 20
103.4149200639853
 10
245.9482786886802
 20
103.1114071517348
 10
245.9482786886802
 20
103.0049537012406
  0
LWPOLYLINE
  5
3D4
330
1F
100
AcDbEntity
  8
OBRYS
100
AcDbPolyline
 90
        5
 70
     0
 43
0.0
 10
263.9482135800135
 20
103.0049537012406
 10
263.9482135800135
 20
103.1114071517348
 10
263.9482135800135
 20
103.4149200639853
 10
263.9482135800135
 20
103.8689836489413
 10
263.9482135800135
 20
104.4046959968976
  0
LWPOLYLINE
  5
3D5
330
1F
100
AcDbEntity
  8
OBRYS
100
AcDbPolyline
 90
        2
 70
     0
 43
0.0
 10
245.9482786886802
 20
106.7049862523989
 10
245.9482786886802
 20
104.4046959968976
  0
LWPOLYLINE
  5
3D6
330
1F
100
AcDbEntity
  8
OBRYS
100
AcDbPolyline
 90
        2
 70
     0
 43
0.0
 10
263.9482135800135
 20
104.4046959968976
 10
263.9482135800135
 20
106.7049862523989
  0
SPLINE
  5
3D7
330
1F
100
AcDbEntity
  8
OBRYS
100
AcDbSpline
210
0.0
220
0.0
230
1.0
 70
     8
 71
     3
 72
     8
 73
     4
 74
     0
 42
0.000000001
 43
0.0000000001
 40
0.0
 40
0.0
 40
0.0
 40
0.0
 40
1.0
 40
1.0
 40
1.0
 40
1.0
 10
244.4889362411284
 20
110.6616784172084
 30
0.0
 10
244.5795422523905
 20
110.1476701708091
 30
0.0
 10
244.9502345266034
 20
109.7253014643175
 30
0.0
 10
245.4480508242219
 20
109.5688941292871
 30
0.0
  0
SPLINE
  5
3D8
330
1F
100
AcDbEntity
  8
OBRYS
100
AcDbSpline
210
0.0
220
0.0
230
1.0
 70
     8
 71
     3
 72
     8
 73
     4
 74
     0
 42
0.000000001
 43
0.0000000001
 40
0.0
 40
0.0
 40
0.0
 40
0.0
 40
1.0
 40
1.0
 40
1.0
 40
1.0
 10
264.4484414444718
 20
110.4756432610049
 30
0.0
 10
264.5380139270884
 20
110.5634931958787
 30
0.0
 10
264.5979585885317
 20
110.677181346892
 30
0.0
 10
264.6193181805403
 20
110.8005157652639
 30
0.0
  0
LWPOLYLINE
  5
3D9
330
1F
100
AcDbEntity
  8
OBRYS
100
AcDbPolyline
 90
        2
 70
     0
 43
0.0
 10
264.8938922907147
 20
112.3570099054998
 10
264.6193181805403
 20
110.8005157652639
  0
LWPOLYLINE
  5
3DA
330
1F
100
AcDbEntity
  8
OBRYS
100
AcDbPolyline
 90
        2
 70
     0
 43
0.0
 10
265.6817856281913
 20
112.2181725574442
 10
264.8938922907147
 20
112.3570099054998
  0
LWPOLYLINE
  5
3DB
330
1F
100
AcDbEntity
  8
OBRYS
100
AcDbPolyline
 90
        2
 70
     0
 43
0.0
 10
265.4075560275654
 20
110.6616784172084
 10
265.6817856281913
 20
112.2181725574442
  0
SPLINE
  5
3DC
330
1F
100
AcDbEntity
  8
OBRYS
100
AcDbSpline
210
0.0
220
0.0
230
1.0
 70
     8
 71
     3
 72
     8
 73
     4
 74
     0
 42
0.000000001
 43
0.0000000001
 40
0.0
 40
0.0
 40
0.0
 40
0.0
 40
1.0
 40
1.0
 40
1.0
 40
1.0
 10
264.4484414444718
 20
109.5688941292871
 30
0.0
 10
264.9462577420904
 20
109.7253014643175
 30
0.0
 10
265.3169500163033
 20
110.1476701708091
 30
0.0
 10
265.4075560275654
 20
110.6616784172084
 30
0.0
  0
SPLINE
  5
3DD
330
1F
100
AcDbEntity
  8
OBRYS
100
AcDbSpline
210
0.0
220
0.0
230
1.0
 70
     8
 71
     3
 72
     8
 73
     4
 74
     0
 42
0.000000001
 43
0.0000000001
 40
0.0
 40
0.0
 40
0.0
 40
0.0
 40
1.0
 40
1.0
 40
1.0
 40
1.0
 10
245.276829578605
 20
110.8005157652639
 30
0.0
 10
245.2985336801621
 20
110.677181346892
 30
0.0
 10
245.3584783416055
 20
110.5634931958787
 30
0.0
 10
245.4480508242219
 20
110.4756432610049
 30
0.0
  0
LWPOLYLINE
  5
3DE
330
1F
100
AcDbEntity
  8
OBRYS
100
AcDbPolyline
 90
        2
 70
     0
 43
0.0
 10
245.276829578605
 20
110.8005157652639
 10
245.0025999779791
 20
112.3570099054998
  0
LWPOLYLINE
  5
3DF
330
1F
100
AcDbEntity
  8
OBRYS
100
AcDbPolyline
 90
        2
 70
     0
 43
0.0
 10
245.0025999779791
 20
112.3570099054998
 10
244.214362130954
 20
112.2181725574442
  0
LWPOLYLINE
  5
3E0
330
1F
100
AcDbEntity
  8
OBRYS
100
AcDbPolyline
 90
        2
 70
     0
 43
0.0
 10
244.214362130954
 20
112.2181725574442
 10
244.4889362411284
 20
110.6616784172084
  0
SPLINE
  5
3E1
330
1F
100
AcDbEntity
  8
OBRYS
100
AcDbSpline
210
0.0
220
0.0
230
1.0
 70
     8
 71
     3
 72
     8
 73
     4
 74
     0
 42
0.000000001
 43
0.0000000001
 40
0.0
 40
0.0
 40
0.0
 40
0.0
 40
1.0
 40
1.0
 40
1.0
 40
1.0
 10
264.1480291181581
 20
103.0049537012406
 30
0.0
 10
264.9162854113688
 20
103.0049537012406
 30
0.0
 10
265.5484604329121
 20
103.6367842132354
 30
0.0
 10
265.5484604329121
 20
104.4046959968976
 30
0.0
  0
LWPOLYLINE
  5
3E2
330
1F
100
AcDbEntity
  8
OBRYS
100
AcDbPolyline
 90
        2
 70
     0
 43
0.0
 10
265.5484604329121
 20
105.4048072162657
 10
265.5484604329121
 20
104.4046959968976
  0
LWPOLYLINE
  5
3E3
330
1F
100
AcDbEntity
  8
OBRYS
100
AcDbPolyline
 90
        2
 70
     0
 43
0.0
 10
264.7481647516886
 20
105.4048072162657
 10
265.5484604329121
 20
105.4048072162657
  0
LWPOLYLINE
  5
3E4
330
1F
100
AcDbEntity
  8
OBRYS
100
AcDbPolyline
 90
        2
 70
     0
 43
0.0
 10
264.7481647516886
 20
104.4046959968976
 10
264.7481647516886
 20
105.4048072162657
  0
LWPOLYLINE
  5
3E5
330
1F
100
AcDbEntity
  8
OBRYS
100
AcDbPolyline
 90
        2
 70
     0
 43
0.0
 10
263.9482135800135
 20
105.9046905711754
 10
264.4484414444718
 20
105.9046905711754
  0
LWPOLYLINE
  5
3E6
330
1F
100
AcDbEntity
  8
OBRYS
100
AcDbPolyline
 90
        2
 70
     0
 43
0.0
 10
245.4480508242219
 20
105.9046905711754
 10
245.9482786886802
 20
105.9046905711754
  0
LWPOLYLINE
  5
3E7
330
1F
100
AcDbEntity
  8
OBRYS
100
AcDbPolyline
 90
        2
 70
     0
 43
0.0
 10
245.4480508242219
 20
106.7049862523989
 10
264.4484414444718
 20
106.7049862523989
  0
LWPOLYLINE
  5
3E8
330
1F
100
AcDbEntity
  8
OBRYS
100
AcDbPolyline
 90
        2
 70
     0
 43
0.0
 10
245.4480508242219
 20
109.7049754009545
 10
264.4484414444718
 20
109.7049754009545
  0
LWPOLYLINE
  5
3E9
330
1F
100
AcDbEntity
  8
OBRYS
100
AcDbPolyline
 90
        2
 70
     0
 43
0.0
 10
264.4484414444718
 20
117.2049482723434
 10
261.3482000172955
 20
117.2049482723434
  0
LWPOLYLINE
  5
3EA
330
1F
100
AcDbEntity
  8
OBRYS
100
AcDbPolyline
 90
        2
 70
     0
 43
0.0
 10
248.5482922513983
 20
117.2049482723434
 10
245.4480508242219
 20
117.2049482723434
  0
LWPOLYLINE
  5
3EB
330
1F
100
AcDbEntity
  8
OBRYS
100
AcDbPolyline
 90
        2
 70
     0
 43
0.0
 10
248.5482922513983
 20
117.5046715795601
 10
248.5482922513983
 20
117.2049482723434
  0
LWPOLYLINE
  5
3EC
330
1F
100
AcDbEntity
  8
OBRYS
100
AcDbPolyline
 90
        2
 70
     0
 43
0.0
 10
252.5480481097734
 20
118.5047827989282
 10
251.7484414476468
 20
118.5047827989282
  0
LWPOLYLINE
  5
3ED
330
1F
100
AcDbEntity
  8
OBRYS
100
AcDbPolyline
 90
        2
 70
     0
 43
0.0
 10
258.1480508210469
 20
118.5047827989282
 10
257.348099649372
 20
118.5047827989282
  0
LWPOLYLINE
  5
3EE
330
1F
100
AcDbEntity
  8
OBRYS
100
AcDbPolyline
 90
        2
 70
     0
 43
0.0
 10
261.3482000172955
 20
117.2049482723434
 10
261.3482000172955
 20
117.5046715795601
  0
LWPOLYLINE
  5
3EF
330
1F
100
AcDbEntity
  8
OBRYS
100
AcDbPolyline
 90
        2
 70
     0
 43
0.0
 10
251.1241901457196
 20
109.7049754009545
 10
251.1245346552681
 20
109.6047231223337
  0
LWPOLYLINE
  5
3F0
330
1F
100
AcDbEntity
  8
OBRYS
100
AcDbPolyline
 90
        2
 70
     0
 43
0.0
 10
258.7719576134257
 20
109.6047231223337
 10
258.7723021229742
 20
109.7049754009545
  0
LWPOLYLINE
  5
3F1
330
1F
100
AcDbEntity
  8
OBRYS
100
AcDbPolyline
 90
        2
 70
     0
 43
0.0
 10
258.0722587203715
 20
109.7049754009545
 10
258.0722587203715
 20
109.6047231223337
  0
LWPOLYLINE
  5
3F2
330
1F
100
AcDbEntity
  8
OBRYS
100
AcDbPolyline
 90
        2
 70
     0
 43
0.0
 10
258.7719576134257
 20
109.6047231223337
 10
251.1245346552681
 20
109.6047231223337
  0
LWPOLYLINE
  5
3F3
330
1F
100
AcDbEntity
  8
OBRYS
100
AcDbPolyline
 90
        2
 70
     0
 43
0.0
 10
251.8242335483223
 20
109.6047231223337
 10
251.8242335483223
 20
109.7049754009545
  0
LWPOLYLINE
  5
3F4
330
1F
100
AcDbEntity
  8
OBRYS
100
AcDbPolyline
 90
        2
 70
     0
 43
0.0
 10
261.3482000172955
 20
156.9048506061683
 10
261.3482000172955
 20
157.2045739133852
  0
LWPOLYLINE
  5
3F5
330
1F
100
AcDbEntity
  8
OBRYS
100
AcDbPolyline
 90
        2
 70
     0
 43
0.0
 10
261.3482000172955
 20
157.2045739133852
 10
264.548349213544
 20
157.2045739133852
  0
SPLINE
  5
3F6
330
1F
100
AcDbEntity
  8
OBRYS
100
AcDbSpline
210
0.0
220
0.0
230
1.0
 70
     8
 71
     3
 72
     8
 73
     4
 74
     0
 42
0.000000001
 43
0.0000000001
 40
0.0
 40
0.0
 40
0.0
 40
0.0
 40
1.0
 40
1.0
 40
1.0
 40
1.0
 10
267.5483383620997
 20
154.2045847648296
 30
0.0
 10
267.5483383620997
 20
155.850651387682
 30
0.0
 10
266.194071326848
 20
157.2045739133852
 30
0.0
 10
264.548349213544
 20
157.2045739133852
 30
0.0
  0
LWPOLYLINE
  5
3F7
330
1F
100
AcDbEntity
  8
OBRYS
100
AcDbPolyline
 90
        2
 70
     0
 43
0.0
 10
267.5483383620997
 20
154.2045847648296
 10
267.5483383620997
 20
152.7045901905519
  0
LWPOLYLINE
  5
3F8
330
1F
100
AcDbEntity
  8
OBRYS
100
AcDbPolyline
 90
        2
 70
     0
 43
0.0
 10
267.3840073074533
 20
152.420542067793
 10
267.5483383620997
 20
152.7045901905519
  0
SPLINE
  5
3F9
330
1F
100
AcDbEntity
  8
OBRYS
100
AcDbSpline
210
0.0
220
0.0
230
1.0
 70
     8
 71
     3
 72
     8
 73
     4
 74
     0
 42
0.000000001
 43
0.0000000001
 40
0.0
 40
0.0
 40
0.0
 40
0.0
 40
1.0
 40
1.0
 40
1.0
 40
1.0
 10
267.3840073074533
 20
152.420542067793
 30
0.0
 10
267.0332965870548
 20
151.8124827146464
 30
0.0
 10
266.8482949594969
 20
151.1227745984993
 30
0.0
 10
266.8482949594969
 20
150.420319629057
 30
0.0
  0
LWPOLYLINE
  5
3FA
330
1F
100
AcDbEntity
  8
OBRYS
100
AcDbPolyline
 90
        2
 70
     0
 43
0.0
 10
266.8482949594969
 20
145.2049618287115
 10
266.8482949594969
 20
150.420319629057
  0
SPLINE
  5
3FB
330
1F
100
AcDbEntity
  8
OBRYS
100
AcDbSpline
210
0.0
220
0.0
230
1.0
 70
     8
 71
     3
 72
     8
 73
     4
 74
     0
 42
0.000000001
 43
0.0000000001
 40
0.0
 40
0.0
 40
0.0
 40
0.0
 40
1.0
 40
1.0
 40
1.0
 40
1.0
 10
266.9058280541005
 20
144.7650231352451
 30
0.0
 10
266.8872245384802
 20
144.9117842029167
 30
0.0
 10
266.8679320037628
 20
145.0582007610398
 30
0.0
 10
266.8482949594969
 20
145.2049618287115
 30
0.0
  0
LWPOLYLINE
  5
3FC
330
1F
100
AcDbEntity
  8
OBRYS
100
AcDbPolyline
 90
        2
 70
     0
 43
0.0
 10
266.5726873206769
 20
144.5953521825965
 10
266.9058280541005
 20
144.7650231352451
  0
LWPOLYLINE
  5
3FD
330
1F
100
AcDbEntity
  8
OBRYS
100
AcDbPolyline
 90
        2
 70
     0
 43
0.0
 10
266.966461734641
 20
144.2685848758206
 10
266.6064492564324
 20
144.3519561865636
  0
SPLINE
  5
3FE
330
1F
100
AcDbEntity
  8
OBRYS
100
AcDbSpline
210
0.0
220
0.0
230
1.0
 70
     8
 71
     3
 72
     8
 73
     4
 74
     0
 42
0.000000001
 43
0.0000000001
 40
0.0
 40
0.0
 40
0.0
 40
0.0
 40
1.0
 40
1.0
 40
1.0
 40
1.0
 10
267.0284734533755
 20
143.7249488082481
 30
0.0
 10
267.0088364091094
 20
143.9063330855466
 30
0.0
 10
266.9881658361979
 20
144.087717362845
 30
0.0
 10
266.966461734641
 20
144.2685848758206
 30
0.0
  0
LWPOLYLINE
  5
3FF
330
1F
100
AcDbEntity
  8
OBRYS
100
AcDbPolyline
 90
        2
 70
     0
 43
0.0
 10
266.7060125159561
 20
143.568024708895
 10
267.0284734533755
 20
143.7249488082481
  0
LWPOLYLINE
  5
400
330
1F
100
AcDbEntity
  8
OBRYS
100
AcDbPolyline
 90
        2
 70
     0
 43
0.0
 10
267.0808389047513
 20
143.2279937845009
 10
266.7359848466776
 20
143.3136044073093
  0
SPLINE
  5
401
330
1F
100
AcDbEntity
  8
OBRYS
100
AcDbSpline
210
0.0
220
0.0
230
1.0
 70
     8
 71
     3
 72
     8
 73
     4
 74
     0
 42
0.000000001
 43
0.0000000001
 40
0.0
 40
0.0
 40
0.0
 40
0.0
 40
1.0
 40
1.0
 40
1.0
 40
1.0
 10
267.1332043561271
 20
142.6831519335086
 30
0.0
 10
267.1166678977979
 20
142.8648807203555
 30
0.0
 10
267.099097910823
 20
143.0462649976539
 30
0.0
 10
267.0808389047513
 20
143.2279937845009
 30
0.0
  0
LWPOLYLINE
  5
402
330
1F
100
AcDbEntity
  8
OBRYS
100
AcDbPolyline
 90
        2
 70
     0
 43
0.0
 10
266.8183226287751
 20
142.5360463562884
 10
267.1332043561271
 20
142.6831519335086
  0
LWPOLYLINE
  5
403
330
1F
100
AcDbEntity
  8
OBRYS
100
AcDbPolyline
 90
        2
 70
     0
 43
0.0
 10
267.1766125592412
 20
142.1851633811157
 10
266.8434718258175
 20
142.2743913541836
  0
SPLINE
  5
404
330
1F
100
AcDbEntity
  8
OBRYS
100
AcDbSpline
210
0.0
220
0.0
230
1.0
 70
     8
 71
     3
 72
     8
 73
     4
 74
     0
 42
0.000000001
 43
0.0000000001
 40
0.0
 40
0.0
 40
0.0
 40
0.0
 40
1.0
 40
1.0
 40
1.0
 40
1.0
 10
267.2196762528068
 20
141.6392880014779
 30
0.0
 10
267.2062403804144
 20
141.8213612978733
 30
0.0
 10
267.1917709793763
 20
142.0030900847203
 30
0.0
 10
267.1766125592412
 20
142.1851633811157
 30
0.0
  0
LWPOLYLINE
  5
405
330
1F
100
AcDbEntity
  8
OBRYS
100
AcDbPolyline
 90
        2
 70
     0
 43
0.0
 10
266.9085841304887
 20
141.5011396725194
 10
267.2196762528068
 20
141.6392880014779
  0
LWPOLYLINE
  5
406
330
1F
100
AcDbEntity
  8
OBRYS
100
AcDbPolyline
 90
        2
 70
     0
 43
0.0
 10
267.2548162267564
 20
141.1409549395365
 10
266.9285656843032
 20
141.2343170271868
  0
SPLINE
  5
407
330
1F
100
AcDbEntity
  8
OBRYS
100
AcDbSpline
210
0.0
220
0.0
230
1.0
 70
     8
 71
     3
 72
     8
 73
     4
 74
     0
 42
0.000000001
 43
0.0000000001
 40
0.0
 40
0.0
 40
0.0
 40
0.0
 40
1.0
 40
1.0
 40
1.0
 40
1.0
 10
267.2882336529633
 20
140.5943905408016
 30
0.0
 10
267.277553856959
 20
140.7768083467456
 30
0.0
 10
267.2668740609548
 20
140.9588816431411
 30
0.0
 10
267.2548162267564
 20
141.1409549395365
 30
0.0
  0
LWPOLYLINE
  5
408
330
1F
100
AcDbEntity
  8
OBRYS
100
AcDbPolyline
 90
        2
 70
     0
 43
0.0
 10
266.9771415306452
 20
140.4624433837166
 10
267.2882336529633
 20
140.5943905408016
  0
LWPOLYLINE
  5
409
330
1F
100
AcDbEntity
  8
OBRYS
100
AcDbPolyline
 90
        2
 70
     0
 43
0.0
 10
267.3144163786512
 20
140.0951962049889
 10
266.9912664221348
 20
140.1940704454155
  0
SPLINE
  5
40A
330
1F
100
AcDbEntity
  8
OBRYS
100
AcDbSpline
210
0.0
220
0.0
230
1.0
 70
     8
 71
     3
 72
     8
 73
     4
 74
     0
 42
0.000000001
 43
0.0000000001
 40
0.0
 40
0.0
 40
0.0
 40
0.0
 40
1.0
 40
1.0
 40
1.0
 40
1.0
 10
267.3381875374994
 20
139.5484595514798
 30
0.0
 10
267.3309528369804
 20
139.7308773574238
 30
0.0
 10
267.3230291173643
 20
139.9129506538192
 30
0.0
 10
267.3144163786512
 20
140.0951962049889
 30
0.0
  0
LWPOLYLINE
  5
40B
330
1F
100
AcDbEntity
  8
OBRYS
100
AcDbPolyline
 90
        2
 70
     0
 43
0.0
 10
267.0233058101476
 20
139.4215077828483
 10
267.3381875374994
 20
139.5484595514798
  0
LWPOLYLINE
  5
40C
330
1F
100
AcDbEntity
  8
OBRYS
100
AcDbPolyline
 90
        2
 70
     0
 43
0.0
 10
267.3557575244741
 20
139.0489207061185
 10
267.0319185488607
 20
139.1539961184187
  0
SPLINE
  5
40D
330
1F
100
AcDbEntity
  8
OBRYS
100
AcDbSpline
210
0.0
220
0.0
230
1.0
 70
     8
 71
     3
 72
     8
 73
     4
 74
     0
 42
0.000000001
 43
0.0000000001
 40
0.0
 40
0.0
 40
0.0
 40
0.0
 40
1.0
 40
1.0
 40
1.0
 40
1.0
 10
267.3702269255122
 20
138.5018395430609
 30
0.0
 10
267.3657483013814
 20
138.6840850942306
 30
0.0
 10
267.3612696772506
 20
138.8665029001746
 30
0.0
 10
267.3557575244741
 20
139.0489207061185
 30
0.0
  0
LWPOLYLINE
  5
40E
330
1F
100
AcDbEntity
  8
OBRYS
100
AcDbPolyline
 90
        2
 70
     0
 43
0.0
 10
267.0477659880929
 20
138.3779883603661
 10
267.3702269255122
 20
138.5018395430609
  0
LWPOLYLINE
  5
40F
330
1F
100
AcDbEntity
  8
OBRYS
100
AcDbPolyline
 90
        2
 70
     0
 43
0.0
 10
267.3784951546768
 20
138.0019561881511
 10
267.0501775549325
 20
138.1151275748416
  0
SPLINE
  5
410
330
1F
100
AcDbEntity
  8
OBRYS
100
AcDbSpline
210
0.0
220
0.0
230
1.0
 70
     8
 71
     3
 72
     8
 73
     4
 74
     0
 42
0.000000001
 43
0.0000000001
 40
0.0
 40
0.0
 40
0.0
 40
0.0
 40
1.0
 40
1.0
 40
1.0
 40
1.0
 10
267.3833182883562
 20
137.4547027703192
 30
0.0
 10
267.3826292692592
 20
137.6371205762632
 30
0.0
 10
267.3809067215165
 20
137.8195383822071
 30
0.0
 10
267.3784951546768
 20
138.0019561881511
 30
0.0
  0
LWPOLYLINE
  5
411
330
1F
100
AcDbEntity
  8
OBRYS
100
AcDbPolyline
 90
        2
 70
     0
 43
0.0
 10
267.0494885358355
 20
137.3334354092383
 10
267.3833182883562
 20
137.4547027703192
  0
LWPOLYLINE
  5
412
330
1F
100
AcDbEntity
  8
OBRYS
100
AcDbPolyline
 90
        2
 70
     0
 43
0.0
 10
267.3833182883562
 20
136.9548194154094
 10
267.0494885358355
 20
137.0762590312645
  0
SPLINE
  5
413
330
1F
100
AcDbEntity
  8
OBRYS
100
AcDbSpline
210
0.0
220
0.0
230
1.0
 70
     8
 71
     3
 72
     8
 73
     4
 74
     0
 42
0.000000001
 43
0.0000000001
 40
0.0
 40
0.0
 40
0.0
 40
0.0
 40
1.0
 40
1.0
 40
1.0
 40
1.0
 10
267.3784951546768
 20
136.4077382523517
 30
0.0
 10
267.3809067215165
 20
136.5899838035215
 30
0.0
 10
267.3826292692592
 20
136.7724016094655
 30
0.0
 10
267.3833182883562
 20
136.9548194154094
 30
0.0
  0
LWPOLYLINE
  5
414
330
1F
100
AcDbEntity
  8
OBRYS
100
AcDbPolyline
 90
        2
 70
     0
 43
0.0
 10
267.0501775549325
 20
136.294394610887
 10
267.3784951546768
 20
136.4077382523517
  0
LWPOLYLINE
  5
415
330
1F
100
AcDbEntity
  8
OBRYS
100
AcDbPolyline
 90
        2
 70
     0
 43
0.0
 10
267.3702269255122
 20
135.907854897442
 10
267.0477659880929
 20
136.0311893158139
  0
SPLINE
  5
416
330
1F
100
AcDbEntity
  8
OBRYS
100
AcDbSpline
210
0.0
220
0.0
230
1.0
 70
     8
 71
     3
 72
     8
 73
     4
 74
     0
 42
0.000000001
 43
0.0000000001
 40
0.0
 40
0.0
 40
0.0
 40
0.0
 40
1.0
 40
1.0
 40
1.0
 40
1.0
 10
267.3557575244741
 20
135.3606014796101
 30
0.0
 10
267.3612696772506
 20
135.543019285554
 30
0.0
 10
267.3657483013814
 20
135.725437091498
 30
0.0
 10
267.3702269255122
 20
135.907854897442
 30
0.0
  0
LWPOLYLINE
  5
417
330
1F
100
AcDbEntity
  8
OBRYS
100
AcDbPolyline
 90
        2
 70
     0
 43
0.0
 10
267.0319185488607
 20
135.2555260673099
 10
267.3557575244741
 20
135.3606014796101
  0
LWPOLYLINE
  5
418
330
1F
100
AcDbEntity
  8
OBRYS
100
AcDbPolyline
 90
        2
 70
     0
 43
0.0
 10
267.3381875374994
 20
134.8610626342488
 10
267.0233058101476
 20
134.9881866576546
  0
SPLINE
  5
419
330
1F
100
AcDbEntity
  8
OBRYS
100
AcDbSpline
210
0.0
220
0.0
230
1.0
 70
     8
 71
     3
 72
     8
 73
     4
 74
     0
 42
0.000000001
 43
0.0000000001
 40
0.0
 40
0.0
 40
0.0
 40
0.0
 40
1.0
 40
1.0
 40
1.0
 40
1.0
 10
267.3144163786512
 20
134.3143259807397
 30
0.0
 10
267.3230291173643
 20
134.4963992771351
 30
0.0
 10
267.3309528369804
 20
134.6786448283049
 30
0.0
 10
267.3381875374994
 20
134.8610626342488
 30
0.0
  0
LWPOLYLINE
  5
41A
330
1F
100
AcDbEntity
  8
OBRYS
100
AcDbPolyline
 90
        2
 70
     0
 43
0.0
 10
266.9912664221348
 20
134.215451740313
 10
267.3144163786512
 20
134.3143259807397
  0
LWPOLYLINE
  5
41B
330
1F
100
AcDbEntity
  8
OBRYS
100
AcDbPolyline
 90
        2
 70
     0
 43
0.0
 10
267.2882336529633
 20
133.815131644927
 10
266.9771415306452
 20
133.9470788020121
  0
SPLINE
  5
41C
330
1F
100
AcDbEntity
  8
OBRYS
100
AcDbSpline
210
0.0
220
0.0
230
1.0
 70
     8
 71
     3
 72
     8
 73
     4
 74
     0
 42
0.000000001
 43
0.0000000001
 40
0.0
 40
0.0
 40
0.0
 40
0.0
 40
1.0
 40
1.0
 40
1.0
 40
1.0
 10
267.2548162267564
 20
133.2687395009664
 30
0.0
 10
267.2668740609548
 20
133.4506405425876
 30
0.0
 10
267.277553856959
 20
133.632713838983
 30
0.0
 10
267.2882336529633
 20
133.815131644927
 30
0.0
  0
LWPOLYLINE
  5
41D
330
1F
100
AcDbEntity
  8
OBRYS
100
AcDbPolyline
 90
        2
 70
     0
 43
0.0
 10
266.9285656843032
 20
133.1752051585418
 10
267.2548162267564
 20
133.2687395009664
  0
LWPOLYLINE
  5
41E
330
1F
100
AcDbEntity
  8
OBRYS
100
AcDbPolyline
 90
        2
 70
     0
 43
0.0
 10
267.2196762528068
 20
132.7702341842507
 10
266.9085841304887
 20
132.9083825132092
  0
SPLINE
  5
41F
330
1F
100
AcDbEntity
  8
OBRYS
100
AcDbSpline
210
0.0
220
0.0
230
1.0
 70
     8
 71
     3
 72
     8
 73
     4
 74
     0
 42
0.000000001
 43
0.0000000001
 40
0.0
 40
0.0
 40
0.0
 40
0.0
 40
1.0
 40
1.0
 40
1.0
 40
1.0
 10
267.1766125592412
 20
132.2243588046128
 30
0.0
 10
267.1917709793763
 20
132.4060875914598
 30
0.0
 10
267.2062403804144
 20
132.5881608878553
 30
0.0
 10
267.2196762528068
 20
132.7702341842507
 30
0.0
  0
LWPOLYLINE
  5
420
330
1F
100
AcDbEntity
  8
OBRYS
100
AcDbPolyline
 90
        2
 70
     0
 43
0.0
 10
266.8434718258175
 20
132.1351308315449
 10
267.1766125592412
 20
132.2243588046128
  0
LWPOLYLINE
  5
421
330
1F
100
AcDbEntity
  8
OBRYS
100
AcDbPolyline
 90
        2
 70
     0
 43
0.0
 10
267.1332043561271
 20
131.72637025222
 10
266.8183226287751
 20
131.8734758294402
  0
SPLINE
  5
422
330
1F
100
AcDbEntity
  8
OBRYS
100
AcDbSpline
210
0.0
220
0.0
230
1.0
 70
     8
 71
     3
 72
     8
 73
     4
 74
     0
 42
0.000000001
 43
0.0000000001
 40
0.0
 40
0.0
 40
0.0
 40
0.0
 40
1.0
 40
1.0
 40
1.0
 40
1.0
 10
267.0808389047513
 20
131.181700656002
 30
0.0
 10
267.099097910823
 20
131.3632571880747
 30
0.0
 10
267.1166678977979
 20
131.544641465373
 30
0.0
 10
267.1332043561271
 20
131.72637025222
 30
0.0
  0
LWPOLYLINE
  5
423
330
1F
100
AcDbEntity
  8
OBRYS
100
AcDbPolyline
 90
        2
 70
     0
 43
0.0
 10
266.7359848466776
 20
131.0959177784193
 10
267.0808389047513
 20
131.181700656002
  0
LWPOLYLINE
  5
424
330
1F
100
AcDbEntity
  8
OBRYS
100
AcDbPolyline
 90
        2
 70
     0
 43
0.0
 10
267.0284734533755
 20
130.6845733774805
 10
266.7060125159561
 20
130.8414974768336
  0
SPLINE
  5
425
330
1F
100
AcDbEntity
  8
OBRYS
100
AcDbSpline
210
0.0
220
0.0
230
1.0
 70
     8
 71
     3
 72
     8
 73
     4
 74
     0
 42
0.000000001
 43
0.0000000001
 40
0.0
 40
0.0
 40
0.0
 40
0.0
 40
1.0
 40
1.0
 40
1.0
 40
1.0
 10
266.966461734641
 20
130.140937309908
 30
0.0
 10
266.9881658361979
 20
130.3219770776579
 30
0.0
 10
267.0088364091094
 20
130.5031891001821
 30
0.0
 10
267.0284734533755
 20
130.6845733774805
 30
0.0
  0
LWPOLYLINE
  5
426
330
1F
100
AcDbEntity
  8
OBRYS
100
AcDbPolyline
 90
        2
 70
     0
 43
0.0
 10
266.6064492564324
 20
130.0577382539392
 10
266.966461734641
 20
130.140937309908
  0
LWPOLYLINE
  5
427
330
1F
100
AcDbEntity
  8
OBRYS
100
AcDbPolyline
 90
        2
 70
     0
 43
0.0
 10
266.9058280541005
 20
129.6444990504835
 10
266.5726873206769
 20
129.8143422579064
  0
SPLINE
  5
428
330
1F
100
AcDbEntity
  8
OBRYS
100
AcDbSpline
210
0.0
220
0.0
230
1.0
 70
     8
 71
     3
 72
     8
 73
     4
 74
     0
 42
0.000000001
 43
0.0000000001
 40
0.0
 40
0.0
 40
0.0
 40
0.0
 40
1.0
 40
1.0
 40
1.0
 40
1.0
 10
266.8482949594969
 20
129.2047326117914
 30
0.0
 10
266.8679320037628
 20
129.351493679463
 30
0.0
 10
266.8872245384802
 20
129.4977379828119
 30
0.0
 10
266.9058280541005
 20
129.6444990504835
 30
0.0
  0
LWPOLYLINE
  5
429
330
1F
100
AcDbEntity
  8
OBRYS
100
AcDbPolyline
 90
        2
 70
     0
 43
0.0
 10
266.8482949594969
 20
123.9886857923489
 10
266.8482949594969
 20
129.2047326117914
  0
SPLINE
  5
42A
330
1F
100
AcDbEntity
  8
OBRYS
100
AcDbSpline
210
0.0
220
0.0
230
1.0
 70
     8
 71
     3
 72
     8
 73
     4
 74
     0
 42
0.000000001
 43
0.0000000001
 40
0.0
 40
0.0
 40
0.0
 40
0.0
 40
1.0
 40
1.0
 40
1.0
 40
1.0
 10
266.8482949594969
 20
123.9886857923489
 30
0.0
 10
266.8482949594969
 20
123.2869198420035
 30
0.0
 10
267.0332965870548
 20
122.5972117258565
 30
0.0
 10
267.3840073074533
 20
121.9888078631613
 30
0.0
  0
LWPOLYLINE
  5
42B
330
1F
100
AcDbEntity
  8
OBRYS
100
AcDbPolyline
 90
        2
 70
     0
 43
0.0
 10
267.5483383620997
 20
121.7045874856282
 10
267.3840073074533
 20
121.9888078631613
  0
LWPOLYLINE
  5
42C
330
1F
100
AcDbEntity
  8
OBRYS
100
AcDbPolyline
 90
        2
 70
     0
 43
0.0
 10
267.5483383620997
 20
120.2045929113505
 10
267.5483383620997
 20
121.7045874856282
  0
SPLINE
  5
42D
330
1F
100
AcDbEntity
  8
OBRYS
100
AcDbSpline
210
0.0
220
0.0
230
1.0
 70
     8
 71
     3
 72
     8
 73
     4
 74
     0
 42
0.000000001
 43
0.0000000001
 40
0.0
 40
0.0
 40
0.0
 40
0.0
 40
1.0
 40
1.0
 40
1.0
 40
1.0
 10
264.548349213544
 20
117.2049482723434
 30
0.0
 10
266.194071326848
 20
117.2049482723434
 30
0.0
 10
267.5483383620997
 20
118.5588707980466
 30
0.0
 10
267.5483383620997
 20
120.2045929113505
 30
0.0
  0
LWPOLYLINE
  5
42E
330
1F
100
AcDbEntity
  8
OBRYS
100
AcDbPolyline
 90
        2
 70
     0
 43
0.0
 10
264.548349213544
 20
117.2049482723434
 10
261.3482000172955
 20
117.2049482723434
  0
LWPOLYLINE
  5
42F
330
1F
100
AcDbEntity
  8
OBRYS
100
AcDbPolyline
 90
        2
 70
     0
 43
0.0
 10
261.3482000172955
 20
117.2049482723434
 10
261.3482000172955
 20
117.4543731854755
  0
SPLINE
  5
430
330
1F
100
AcDbEntity
  8
OBRYS
100
AcDbSpline
210
0.0
220
0.0
230
1.0
 70
     8
 71
     3
 72
     8
 73
     4
 74
     0
 42
0.000000001
 43
0.0000000001
 40
0.0
 40
0.0
 40
0.0
 40
0.0
 40
1.0
 40
1.0
 40
1.0
 40
1.0
 10
261.3523341318778
 20
117.5046715795601
 30
0.0
 10
261.3495780554896
 20
117.4881351212309
 30
0.0
 10
261.3482000172955
 20
117.4712541533532
 30
0.0
 10
261.3482000172955
 20
117.4543731854755
 30
0.0
  0
LWPOLYLINE
  5
431
330
1F
100
AcDbEntity
  8
OBRYS
100
AcDbPolyline
 90
        2
 70
     0
 43
0.0
 10
252.5483926193219
 20
118.7049428466212
 10
251.7484414476468
 20
118.7049428466212
  0
LWPOLYLINE
  5
432
330
1F
100
AcDbEntity
  8
OBRYS
100
AcDbPolyline
 90
        2
 70
     0
 43
0.0
 10
258.1480508210469
 20
118.7049428466212
 10
257.348099649372
 20
118.7049428466212
  0
SPLINE
  5
433
330
1F
100
AcDbEntity
  8
OBRYS
100
AcDbSpline
210
0.0
220
0.0
230
1.0
 70
     8
 71
     3
 72
     8
 73
     4
 74
     0
 42
0.000000001
 43
0.0000000001
 40
0.0
 40
0.0
 40
0.0
 40
0.0
 40
1.0
 40
1.0
 40
1.0
 40
1.0
 10
248.5482922513983
 20
117.4543731854755
 30
0.0
 10
248.5482922513983
 20
117.4712541533532
 30
0.0
 10
248.5469142132042
 20
117.4881351212309
 30
0.0
 10
248.544158136816
 20
117.5046715795601
 30
0.0
  0
LWPOLYLINE
  5
434
330
1F
100
AcDbEntity
  8
OBRYS
100
AcDbPolyline
 90
        2
 70
     0
 43
0.0
 10
248.5482922513983
 20
117.4543731854755
 10
248.5482922513983
 20
117.2049482723434
  0
LWPOLYLINE
  5
435
330
1F
100
AcDbEntity
  8
OBRYS
100
AcDbPolyline
 90
        2
 70
     0
 43
0.0
 10
248.5482922513983
 20
117.2049482723434
 10
245.3481430551497
 20
117.2049482723434
  0
SPLINE
  5
436
330
1F
100
AcDbEntity
  8
OBRYS
100
AcDbSpline
210
0.0
220
0.0
230
1.0
 70
     8
 71
     3
 72
     8
 73
     4
 74
     0
 42
0.000000001
 43
0.0000000001
 40
0.0
 40
0.0
 40
0.0
 40
0.0
 40
1.0
 40
1.0
 40
1.0
 40
1.0
 10
242.3481539065941
 20
120.2045929113505
 30
0.0
 10
242.3481539065941
 20
118.5588707980466
 30
0.0
 10
243.7024209418459
 20
117.2049482723434
 30
0.0
 10
245.3481430551497
 20
117.2049482723434
 30
0.0
  0
LWPOLYLINE
  5
437
330
1F
100
AcDbEntity
  8
OBRYS
100
AcDbPolyline
 90
        2
 70
     0
 43
0.0
 10
242.3481539065941
 20
120.2045929113505
 10
242.3481539065941
 20
121.7045874856282
  0
LWPOLYLINE
  5
438
330
1F
100
AcDbEntity
  8
OBRYS
100
AcDbPolyline
 90
        2
 70
     0
 43
0.0
 10
242.5121404516921
 20
121.9888078631613
 10
242.3481539065941
 20
121.7045874856282
  0
SPLINE
  5
439
330
1F
100
AcDbEntity
  8
OBRYS
100
AcDbSpline
210
0.0
220
0.0
230
1.0
 70
     8
 71
     3
 72
     8
 73
     4
 74
     0
 42
0.000000001
 43
0.0000000001
 40
0.0
 40
0.0
 40
0.0
 40
0.0
 40
1.0
 40
1.0
 40
1.0
 40
1.0
 10
242.5121404516921
 20
121.9888078631613
 30
0.0
 10
242.863195681639
 20
122.5972117258565
 30
0.0
 10
243.0481973091969
 20
123.2869198420035
 30
0.0
 10
243.0481973091969
 20
123.9886857923489
 30
0.0
  0
LWPOLYLINE
  5
43A
330
1F
100
AcDbEntity
  8
OBRYS
100
AcDbPolyline
 90
        2
 70
     0
 43
0.0
 10
243.0481973091969
 20
129.2047326117914
 10
243.0481973091969
 20
123.9886857923489
  0
SPLINE
  5
43B
330
1F
100
AcDbEntity
  8
OBRYS
100
AcDbSpline
210
0.0
220
0.0
230
1.0
 70
     8
 71
     3
 72
     8
 73
     4
 74
     0
 42
0.000000001
 43
0.0000000001
 40
0.0
 40
0.0
 40
0.0
 40
0.0
 40
1.0
 40
1.0
 40
1.0
 40
1.0
 10
242.9906642145933
 20
129.6444990504835
 30
0.0
 10
243.0092677302136
 20
129.4977379828119
 30
0.0
 10
243.028560264931
 20
129.351493679463
 30
0.0
 10
243.0481973091969
 20
129.2047326117914
 30
0.0
  0
LWPOLYLINE
  5
43C
330
1F
100
AcDbEntity
  8
OBRYS
100
AcDbPolyline
 90
        2
 70
     0
 43
0.0
 10
243.3238049480169
 20
129.8143422579064
 10
242.9906642145933
 20
129.6444990504835
  0
LWPOLYLINE
  5
43D
330
1F
100
AcDbEntity
  8
OBRYS
100
AcDbPolyline
 90
        2
 70
     0
 43
0.0
 10
242.9296860245043
 20
130.140937309908
 10
243.2900430122615
 20
130.0577382539392
  0
SPLINE
  5
43E
330
1F
100
AcDbEntity
  8
OBRYS
100
AcDbSpline
210
0.0
220
0.0
230
1.0
 70
     8
 71
     3
 72
     8
 73
     4
 74
     0
 42
0.000000001
 43
0.0000000001
 40
0.0
 40
0.0
 40
0.0
 40
0.0
 40
1.0
 40
1.0
 40
1.0
 40
1.0
 10
242.8680188153183
 20
130.6845733774805
 30
0.0
 10
242.8876558595843
 20
130.5031891001821
 30
0.0
 10
242.9083264324958
 20
130.3219770776579
 30
0.0
 10
242.9296860245043
 20
130.140937309908
 30
0.0
  0
LWPOLYLINE
  5
43F
330
1F
100
AcDbEntity
  8
OBRYS
100
AcDbPolyline
 90
        2
 70
     0
 43
0.0
 10
243.1897907336407
 20
130.8414974768336
 10
242.8680188153183
 20
130.6845733774805
  0
LWPOLYLINE
  5
440
330
1F
100
AcDbEntity
  8
OBRYS
100
AcDbPolyline
 90
        2
 70
     0
 43
0.0
 10
242.8156533639426
 20
131.181700656002
 10
243.1601629124675
 20
131.0959177784193
  0
SPLINE
  5
441
330
1F
100
AcDbEntity
  8
OBRYS
100
AcDbSpline
210
0.0
220
0.0
230
1.0
 70
     8
 71
     3
 72
     8
 73
     4
 74
     0
 42
0.000000001
 43
0.0000000001
 40
0.0
 40
0.0
 40
0.0
 40
0.0
 40
1.0
 40
1.0
 40
1.0
 40
1.0
 10
242.7632879125668
 20
131.72637025222
 30
0.0
 10
242.779824370896
 20
131.544641465373
 30
0.0
 10
242.7973943578707
 20
131.3632571880747
 30
0.0
 10
242.8156533639426
 20
131.181700656002
 30
0.0
  0
LWPOLYLINE
  5
442
330
1F
100
AcDbEntity
  8
OBRYS
100
AcDbPolyline
 90
        2
 70
     0
 43
0.0
 10
243.0781696399186
 20
131.8734758294402
 10
242.7632879125668
 20
131.72637025222
  0
LWPOLYLINE
  5
443
330
1F
100
AcDbEntity
  8
OBRYS
100
AcDbPolyline
 90
        2
 70
     0
 43
0.0
 10
242.7198797094526
 20
132.2243588046128
 10
243.0530204428763
 20
132.1351308315449
  0
SPLINE
  5
444
330
1F
100
AcDbEntity
  8
OBRYS
100
AcDbSpline
210
0.0
220
0.0
230
1.0
 70
     8
 71
     3
 72
     8
 73
     4
 74
     0
 42
0.000000001
 43
0.0000000001
 40
0.0
 40
0.0
 40
0.0
 40
0.0
 40
1.0
 40
1.0
 40
1.0
 40
1.0
 10
242.676816015887
 20
132.7702341842507
 30
0.0
 10
242.6902518882795
 20
132.5881608878553
 30
0.0
 10
242.7047212893175
 20
132.4060875914598
 30
0.0
 10
242.7191906903556
 20
132.2243588046128
 30
0.0
  0
LWPOLYLINE
  5
445
330
1F
100
AcDbEntity
  8
OBRYS
100
AcDbPolyline
 90
        2
 70
     0
 43
0.0
 10
242.9879081382051
 20
132.9083825132092
 10
242.676816015887
 20
132.7702341842507
  0
LWPOLYLINE
  5
446
330
1F
100
AcDbEntity
  8
OBRYS
100
AcDbPolyline
 90
        2
 70
     0
 43
0.0
 10
242.6416760419374
 20
133.2687395009664
 10
242.9679265843906
 20
133.1752051585418
  0
SPLINE
  5
447
330
1F
100
AcDbEntity
  8
OBRYS
100
AcDbSpline
210
0.0
220
0.0
230
1.0
 70
     8
 71
     3
 72
     8
 73
     4
 74
     0
 42
0.000000001
 43
0.0000000001
 40
0.0
 40
0.0
 40
0.0
 40
0.0
 40
1.0
 40
1.0
 40
1.0
 40
1.0
 10
242.6082586157305
 20
133.815131644927
 30
0.0
 10
242.6185939021863
 20
133.632713838983
 30
0.0
 10
242.6296182077391
 20
133.4506405425876
 30
0.0
 10
242.6416760419374
 20
133.2687395009664
 30
0.0
  0
LWPOLYLINE
  5
448
330
1F
100
AcDbEntity
  8
OBRYS
100
AcDbPolyline
 90
        2
 70
     0
 43
0.0
 10
242.9193507380486
 20
133.9470788020121
 10
242.6082586157305
 20
133.815131644927
  0
LWPOLYLINE
  5
449
330
1F
100
AcDbEntity
  8
OBRYS
100
AcDbPolyline
 90
        2
 70
     0
 43
0.0
 10
242.5820758900426
 20
134.3143259807397
 10
242.9052258465591
 20
134.215451740313
  0
SPLINE
  5
44A
330
1F
100
AcDbEntity
  8
OBRYS
100
AcDbSpline
210
0.0
220
0.0
230
1.0
 70
     8
 71
     3
 72
     8
 73
     4
 74
     0
 42
0.000000001
 43
0.0000000001
 40
0.0
 40
0.0
 40
0.0
 40
0.0
 40
1.0
 40
1.0
 40
1.0
 40
1.0
 10
242.5583047311944
 20
134.8610626342488
 30
0.0
 10
242.5655394317134
 20
134.6786448283049
 30
0.0
 10
242.5734631513295
 20
134.4963992771351
 30
0.0
 10
242.5820758900426
 20
134.3143259807397
 30
0.0
  0
LWPOLYLINE
  5
44B
330
1F
100
AcDbEntity
  8
OBRYS
100
AcDbPolyline
 90
        2
 70
     0
 43
0.0
 10
242.8731864585462
 20
134.9881866576546
 10
242.5583047311944
 20
134.8610626342488
  0
LWPOLYLINE
  5
44C
330
1F
100
AcDbEntity
  8
OBRYS
100
AcDbPolyline
 90
        2
 70
     0
 43
0.0
 10
242.5407347442196
 20
135.3606014796101
 10
242.8645737198331
 20
135.2555260673099
  0
SPLINE
  5
44D
330
1F
100
AcDbEntity
  8
OBRYS
100
AcDbSpline
210
0.0
220
0.0
230
1.0
 70
     8
 71
     3
 72
     8
 73
     4
 74
     0
 42
0.000000001
 43
0.0000000001
 40
0.0
 40
0.0
 40
0.0
 40
0.0
 40
1.0
 40
1.0
 40
1.0
 40
1.0
 10
242.5262653431816
 20
135.907854897442
 30
0.0
 10
242.5303994577639
 20
135.725437091498
 30
0.0
 10
242.5352225914432
 20
135.543019285554
 30
0.0
 10
242.5407347442196
 20
135.3606014796101
 30
0.0
  0
LWPOLYLINE
  5
44E
330
1F
100
AcDbEntity
  8
OBRYS
100
AcDbPolyline
 90
        2
 70
     0
 43
0.0
 10
242.848726280601
 20
136.0311893158139
 10
242.5262653431816
 20
135.907854897442
  0
LWPOLYLINE
  5
44F
330
1F
100
AcDbEntity
  8
OBRYS
100
AcDbPolyline
 90
        2
 70
     0
 43
0.0
 10
242.517997114017
 20
136.4077382523517
 10
242.8463147137613
 20
136.294394610887
  0
SPLINE
  5
450
330
1F
100
AcDbEntity
  8
OBRYS
100
AcDbSpline
210
0.0
220
0.0
230
1.0
 70
     8
 71
     3
 72
     8
 73
     4
 74
     0
 42
0.000000001
 43
0.0000000001
 40
0.0
 40
0.0
 40
0.0
 40
0.0
 40
1.0
 40
1.0
 40
1.0
 40
1.0
 10
242.5131739803376
 20
136.9548194154094
 30
0.0
 10
242.5138629994347
 20
136.7724016094655
 30
0.0
 10
242.5155855471773
 20
136.5899838035215
 30
0.0
 10
242.517997114017
 20
136.4077382523517
 30
0.0
  0
LWPOLYLINE
  5
451
330
1F
100
AcDbEntity
  8
OBRYS
100
AcDbPolyline
 90
        2
 70
     0
 43
0.0
 10
242.8470037328583
 20
137.0762590312645
 10
242.5131739803376
 20
136.9548194154094
  0
LWPOLYLINE
  5
452
330
1F
100
AcDbEntity
  8
OBRYS
100
AcDbPolyline
 90
        2
 70
     0
 43
0.0
 10
242.5131739803376
 20
137.4547027703192
 10
242.8470037328583
 20
137.3334354092383
  0
SPLINE
  5
453
330
1F
100
AcDbEntity
  8
OBRYS
100
AcDbSpline
210
0.0
220
0.0
230
1.0
 70
     8
 71
     3
 72
     8
 73
     4
 74
     0
 42
0.000000001
 43
0.0000000001
 40
0.0
 40
0.0
 40
0.0
 40
0.0
 40
1.0
 40
1.0
 40
1.0
 40
1.0
 10
242.517997114017
 20
138.0019561881511
 30
0.0
 10
242.5155855471773
 20
137.8195383822071
 30
0.0
 10
242.5138629994347
 20
137.6371205762632
 30
0.0
 10
242.5131739803376
 20
137.4547027703192
 30
0.0
  0
LWPOLYLINE
  5
454
330
1F
100
AcDbEntity
  8
OBRYS
100
AcDbPolyline
 90
        2
 70
     0
 43
0.0
 10
242.8463147137613
 20
138.1151275748416
 10
242.517997114017
 20
138.0019561881511
  0
LWPOLYLINE
  5
455
330
1F
100
AcDbEntity
  8
OBRYS
100
AcDbPolyline
 90
        2
 70
     0
 43
0.0
 10
242.5262653431816
 20
138.5018395430609
 10
242.848726280601
 20
138.3779883603661
  0
SPLINE
  5
456
330
1F
100
AcDbEntity
  8
OBRYS
100
AcDbSpline
210
0.0
220
0.0
230
1.0
 70
     8
 71
     3
 72
     8
 73
     4
 74
     0
 42
0.000000001
 43
0.0000000001
 40
0.0
 40
0.0
 40
0.0
 40
0.0
 40
1.0
 40
1.0
 40
1.0
 40
1.0
 10
242.5407347442196
 20
139.0489207061185
 30
0.0
 10
242.5352225914432
 20
138.8665029001746
 30
0.0
 10
242.5303994577639
 20
138.6840850942306
 30
0.0
 10
242.5262653431816
 20
138.5018395430609
 30
0.0
  0
LWPOLYLINE
  5
457
330
1F
100
AcDbEntity
  8
OBRYS
100
AcDbPolyline
 90
        2
 70
     0
 43
0.0
 10
242.8645737198331
 20
139.1539961184187
 10
242.5407347442196
 20
139.0489207061185
  0
LWPOLYLINE
  5
458
330
1F
100
AcDbEntity
  8
OBRYS
100
AcDbPolyline
 90
        2
 70
     0
 43
0.0
 10
242.5583047311944
 20
139.5484595514798
 10
242.8731864585462
 20
139.4215077828483
  0
SPLINE
  5
459
330
1F
100
AcDbEntity
  8
OBRYS
100
AcDbSpline
210
0.0
220
0.0
230
1.0
 70
     8
 71
     3
 72
     8
 73
     4
 74
     0
 42
0.000000001
 43
0.0000000001
 40
0.0
 40
0.0
 40
0.0
 40
0.0
 40
1.0
 40
1.0
 40
1.0
 40
1.0
 10
242.5820758900426
 20
140.0951962049889
 30
0.0
 10
242.5734631513295
 20
139.9129506538192
 30
0.0
 10
242.5655394317134
 20
139.7308773574238
 30
0.0
 10
242.5583047311944
 20
139.5484595514798
 30
0.0
  0
LWPOLYLINE
  5
45A
330
1F
100
AcDbEntity
  8
OBRYS
100
AcDbPolyline
 90
        2
 70
     0
 43
0.0
 10
242.9052258465591
 20
140.1940704454155
 10
242.5820758900426
 20
140.0951962049889
  0
LWPOLYLINE
  5
45B
330
1F
100
AcDbEntity
  8
OBRYS
100
AcDbPolyline
 90
        2
 70
     0
 43
0.0
 10
242.6082586157305
 20
140.5943905408016
 10
242.9193507380486
 20
140.4624433837166
  0
SPLINE
  5
45C
330
1F
100
AcDbEntity
  8
OBRYS
100
AcDbSpline
210
0.0
220
0.0
230
1.0
 70
     8
 71
     3
 72
     8
 73
     4
 74
     0
 42
0.000000001
 43
0.0000000001
 40
0.0
 40
0.0
 40
0.0
 40
0.0
 40
1.0
 40
1.0
 40
1.0
 40
1.0
 10
242.6416760419374
 20
141.1409549395365
 30
0.0
 10
242.6296182077391
 20
140.9588816431411
 30
0.0
 10
242.6185939021863
 20
140.7768083467456
 30
0.0
 10
242.6082586157305
 20
140.5943905408016
 30
0.0
  0
LWPOLYLINE
  5
45D
330
1F
100
AcDbEntity
  8
OBRYS
100
AcDbPolyline
 90
        2
 70
     0
 43
0.0
 10
242.9679265843906
 20
141.2343170271868
 10
242.6416760419374
 20
141.1409549395365
  0
LWPOLYLINE
  5
45E
330
1F
100
AcDbEntity
  8
OBRYS
100
AcDbPolyline
 90
        2
 70
     0
 43
0.0
 10
242.676816015887
 20
141.6392880014779
 10
242.9879081382051
 20
141.5011396725194
  0
SPLINE
  5
45F
330
1F
100
AcDbEntity
  8
OBRYS
100
AcDbSpline
210
0.0
220
0.0
230
1.0
 70
     8
 71
     3
 72
     8
 73
     4
 74
     0
 42
0.000000001
 43
0.0000000001
 40
0.0
 40
0.0
 40
0.0
 40
0.0
 40
1.0
 40
1.0
 40
1.0
 40
1.0
 10
242.7191906903556
 20
142.1851633811157
 30
0.0
 10
242.7047212893175
 20
142.0030900847203
 30
0.0
 10
242.6902518882795
 20
141.8213612978733
 30
0.0
 10
242.676816015887
 20
141.6392880014779
 30
0.0
  0
LWPOLYLINE
  5
460
330
1F
100
AcDbEntity
  8
OBRYS
100
AcDbPolyline
 90
        2
 70
     0
 43
0.0
 10
243.0530204428763
 20
142.2743913541836
 10
242.7198797094526
 20
142.1851633811157
  0
LWPOLYLINE
  5
461
330
1F
100
AcDbEntity
  8
OBRYS
100
AcDbPolyline
 90
        2
 70
     0
 43
0.0
 10
242.7632879125668
 20
142.6831519335086
 10
243.0781696399186
 20
142.5360463562884
  0
SPLINE
  5
462
330
1F
100
AcDbEntity
  8
OBRYS
100
AcDbSpline
210
0.0
220
0.0
230
1.0
 70
     8
 71
     3
 72
     8
 73
     4
 74
     0
 42
0.000000001
 43
0.0000000001
 40
0.0
 40
0.0
 40
0.0
 40
0.0
 40
1.0
 40
1.0
 40
1.0
 40
1.0
 10
242.8156533639426
 20
143.2279937845009
 30
0.0
 10
242.7973943578707
 20
143.0462649976539
 30
0.0
 10
242.779824370896
 20
142.8648807203555
 30
0.0
 10
242.7632879125668
 20
142.6831519335086
 30
0.0
  0
LWPOLYLINE
  5
463
330
1F
100
AcDbEntity
  8
OBRYS
100
AcDbPolyline
 90
        2
 70
     0
 43
0.0
 10
243.1601629124675
 20
143.3136044073093
 10
242.8156533639426
 20
143.2279937845009
  0
LWPOLYLINE
  5
464
330
1F
100
AcDbEntity
  8
OBRYS
100
AcDbPolyline
 90
        2
 70
     0
 43
0.0
 10
242.8680188153183
 20
143.7249488082481
 10
243.1897907336407
 20
143.568024708895
  0
SPLINE
  5
465
330
1F
100
AcDbEntity
  8
OBRYS
100
AcDbSpline
210
0.0
220
0.0
230
1.0
 70
     8
 71
     3
 72
     8
 73
     4
 74
     0
 42
0.000000001
 43
0.0000000001
 40
0.0
 40
0.0
 40
0.0
 40
0.0
 40
1.0
 40
1.0
 40
1.0
 40
1.0
 10
242.9296860245043
 20
144.2685848758206
 30
0.0
 10
242.9083264324958
 20
144.087717362845
 30
0.0
 10
242.8876558595843
 20
143.9063330855466
 30
0.0
 10
242.8680188153183
 20
143.7249488082481
 30
0.0
  0
LWPOLYLINE
  5
466
330
1F
100
AcDbEntity
  8
OBRYS
100
AcDbPolyline
 90
        2
 70
     0
 43
0.0
 10
243.2900430122615
 20
144.3519561865636
 10
242.9296860245043
 20
144.2685848758206
  0
LWPOLYLINE
  5
467
330
1F
100
AcDbEntity
  8
OBRYS
100
AcDbPolyline
 90
        2
 70
     0
 43
0.0
 10
242.9906642145933
 20
144.7650231352451
 10
243.3238049480169
 20
144.5953521825965
  0
SPLINE
  5
468
330
1F
100
AcDbEntity
  8
OBRYS
100
AcDbSpline
210
0.0
220
0.0
230
1.0
 70
     8
 71
     3
 72
     8
 73
     4
 74
     0
 42
0.000000001
 43
0.0000000001
 40
0.0
 40
0.0
 40
0.0
 40
0.0
 40
1.0
 40
1.0
 40
1.0
 40
1.0
 10
243.0481973091969
 20
145.2049618287115
 30
0.0
 10
243.028560264931
 20
145.0582007610398
 30
0.0
 10
243.0092677302136
 20
144.9117842029167
 30
0.0
 10
242.9906642145933
 20
144.7650231352451
 30
0.0
  0
LWPOLYLINE
  5
469
330
1F
100
AcDbEntity
  8
OBRYS
100
AcDbPolyline
 90
        2
 70
     0
 43
0.0
 10
243.0481973091969
 20
150.420319629057
 10
243.0481973091969
 20
145.2049618287115
  0
SPLINE
  5
46A
330
1F
100
AcDbEntity
  8
OBRYS
100
AcDbSpline
210
0.0
220
0.0
230
1.0
 70
     8
 71
     3
 72
     8
 73
     4
 74
     0
 42
0.000000001
 43
0.0000000001
 40
0.0
 40
0.0
 40
0.0
 40
0.0
 40
1.0
 40
1.0
 40
1.0
 40
1.0
 10
243.0481973091969
 20
150.420319629057
 30
0.0
 10
243.0481973091969
 20
151.1227745984993
 30
0.0
 10
242.863195681639
 20
151.8124827146464
 30
0.0
 10
242.5121404516921
 20
152.420542067793
 30
0.0
  0
LWPOLYLINE
  5
46B
330
1F
100
AcDbEntity
  8
OBRYS
100
AcDbPolyline
 90
        2
 70
     0
 43
0.0
 10
242.3481539065941
 20
152.7045901905519
 10
242.5121404516921
 20
152.420542067793
  0
LWPOLYLINE
  5
46C
330
1F
100
AcDbEntity
  8
OBRYS
100
AcDbPolyline
 90
        2
 70
     0
 43
0.0
 10
242.3481539065941
 20
154.2045847648296
 10
242.3481539065941
 20
152.7045901905519
  0
SPLINE
  5
46D
330
1F
100
AcDbEntity
  8
OBRYS
100
AcDbSpline
210
0.0
220
0.0
230
1.0
 70
     8
 71
     3
 72
     8
 73
     4
 74
     0
 42
0.000000001
 43
0.0000000001
 40
0.0
 40
0.0
 40
0.0
 40
0.0
 40
1.0
 40
1.0
 40
1.0
 40
1.0
 10
245.3481430551497
 20
157.2045739133852
 30
0.0
 10
243.7024209418459
 20
157.2045739133852
 30
0.0
 10
242.3481539065941
 20
155.850651387682
 30
0.0
 10
242.3481539065941
 20
154.2045847648296
 30
0.0
  0
LWPOLYLINE
  5
46E
330
1F
100
AcDbEntity
  8
OBRYS
100
AcDbPolyline
 90
        2
 70
     0
 43
0.0
 10
245.3481430551497
 20
157.2045739133852
 10
248.5482922513983
 20
157.2045739133852
  0
LWPOLYLINE
  5
46F
330
1F
100
AcDbEntity
  8
OBRYS
100
AcDbPolyline
 90
        2
 70
     0
 43
0.0
 10
248.5482922513983
 20
157.2045739133852
 10
248.5482922513983
 20
156.9048506061683
  0
LWPOLYLINE
  5
470
330
1F
100
AcDbEntity
  8
OBRYS
100
AcDbPolyline
 90
        2
 70
     0
 43
0.0
 10
248.6981539050066
 20
156.9048506061683
 10
248.6981539050066
 20
157.2045739133852
  0
LWPOLYLINE
  5
471
330
1F
100
AcDbEntity
  8
OBRYS
100
AcDbPolyline
 90
        2
 70
     0
 43
0.0
 10
248.6981539050066
 20
157.2045739133852
 10
249.1980372599164
 20
157.2045739133852
  0
SPLINE
  5
472
330
1F
100
AcDbEntity
  8
OBRYS
100
AcDbSpline
210
0.0
220
0.0
230
1.0
 70
     8
 71
     3
 72
     8
 73
     4
 74
     0
 42
0.000000001
 43
0.0000000001
 40
0.0
 40
0.0
 40
0.0
 40
0.0
 40
1.0
 40
1.0
 40
1.0
 40
1.0
 10
257.9847532950461
 20
156.9048506061683
 30
0.0
 10
258.8925359554094
 20
156.9739247706477
 30
0.0
 10
259.7972180298361
 20
157.0736602849457
 30
0.0
 10
260.6984550087774
 20
157.2045739133852
 30
0.0
  0
SPLINE
  5
473
330
1F
100
AcDbEntity
  8
OBRYS
100
AcDbSpline
210
0.0
220
0.0
230
1.0
 70
     8
 71
     3
 72
     8
 73
     4
 74
     0
 42
0.000000001
 43
0.0000000001
 40
0.0
 40
0.0
 40
0.0
 40
0.0
 40
1.0
 40
1.0
 40
1.0
 40
1.0
 10
249.1980372599164
 20
157.2045739133852
 30
0.0
 10
250.0992742388578
 20
157.0736602849457
 30
0.0
 10
251.0039563132844
 20
156.9739247706477
 30
0.0
 10
251.9117389736477
 20
156.9048506061683
 30
0.0
  0
LWPOLYLINE
  5
474
330
1F
100
AcDbEntity
  8
OBRYS
100
AcDbPolyline
 90
        2
 70
     0
 43
0.0
 10
260.6984550087774
 20
157.2045739133852
 10
261.1983383636872
 20
157.2045739133852
  0
LWPOLYLINE
  5
475
330
1F
100
AcDbEntity
  8
OBRYS
100
AcDbPolyline
 90
        2
 70
     0
 43
0.0
 10
261.1983383636872
 20
157.2045739133852
 10
261.1983383636872
 20
156.9048506061683
  0
LWPOLYLINE
  5
476
330
1F
100
AcDbEntity
  8
OBRYS
100
AcDbPolyline
 90
        5
 70
     0
 43
0.0
 10
246.1980481113609
 20
136.5548438295719
 10
246.1980481113609
 20
136.6313249493444
 10
246.1980481113609
 20
136.6962649992414
 10
246.1980481113609
 20
136.7396732023556
 10
246.1980481113609
 20
136.7548316224907
  0
LWPOLYLINE
  5
477
330
1F
100
AcDbEntity
  8
OBRYS
100
AcDbPolyline
 90
        2
 70
     0
 43
0.0
 10
246.1980481113609
 20
136.7548316224907
 10
263.698444157333
 20
136.7548316224907
  0
LWPOLYLINE
  5
478
330
1F
100
AcDbEntity
  8
OBRYS
100
AcDbPolyline
 90
        5
 70
     0
 43
0.0
 10
263.698444157333
 20
136.7548316224907
 10
263.698444157333
 20
136.7396732023556
 10
263.698444157333
 20
136.6962649992414
 10
263.698444157333
 20
136.6313249493444
 10
263.698444157333
 20
136.5548438295719
  0
LWPOLYLINE
  5
479
330
1F
100
AcDbEntity
  8
OBRYS
100
AcDbPolyline
 90
        2
 70
     0
 43
0.0
 10
246.1980481113609
 20
129.1549509820294
 10
246.1980481113609
 20
136.5548438295719
  0
LWPOLYLINE
  5
47A
330
1F
100
AcDbEntity
  8
OBRYS
100
AcDbPolyline
 90
        2
 70
     0
 43
0.0
 10
263.698444157333
 20
136.5548438295719
 10
263.698444157333
 20
129.1549509820294
  0
LWPOLYLINE
  5
47B
330
1F
100
AcDbEntity
  8
OBRYS
100
AcDbPolyline
 90
        2
 70
     0
 43
0.0
 10
262.5484712843565
 20
132.1048139912747
 10
262.8481945915732
 20
132.1048139912747
  0
LWPOLYLINE
  5
47C
330
1F
100
AcDbEntity
  8
OBRYS
100
AcDbPolyline
 90
        2
 70
     0
 43
0.0
 10
262.8481945915732
 20
133.6048085655524
 10
262.5484712843565
 20
133.6048085655524
  0
LWPOLYLINE
  5
47D
330
1F
100
AcDbEntity
  8
OBRYS
100
AcDbPolyline
 90
        2
 70
     0
 43
0.0
 10
247.3480209843372
 20
133.6048085655524
 10
247.0482976771205
 20
133.6048085655524
  0
LWPOLYLINE
  5
47E
330
1F
100
AcDbEntity
  8
OBRYS
100
AcDbPolyline
 90
        2
 70
     0
 43
0.0
 10
247.0482976771205
 20
132.1048139912747
 10
247.3480209843372
 20
132.1048139912747
  0
LWPOLYLINE
  5
47F
330
1F
100
AcDbEntity
  8
OBRYS
100
AcDbPolyline
 90
        2
 70
     0
 43
0.0
 10
263.698444157333
 20
128.9549631891108
 10
246.1980481113609
 20
128.9549631891108
  0
LWPOLYLINE
  5
480
330
1F
100
AcDbEntity
  8
OBRYS
100
AcDbPolyline
 90
        5
 70
     0
 43
0.0
 10
246.1980481113609
 20
128.9549631891108
 10
246.1980481113609
 20
128.9701216092459
 10
246.1980481113609
 20
129.01352981236
 10
246.1980481113609
 20
129.0782976074827
 10
246.1980481113609
 20
129.1549509820294
  0
LWPOLYLINE
  5
481
330
1F
100
AcDbEntity
  8
OBRYS
100
AcDbPolyline
 90
        5
 70
     0
 43
0.0
 10
263.698444157333
 20
129.1549509820294
 10
263.698444157333
 20
129.0782976074827
 10
263.698444157333
 20
129.01352981236
 10
263.698444157333
 20
128.9701216092459
 10
263.698444157333
 20
128.9549631891108
  0
LWPOLYLINE
  5
482
330
1F
100
AcDbEntity
  8
OBRYS
100
AcDbPolyline
 90
        2
 70
     0
 43
0.0
 10
262.8481945915732
 20
133.6048085655524
 10
262.8481945915732
 20
132.1048139912747
  0
LWPOLYLINE
  5
483
330
1F
100
AcDbEntity
  8
OBRYS
100
AcDbPolyline
 90
        2
 70
     0
 43
0.0
 10
262.5484712843565
 20
132.1048139912747
 10
262.5484712843565
 20
129.3545942653998
  0
LWPOLYLINE
  5
484
330
1F
100
AcDbEntity
  8
OBRYS
100
AcDbPolyline
 90
        2
 70
     0
 43
0.0
 10
262.5484712843565
 20
134.9545969766734
 10
262.5484712843565
 20
133.6048085655524
  0
LWPOLYLINE
  5
485
330
1F
100
AcDbEntity
  8
OBRYS
100
AcDbPolyline
 90
        2
 70
     0
 43
0.0
 10
247.0482976771205
 20
132.1048139912747
 10
247.0482976771205
 20
133.6048085655524
  0
LWPOLYLINE
  5
486
330
1F
100
AcDbEntity
  8
OBRYS
100
AcDbPolyline
 90
        2
 70
     0
 43
0.0
 10
247.3480209843372
 20
133.6048085655524
 10
247.3480209843372
 20
134.9545969766734
  0
LWPOLYLINE
  5
487
330
1F
100
AcDbEntity
  8
OBRYS
100
AcDbPolyline
 90
        2
 70
     0
 43
0.0
 10
247.3480209843372
 20
130.9548411182982
 10
247.3480209843372
 20
132.1048139912747
  0
LWPOLYLINE
  5
488
330
1F
100
AcDbEntity
  8
OBRYS
100
AcDbPolyline
 90
        2
 70
     0
 43
0.0
 10
261.1480399696025
 20
130.9548411182982
 10
250.0482868256761
 20
130.9548411182982
  0
LWPOLYLINE
  5
489
330
1F
100
AcDbEntity
  8
OBRYS
100
AcDbPolyline
 90
        2
 70
     0
 43
0.0
 10
248.6482000204705
 20
130.9548411182982
 10
247.3480209843372
 20
130.9548411182982
  0
LWPOLYLINE
  5
48A
330
1F
100
AcDbEntity
  8
OBRYS
100
AcDbPolyline
 90
        2
 70
     0
 43
0.0
 10
248.6482000204705
 20
129.3545942653998
 10
248.6482000204705
 20
130.9548411182982
  0
LWPOLYLINE
  5
48B
330
1F
100
AcDbEntity
  8
OBRYS
100
AcDbPolyline
 90
        2
 70
     0
 43
0.0
 10
250.0482868256761
 20
129.3545942653998
 10
248.6482000204705
 20
129.3545942653998
  0
LWPOLYLINE
  5
48C
330
1F
100
AcDbEntity
  8
OBRYS
100
AcDbPolyline
 90
        2
 70
     0
 43
0.0
 10
250.0482868256761
 20
130.9548411182982
 10
250.0482868256761
 20
129.3545942653998
  0
LWPOLYLINE
  5
48D
330
1F
100
AcDbEntity
  8
OBRYS
100
AcDbPolyline
 90
        2
 70
     0
 43
0.0
 10
261.1480399696025
 20
129.3545942653998
 10
261.1480399696025
 20
130.9548411182982
  0
LWPOLYLINE
  5
48E
330
1F
100
AcDbEntity
  8
OBRYS
100
AcDbPolyline
 90
        2
 70
     0
 43
0.0
 10
262.5484712843565
 20
129.3545942653998
 10
261.1480399696025
 20
129.3545942653998
  0
LWPOLYLINE
  5
48F
330
1F
100
AcDbEntity
  8
OBRYS
100
AcDbPolyline
 90
        2
 70
     0
 43
0.0
 10
247.3480209843372
 20
134.9545969766734
 10
262.5484712843565
 20
134.9545969766734
  0
LWPOLYLINE
  5
490
330
1F
100
AcDbEntity
  8
OBRYS
100
AcDbPolyline
 90
        2
 70
     0
 43
0.0
 10
261.1480399696025
 20
130.9548411182982
 10
262.5484712843565
 20
130.9548411182982
  0
LWPOLYLINE
  5
491
330
1F
100
AcDbEntity
  8
OBRYS
100
AcDbPolyline
 90
        2
 70
     0
 43
0.0
 10
248.6482000204705
 20
130.9548411182982
 10
250.0482868256761
 20
130.9548411182982
  0
LWPOLYLINE
  5
492
330
1F
100
AcDbEntity
  8
OBRYS
100
AcDbPolyline
 90
        2
 70
     0
 43
0.0
 10
262.1984495830552
 20
131.7549645447476
 10
260.198227144319
 20
131.7549645447476
  0
LWPOLYLINE
  5
493
330
1F
100
AcDbEntity
  8
OBRYS
100
AcDbPolyline
 90
        2
 70
     0
 43
0.0
 10
260.198227144319
 20
131.7549645447476
 10
260.198227144319
 20
133.9548302668539
  0
LWPOLYLINE
  5
494
330
1F
100
AcDbEntity
  8
OBRYS
100
AcDbPolyline
 90
        2
 70
     0
 43
0.0
 10
260.198227144319
 20
133.9548302668539
 10
262.1984495830552
 20
133.9548302668539
  0
LWPOLYLINE
  5
495
330
1F
100
AcDbEntity
  8
OBRYS
100
AcDbPolyline
 90
        2
 70
     0
 43
0.0
 10
262.1984495830552
 20
133.9548302668539
 10
262.1984495830552
 20
131.7549645447476
  0
LWPOLYLINE
  5
496
330
1F
100
AcDbEntity
  8
OBRYS
100
AcDbPolyline
 90
        2
 70
     0
 43
0.0
 10
249.6982651243747
 20
131.7549645447476
 10
247.6980426856386
 20
131.7549645447476
  0
LWPOLYLINE
  5
497
330
1F
100
AcDbEntity
  8
OBRYS
100
AcDbPolyline
 90
        2
 70
     0
 43
0.0
 10
247.6980426856386
 20
131.7549645447476
 10
247.6980426856386
 20
133.9548302668539
  0
LWPOLYLINE
  5
498
330
1F
100
AcDbEntity
  8
OBRYS
100
AcDbPolyline
 90
        2
 70
     0
 43
0.0
 10
247.6980426856386
 20
133.9548302668539
 10
249.6982651243747
 20
133.9548302668539
  0
LWPOLYLINE
  5
499
330
1F
100
AcDbEntity
  8
OBRYS
100
AcDbPolyline
 90
        2
 70
     0
 43
0.0
 10
249.6982651243747
 20
133.9548302668539
 10
249.6982651243747
 20
131.7549645447476
  0
LWPOLYLINE
  5
49A
330
1F
100
AcDbEntity
  8
OBRYS
100
AcDbPolyline
 90
        2
 70
     0
 43
0.0
 10
252.198026408472
 20
131.7549645447476
 10
250.1981484792844
 20
131.7549645447476
  0
LWPOLYLINE
  5
49B
330
1F
100
AcDbEntity
  8
OBRYS
100
AcDbPolyline
 90
        2
 70
     0
 43
0.0
 10
250.1981484792844
 20
131.7549645447476
 10
250.1981484792844
 20
133.9548302668539
  0
LWPOLYLINE
  5
49C
330
1F
100
AcDbEntity
  8
OBRYS
100
AcDbPolyline
 90
        2
 70
     0
 43
0.0
 10
250.1981484792844
 20
133.9548302668539
 10
252.198026408472
 20
133.9548302668539
  0
LWPOLYLINE
  5
49D
330
1F
100
AcDbEntity
  8
OBRYS
100
AcDbPolyline
 90
        2
 70
     0
 43
0.0
 10
252.198026408472
 20
133.9548302668539
 10
252.198026408472
 20
131.7549645447476
  0
LWPOLYLINE
  5
49E
330
1F
100
AcDbEntity
  8
OBRYS
100
AcDbPolyline
 90
        2
 70
     0
 43
0.0
 10
254.6981322021178
 20
131.7549645447476
 10
252.6979097633817
 20
131.7549645447476
  0
LWPOLYLINE
  5
49F
330
1F
100
AcDbEntity
  8
OBRYS
100
AcDbPolyline
 90
        2
 70
     0
 43
0.0
 10
252.6979097633817
 20
131.7549645447476
 10
252.6979097633817
 20
133.9548302668539
  0
LWPOLYLINE
  5
4A0
330
1F
100
AcDbEntity
  8
OBRYS
100
AcDbPolyline
 90
        2
 70
     0
 43
0.0
 10
252.6979097633817
 20
133.9548302668539
 10
254.6981322021178
 20
133.9548302668539
  0
LWPOLYLINE
  5
4A1
330
1F
100
AcDbEntity
  8
OBRYS
100
AcDbPolyline
 90
        2
 70
     0
 43
0.0
 10
254.6981322021178
 20
133.9548302668539
 10
254.6981322021178
 20
131.7549645447476
  0
LWPOLYLINE
  5
4A2
330
1F
100
AcDbEntity
  8
OBRYS
100
AcDbPolyline
 90
        2
 70
     0
 43
0.0
 10
257.1982379957636
 20
131.7549645447476
 10
255.1980155570275
 20
131.7549645447476
  0
LWPOLYLINE
  5
4A3
330
1F
100
AcDbEntity
  8
OBRYS
100
AcDbPolyline
 90
        2
 70
     0
 43
0.0
 10
255.1980155570275
 20
131.7549645447476
 10
255.1980155570275
 20
133.9548302668539
  0
LWPOLYLINE
  5
4A4
330
1F
100
AcDbEntity
  8
OBRYS
100
AcDbPolyline
 90
        2
 70
     0
 43
0.0
 10
255.1980155570275
 20
133.9548302668539
 10
257.1982379957636
 20
133.9548302668539
  0
LWPOLYLINE
  5
4A5
330
1F
100
AcDbEntity
  8
OBRYS
100
AcDbPolyline
 90
        2
 70
     0
 43
0.0
 10
257.1982379957636
 20
133.9548302668539
 10
257.1982379957636
 20
131.7549645447476
  0
LWPOLYLINE
  5
4A6
330
1F
100
AcDbEntity
  8
OBRYS
100
AcDbPolyline
 90
        2
 70
     0
 43
0.0
 10
259.6983437894094
 20
131.7549645447476
 10
257.6984658602219
 20
131.7549645447476
  0
LWPOLYLINE
  5
4A7
330
1F
100
AcDbEntity
  8
OBRYS
100
AcDbPolyline
 90
        2
 70
     0
 43
0.0
 10
257.6984658602219
 20
131.7549645447476
 10
257.6984658602219
 20
133.9548302668539
  0
LWPOLYLINE
  5
4A8
330
1F
100
AcDbEntity
  8
OBRYS
100
AcDbPolyline
 90
        2
 70
     0
 43
0.0
 10
257.6984658602219
 20
133.9548302668539
 10
259.6983437894094
 20
133.9548302668539
  0
LWPOLYLINE
  5
4A9
330
1F
100
AcDbEntity
  8
OBRYS
100
AcDbPolyline
 90
        2
 70
     0
 43
0.0
 10
259.6983437894094
 20
133.9548302668539
 10
259.6983437894094
 20
131.7549645447476
  0
LWPOLYLINE
  5
4AA
330
1F
100
AcDbEntity
  8
OBRYS
100
AcDbPolyline
 90
        2
 70
     0
 43
0.0
 10
261.5983139495247
 20
132.4548356925761
 10
260.7980182683011
 20
132.4548356925761
  0
LWPOLYLINE
  5
4AB
330
1F
100
AcDbEntity
  8
OBRYS
100
AcDbPolyline
 90
        2
 70
     0
 43
0.0
 10
260.7980182683011
 20
132.4548356925761
 10
260.7980182683011
 20
133.2549591190254
  0
LWPOLYLINE
  5
4AC
330
1F
100
AcDbEntity
  8
OBRYS
100
AcDbPolyline
 90
        2
 70
     0
 43
0.0
 10
260.7980182683011
 20
133.2549591190254
 10
261.5983139495247
 20
133.2549591190254
  0
LWPOLYLINE
  5
4AD
330
1F
100
AcDbEntity
  8
OBRYS
100
AcDbPolyline
 90
        2
 70
     0
 43
0.0
 10
261.5983139495247
 20
133.2549591190254
 10
261.5983139495247
 20
132.4548356925761
  0
LWPOLYLINE
  5
4AE
330
1F
100
AcDbEntity
  8
OBRYS
100
AcDbPolyline
 90
        2
 70
     0
 43
0.0
 10
249.0981294908442
 20
132.4548356925761
 10
248.2981783191691
 20
132.4548356925761
  0
LWPOLYLINE
  5
4AF
330
1F
100
AcDbEntity
  8
OBRYS
100
AcDbPolyline
 90
        2
 70
     0
 43
0.0
 10
248.2981783191691
 20
132.4548356925761
 10
248.2981783191691
 20
133.2549591190254
  0
LWPOLYLINE
  5
4B0
330
1F
100
AcDbEntity
  8
OBRYS
100
AcDbPolyline
 90
        2
 70
     0
 43
0.0
 10
248.2981783191691
 20
133.2549591190254
 10
249.0981294908442
 20
133.2549591190254
  0
LWPOLYLINE
  5
4B1
330
1F
100
AcDbEntity
  8
OBRYS
100
AcDbPolyline
 90
        2
 70
     0
 43
0.0
 10
249.0981294908442
 20
133.2549591190254
 10
249.0981294908442
 20
132.4548356925761
  0
LWPOLYLINE
  5
4B2
330
1F
100
AcDbEntity
  8
OBRYS
100
AcDbPolyline
 90
        2
 70
     0
 43
0.0
 10
251.59823528449
 20
132.4548356925761
 10
250.798284112815
 20
132.4548356925761
  0
LWPOLYLINE
  5
4B3
330
1F
100
AcDbEntity
  8
OBRYS
100
AcDbPolyline
 90
        2
 70
     0
 43
0.0
 10
250.798284112815
 20
132.4548356925761
 10
250.798284112815
 20
133.2549591190254
  0
LWPOLYLINE
  5
4B4
330
1F
100
AcDbEntity
  8
OBRYS
100
AcDbPolyline
 90
        2
 70
     0
 43
0.0
 10
250.798284112815
 20
133.2549591190254
 10
251.59823528449
 20
133.2549591190254
  0
LWPOLYLINE
  5
4B5
330
1F
100
AcDbEntity
  8
OBRYS
100
AcDbPolyline
 90
        2
 70
     0
 43
0.0
 10
251.59823528449
 20
133.2549591190254
 10
251.59823528449
 20
132.4548356925761
  0
LWPOLYLINE
  5
4B6
330
1F
100
AcDbEntity
  8
OBRYS
100
AcDbPolyline
 90
        2
 70
     0
 43
0.0
 10
254.0983410781358
 20
132.4548356925761
 10
253.2980453969122
 20
132.4548356925761
  0
LWPOLYLINE
  5
4B7
330
1F
100
AcDbEntity
  8
OBRYS
100
AcDbPolyline
 90
        2
 70
     0
 43
0.0
 10
253.2980453969122
 20
132.4548356925761
 10
253.2980453969122
 20
133.2549591190254
  0
LWPOLYLINE
  5
4B8
330
1F
100
AcDbEntity
  8
OBRYS
100
AcDbPolyline
 90
        2
 70
     0
 43
0.0
 10
253.2980453969122
 20
133.2549591190254
 10
254.0983410781358
 20
133.2549591190254
  0
LWPOLYLINE
  5
4B9
330
1F
100
AcDbEntity
  8
OBRYS
100
AcDbPolyline
 90
        2
 70
     0
 43
0.0
 10
254.0983410781358
 20
133.2549591190254
 10
254.0983410781358
 20
132.4548356925761
  0
LWPOLYLINE
  5
4BA
330
1F
100
AcDbEntity
  8
OBRYS
100
AcDbPolyline
 90
        2
 70
     0
 43
0.0
 10
256.5984468717816
 20
132.4548356925761
 10
255.7981511905581
 20
132.4548356925761
  0
LWPOLYLINE
  5
4BB
330
1F
100
AcDbEntity
  8
OBRYS
100
AcDbPolyline
 90
        2
 70
     0
 43
0.0
 10
255.7981511905581
 20
132.4548356925761
 10
255.7981511905581
 20
133.2549591190254
  0
LWPOLYLINE
  5
4BC
330
1F
100
AcDbEntity
  8
OBRYS
100
AcDbPolyline
 90
        2
 70
     0
 43
0.0
 10
255.7981511905581
 20
133.2549591190254
 10
256.5984468717816
 20
133.2549591190254
  0
LWPOLYLINE
  5
4BD
330
1F
100
AcDbEntity
  8
OBRYS
100
AcDbPolyline
 90
        2
 70
     0
 43
0.0
 10
256.5984468717816
 20
133.2549591190254
 10
256.5984468717816
 20
132.4548356925761
  0
LWPOLYLINE
  5
4BE
330
1F
100
AcDbEntity
  8
OBRYS
100
AcDbPolyline
 90
        2
 70
     0
 43
0.0
 10
259.0982081558789
 20
132.4548356925761
 10
258.2982569842038
 20
132.4548356925761
  0
LWPOLYLINE
  5
4BF
330
1F
100
AcDbEntity
  8
OBRYS
100
AcDbPolyline
 90
        2
 70
     0
 43
0.0
 10
258.2982569842038
 20
132.4548356925761
 10
258.2982569842038
 20
133.2549591190254
  0
LWPOLYLINE
  5
4C0
330
1F
100
AcDbEntity
  8
OBRYS
100
AcDbPolyline
 90
        2
 70
     0
 43
0.0
 10
258.2982569842038
 20
133.2549591190254
 10
259.0982081558789
 20
133.2549591190254
  0
LWPOLYLINE
  5
4C1
330
1F
100
AcDbEntity
  8
OBRYS
100
AcDbPolyline
 90
        2
 70
     0
 43
0.0
 10
259.0982081558789
 20
133.2549591190254
 10
259.0982081558789
 20
132.4548356925761
  0
LWPOLYLINE
  5
4C2
330
1F
100
AcDbEntity
  8
OBRYS
100
AcDbPolyline
 90
        2
 70
     0
 43
0.0
 10
247.648433310651
 20
136.904693276099
 10
247.648433310651
 20
138.7045834123678
  0
LWPOLYLINE
  5
4C3
330
1F
100
AcDbEntity
  8
OBRYS
100
AcDbPolyline
 90
        2
 70
     0
 43
0.0
 10
245.9982325732164
 20
136.904693276099
 10
247.648433310651
 20
136.904693276099
  0
LWPOLYLINE
  5
4C4
330
1F
100
AcDbEntity
  8
OBRYS
100
AcDbPolyline
 90
        2
 70
     0
 43
0.0
 10
262.2480589580427
 20
136.904693276099
 10
263.8982596954775
 20
136.904693276099
  0
LWPOLYLINE
  5
4C5
330
1F
100
AcDbEntity
  8
OBRYS
100
AcDbPolyline
 90
        2
 70
     0
 43
0.0
 10
262.2480589580427
 20
138.7045834123678
 10
262.2480589580427
 20
136.904693276099
  0
LWPOLYLINE
  5
4C6
330
1F
100
AcDbEntity
  8
OBRYS
100
AcDbPolyline
 90
        2
 70
     0
 43
0.0
 10
257.3484441589205
 20
118.7049428466212
 10
257.3484441589205
 20
118.9047583847657
  0
LWPOLYLINE
  5
4C7
330
1F
100
AcDbEntity
  8
OBRYS
100
AcDbPolyline
 90
        2
 70
     0
 43
0.0
 10
258.1480508210469
 20
118.9047583847657
 10
258.1480508210469
 20
117.5046715795601
  0
LWPOLYLINE
  5
4C8
330
1F
100
AcDbEntity
  8
OBRYS
100
AcDbPolyline
 90
        2
 70
     0
 43
0.0
 10
264.4480969349233
 20
117.5046715795601
 10
258.1480508210469
 20
117.5046715795601
  0
SPLINE
  5
4C9
330
1F
100
AcDbEntity
  8
OBRYS
100
AcDbSpline
210
0.0
220
0.0
230
1.0
 70
     8
 71
     3
 72
     8
 73
     4
 74
     0
 42
0.000000001
 43
0.0000000001
 40
0.0
 40
0.0
 40
0.0
 40
0.0
 40
1.0
 40
1.0
 40
1.0
 40
1.0
 10
264.4480969349233
 20
117.5046715795601
 30
0.0
 10
265.9839205022477
 20
117.5046715795601
 30
0.0
 10
267.2479260357859
 20
118.7686771130983
 30
0.0
 10
267.2482705453344
 20
120.3048451899712
 30
0.0
  0
LWPOLYLINE
  5
4CA
330
1F
100
AcDbEntity
  8
OBRYS
100
AcDbPolyline
 90
        2
 70
     0
 43
0.0
 10
267.2482705453344
 20
121.804839764249
 10
267.2482705453344
 20
120.3048451899712
  0
SPLINE
  5
4CB
330
1F
100
AcDbEntity
  8
OBRYS
100
AcDbSpline
210
0.0
220
0.0
230
1.0
 70
     8
 71
     3
 72
     8
 73
     4
 74
     0
 42
0.000000001
 43
0.0000000001
 40
0.0
 40
0.0
 40
0.0
 40
0.0
 40
1.0
 40
1.0
 40
1.0
 40
1.0
 10
266.4982732581955
 20
124.2618818643292
 30
0.0
 10
266.4982732581955
 20
123.3864831015272
 30
0.0
 10
266.7594114959774
 20
122.5307213829912
 30
0.0
 10
267.2482705453344
 20
121.804839764249
 30
0.0
  0
LWPOLYLINE
  5
4CC
330
1F
100
AcDbEntity
  8
OBRYS
100
AcDbPolyline
 90
        2
 70
     0
 43
0.0
 10
266.4982732581955
 20
129.3048126356379
 10
266.4982732581955
 20
124.2618818643292
  0
SPLINE
  5
4CD
330
1F
100
AcDbEntity
  8
OBRYS
100
AcDbSpline
210
0.0
220
0.0
230
1.0
 70
     8
 71
     3
 72
     8
 73
     4
 74
     0
 42
0.000000001
 43
0.0000000001
 40
0.0
 40
0.0
 40
0.0
 40
0.0
 40
1.0
 40
1.0
 40
1.0
 40
1.0
 10
266.4982732581955
 20
129.3048126356379
 30
0.0
 10
266.8944592389992
 20
131.9189510898455
 30
0.0
 10
267.0784273379115
 20
134.5608225627093
 30
0.0
 10
267.0484550071899
 20
137.20458883809
 30
0.0
  0
SPLINE
  5
4CE
330
1F
100
AcDbEntity
  8
OBRYS
100
AcDbSpline
210
0.0
220
0.0
230
1.0
 70
     8
 71
     3
 72
     8
 73
     4
 74
     0
 42
0.000000001
 43
0.0000000001
 40
0.0
 40
0.0
 40
0.0
 40
0.0
 40
1.0
 40
1.0
 40
1.0
 40
1.0
 10
267.0484550071899
 20
137.20458883809
 30
0.0
 10
267.0784273379115
 20
139.8486996230193
 30
0.0
 10
266.8944592389992
 20
142.4905710958831
 30
0.0
 10
266.4982732581955
 20
145.1047095500907
 30
0.0
  0
LWPOLYLINE
  5
4CF
330
1F
100
AcDbEntity
  8
OBRYS
100
AcDbPolyline
 90
        2
 70
     0
 43
0.0
 10
266.4982732581955
 20
145.1047095500907
 10
266.4982732581955
 20
150.1476403213994
  0
SPLINE
  5
4D0
330
1F
100
AcDbEntity
  8
OBRYS
100
AcDbSpline
210
0.0
220
0.0
230
1.0
 70
     8
 71
     3
 72
     8
 73
     4
 74
     0
 42
0.000000001
 43
0.0000000001
 40
0.0
 40
0.0
 40
0.0
 40
0.0
 40
1.0
 40
1.0
 40
1.0
 40
1.0
 10
267.2482705453344
 20
152.6046824214795
 30
0.0
 10
266.7594114959774
 20
151.8788008027375
 30
0.0
 10
266.4982732581955
 20
151.0228668294272
 30
0.0
 10
266.4982732581955
 20
150.1476403213994
 30
0.0
  0
LWPOLYLINE
  5
4D1
330
1F
100
AcDbEntity
  8
OBRYS
100
AcDbPolyline
 90
        2
 70
     0
 43
0.0
 10
267.2482705453344
 20
152.6046824214795
 10
267.2482705453344
 20
154.1048492505316
  0
SPLINE
  5
4D2
330
1F
100
AcDbEntity
  8
OBRYS
100
AcDbSpline
210
0.0
220
0.0
230
1.0
 70
     8
 71
     3
 72
     8
 73
     4
 74
     0
 42
0.000000001
 43
0.0000000001
 40
0.0
 40
0.0
 40
0.0
 40
0.0
 40
1.0
 40
1.0
 40
1.0
 40
1.0
 10
267.2482705453344
 20
154.1048492505316
 30
0.0
 10
267.2479260357859
 20
155.6408450726303
 30
0.0
 10
265.9839205022477
 20
156.9048506061683
 30
0.0
 10
264.4480969349233
 20
156.9048506061683
 30
0.0
  0
LWPOLYLINE
  5
4D3
330
1F
100
AcDbEntity
  8
OBRYS
100
AcDbPolyline
 90
        2
 70
     0
 43
0.0
 10
264.4480969349233
 20
156.9048506061683
 10
245.4483953337705
 20
156.9048506061683
  0
SPLINE
  5
4D4
330
1F
100
AcDbEntity
  8
OBRYS
100
AcDbSpline
210
0.0
220
0.0
230
1.0
 70
     8
 71
     3
 72
     8
 73
     4
 74
     0
 42
0.000000001
 43
0.0000000001
 40
0.0
 40
0.0
 40
0.0
 40
0.0
 40
1.0
 40
1.0
 40
1.0
 40
1.0
 10
245.4483953337705
 20
156.9048506061683
 30
0.0
 10
243.9122272568976
 20
156.9048506061683
 30
0.0
 10
242.6482217233594
 20
155.6408450726303
 30
0.0
 10
242.6482217233594
 20
154.1048492505316
 30
0.0
  0
LWPOLYLINE
  5
4D5
330
1F
100
AcDbEntity
  8
OBRYS
100
AcDbPolyline
 90
        2
 70
     0
 43
0.0
 10
242.6482217233594
 20
154.1048492505316
 10
242.6482217233594
 20
152.6046824214795
  0
SPLINE
  5
4D6
330
1F
100
AcDbEntity
  8
OBRYS
100
AcDbSpline
210
0.0
220
0.0
230
1.0
 70
     8
 71
     3
 72
     8
 73
     4
 74
     0
 42
0.000000001
 43
0.0000000001
 40
0.0
 40
0.0
 40
0.0
 40
0.0
 40
1.0
 40
1.0
 40
1.0
 40
1.0
 10
243.3982190104983
 20
150.1476403213994
 30
0.0
 10
243.3982190104983
 20
151.0228668294272
 30
0.0
 10
243.1370807727164
 20
151.8788008027375
 30
0.0
 10
242.6482217233594
 20
152.6046824214795
 30
0.0
  0
LWPOLYLINE
  5
4D7
330
1F
100
AcDbEntity
  8
OBRYS
100
AcDbPolyline
 90
        2
 70
     0
 43
0.0
 10
243.3982190104983
 20
150.1476403213994
 10
243.3982190104983
 20
145.1047095500907
  0
SPLINE
  5
4D8
330
1F
100
AcDbEntity
  8
OBRYS
100
AcDbSpline
210
0.0
220
0.0
230
1.0
 70
     8
 71
     3
 72
     8
 73
     4
 74
     0
 42
0.000000001
 43
0.0000000001
 40
0.0
 40
0.0
 40
0.0
 40
0.0
 40
1.0
 40
1.0
 40
1.0
 40
1.0
 10
243.3982190104983
 20
145.1047095500907
 30
0.0
 10
243.0020330296946
 20
142.4905710958831
 30
0.0
 10
242.8180649307822
 20
139.8486996230193
 30
0.0
 10
242.8480372615039
 20
137.20458883809
 30
0.0
  0
SPLINE
  5
4D9
330
1F
100
AcDbEntity
  8
OBRYS
100
AcDbSpline
210
0.0
220
0.0
230
1.0
 70
     8
 71
     3
 72
     8
 73
     4
 74
     0
 42
0.000000001
 43
0.0000000001
 40
0.0
 40
0.0
 40
0.0
 40
0.0
 40
1.0
 40
1.0
 40
1.0
 40
1.0
 10
242.8480372615039
 20
137.20458883809
 30
0.0
 10
242.8180649307822
 20
134.5608225627093
 30
0.0
 10
243.0020330296946
 20
131.9189510898455
 30
0.0
 10
243.3982190104983
 20
129.3048126356379
 30
0.0
  0
LWPOLYLINE
  5
4DA
330
1F
100
AcDbEntity
  8
OBRYS
100
AcDbPolyline
 90
        2
 70
     0
 43
0.0
 10
243.3982190104983
 20
124.2618818643292
 10
243.3982190104983
 20
129.3048126356379
  0
SPLINE
  5
4DB
330
1F
100
AcDbEntity
  8
OBRYS
100
AcDbSpline
210
0.0
220
0.0
230
1.0
 70
     8
 71
     3
 72
     8
 73
     4
 74
     0
 42
0.000000001
 43
0.0000000001
 40
0.0
 40
0.0
 40
0.0
 40
0.0
 40
1.0
 40
1.0
 40
1.0
 40
1.0
 10
242.6482217233594
 20
121.804839764249
 30
0.0
 10
243.1370807727164
 20
122.5307213829912
 30
0.0
 10
243.3982190104983
 20
123.3864831015272
 30
0.0
 10
243.3982190104983
 20
124.2618818643292
 30
0.0
  0
LWPOLYLINE
  5
4DC
330
1F
100
AcDbEntity
  8
OBRYS
100
AcDbPolyline
 90
        2
 70
     0
 43
0.0
 10
242.6482217233594
 20
121.804839764249
 10
242.6482217233594
 20
120.3048451899712
  0
SPLINE
  5
4DD
330
1F
100
AcDbEntity
  8
OBRYS
100
AcDbSpline
210
0.0
220
0.0
230
1.0
 70
     8
 71
     3
 72
     8
 73
     4
 74
     0
 42
0.000000001
 43
0.0000000001
 40
0.0
 40
0.0
 40
0.0
 40
0.0
 40
1.0
 40
1.0
 40
1.0
 40
1.0
 10
242.6482217233594
 20
120.3048451899712
 30
0.0
 10
242.6482217233594
 20
118.7686771130983
 30
0.0
 10
243.9122272568976
 20
117.5046715795601
 30
0.0
 10
245.4483953337705
 20
117.5046715795601
 30
0.0
  0
LWPOLYLINE
  5
4DE
330
1F
100
AcDbEntity
  8
OBRYS
100
AcDbPolyline
 90
        2
 70
     0
 43
0.0
 10
251.7484414476468
 20
117.5046715795601
 10
245.4483953337705
 20
117.5046715795601
  0
LWPOLYLINE
  5
4DF
330
1F
100
AcDbEntity
  8
OBRYS
100
AcDbPolyline
 90
        2
 70
     0
 43
0.0
 10
251.7484414476468
 20
117.5046715795601
 10
251.7484414476468
 20
118.9047583847657
  0
LWPOLYLINE
  5
4E0
330
1F
100
AcDbEntity
  8
OBRYS
100
AcDbPolyline
 90
        3
 70
     0
 43
0.0
 10
257.3484441589205
 20
118.7049428466212
 10
257.3484441589205
 20
118.5633494221774
 10
257.3484441589205
 20
118.5047827989282
  0
LWPOLYLINE
  5
4E1
330
1F
100
AcDbEntity
  8
OBRYS
100
AcDbPolyline
 90
        2
 70
     0
 43
0.0
 10
252.5480481097734
 20
118.9047583847657
 10
252.5480481097734
 20
118.7049428466212
  0
LWPOLYLINE
  5
4E2
330
1F
100
AcDbEntity
  8
OBRYS
100
AcDbPolyline
 90
        3
 70
     0
 43
0.0
 10
252.5480481097734
 20
118.5047827989282
 10
252.5480481097734
 20
118.5633494221774
 10
252.5480481097734
 20
118.7049428466212
  0
LWPOLYLINE
  5
4E3
330
1F
100
AcDbEntity
  8
OBRYS
100
AcDbPolyline
 90
        2
 70
     0
 43
0.0
 10
257.3484441589205
 20
118.5047827989282
 10
257.3484441589205
 20
117.7048316272531
  0
LWPOLYLINE
  5
4E4
330
1F
100
AcDbEntity
  8
OBRYS
100
AcDbPolyline
 90
        2
 70
     0
 43
0.0
 10
252.5480481097734
 20
117.7048316272531
 10
257.3484441589205
 20
117.7048316272531
  0
LWPOLYLINE
  5
4E5
330
1F
100
AcDbEntity
  8
OBRYS
100
AcDbPolyline
 90
        2
 70
     0
 43
0.0
 10
256.8482162944622
 20
117.7048316272531
 10
255.8484495846427
 20
117.8812205160979
  0
LWPOLYLINE
  5
4E6
330
1F
100
AcDbEntity
  8
OBRYS
100
AcDbPolyline
 90
        2
 70
     0
 43
0.0
 10
254.0480426840511
 20
117.8812205160979
 10
255.8484495846427
 20
117.8812205160979
  0
LWPOLYLINE
  5
4E7
330
1F
100
AcDbEntity
  8
OBRYS
100
AcDbPolyline
 90
        2
 70
     0
 43
0.0
 10
255.8484495846427
 20
117.8812205160979
 10
255.8484495846427
 20
118.3283939100834
  0
LWPOLYLINE
  5
4E8
330
1F
100
AcDbEntity
  8
OBRYS
100
AcDbPolyline
 90
        2
 70
     0
 43
0.0
 10
255.8484495846427
 20
118.3283939100834
 10
254.0480426840511
 20
118.3283939100834
  0
LWPOLYLINE
  5
4E9
330
1F
100
AcDbEntity
  8
OBRYS
100
AcDbPolyline
 90
        2
 70
     0
 43
0.0
 10
255.8484495846427
 20
118.3283939100834
 10
256.8482162944622
 20
118.5047827989282
  0
LWPOLYLINE
  5
4EA
330
1F
100
AcDbEntity
  8
OBRYS
100
AcDbPolyline
 90
        2
 70
     0
 43
0.0
 10
257.348099649372
 20
118.5047827989282
 10
252.5480481097734
 20
118.5047827989282
  0
LWPOLYLINE
  5
4EB
330
1F
100
AcDbEntity
  8
OBRYS
100
AcDbPolyline
 90
        2
 70
     0
 43
0.0
 10
254.0480426840511
 20
118.3283939100834
 10
254.0480426840511
 20
117.8812205160979
  0
LWPOLYLINE
  5
4EC
330
1F
100
AcDbEntity
  8
OBRYS
100
AcDbPolyline
 90
        2
 70
     0
 43
0.0
 10
254.0480426840511
 20
117.8812205160979
 10
253.0482759742316
 20
117.7048316272531
  0
LWPOLYLINE
  5
4ED
330
1F
100
AcDbEntity
  8
OBRYS
100
AcDbPolyline
 90
        2
 70
     0
 43
0.0
 10
252.5480481097734
 20
117.7048316272531
 10
252.5480481097734
 20
118.5047827989282
  0
LWPOLYLINE
  5
4EE
330
1F
100
AcDbEntity
  8
OBRYS
100
AcDbPolyline
 90
        2
 70
     0
 43
0.0
 10
253.0482759742316
 20
118.5047827989282
 10
254.0480426840511
 20
118.3283939100834
  0
LWPOLYLINE
  5
4EF
330
1F
100
AcDbEntity
  8
OBRYS
100
AcDbPolyline
 90
        2
 70
     0
 43
0.0
 10
247.648433310651
 20
138.7045834123678
 10
262.2480589580427
 20
138.7045834123678
  0
LWPOLYLINE
  5
4F0
330
1F
100
AcDbEntity
  8
OBRYS
100
AcDbPolyline
 90
        2
 70
     0
 43
0.0
 10
263.8982596954775
 20
136.904693276099
 10
263.8982596954775
 20
128.8045847711796
  0
LWPOLYLINE
  5
4F1
330
1F
100
AcDbEntity
  8
OBRYS
100
AcDbPolyline
 90
        2
 70
     0
 43
0.0
 10
263.8982596954775
 20
128.8045847711796
 10
245.9982325732164
 20
128.8045847711796
  0
LWPOLYLINE
  5
4F2
330
1F
100
AcDbEntity
  8
OBRYS
100
AcDbPolyline
 90
        2
 70
     0
 43
0.0
 10
245.9982325732164
 20
128.8045847711796
 10
245.9982325732164
 20
136.904693276099
  0
LWPOLYLINE
  5
4F3
330
1F
100
AcDbEntity
  8
OBRYS
100
AcDbPolyline
 90
        2
 70
     0
 43
0.0
 10
263.0480101297178
 20
136.904693276099
 10
263.0480101297178
 20
136.7544871129421
  0
LWPOLYLINE
  5
4F4
330
1F
100
AcDbEntity
  8
OBRYS
100
AcDbPolyline
 90
        2
 70
     0
 43
0.0
 10
246.8481376294275
 20
136.7544871129421
 10
246.8481376294275
 20
136.904693276099
  0
LWPOLYLINE
  5
4F5
330
1F
100
AcDbEntity
  8
OBRYS
100
AcDbPolyline
 90
        2
 70
     0
 43
0.0
 10
246.883277603377
 20
136.904693276099
 10
246.883277603377
 20
136.7544871129421
  0
LWPOLYLINE
  5
4F6
330
1F
100
AcDbEntity
  8
OBRYS
100
AcDbPolyline
 90
        2
 70
     0
 43
0.0
 10
263.0132146653168
 20
136.7544871129421
 10
263.0132146653168
 20
136.904693276099
  0
LWPOLYLINE
  5
4F7
330
1F
100
AcDbEntity
  8
OBRYS
100
AcDbPolyline
 90
        2
 70
     0
 43
0.0
 10
205.3369763442324
 20
109.7049754009545
 10
205.3404214397176
 20
109.6047231223337
  0
LWPOLYLINE
  5
4F8
330
1F
100
AcDbEntity
  8
OBRYS
100
AcDbPolyline
 90
        3
 70
     0
 43
0.0
 10
207.1403115759864
 20
109.6047231223337
 10
206.2852388765474
 20
109.6047231223337
 10
205.3404214397176
 20
109.6047231223337
  0
LWPOLYLINE
  5
4F9
330
1F
100
AcDbEntity
  8
OBRYS
100
AcDbPolyline
 90
        2
 70
     0
 43
0.0
 10
207.1403115759864
 20
109.6047231223337
 10
207.1403115759864
 20
109.7049754009545
  0
LWPOLYLINE
  5
4FA
330
1F
100
AcDbEntity
  8
OBRYS
100
AcDbPolyline
 90
        2
 70
     0
 43
0.0
 10
204.4405624989704
 20
109.6047231223337
 10
204.4440075944556
 20
109.7049754009545
  0
LWPOLYLINE
  5
4FB
330
1F
100
AcDbEntity
  8
OBRYS
100
AcDbPolyline
 90
        3
 70
     0
 43
0.0
 10
204.4405624989704
 20
109.6047231223337
 10
203.4957450621406
 20
109.6047231223337
 10
202.6406723627016
 20
109.6047231223337
  0
LWPOLYLINE
  5
4FC
330
1F
100
AcDbEntity
  8
OBRYS
100
AcDbPolyline
 90
        2
 70
     0
 43
0.0
 10
202.6406723627016
 20
109.7049754009545
 10
202.6406723627016
 20
109.6047231223337
  0
SPLINE
  5
4FD
330
1F
100
AcDbEntity
  8
OBRYS
100
AcDbSpline
210
0.0
220
0.0
230
1.0
 70
     8
 71
     3
 72
     8
 73
     4
 74
     0
 42
0.000000001
 43
0.0000000001
 40
0.0
 40
0.0
 40
0.0
 40
0.0
 40
1.0
 40
1.0
 40
1.0
 40
1.0
 10
182.8902844553128
 20
103.8045603633671
 30
0.0
 10
183.2194633289284
 20
103.8045603633671
 30
0.0
 10
183.4904200888433
 20
104.0756893780563
 30
0.0
 10
183.4904200888433
 20
104.4046959968976
 30
0.0
  0
SPLINE
  5
4FE
330
1F
100
AcDbEntity
  8
OBRYS
100
AcDbSpline
210
0.0
220
0.0
230
1.0
 70
     8
 71
     3
 72
     8
 73
     4
 74
     0
 42
0.000000001
 43
0.0000000001
 40
0.0
 40
0.0
 40
0.0
 40
0.0
 40
1.0
 40
1.0
 40
1.0
 40
1.0
 10
158.2904078881121
 20
104.4046959968976
 30
0.0
 10
158.2904078881121
 20
104.0756893780563
 30
0.0
 10
158.561364648027
 20
103.8045603633671
 30
0.0
 10
158.8905435216426
 20
103.8045603633671
 30
0.0
  0
LWPOLYLINE
  5
4FF
330
1F
100
AcDbEntity
  8
OBRYS
100
AcDbPolyline
 90
        2
 70
     0
 43
0.0
 10
176.8858275340708
 20
111.9480770714007
 10
177.2904539988134
 20
111.9480770714007
  0
LWPOLYLINE
  5
500
330
1F
100
AcDbEntity
  8
OBRYS
100
AcDbPolyline
 90
        2
 70
     0
 43
0.0
 10
178.7904485730912
 20
105.4048072162657
 10
178.7904485730912
 20
110.5014814771443
  0
LWPOLYLINE
  5
501
330
1F
100
AcDbEntity
  8
OBRYS
100
AcDbPolyline
 90
        2
 70
     0
 43
0.0
 10
173.9905692882669
 20
110.4112199754307
 10
173.9905692882669
 20
105.4048072162657
  0
LWPOLYLINE
  5
502
330
1F
100
AcDbEntity
  8
OBRYS
100
AcDbPolyline
 90
        2
 70
     0
 43
0.0
 10
178.2905652181815
 20
110.9937856219865
 10
175.7257872341166
 20
110.9937856219865
  0
LWPOLYLINE
  5
503
330
1F
100
AcDbEntity
  8
OBRYS
100
AcDbPolyline
 90
        2
 70
     0
 43
0.0
 10
178.2905652181815
 20
110.9937856219865
 10
178.7904485730912
 20
110.5014814771443
  0
LWPOLYLINE
  5
504
330
1F
100
AcDbEntity
  8
OBRYS
100
AcDbPolyline
 90
        2
 70
     0
 43
0.0
 10
177.2904539988134
 20
111.9480770714007
 10
178.2905652181815
 20
110.9937856219865
  0
LWPOLYLINE
  5
505
330
1F
100
AcDbEntity
  8
OBRYS
100
AcDbPolyline
 90
       13
 70
     0
 43
0.0
 10
175.640425516153
 20
109.0242245330691
 10
175.7410223043223
 20
109.3938832786364
 10
176.0154241597225
 20
109.66397876468
 10
176.3904228032919
 20
109.7628530051067
 10
176.7654214468614
 20
109.66397876468
 10
177.0398233022615
 20
109.3938832786364
 10
177.1404200904308
 20
109.0242245330691
 10
177.0398233022615
 20
108.6549102970503
 10
176.7654214468614
 20
108.3844703014582
 10
176.3904228032919
 20
108.2855960610316
 10
176.0154241597225
 20
108.3844703014582
 10
175.7410223043223
 20
108.6549102970503
 10
175.640425516153
 20
109.0242245330691
  0
LWPOLYLINE
  5
506
330
1F
100
AcDbEntity
  8
OBRYS
100
AcDbPolyline
 90
        6
 70
     0
 43
0.0
 10
177.1373195044941
 20
108.9549781138156
 10
176.9714381568793
 20
109.3525421328134
 10
176.6088418570568
 20
109.5919762690383
 10
176.1720037495271
 20
109.5919762690383
 10
175.8094074497045
 20
109.3525421328134
 10
175.6435261020897
 20
108.9549781138156
  0
LWPOLYLINE
  5
507
330
1F
100
AcDbEntity
  8
OBRYS
100
AcDbPolyline
 90
        2
 70
     0
 43
0.0
 10
165.4885903949931
 20
111.9480770714007
 10
166.290436369185
 20
111.9480770714007
  0
LWPOLYLINE
  5
508
330
1F
100
AcDbEntity
  8
OBRYS
100
AcDbPolyline
 90
        2
 70
     0
 43
0.0
 10
167.7904309434627
 20
108.904679719731
 10
167.7904309434627
 20
110.5011369675957
  0
LWPOLYLINE
  5
509
330
1F
100
AcDbEntity
  8
OBRYS
100
AcDbPolyline
 90
        2
 70
     0
 43
0.0
 10
167.7904309434627
 20
105.4048072162657
 10
167.7904309434627
 20
108.1109297199294
  0
LWPOLYLINE
  5
50A
330
1F
100
AcDbEntity
  8
OBRYS
100
AcDbPolyline
 90
        2
 70
     0
 43
0.0
 10
162.9905516586384
 20
106.4321346899671
 10
162.9905516586384
 20
105.4048072162657
  0
LWPOLYLINE
  5
50B
330
1F
100
AcDbEntity
  8
OBRYS
100
AcDbPolyline
 90
        2
 70
     0
 43
0.0
 10
167.290547588553
 20
110.9937856219865
 10
165.1414970248541
 20
110.9937856219865
  0
LWPOLYLINE
  5
50C
330
1F
100
AcDbEntity
  8
OBRYS
100
AcDbPolyline
 90
        2
 70
     0
 43
0.0
 10
167.7904309434627
 20
110.5011369675957
 10
167.290547588553
 20
110.9937856219865
  0
LWPOLYLINE
  5
50D
330
1F
100
AcDbEntity
  8
OBRYS
100
AcDbPolyline
 90
        2
 70
     0
 43
0.0
 10
166.290436369185
 20
111.9480770714007
 10
167.290547588553
 20
110.9937856219865
  0
LWPOLYLINE
  5
50E
330
1F
100
AcDbEntity
  8
OBRYS
100
AcDbPolyline
 90
       13
 70
     0
 43
0.0
 10
164.6404078865246
 20
109.0242245330691
 10
164.7410046746939
 20
109.3938832786364
 10
165.015406530094
 20
109.66397876468
 10
165.3904051736634
 20
109.7628530051067
 10
165.7654038172329
 20
109.66397876468
 10
166.0399779274073
 20
109.3938832786364
 10
166.1405747155766
 20
109.0242245330691
 10
166.0399779274073
 20
108.6549102970503
 10
165.7654038172329
 20
108.3844703014582
 10
165.3904051736634
 20
108.2855960610316
 10
165.015406530094
 20
108.3844703014582
 10
164.7410046746939
 20
108.6549102970503
 10
164.6404078865246
 20
109.0242245330691
  0
LWPOLYLINE
  5
50F
330
1F
100
AcDbEntity
  8
OBRYS
100
AcDbPolyline
 90
        6
 70
     0
 43
0.0
 10
166.1373018748656
 20
108.9549781138156
 10
165.9714205272508
 20
109.3525421328134
 10
165.6088242274283
 20
109.5919762690383
 10
165.1721583746729
 20
109.5919762690383
 10
164.8093898200761
 20
109.3525421328134
 10
164.6436807272355
 20
108.9549781138156
  0
SPLINE
  5
510
330
1F
100
AcDbEntity
  8
OBRYS
100
AcDbSpline
210
0.0
220
0.0
230
1.0
 70
     8
 71
     3
 72
     8
 73
     4
 74
     0
 42
0.000000001
 43
0.0000000001
 40
0.0
 40
0.0
 40
0.0
 40
0.0
 40
1.0
 40
1.0
 40
1.0
 40
1.0
 10
157.4902844616628
 20
104.4046959968976
 30
0.0
 10
157.4902844616628
 20
103.6367842132354
 30
0.0
 10
158.1224594832061
 20
103.0049537012406
 30
0.0
 10
158.8905435216426
 20
103.0049537012406
 30
0.0
  0
LWPOLYLINE
  5
511
330
1F
100
AcDbEntity
  8
OBRYS
100
AcDbPolyline
 90
        2
 70
     0
 43
0.0
 10
157.4902844616628
 20
104.4046959968976
 10
157.4902844616628
 20
108.904679719731
  0
SPLINE
  5
512
330
1F
100
AcDbEntity
  8
OBRYS
100
AcDbSpline
210
0.0
220
0.0
230
1.0
 70
     8
 71
     3
 72
     8
 73
     4
 74
     0
 42
0.000000001
 43
0.0000000001
 40
0.0
 40
0.0
 40
0.0
 40
0.0
 40
1.0
 40
1.0
 40
1.0
 40
1.0
 10
157.4902844616628
 20
108.904679719731
 30
0.0
 10
157.4902844616628
 20
109.2340308481208
 30
0.0
 10
157.2198444660706
 20
109.5048153532615
 30
0.0
 10
156.8903210829065
 20
109.5048153532615
 30
0.0
  0
LWPOLYLINE
  5
513
330
1F
100
AcDbEntity
  8
OBRYS
100
AcDbPolyline
 90
        2
 70
     0
 43
0.0
 10
156.8903210829065
 20
109.5048153532615
 10
156.3904377279968
 20
109.5048153532615
  0
SPLINE
  5
514
330
1F
100
AcDbEntity
  8
OBRYS
100
AcDbSpline
210
0.0
220
0.0
230
1.0
 70
     8
 71
     3
 72
     8
 73
     4
 74
     0
 42
0.000000001
 43
0.0000000001
 40
0.0
 40
0.0
 40
0.0
 40
0.0
 40
1.0
 40
1.0
 40
1.0
 40
1.0
 10
158.2904078881121
 20
108.904679719731
 30
0.0
 10
158.2904078881121
 20
109.6725915033931
 30
0.0
 10
157.6585773761172
 20
110.305111034485
 30
0.0
 10
156.8903210829065
 20
110.305111034485
 30
0.0
  0
LWPOLYLINE
  5
515
330
1F
100
AcDbEntity
  8
OBRYS
100
AcDbPolyline
 90
        2
 70
     0
 43
0.0
 10
158.2904078881121
 20
104.4046959968976
 10
158.2904078881121
 20
108.904679719731
  0
LWPOLYLINE
  5
516
330
1F
100
AcDbEntity
  8
OBRYS
100
AcDbPolyline
 90
        2
 70
     0
 43
0.0
 10
153.3904485794412
 20
112.2181725574442
 10
153.3904485794412
 20
112.3570099054998
  0
LWPOLYLINE
  5
517
330
1F
100
AcDbEntity
  8
OBRYS
100
AcDbPolyline
 90
        2
 70
     0
 43
0.0
 10
156.3904377279968
 20
112.3570099054998
 10
153.3904485794412
 20
112.3570099054998
  0
LWPOLYLINE
  5
518
330
1F
100
AcDbEntity
  8
OBRYS
100
AcDbPolyline
 90
        2
 70
     0
 43
0.0
 10
156.3904377279968
 20
112.2181725574442
 10
156.3904377279968
 20
112.3570099054998
  0
LWPOLYLINE
  5
519
330
1F
100
AcDbEntity
  8
OBRYS
100
AcDbPolyline
 90
        2
 70
     0
 43
0.0
 10
153.3904485794412
 20
110.6616784172084
 10
153.3904485794412
 20
112.2181725574442
  0
LWPOLYLINE
  5
51A
330
1F
100
AcDbEntity
  8
OBRYS
100
AcDbPolyline
 90
        2
 70
     0
 43
0.0
 10
156.3904377279968
 20
112.2181725574442
 10
153.3904485794412
 20
112.2181725574442
  0
LWPOLYLINE
  5
51B
330
1F
100
AcDbEntity
  8
OBRYS
100
AcDbPolyline
 90
        2
 70
     0
 43
0.0
 10
156.3904377279968
 20
110.6616784172084
 10
156.3904377279968
 20
112.2181725574442
  0
LWPOLYLINE
  5
51C
330
1F
100
AcDbEntity
  8
OBRYS
100
AcDbPolyline
 90
        2
 70
     0
 43
0.0
 10
156.3904377279968
 20
109.5048153532615
 10
153.3904485794412
 20
109.5048153532615
  0
LWPOLYLINE
  5
51D
330
1F
100
AcDbEntity
  8
OBRYS
100
AcDbPolyline
 90
        4
 70
     0
 43
0.0
 10
153.3904485794412
 20
109.5048153532615
 10
153.3904485794412
 20
109.6536434782243
 10
153.3904485794412
 20
110.0684329746484
 10
153.3904485794412
 20
110.6616784172084
  0
LWPOLYLINE
  5
51E
330
1F
100
AcDbEntity
  8
OBRYS
100
AcDbPolyline
 90
        4
 70
     0
 43
0.0
 10
156.3904377279968
 20
109.5048153532615
 10
156.3904377279968
 20
109.6536434782243
 10
156.3904377279968
 20
110.0684329746484
 10
156.3904377279968
 20
110.6616784172084
  0
LWPOLYLINE
  5
51F
330
1F
100
AcDbEntity
  8
OBRYS
100
AcDbPolyline
 90
        2
 70
     0
 43
0.0
 10
182.8902844553128
 20
103.0049537012406
 10
158.8905435216426
 20
103.0049537012406
  0
LWPOLYLINE
  5
520
330
1F
100
AcDbEntity
  8
OBRYS
100
AcDbPolyline
 90
        5
 70
     0
 43
0.0
 10
158.8905435216426
 20
103.0049537012406
 10
158.8905435216426
 20
103.1114071517348
 10
158.8905435216426
 20
103.4149200639853
 10
158.8905435216426
 20
103.8689836489413
 10
158.8905435216426
 20
104.4046959968976
  0
LWPOLYLINE
  5
521
330
1F
100
AcDbEntity
  8
OBRYS
100
AcDbPolyline
 90
        5
 70
     0
 43
0.0
 10
182.8902844553128
 20
104.4046959968976
 10
182.8902844553128
 20
103.8689836489413
 10
182.8902844553128
 20
103.4149200639853
 10
182.8902844553128
 20
103.1114071517348
 10
182.8902844553128
 20
103.0049537012406
  0
LWPOLYLINE
  5
522
330
1F
100
AcDbEntity
  8
OBRYS
100
AcDbPolyline
 90
        2
 70
     0
 43
0.0
 10
158.8905435216426
 20
105.4048072162657
 10
158.8905435216426
 20
104.4046959968976
  0
LWPOLYLINE
  5
523
330
1F
100
AcDbEntity
  8
OBRYS
100
AcDbPolyline
 90
        2
 70
     0
 43
0.0
 10
182.8902844553128
 20
104.4046959968976
 10
182.8902844553128
 20
105.4048072162657
  0
LWPOLYLINE
  5
524
330
1F
100
AcDbEntity
  8
OBRYS
100
AcDbPolyline
 90
        2
 70
     0
 43
0.0
 10
182.8902844553128
 20
105.4048072162657
 10
158.8905435216426
 20
105.4048072162657
  0
SPLINE
  5
525
330
1F
100
AcDbEntity
  8
OBRYS
100
AcDbSpline
210
0.0
220
0.0
230
1.0
 70
     8
 71
     3
 72
     8
 73
     4
 74
     0
 42
0.000000001
 43
0.0000000001
 40
0.0
 40
0.0
 40
0.0
 40
0.0
 40
1.0
 40
1.0
 40
1.0
 40
1.0
 10
182.8902844553128
 20
103.0049537012406
 30
0.0
 10
183.6583684937492
 20
103.0049537012406
 30
0.0
 10
184.2905435152926
 20
103.6367842132354
 30
0.0
 10
184.2905435152926
 20
104.4046959968976
 30
0.0
  0
LWPOLYLINE
  5
526
330
1F
100
AcDbEntity
  8
OBRYS
100
AcDbPolyline
 90
        2
 70
     0
 43
0.0
 10
184.2905435152926
 20
108.904679719731
 10
184.2905435152926
 20
104.4046959968976
  0
SPLINE
  5
527
330
1F
100
AcDbEntity
  8
OBRYS
100
AcDbSpline
210
0.0
220
0.0
230
1.0
 70
     8
 71
     3
 72
     8
 73
     4
 74
     0
 42
0.000000001
 43
0.0000000001
 40
0.0
 40
0.0
 40
0.0
 40
0.0
 40
1.0
 40
1.0
 40
1.0
 40
1.0
 10
184.8906791488231
 20
109.5048153532615
 30
0.0
 10
184.5615002752075
 20
109.5048153532615
 30
0.0
 10
184.2905435152926
 20
109.2340308481208
 30
0.0
 10
184.2905435152926
 20
108.904679719731
 30
0.0
  0
LWPOLYLINE
  5
528
330
1F
100
AcDbEntity
  8
OBRYS
100
AcDbPolyline
 90
        2
 70
     0
 43
0.0
 10
185.3905625037329
 20
109.5048153532615
 10
184.8906791488231
 20
109.5048153532615
  0
LWPOLYLINE
  5
529
330
1F
100
AcDbEntity
  8
OBRYS
100
AcDbPolyline
 90
        2
 70
     0
 43
0.0
 10
185.3905625037329
 20
110.304422015388
 10
184.8906791488231
 20
110.304422015388
  0
SPLINE
  5
52A
330
1F
100
AcDbEntity
  8
OBRYS
100
AcDbSpline
210
0.0
220
0.0
230
1.0
 70
     8
 71
     3
 72
     8
 73
     4
 74
     0
 42
0.000000001
 43
0.0000000001
 40
0.0
 40
0.0
 40
0.0
 40
0.0
 40
1.0
 40
1.0
 40
1.0
 40
1.0
 10
184.8906791488231
 20
110.305111034485
 30
0.0
 10
184.1222506008381
 20
110.305111034485
 30
0.0
 10
183.4904200888433
 20
109.6725915033931
 30
0.0
 10
183.4904200888433
 20
108.904679719731
 30
0.0
  0
LWPOLYLINE
  5
52B
330
1F
100
AcDbEntity
  8
OBRYS
100
AcDbPolyline
 90
        2
 70
     0
 43
0.0
 10
183.4904200888433
 20
108.904679719731
 10
183.4904200888433
 20
104.4046959968976
  0
LWPOLYLINE
  5
52C
330
1F
100
AcDbEntity
  8
OBRYS
100
AcDbPolyline
 90
        2
 70
     0
 43
0.0
 10
185.3905625037329
 20
112.3570099054998
 10
185.3905625037329
 20
112.2181725574442
  0
LWPOLYLINE
  5
52D
330
1F
100
AcDbEntity
  8
OBRYS
100
AcDbPolyline
 90
        2
 70
     0
 43
0.0
 10
188.3905516522884
 20
112.3570099054998
 10
185.3905625037329
 20
112.3570099054998
  0
LWPOLYLINE
  5
52E
330
1F
100
AcDbEntity
  8
OBRYS
100
AcDbPolyline
 90
        2
 70
     0
 43
0.0
 10
188.3905516522884
 20
112.3570099054998
 10
188.3905516522884
 20
112.2181725574442
  0
LWPOLYLINE
  5
52F
330
1F
100
AcDbEntity
  8
OBRYS
100
AcDbPolyline
 90
        2
 70
     0
 43
0.0
 10
185.3905625037329
 20
112.2181725574442
 10
185.3905625037329
 20
110.6616784172084
  0
LWPOLYLINE
  5
530
330
1F
100
AcDbEntity
  8
OBRYS
100
AcDbPolyline
 90
        2
 70
     0
 43
0.0
 10
188.3905516522884
 20
112.2181725574442
 10
185.3905625037329
 20
112.2181725574442
  0
LWPOLYLINE
  5
531
330
1F
100
AcDbEntity
  8
OBRYS
100
AcDbPolyline
 90
        2
 70
     0
 43
0.0
 10
188.3905516522884
 20
112.2181725574442
 10
188.3905516522884
 20
110.6616784172084
  0
LWPOLYLINE
  5
532
330
1F
100
AcDbEntity
  8
OBRYS
100
AcDbPolyline
 90
        2
 70
     0
 43
0.0
 10
188.3905516522884
 20
109.5048153532615
 10
185.3905625037329
 20
109.5048153532615
  0
LWPOLYLINE
  5
533
330
1F
100
AcDbEntity
  8
OBRYS
100
AcDbPolyline
 90
        4
 70
     0
 43
0.0
 10
185.3905625037329
 20
110.6616784172084
 10
185.3905625037329
 20
110.0684329746484
 10
185.3905625037329
 20
109.6536434782243
 10
185.3905625037329
 20
109.5048153532615
  0
SPLINE
  5
534
330
1F
100
AcDbEntity
  8
OBRYS
100
AcDbSpline
210
0.0
220
0.0
230
1.0
 70
     8
 71
     3
 72
     8
 73
     4
 74
     0
 42
0.000000001
 43
0.0000000001
 40
0.0
 40
0.0
 40
0.0
 40
0.0
 40
1.0
 40
1.0
 40
1.0
 40
1.0
 10
169.1905177486683
 20
110.8049943893948
 30
0.0
 10
169.1905177486683
 20
110.9693254440412
 30
0.0
 10
169.055125496098
 20
111.1047176966115
 30
0.0
 10
168.890449931903
 20
111.1047176966115
 30
0.0
  0
LWPOLYLINE
  5
535
330
1F
100
AcDbEntity
  8
OBRYS
100
AcDbPolyline
 90
        2
 70
     0
 43
0.0
 10
169.1905177486683
 20
110.8049943893948
 10
169.1905177486683
 20
108.4420033960619
  0
LWPOLYLINE
  5
536
330
1F
100
AcDbEntity
  8
OBRYS
100
AcDbPolyline
 90
        2
 70
     0
 43
0.0
 10
218.890498747528
 20
107.2048696073087
 10
218.890498747528
 20
107.7047529622184
  0
SPLINE
  5
537
330
1F
100
AcDbEntity
  8
OBRYS
100
AcDbSpline
210
0.0
220
0.0
230
1.0
 70
     8
 71
     3
 72
     8
 73
     4
 74
     0
 42
0.000000001
 43
0.0000000001
 40
0.0
 40
0.0
 40
0.0
 40
0.0
 40
1.0
 40
1.0
 40
1.0
 40
1.0
 10
218.3902708830697
 20
106.7049862523989
 30
0.0
 10
218.6648449932441
 20
106.7049862523989
 30
0.0
 10
218.890498747528
 20
106.9306400066828
 30
0.0
 10
218.890498747528
 20
107.2048696073087
 30
0.0
  0
LWPOLYLINE
  5
538
330
1F
100
AcDbEntity
  8
OBRYS
100
AcDbPolyline
 90
        2
 70
     0
 43
0.0
 10
218.3902708830697
 20
106.7049862523989
 10
189.6044310465162
 20
106.7049862523989
  0
SPLINE
  5
539
330
1F
100
AcDbEntity
  8
OBRYS
100
AcDbSpline
210
0.0
220
0.0
230
1.0
 70
     8
 71
     3
 72
     8
 73
     4
 74
     0
 42
0.000000001
 43
0.0000000001
 40
0.0
 40
0.0
 40
0.0
 40
0.0
 40
1.0
 40
1.0
 40
1.0
 40
1.0
 10
188.3467989396258
 20
107.3871151584784
 30
0.0
 10
188.6234401070913
 20
106.9619903755986
 30
0.0
 10
189.0971407363131
 20
106.7049862523989
 30
0.0
 10
189.6044310465162
 20
106.7049862523989
 30
0.0
  0
LWPOLYLINE
  5
53A
330
1F
100
AcDbEntity
  8
OBRYS
100
AcDbPolyline
 90
        2
 70
     0
 43
0.0
 10
188.3467989396258
 20
107.3871151584784
 10
187.6197115374638
 20
108.505737662539
  0
SPLINE
  5
53B
330
1F
100
AcDbEntity
  8
OBRYS
100
AcDbSpline
210
0.0
220
0.0
230
1.0
 70
     8
 71
     3
 72
     8
 73
     4
 74
     0
 42
0.000000001
 43
0.0000000001
 40
0.0
 40
0.0
 40
0.0
 40
0.0
 40
1.0
 40
1.0
 40
1.0
 40
1.0
 10
187.4905204567669
 20
108.9418867509717
 30
0.0
 10
187.4905204567669
 20
108.7872019636839
 30
0.0
 10
187.5353066980751
 20
108.6356177623329
 30
0.0
 10
187.6197115374638
 20
108.505737662539
 30
0.0
  0
LWPOLYLINE
  5
53C
330
1F
100
AcDbEntity
  8
OBRYS
100
AcDbPolyline
 90
        2
 70
     0
 43
0.0
 10
187.4905204567669
 20
108.9418867509717
 10
187.4905204567669
 20
109.0045874888032
  0
SPLINE
  5
53D
330
1F
100
AcDbEntity
  8
OBRYS
100
AcDbSpline
210
0.0
220
0.0
230
1.0
 70
     8
 71
     3
 72
     8
 73
     4
 74
     0
 42
0.000000001
 43
0.0000000001
 40
0.0
 40
0.0
 40
0.0
 40
0.0
 40
1.0
 40
1.0
 40
1.0
 40
1.0
 10
187.6906805044599
 20
109.2047475364962
 30
0.0
 10
187.5809542132547
 20
109.2047475364962
 30
0.0
 10
187.4905204567669
 20
109.1144860347827
 30
0.0
 10
187.4905204567669
 20
109.0045874888032
 30
0.0
  0
LWPOLYLINE
  5
53E
330
1F
100
AcDbEntity
  8
OBRYS
100
AcDbPolyline
 90
        5
 70
     0
 43
0.0
 10
187.6906805044599
 20
109.2047475364962
 10
188.0905516522884
 20
109.2047475364962
 42
0.4142135623731091
 10
188.3905516522884
 20
109.5047475364962
 10
188.3905516522884
 20
110.0684329746484
 10
188.3905516522884
 20
110.6616784172084
  0
LWPOLYLINE
  5
53F
330
1F
100
AcDbEntity
  8
OBRYS
100
AcDbPolyline
 90
        2
 70
     0
 43
0.0
 10
186.9902925923086
 20
112.3570099054998
 10
186.9902925923086
 20
113.8049835379503
  0
SPLINE
  5
540
330
1F
100
AcDbEntity
  8
OBRYS
100
AcDbSpline
210
0.0
220
0.0
230
1.0
 70
     8
 71
     3
 72
     8
 73
     4
 74
     0
 42
0.000000001
 43
0.0000000001
 40
0.0
 40
0.0
 40
0.0
 40
0.0
 40
1.0
 40
1.0
 40
1.0
 40
1.0
 10
186.9902925923086
 20
113.8049835379503
 30
0.0
 10
186.9902925923086
 20
114.3534427392021
 30
0.0
 10
186.5391573385152
 20
114.8047502477698
 30
0.0
 10
185.9905258824891
 20
114.8047502477698
 30
0.0
  0
LWPOLYLINE
  5
541
330
1F
100
AcDbEntity
  8
OBRYS
100
AcDbPolyline
 90
        2
 70
     0
 43
0.0
 10
185.9905258824891
 20
114.8047502477698
 10
178.0904051704884
 20
114.8047502477698
  0
SPLINE
  5
542
330
1F
100
AcDbEntity
  8
OBRYS
100
AcDbSpline
210
0.0
220
0.0
230
1.0
 70
     8
 71
     3
 72
     8
 73
     4
 74
     0
 42
0.000000001
 43
0.0000000001
 40
0.0
 40
0.0
 40
0.0
 40
0.0
 40
1.0
 40
1.0
 40
1.0
 40
1.0
 10
177.5905218155787
 20
115.3049781122281
 30
0.0
 10
177.5905218155787
 20
115.0304040020537
 30
0.0
 10
177.8160033150883
 20
114.8047502477698
 30
0.0
 10
178.0904051704884
 20
114.8047502477698
 30
0.0
  0
LWPOLYLINE
  5
543
330
1F
100
AcDbEntity
  8
OBRYS
100
AcDbPolyline
 90
        2
 70
     0
 43
0.0
 10
177.5905218155787
 20
115.3049781122281
 10
177.5905218155787
 20
115.5047936503726
  0
SPLINE
  5
544
330
1F
100
AcDbEntity
  8
OBRYS
100
AcDbSpline
210
0.0
220
0.0
230
1.0
 70
     8
 71
     3
 72
     8
 73
     4
 74
     0
 42
0.000000001
 43
0.0000000001
 40
0.0
 40
0.0
 40
0.0
 40
0.0
 40
1.0
 40
1.0
 40
1.0
 40
1.0
 10
177.5905218155787
 20
115.5047936503726
 30
0.0
 10
177.5905218155787
 20
115.7790232509985
 30
0.0
 10
177.3648680612948
 20
116.0046770052823
 30
0.0
 10
177.0902939511204
 20
116.0046770052823
 30
0.0
  0
LWPOLYLINE
  5
545
330
1F
100
AcDbEntity
  8
OBRYS
100
AcDbPolyline
 90
        2
 70
     0
 43
0.0
 10
177.0902939511204
 20
116.0046770052823
 10
176.7307982372346
 20
116.0046770052823
  0
SPLINE
  5
546
330
1F
100
AcDbEntity
  8
OBRYS
100
AcDbSpline
210
0.0
220
0.0
230
1.0
 70
     8
 71
     3
 72
    11
 73
     7
 74
     0
 42
0.000000001
 43
0.0000000001
 40
0.0
 40
0.0
 40
0.0
 40
0.0
 40
1.0
 40
1.0
 40
1.0
 40
2.0
 40
2.0
 40
2.0
 40
2.0
 10
176.7307982372346
 20
116.0046770052823
 30
0.0
 10
176.4550183436404
 20
116.0046770052823
 30
0.0
 10
176.2309148823248
 20
115.7807457987411
 30
0.0
 10
176.2309148823248
 20
115.5047936503726
 30
0.0
 10
176.2309148823248
 20
115.4637970140981
 30
0.0
 10
176.2359102707785
 20
115.4231448873722
 30
0.0
 10
176.2457287929114
 20
115.3835262892918
 30
0.0
  0
LWPOLYLINE
  5
547
330
1F
100
AcDbEntity
  8
OBRYS
100
AcDbPolyline
 90
        2
 70
     0
 43
0.0
 10
176.2457287929114
 20
115.3835262892918
 10
176.7838527077074
 20
113.2317196492047
  0
SPLINE
  5
548
330
1F
100
AcDbEntity
  8
OBRYS
100
AcDbSpline
210
0.0
220
0.0
230
1.0
 70
     8
 71
     3
 72
     8
 73
     4
 74
     0
 42
0.000000001
 43
0.0000000001
 40
0.0
 40
0.0
 40
0.0
 40
0.0
 40
1.0
 40
1.0
 40
1.0
 40
1.0
 10
176.7838527077074
 20
113.2317196492047
 30
0.0
 10
176.7879868222897
 20
113.2138051526815
 30
0.0
 10
176.7971163253257
 20
113.1979577134493
 30
0.0
 10
176.8098631786211
 20
113.1848663506054
 30
0.0
  0
LWPOLYLINE
  5
549
330
1F
100
AcDbEntity
  8
OBRYS
100
AcDbPolyline
 90
        2
 70
     0
 43
0.0
 10
176.8098631786211
 20
113.1848663506054
 10
177.1312905873949
 20
112.8641279609286
  0
SPLINE
  5
54A
330
1F
100
AcDbEntity
  8
OBRYS
100
AcDbSpline
210
0.0
220
0.0
230
1.0
 70
     8
 71
     3
 72
     8
 73
     4
 74
     0
 42
0.000000001
 43
0.0000000001
 40
0.0
 40
0.0
 40
0.0
 40
0.0
 40
1.0
 40
1.0
 40
1.0
 40
1.0
 10
177.1733207523149
 20
112.3470191285926
 30
0.0
 10
177.2871811581025
 20
112.5058380304626
 30
0.0
 10
177.2696111711277
 20
112.7256351224216
 30
0.0
 10
177.1312905873949
 20
112.8641279609286
 30
0.0
  0
LWPOLYLINE
  5
54B
330
1F
100
AcDbEntity
  8
OBRYS
100
AcDbPolyline
 90
        2
 70
     0
 43
0.0
 10
177.1733207523149
 20
112.3470191285926
 10
176.5428682785142
 20
111.4719648753391
  0
SPLINE
  5
54C
330
1F
100
AcDbEntity
  8
OBRYS
100
AcDbSpline
210
0.0
220
0.0
230
1.0
 70
     8
 71
     3
 72
     8
 73
     4
 74
     0
 42
0.000000001
 43
0.0000000001
 40
0.0
 40
0.0
 40
0.0
 40
0.0
 40
1.0
 40
1.0
 40
1.0
 40
1.0
 10
175.1589734220894
 20
110.6547882262379
 30
0.0
 10
175.7138060499888
 20
110.7216230786517
 30
0.0
 10
176.2161009717383
 20
111.0182457999317
 30
0.0
 10
176.5428682785142
 20
111.4719648753391
 30
0.0
  0
SPLINE
  5
54D
330
1F
100
AcDbEntity
  8
OBRYS
100
AcDbSpline
210
0.0
220
0.0
230
1.0
 70
     8
 71
     3
 72
     8
 73
     4
 74
     0
 42
0.000000001
 43
0.0000000001
 40
0.0
 40
0.0
 40
0.0
 40
0.0
 40
1.0
 40
1.0
 40
1.0
 40
1.0
 10
175.1589734220894
 20
110.6547882262379
 30
0.0
 10
172.8845213827274
 20
110.381247644709
 30
0.0
 10
170.886021491734
 20
109.0021759219635
 30
0.0
 10
169.8235540440829
 20
106.9730146811514
 30
0.0
  0
SPLINE
  5
54E
330
1F
100
AcDbEntity
  8
OBRYS
100
AcDbSpline
210
0.0
220
0.0
230
1.0
 70
     8
 71
     3
 72
     8
 73
     4
 74
     0
 42
0.000000001
 43
0.0000000001
 40
0.0
 40
0.0
 40
0.0
 40
0.0
 40
1.0
 40
1.0
 40
1.0
 40
1.0
 10
169.3806870194541
 20
106.7049862523989
 30
0.0
 10
169.566377666109
 20
106.7049862523989
 30
0.0
 10
169.7374266569517
 20
106.8083391169564
 30
0.0
 10
169.8235540440829
 20
106.9730146811514
 30
0.0
  0
LWPOLYLINE
  5
54F
330
1F
100
AcDbEntity
  8
OBRYS
100
AcDbPolyline
 90
        2
 70
     0
 43
0.0
 10
169.3806870194541
 20
106.7049862523989
 10
168.9641749752874
 20
106.7049862523989
  0
SPLINE
  5
550
330
1F
100
AcDbEntity
  8
OBRYS
100
AcDbSpline
210
0.0
220
0.0
230
1.0
 70
     8
 71
     3
 72
     8
 73
     4
 74
     0
 42
0.000000001
 43
0.0000000001
 40
0.0
 40
0.0
 40
0.0
 40
0.0
 40
1.0
 40
1.0
 40
1.0
 40
1.0
 10
168.5428397974413
 20
106.9351186308136
 30
0.0
 10
168.6346515921232
 20
106.7918026586272
 30
0.0
 10
168.7936427487675
 20
106.7049862523989
 30
0.0
 10
168.9641749752874
 20
106.7049862523989
 30
0.0
  0
LWPOLYLINE
  5
551
330
1F
100
AcDbEntity
  8
OBRYS
100
AcDbPolyline
 90
        2
 70
     0
 43
0.0
 10
168.5428397974413
 20
106.9351186308136
 10
167.6541774170211
 20
108.3241811304664
  0
SPLINE
  5
552
330
1F
100
AcDbEntity
  8
OBRYS
100
AcDbSpline
210
0.0
220
0.0
230
1.0
 70
     8
 71
     3
 72
     8
 73
     4
 74
     0
 42
0.000000001
 43
0.0000000001
 40
0.0
 40
0.0
 40
0.0
 40
0.0
 40
1.0
 40
1.0
 40
1.0
 40
1.0
 10
167.7082654161395
 20
108.822686447182
 30
0.0
 10
167.5759737495059
 20
108.6903947805484
 30
0.0
 10
167.5534083740776
 20
108.4816219941423
 30
0.0
 10
167.6541774170211
 20
108.3241811304664
 30
0.0
  0
LWPOLYLINE
  5
553
330
1F
100
AcDbEntity
  8
OBRYS
100
AcDbPolyline
 90
        2
 70
     0
 43
0.0
 10
167.7082654161395
 20
108.822686447182
 10
168.0906710150023
 20
109.2047475364962
  0
LWPOLYLINE
  5
554
330
1F
100
AcDbEntity
  8
OBRYS
100
AcDbPolyline
 90
        2
 70
     0
 43
0.0
 10
168.0906710150023
 20
109.2047475364962
 10
168.3640393417568
 20
110.2083038513495
  0
SPLINE
  5
555
330
1F
100
AcDbEntity
  8
OBRYS
100
AcDbSpline
210
0.0
220
0.0
230
1.0
 70
     8
 71
     3
 72
     8
 73
     4
 74
     0
 42
0.000000001
 43
0.0000000001
 40
0.0
 40
0.0
 40
0.0
 40
0.0
 40
1.0
 40
1.0
 40
1.0
 40
1.0
 10
168.3640393417568
 20
110.2083038513495
 30
0.0
 10
168.3785087427949
 20
110.2613583218223
 30
0.0
 10
168.3468138643306
 20
110.3164798495863
 30
0.0
 10
168.2937593938578
 20
110.3309492506244
 30
0.0
  0
LWPOLYLINE
  5
556
330
1F
100
AcDbEntity
  8
OBRYS
100
AcDbPolyline
 90
        2
 70
     0
 43
0.0
 10
168.2937593938578
 20
110.3309492506244
 10
167.911353794995
 20
110.4353356438275
  0
SPLINE
  5
557
330
1F
100
AcDbEntity
  8
OBRYS
100
AcDbSpline
210
0.0
220
0.0
230
1.0
 70
     8
 71
     3
 72
     8
 73
     4
 74
     0
 42
0.000000001
 43
0.0000000001
 40
0.0
 40
0.0
 40
0.0
 40
0.0
 40
1.0
 40
1.0
 40
1.0
 40
1.0
 10
167.6905231743905
 20
110.7247236645885
 30
0.0
 10
167.6905231743905
 20
110.5900204311152
 30
0.0
 10
167.7813014404268
 20
110.4708201273255
 30
0.0
 10
167.911353794995
 20
110.4353356438275
 30
0.0
  0
LWPOLYLINE
  5
558
330
1F
100
AcDbEntity
  8
OBRYS
100
AcDbPolyline
 90
        2
 70
     0
 43
0.0
 10
167.6905231743905
 20
110.7247236645885
 10
167.6905231743905
 20
114.1212433034963
  0
SPLINE
  5
559
330
1F
100
AcDbEntity
  8
OBRYS
100
AcDbSpline
210
0.0
220
0.0
230
1.0
 70
     8
 71
     3
 72
     8
 73
     4
 74
     0
 42
0.000000001
 43
0.0000000001
 40
0.0
 40
0.0
 40
0.0
 40
0.0
 40
1.0
 40
1.0
 40
1.0
 40
1.0
 10
167.6905231743905
 20
114.1212433034963
 30
0.0
 10
167.6905231743905
 20
114.49641420184
 30
0.0
 10
167.3818426189121
 20
114.8047502477698
 30
0.0
 10
167.0068439753427
 20
114.8047502477698
 30
0.0
  0
SPLINE
  5
55A
330
1F
100
AcDbEntity
  8
OBRYS
100
AcDbSpline
210
0.0
220
0.0
230
1.0
 70
     8
 71
     3
 72
     8
 73
     4
 74
     0
 42
0.000000001
 43
0.0000000001
 40
0.0
 40
0.0
 40
0.0
 40
0.0
 40
1.0
 40
1.0
 40
1.0
 40
1.0
 10
167.0068439753427
 20
114.8047502477698
 30
0.0
 10
166.7200397761956
 20
114.8047502477698
 30
0.0
 10
166.4625188886732
 20
114.6242272443427
 30
0.0
 10
166.3645059221178
 20
114.3551652869447
 30
0.0
  0
LWPOLYLINE
  5
55B
330
1F
100
AcDbEntity
  8
OBRYS
100
AcDbPolyline
 90
        2
 70
     0
 43
0.0
 10
166.3645059221178
 20
114.3551652869447
 10
163.7224621944797
 20
107.0956600804263
  0
SPLINE
  5
55C
330
1F
100
AcDbEntity
  8
OBRYS
100
AcDbSpline
210
0.0
220
0.0
230
1.0
 70
     8
 71
     3
 72
     8
 73
     4
 74
     0
 42
0.000000001
 43
0.0000000001
 40
0.0
 40
0.0
 40
0.0
 40
0.0
 40
1.0
 40
1.0
 40
1.0
 40
1.0
 10
163.2025972857555
 20
106.5303199112968
 30
0.0
 10
163.4442707340458
 20
106.6415964954703
 30
0.0
 10
163.6315116736691
 20
106.8455461481971
 30
0.0
 10
163.7224621944797
 20
107.0956600804263
 30
0.0
  0
LWPOLYLINE
  5
55D
330
1F
100
AcDbEntity
  8
OBRYS
100
AcDbPolyline
 90
        2
 70
     0
 43
0.0
 10
163.2025972857555
 20
106.5303199112968
 10
162.0496960816167
 20
105.9970191301801
  0
SPLINE
  5
55E
330
1F
100
AcDbEntity
  8
OBRYS
100
AcDbSpline
210
0.0
220
0.0
230
1.0
 70
     8
 71
     3
 72
     8
 73
     4
 74
     0
 42
0.000000001
 43
0.0000000001
 40
0.0
 40
0.0
 40
0.0
 40
0.0
 40
1.0
 40
1.0
 40
1.0
 40
1.0
 10
161.6302557062875
 20
105.9046905711754
 30
0.0
 10
161.7752942262165
 20
105.9046905711754
 30
0.0
 10
161.9184379436287
 20
105.9360409400912
 30
0.0
 10
162.0496960816167
 20
105.9970191301801
 30
0.0
  0
LWPOLYLINE
  5
55F
330
1F
100
AcDbEntity
  8
OBRYS
100
AcDbPolyline
 90
        2
 70
     0
 43
0.0
 10
161.6302557062875
 20
105.9046905711754
 10
159.8903102314621
 20
105.9046905711754
  0
SPLINE
  5
560
330
1F
100
AcDbEntity
  8
OBRYS
100
AcDbSpline
210
0.0
220
0.0
230
1.0
 70
     8
 71
     3
 72
     8
 73
     4
 74
     0
 42
0.000000001
 43
0.0000000001
 40
0.0
 40
0.0
 40
0.0
 40
0.0
 40
1.0
 40
1.0
 40
1.0
 40
1.0
 10
159.3904268765523
 20
106.4045739260851
 30
0.0
 10
159.3904268765523
 20
106.1306888350078
 30
0.0
 10
159.6162528856105
 20
105.9046905711754
 30
0.0
 10
159.8903102314621
 20
105.9046905711754
 30
0.0
  0
LWPOLYLINE
  5
561
330
1F
100
AcDbEntity
  8
OBRYS
100
AcDbPolyline
 90
        2
 70
     0
 43
0.0
 10
159.3904268765523
 20
106.4045739260851
 10
159.3904268765523
 20
106.8128177410873
  0
SPLINE
  5
562
330
1F
100
AcDbEntity
  8
OBRYS
100
AcDbSpline
210
0.0
220
0.0
230
1.0
 70
     8
 71
     3
 72
     8
 73
     4
 74
     0
 42
0.000000001
 43
0.0000000001
 40
0.0
 40
0.0
 40
0.0
 40
0.0
 40
1.0
 40
1.0
 40
1.0
 40
1.0
 10
159.5880031026314
 20
107.0946265517807
 30
0.0
 10
159.4694918179388
 20
107.0515628582151
 30
0.0
 10
159.3904268765523
 20
106.9382192167504
 30
0.0
 10
159.3904268765523
 20
106.8128177410873
 30
0.0
  0
LWPOLYLINE
  5
563
330
1F
100
AcDbEntity
  8
OBRYS
100
AcDbPolyline
 90
        2
 70
     0
 43
0.0
 10
159.5880031026314
 20
107.0946265517807
 10
159.8246811624681
 20
107.1807539389119
  0
SPLINE
  5
564
330
1F
100
AcDbEntity
  8
OBRYS
100
AcDbSpline
210
0.0
220
0.0
230
1.0
 70
     8
 71
     3
 72
     8
 73
     4
 74
     0
 42
0.000000001
 43
0.0000000001
 40
0.0
 40
0.0
 40
0.0
 40
0.0
 40
1.0
 40
1.0
 40
1.0
 40
1.0
 10
159.8246811624681
 20
107.1807539389119
 30
0.0
 10
159.8642997605484
 20
107.19522333995
 30
0.0
 10
159.8903102314621
 20
107.2331193902877
 30
0.0
 10
159.8903102314621
 20
107.2748050456593
 30
0.0
  0
LWPOLYLINE
  5
565
330
1F
100
AcDbEntity
  8
OBRYS
100
AcDbPolyline
 90
        2
 70
     0
 43
0.0
 10
159.8903102314621
 20
107.2748050456593
 10
159.8903102314621
 20
108.7048641815865
  0
SPLINE
  5
566
330
1F
100
AcDbEntity
  8
OBRYS
100
AcDbSpline
210
0.0
220
0.0
230
1.0
 70
     8
 71
     3
 72
     8
 73
     4
 74
     0
 42
0.000000001
 43
0.0000000001
 40
0.0
 40
0.0
 40
0.0
 40
0.0
 40
1.0
 40
1.0
 40
1.0
 40
1.0
 10
159.8903102314621
 20
108.7048641815865
 30
0.0
 10
159.8903102314621
 20
108.7596411998019
 30
0.0
 10
159.8451794806053
 20
108.8047719506587
 30
0.0
 10
159.7905747171641
 20
108.8047719506587
 30
0.0
  0
LWPOLYLINE
  5
567
330
1F
100
AcDbEntity
  8
OBRYS
100
AcDbPolyline
 90
        2
 70
     0
 43
0.0
 10
159.7905747171641
 20
108.8047719506587
 10
159.3904268765523
 20
108.8047719506587
  0
SPLINE
  5
568
330
1F
100
AcDbEntity
  8
OBRYS
100
AcDbSpline
210
0.0
220
0.0
230
1.0
 70
     8
 71
     3
 72
     8
 73
     4
 74
     0
 42
0.000000001
 43
0.0000000001
 40
0.0
 40
0.0
 40
0.0
 40
0.0
 40
1.0
 40
1.0
 40
1.0
 40
1.0
 10
159.0905313145613
 20
109.104839767424
 30
0.0
 10
159.0905313145613
 20
108.940164203229
 30
0.0
 10
159.2260958219059
 20
108.8047719506587
 30
0.0
 10
159.3904268765523
 20
108.8047719506587
 30
0.0
  0
LWPOLYLINE
  5
569
330
1F
100
AcDbEntity
  8
OBRYS
100
AcDbPolyline
 90
        2
 70
     0
 43
0.0
 10
159.0905313145613
 20
109.104839767424
 10
159.0905313145613
 20
109.8045386604782
  0
SPLINE
  5
56A
330
1F
100
AcDbEntity
  8
OBRYS
100
AcDbSpline
210
0.0
220
0.0
230
1.0
 70
     8
 71
     3
 72
     8
 73
     4
 74
     0
 42
0.000000001
 43
0.0000000001
 40
0.0
 40
0.0
 40
0.0
 40
0.0
 40
1.0
 40
1.0
 40
1.0
 40
1.0
 10
159.0905313145613
 20
109.8045386604782
 30
0.0
 10
159.0905313145613
 20
110.0791127706526
 30
0.0
 10
158.8648775602775
 20
110.305111034485
 30
0.0
 10
158.5903034501031
 20
110.305111034485
 30
0.0
  0
LWPOLYLINE
  5
56B
330
1F
100
AcDbEntity
  8
OBRYS
100
AcDbPolyline
 90
        2
 70
     0
 43
0.0
 10
158.5903034501031
 20
110.304422015388
 10
156.3904377279968
 20
110.304422015388
  0
LWPOLYLINE
  5
56C
330
1F
100
AcDbEntity
  8
OBRYS
100
AcDbPolyline
 90
        2
 70
     0
 43
0.0
 10
153.3904485794412
 20
110.2048587558643
 10
153.3904485794412
 20
109.2460886823192
  0
SPLINE
  5
56D
330
1F
100
AcDbEntity
  8
OBRYS
100
AcDbSpline
210
0.0
220
0.0
230
1.0
 70
     8
 71
     3
 72
     8
 73
     4
 74
     0
 42
0.000000001
 43
0.0000000001
 40
0.0
 40
0.0
 40
0.0
 40
0.0
 40
1.0
 40
1.0
 40
1.0
 40
1.0
 10
153.3904485794412
 20
109.2460886823192
 30
0.0
 10
153.3904485794412
 20
109.2199059566313
 30
0.0
 10
153.4009561206712
 20
109.1940677404919
 30
0.0
 10
153.4197318910658
 20
109.1754642248716
 30
0.0
  0
LWPOLYLINE
  5
56E
330
1F
100
AcDbEntity
  8
OBRYS
100
AcDbPolyline
 90
        2
 70
     0
 43
0.0
 10
153.4197318910658
 20
109.1754642248716
 10
154.2441432406861
 20
108.3513973847998
  0
SPLINE
  5
56F
330
1F
100
AcDbEntity
  8
OBRYS
100
AcDbSpline
210
0.0
220
0.0
230
1.0
 70
     8
 71
     3
 72
     8
 73
     4
 74
     0
 42
0.000000001
 43
0.0000000001
 40
0.0
 40
0.0
 40
0.0
 40
0.0
 40
1.0
 40
1.0
 40
1.0
 40
1.0
 10
154.3905597988092
 20
107.9979305880132
 30
0.0
 10
154.3905597988092
 20
108.1302222546468
 30
0.0
 10
154.3376775831106
 20
108.2573462780525
 30
0.0
 10
154.2441432406861
 20
108.3513973847998
 30
0.0
  0
LWPOLYLINE
  5
570
330
1F
100
AcDbEntity
  8
OBRYS
100
AcDbPolyline
 90
        2
 70
     0
 43
0.0
 10
154.3905597988092
 20
107.9979305880132
 10
154.3905597988092
 20
107.9045685003629
  0
SPLINE
  5
571
330
1F
100
AcDbEntity
  8
OBRYS
100
AcDbSpline
210
0.0
220
0.0
230
1.0
 70
     8
 71
     3
 72
     8
 73
     4
 74
     0
 42
0.000000001
 43
0.0000000001
 40
0.0
 40
0.0
 40
0.0
 40
0.0
 40
1.0
 40
1.0
 40
1.0
 40
1.0
 10
153.6906886509807
 20
107.2048696073087
 30
0.0
 10
154.0744722880376
 20
107.2048696073087
 30
0.0
 10
154.3905597988092
 20
107.5207848633061
 30
0.0
 10
154.3905597988092
 20
107.9045685003629
 30
0.0
  0
LWPOLYLINE
  5
572
330
1F
100
AcDbEntity
  8
OBRYS
100
AcDbPolyline
 90
        2
 70
     0
 43
0.0
 10
153.6906886509807
 20
107.2048696073087
 10
153.1406791567606
 20
107.2048696073087
  0
SPLINE
  5
573
330
1F
100
AcDbEntity
  8
OBRYS
100
AcDbSpline
210
0.0
220
0.0
230
1.0
 70
     8
 71
     3
 72
     8
 73
     4
 74
     0
 42
0.000000001
 43
0.0000000001
 40
0.0
 40
0.0
 40
0.0
 40
0.0
 40
1.0
 40
1.0
 40
1.0
 40
1.0
 10
153.1406791567606
 20
107.2048696073087
 30
0.0
 10
153.0033921016734
 20
107.2048696073087
 30
0.0
 10
152.8905652245314
 20
107.0918704753925
 30
0.0
 10
152.8905652245314
 20
106.9547556750796
 30
0.0
  0
SPLINE
  5
574
330
1F
100
AcDbEntity
  8
OBRYS
100
AcDbSpline
210
0.0
220
0.0
230
1.0
 70
     8
 71
     3
 72
     8
 73
     4
 74
     0
 42
0.000000001
 43
0.0000000001
 40
0.0
 40
0.0
 40
0.0
 40
0.0
 40
1.0
 40
1.0
 40
1.0
 40
1.0
 10
152.6404512923023
 20
106.7049862523989
 30
0.0
 10
152.7775660926152
 20
106.7049862523989
 30
0.0
 10
152.8905652245314
 20
106.8176408747666
 30
0.0
 10
152.8905652245314
 20
106.9547556750796
 30
0.0
  0
LWPOLYLINE
  5
575
330
1F
100
AcDbEntity
  8
OBRYS
100
AcDbPolyline
 90
        2
 70
     0
 43
0.0
 10
152.6404512923023
 20
106.7049862523989
 10
149.3905204662919
 20
106.7049862523989
  0
SPLINE
  5
576
330
1F
100
AcDbEntity
  8
OBRYS
100
AcDbSpline
210
0.0
220
0.0
230
1.0
 70
     8
 71
     3
 72
     8
 73
     4
 74
     0
 42
0.000000001
 43
0.0000000001
 40
0.0
 40
0.0
 40
0.0
 40
0.0
 40
1.0
 40
1.0
 40
1.0
 40
1.0
 10
148.8902926018336
 20
107.2048696073087
 30
0.0
 10
148.8902926018336
 20
106.9306400066828
 30
0.0
 10
149.1161186108917
 20
106.7049862523989
 30
0.0
 10
149.3905204662919
 20
106.7049862523989
 30
0.0
  0
LWPOLYLINE
  5
577
330
1F
100
AcDbEntity
  8
OBRYS
100
AcDbPolyline
 90
        2
 70
     0
 43
0.0
 10
148.8902926018336
 20
107.2048696073087
 10
148.8902926018336
 20
109.2047475364962
  0
SPLINE
  5
578
330
1F
100
AcDbEntity
  8
OBRYS
100
AcDbSpline
210
0.0
220
0.0
230
1.0
 70
     8
 71
     3
 72
     8
 73
     4
 74
     0
 42
0.000000001
 43
0.0000000001
 40
0.0
 40
0.0
 40
0.0
 40
0.0
 40
1.0
 40
1.0
 40
1.0
 40
1.0
 10
148.8902926018336
 20
109.2047475364962
 30
0.0
 10
148.8902926018336
 20
109.4789771371221
 30
0.0
 10
148.6649833570983
 20
109.7049754009545
 30
0.0
 10
148.3904092469238
 20
109.7049754009545
 30
0.0
  0
LWPOLYLINE
  5
579
330
1F
100
AcDbEntity
  8
OBRYS
100
AcDbPolyline
 90
        2
 70
     0
 43
0.0
 10
126.8904295973509
 20
109.7049754009545
 10
148.3904092469238
 20
109.7049754009545
  0
LWPOLYLINE
  5
57A
330
1F
100
AcDbEntity
  8
OBRYS
100
AcDbPolyline
 90
        2
 70
     0
 43
0.0
 10
193.8903020849412
 20
109.7049754009545
 10
214.8903983796044
 20
109.7049754009545
  0
SPLINE
  5
57B
330
1F
100
AcDbEntity
  8
OBRYS
100
AcDbSpline
210
0.0
220
0.0
230
1.0
 70
     8
 71
     3
 72
     8
 73
     4
 74
     0
 42
0.000000001
 43
0.0000000001
 40
0.0
 40
0.0
 40
0.0
 40
0.0
 40
1.0
 40
1.0
 40
1.0
 40
1.0
 10
192.8905353751217
 20
110.704742110774
 30
0.0
 10
192.8905353751217
 20
110.1559383999737
 30
0.0
 10
193.3418428836895
 20
109.7049754009545
 30
0.0
 10
193.8903020849412
 20
109.7049754009545
 30
0.0
  0
LWPOLYLINE
  5
57C
330
1F
100
AcDbEntity
  8
OBRYS
100
AcDbPolyline
 90
        2
 70
     0
 43
0.0
 10
192.8905353751217
 20
110.704742110774
 10
192.8905353751217
 20
113.220695343652
  0
SPLINE
  5
57D
330
1F
100
AcDbEntity
  8
OBRYS
100
AcDbSpline
210
0.0
220
0.0
230
1.0
 70
     8
 71
     3
 72
     8
 73
     4
 74
     0
 42
0.000000001
 43
0.0000000001
 40
0.0
 40
0.0
 40
0.0
 40
0.0
 40
1.0
 40
1.0
 40
1.0
 40
1.0
 10
192.8905353751217
 20
113.220695343652
 30
0.0
 10
192.8905353751217
 20
114.1457034814415
 30
0.0
 10
192.248886340994
 20
114.9556454300238
 30
0.0
 10
191.3485106359239
 20
115.1675188023666
 30
0.0
  0
LWPOLYLINE
  5
57E
330
1F
100
AcDbEntity
  8
OBRYS
100
AcDbPolyline
 90
        2
 70
     0
 43
0.0
 10
191.3485106359239
 20
115.1675188023666
 10
188.4050210533265
 20
115.8599829949019
  0
SPLINE
  5
57F
330
1F
100
AcDbEntity
  8
OBRYS
100
AcDbSpline
210
0.0
220
0.0
230
1.0
 70
     8
 71
     3
 72
     8
 73
     4
 74
     0
 42
0.000000001
 43
0.0000000001
 40
0.0
 40
0.0
 40
0.0
 40
0.0
 40
1.0
 40
1.0
 40
1.0
 40
1.0
 10
188.4050210533265
 20
115.8599829949019
 30
0.0
 10
188.3676417673115
 20
115.8689402431635
 30
0.0
 10
188.3290566978767
 20
115.8734188672943
 30
0.0
 10
188.2902993736676
 20
115.8734188672943
 30
0.0
  0
SPLINE
  5
580
330
1F
100
AcDbEntity
  8
OBRYS
100
AcDbSpline
210
0.0
220
0.0
230
1.0
 70
     8
 71
     3
 72
     8
 73
     4
 74
     0
 42
0.000000001
 43
0.0000000001
 40
0.0
 40
0.0
 40
0.0
 40
0.0
 40
1.0
 40
1.0
 40
1.0
 40
1.0
 10
188.2902993736676
 20
115.8734188672943
 30
0.0
 10
188.016242027816
 20
115.8734188672943
 30
0.0
 10
187.7904160187579
 20
115.6477651130105
 30
0.0
 10
187.7904160187579
 20
115.3731910028361
 30
0.0
  0
LWPOLYLINE
  5
581
330
1F
100
AcDbEntity
  8
OBRYS
100
AcDbPolyline
 90
        2
 70
     0
 43
0.0
 10
187.7904160187579
 20
115.3731910028361
 10
187.7904160187579
 20
112.3570099054998
  0
SPLINE
  5
582
330
1F
100
AcDbEntity
  8
OBRYS
100
AcDbSpline
210
0.0
220
0.0
230
1.0
 70
     8
 71
     3
 72
     8
 73
     4
 74
     0
 42
0.000000001
 43
0.0000000001
 40
0.0
 40
0.0
 40
0.0
 40
0.0
 40
1.0
 40
1.0
 40
1.0
 40
1.0
 10
188.3905516522884
 20
111.1581166766329
 30
0.0
 10
188.4096719322316
 20
111.1498484474683
 30
0.0
 10
188.4289644669489
 20
111.1419247278522
 30
0.0
 10
188.4487737659891
 20
111.1346900273332
 30
0.0
  0
LWPOLYLINE
  5
583
330
1F
100
AcDbEntity
  8
OBRYS
100
AcDbPolyline
 90
        2
 70
     0
 43
0.0
 10
188.4487737659891
 20
111.1346900273332
 10
189.1321084554884
 20
110.8862986428467
  0
SPLINE
  5
584
330
1F
100
AcDbEntity
  8
OBRYS
100
AcDbSpline
210
0.0
220
0.0
230
1.0
 70
     8
 71
     3
 72
     8
 73
     4
 74
     0
 42
0.000000001
 43
0.0000000001
 40
0.0
 40
0.0
 40
0.0
 40
0.0
 40
1.0
 40
1.0
 40
1.0
 40
1.0
 10
189.7902939479454
 20
109.9464765944705
 30
0.0
 10
189.7902939479454
 20
110.3660892245739
 30
0.0
 10
189.5263996337753
 20
110.7429826706603
 30
0.0
 10
189.1321084554884
 20
110.8862986428467
 30
0.0
  0
LWPOLYLINE
  5
585
330
1F
100
AcDbEntity
  8
OBRYS
100
AcDbPolyline
 90
        2
 70
     0
 43
0.0
 10
189.7902939479454
 20
109.9464765944705
 10
189.7902939479454
 20
109.7049754009545
  0
SPLINE
  5
586
330
1F
100
AcDbEntity
  8
OBRYS
100
AcDbSpline
210
0.0
220
0.0
230
1.0
 70
     8
 71
     3
 72
     8
 73
     4
 74
     0
 42
0.000000001
 43
0.0000000001
 40
0.0
 40
0.0
 40
0.0
 40
0.0
 40
1.0
 40
1.0
 40
1.0
 40
1.0
 10
189.7902939479454
 20
109.7049754009545
 30
0.0
 10
189.7902939479454
 20
108.6077124889024
 30
0.0
 10
190.6934257294037
 20
107.7047529622184
 30
0.0
 10
191.7906886414557
 20
107.7047529622184
 30
0.0
  0
LWPOLYLINE
  5
587
330
1F
100
AcDbEntity
  8
OBRYS
100
AcDbPolyline
 90
        2
 70
     0
 43
0.0
 10
191.7906886414557
 20
107.7047529622184
 10
216.2994424330716
 20
107.7047529622184
  0
LWPOLYLINE
  5
588
330
1F
100
AcDbEntity
  8
OBRYS
100
AcDbPolyline
 90
        2
 70
     0
 43
0.0
 10
215.3902817345142
 20
107.7047529622184
 10
216.7910575588168
 20
109.7049754009545
  0
LWPOLYLINE
  5
589
330
1F
100
AcDbEntity
  8
OBRYS
100
AcDbPolyline
 90
        2
 70
     0
 43
0.0
 10
216.9633123330792
 20
109.7049754009545
 10
216.7910575588168
 20
109.7049754009545
  0
LWPOLYLINE
  5
58A
330
1F
100
AcDbEntity
  8
OBRYS
100
AcDbPolyline
 90
        2
 70
     0
 43
0.0
 10
214.8903983796044
 20
109.7049754009545
 10
214.8903983796044
 20
113.6372073878187
  0
LWPOLYLINE
  5
58B
330
1F
100
AcDbEntity
  8
OBRYS
100
AcDbPolyline
 90
        2
 70
     0
 43
0.0
 10
214.8903983796044
 20
109.7049754009545
 10
216.4218494602345
 20
110.9905299429871
  0
LWPOLYLINE
  5
58C
330
1F
100
AcDbEntity
  8
OBRYS
100
AcDbPolyline
 90
        2
 70
     0
 43
0.0
 10
218.890498747528
 20
107.7047529622184
 10
214.8903983796044
 20
117.2049482723434
  0
SPLINE
  5
58D
330
1F
100
AcDbEntity
  8
OBRYS
100
AcDbSpline
210
0.0
220
0.0
230
1.0
 70
     8
 71
     3
 72
    11
 73
     7
 74
     0
 42
0.000000001
 43
0.0000000001
 40
0.0
 40
0.0
 40
0.0
 40
0.0
 40
1.0
 40
1.0
 40
1.0
 40
2.0
 40
2.0
 40
2.0
 40
2.0
 10
216.2994424330716
 20
107.7047529622184
 30
0.0
 10
216.8513467298086
 20
107.7047529622184
 30
0.0
 10
217.2992091428911
 20
108.1529598848494
 30
0.0
 10
217.2992091428911
 20
108.7048641815865
 30
0.0
 10
217.2992091428911
 20
108.8381893768656
 30
0.0
 10
217.2726819076547
 20
108.9701365339507
 30
0.0
 10
217.2210054753759
 20
109.0927819332256
 30
0.0
  0
LWPOLYLINE
  5
58E
330
1F
100
AcDbEntity
  8
OBRYS
100
AcDbPolyline
 90
        2
 70
     0
 43
0.0
 10
215.2745265262098
 20
113.7150665457853
 10
217.2210054753759
 20
109.0927819332256
  0
SPLINE
  5
58F
330
1F
100
AcDbEntity
  8
OBRYS
100
AcDbSpline
210
0.0
220
0.0
230
1.0
 70
     8
 71
     3
 72
     8
 73
     4
 74
     0
 42
0.000000001
 43
0.0000000001
 40
0.0
 40
0.0
 40
0.0
 40
0.0
 40
1.0
 40
1.0
 40
1.0
 40
1.0
 10
169.1905177486683
 20
108.4420033960619
 30
0.0
 10
169.1891397104742
 20
108.2766388127699
 30
0.0
 10
169.3250487273673
 20
108.139524012457
 30
0.0
 10
169.4904133106593
 20
108.139524012457
 30
0.0
  0
SPLINE
  5
590
330
1F
100
AcDbEntity
  8
OBRYS
100
AcDbSpline
210
0.0
220
0.0
230
1.0
 70
     8
 71
     3
 72
     8
 73
     4
 74
     0
 42
0.000000001
 43
0.0000000001
 40
0.0
 40
0.0
 40
0.0
 40
0.0
 40
1.0
 40
1.0
 40
1.0
 40
1.0
 10
169.4904133106593
 20
108.139524012457
 30
0.0
 10
169.5870482390205
 20
108.139524012457
 30
0.0
 10
169.6778265050569
 20
108.1860328015078
 30
0.0
 10
169.7341538162407
 20
108.2649254881201
 30
0.0
  0
SPLINE
  5
591
330
1F
100
AcDbEntity
  8
OBRYS
100
AcDbSpline
210
0.0
220
0.0
230
1.0
 70
     8
 71
     3
 72
     8
 73
     4
 74
     0
 42
0.000000001
 43
0.0000000001
 40
0.0
 40
0.0
 40
0.0
 40
0.0
 40
1.0
 40
1.0
 40
1.0
 40
1.0
 10
174.6745929968632
 20
111.3624108389082
 30
0.0
 10
172.6859116280028
 20
111.0175567808347
 30
0.0
 10
170.9106539244535
 20
109.9044464295505
 30
0.0
 10
169.7341538162407
 20
108.2649254881201
 30
0.0
  0
SPLINE
  5
592
330
1F
100
AcDbEntity
  8
OBRYS
100
AcDbSpline
210
0.0
220
0.0
230
1.0
 70
     8
 71
     3
 72
     8
 73
     4
 74
     0
 42
0.000000001
 43
0.0000000001
 40
0.0
 40
0.0
 40
0.0
 40
0.0
 40
1.0
 40
1.0
 40
1.0
 40
1.0
 10
174.6745929968632
 20
111.3624108389082
 30
0.0
 10
175.5737629185134
 20
111.51847366439
 30
0.0
 10
176.1618407178456
 20
112.4217777006225
 30
0.0
 10
175.940321078144
 20
113.3071672403317
 30
0.0
  0
LWPOLYLINE
  5
593
330
1F
100
AcDbEntity
  8
OBRYS
100
AcDbPolyline
 90
        2
 70
     0
 43
0.0
 10
175.940321078144
 20
113.3071672403317
 10
175.4929754293843
 20
115.096205325822
  0
SPLINE
  5
594
330
1F
100
AcDbEntity
  8
OBRYS
100
AcDbSpline
210
0.0
220
0.0
230
1.0
 70
     8
 71
     3
 72
     8
 73
     4
 74
     0
 42
0.000000001
 43
0.0000000001
 40
0.0
 40
0.0
 40
0.0
 40
0.0
 40
1.0
 40
1.0
 40
1.0
 40
1.0
 10
175.4929754293843
 20
115.096205325822
 30
0.0
 10
175.381871099985
 20
115.5402781338707
 30
0.0
 10
174.9800007116306
 20
115.8537818230284
 30
0.0
 10
174.522836540738
 20
115.8537818230284
 30
0.0
  0
SPLINE
  5
595
330
1F
100
AcDbEntity
  8
OBRYS
100
AcDbSpline
210
0.0
220
0.0
230
1.0
 70
     8
 71
     3
 72
     8
 73
     4
 74
     0
 42
0.000000001
 43
0.0000000001
 40
0.0
 40
0.0
 40
0.0
 40
0.0
 40
1.0
 40
1.0
 40
1.0
 40
1.0
 10
174.522836540738
 20
115.8537818230284
 30
0.0
 10
174.4646144270373
 20
115.8537818230284
 30
0.0
 10
174.4063923133365
 20
115.8489586893491
 30
0.0
 10
174.3488592187329
 20
115.8386234028933
 30
0.0
  0
LWPOLYLINE
  5
596
330
1F
100
AcDbEntity
  8
OBRYS
100
AcDbPolyline
 90
        2
 70
     0
 43
0.0
 10
174.3488592187329
 20
115.8386234028933
 10
169.3257377464643
 20
114.9522003345385
  0
SPLINE
  5
597
330
1F
100
AcDbEntity
  8
OBRYS
100
AcDbSpline
210
0.0
220
0.0
230
1.0
 70
     8
 71
     3
 72
     8
 73
     4
 74
     0
 42
0.000000001
 43
0.0000000001
 40
0.0
 40
0.0
 40
0.0
 40
0.0
 40
1.0
 40
1.0
 40
1.0
 40
1.0
 10
169.3257377464643
 20
114.9522003345385
 30
0.0
 10
168.8456636905948
 20
114.8719296097322
 30
0.0
 10
168.4903020912913
 20
114.4526614891773
 30
0.0
 10
168.4903020912913
 20
113.9658694971115
 30
0.0
  0
LWPOLYLINE
  5
598
330
1F
100
AcDbEntity
  8
OBRYS
100
AcDbPolyline
 90
        2
 70
     0
 43
0.0
 10
168.4903020912913
 20
113.9658694971115
 10
168.4903020912913
 20
111.4047855133768
  0
SPLINE
  5
599
330
1F
100
AcDbEntity
  8
OBRYS
100
AcDbSpline
210
0.0
220
0.0
230
1.0
 70
     8
 71
     3
 72
     8
 73
     4
 74
     0
 42
0.000000001
 43
0.0000000001
 40
0.0
 40
0.0
 40
0.0
 40
0.0
 40
1.0
 40
1.0
 40
1.0
 40
1.0
 10
168.4903020912913
 20
111.4047855133768
 30
0.0
 10
168.4903020912913
 20
111.2401099491818
 30
0.0
 10
168.6258665986358
 20
111.1047176966115
 30
0.0
 10
168.7905421628308
 20
111.1047176966115
 30
0.0
  0
LWPOLYLINE
  5
59A
330
1F
100
AcDbEntity
  8
OBRYS
100
AcDbPolyline
 90
        2
 70
     0
 43
0.0
 10
168.7905421628308
 20
111.1047176966115
 10
168.890449931903
 20
111.1047176966115
  0
LWPOLYLINE
  5
59B
330
1F
100
AcDbEntity
  8
OBRYS
100
AcDbPolyline
 90
        2
 70
     0
 43
0.0
 10
137.3368203824998
 20
109.7049754009545
 10
137.3404377327593
 20
109.6047231223337
  0
LWPOLYLINE
  5
59C
330
1F
100
AcDbEntity
  8
OBRYS
100
AcDbPolyline
 90
        3
 70
     0
 43
0.0
 10
139.1406723785765
 20
109.6047231223337
 10
138.2850829148148
 20
109.6047231223337
 10
137.3404377327593
 20
109.6047231223337
  0
LWPOLYLINE
  5
59D
330
1F
100
AcDbEntity
  8
OBRYS
100
AcDbPolyline
 90
        2
 70
     0
 43
0.0
 10
139.1406723785765
 20
109.6047231223337
 10
139.1406723785765
 20
109.7049754009545
  0
LWPOLYLINE
  5
59E
330
1F
100
AcDbEntity
  8
OBRYS
100
AcDbPolyline
 90
        2
 70
     0
 43
0.0
 10
136.4404065372377
 20
109.6047231223337
 10
136.4440238874972
 20
109.7049754009545
  0
LWPOLYLINE
  5
59F
330
1F
100
AcDbEntity
  8
OBRYS
100
AcDbPolyline
 90
        3
 70
     0
 43
0.0
 10
136.4404065372377
 20
109.6047231223337
 10
135.4957613551822
 20
109.6047231223337
 10
134.6406886557432
 20
109.6047231223337
  0
LWPOLYLINE
  5
5A0
330
1F
100
AcDbEntity
  8
OBRYS
100
AcDbPolyline
 90
        2
 70
     0
 43
0.0
 10
134.6406886557432
 20
109.7049754009545
 10
134.6406886557432
 20
109.6047231223337
  0
LWPOLYLINE
  5
5A1
330
1F
100
AcDbEntity
  8
OBRYS
100
AcDbPolyline
 90
        2
 70
     0
 43
0.0
 10
126.8904295973509
 20
157.2045739133852
 10
214.8903983796044
 20
157.2045739133852
  0
LWPOLYLINE
  5
5A2
330
1F
100
AcDbEntity
  8
OBRYS
100
AcDbPolyline
 90
        2
 70
     0
 43
0.0
 10
126.8904295973509
 20
152.7045901905519
 10
214.8903983796044
 20
152.7045901905519
  0
LWPOLYLINE
  5
5A3
330
1F
100
AcDbEntity
  8
OBRYS
100
AcDbPolyline
 90
        2
 70
     0
 43
0.0
 10
214.8903983796044
 20
145.2049618287115
 10
126.8904295973509
 20
145.2049618287115
  0
LWPOLYLINE
  5
5A4
330
1F
100
AcDbEntity
  8
OBRYS
100
AcDbPolyline
 90
        2
 70
     0
 43
0.0
 10
126.8904295973509
 20
144.7650231352451
 10
214.8903983796044
 20
144.7650231352451
  0
LWPOLYLINE
  5
5A5
330
1F
100
AcDbEntity
  8
OBRYS
100
AcDbPolyline
 90
        2
 70
     0
 43
0.0
 10
214.8903983796044
 20
144.3641862755363
 10
126.8904295973509
 20
144.3641862755363
  0
LWPOLYLINE
  5
5A6
330
1F
100
AcDbEntity
  8
OBRYS
100
AcDbPolyline
 90
        2
 70
     0
 43
0.0
 10
126.8904295973509
 20
143.7249488082481
 10
214.8903983796044
 20
143.7249488082481
  0
LWPOLYLINE
  5
5A7
330
1F
100
AcDbEntity
  8
OBRYS
100
AcDbPolyline
 90
        2
 70
     0
 43
0.0
 10
214.8903983796044
 20
143.3306576299613
 10
126.8904295973509
 20
143.3306576299613
  0
LWPOLYLINE
  5
5A8
330
1F
100
AcDbEntity
  8
OBRYS
100
AcDbPolyline
 90
        2
 70
     0
 43
0.0
 10
126.8904295973509
 20
142.6831519335086
 10
214.8903983796044
 20
142.6831519335086
  0
LWPOLYLINE
  5
5A9
330
1F
100
AcDbEntity
  8
OBRYS
100
AcDbPolyline
 90
        2
 70
     0
 43
0.0
 10
214.8903983796044
 20
142.2952341818695
 10
126.8904295973509
 20
142.2952341818695
  0
LWPOLYLINE
  5
5AA
330
1F
100
AcDbEntity
  8
OBRYS
100
AcDbPolyline
 90
        2
 70
     0
 43
0.0
 10
126.8904295973509
 20
141.6392880014779
 10
214.8903983796044
 20
141.6392880014779
  0
LWPOLYLINE
  5
5AB
330
1F
100
AcDbEntity
  8
OBRYS
100
AcDbPolyline
 90
        2
 70
     0
 43
0.0
 10
214.8903983796044
 20
141.258088186035
 10
126.8904295973509
 20
141.258088186035
  0
LWPOLYLINE
  5
5AC
330
1F
100
AcDbEntity
  8
OBRYS
100
AcDbPolyline
 90
        2
 70
     0
 43
0.0
 10
126.8904295973509
 20
140.5943905408016
 10
214.8903983796044
 20
140.5943905408016
  0
LWPOLYLINE
  5
5AD
330
1F
100
AcDbEntity
  8
OBRYS
100
AcDbPolyline
 90
        2
 70
     0
 43
0.0
 10
214.8903983796044
 20
140.2193918972322
 10
126.8904295973509
 20
140.2193918972322
  0
LWPOLYLINE
  5
5AE
330
1F
100
AcDbEntity
  8
OBRYS
100
AcDbPolyline
 90
        2
 70
     0
 43
0.0
 10
126.8904295973509
 20
139.5484595514798
 10
214.8903983796044
 20
139.5484595514798
  0
LWPOLYLINE
  5
5AF
330
1F
100
AcDbEntity
  8
OBRYS
100
AcDbPolyline
 90
        2
 70
     0
 43
0.0
 10
214.8903983796044
 20
139.1801788441066
 10
126.8904295973509
 20
139.1801788441066
  0
LWPOLYLINE
  5
5B0
330
1F
100
AcDbEntity
  8
OBRYS
100
AcDbPolyline
 90
        2
 70
     0
 43
0.0
 10
126.8904295973509
 20
138.5018395430609
 10
214.8903983796044
 20
138.5018395430609
  0
LWPOLYLINE
  5
5B1
330
1F
100
AcDbEntity
  8
OBRYS
100
AcDbPolyline
 90
        2
 70
     0
 43
0.0
 10
214.8903983796044
 20
138.0019561881511
 10
126.8904295973509
 20
138.0019561881511
  0
LWPOLYLINE
  5
5B2
330
1F
100
AcDbEntity
  8
OBRYS
100
AcDbPolyline
 90
        2
 70
     0
 43
0.0
 10
126.8904295973509
 20
137.4547027703192
 10
214.8903983796044
 20
137.4547027703192
  0
LWPOLYLINE
  5
5B3
330
1F
100
AcDbEntity
  8
OBRYS
100
AcDbPolyline
 90
        2
 70
     0
 43
0.0
 10
214.8903983796044
 20
137.100202444887
 10
126.8904295973509
 20
137.100202444887
  0
LWPOLYLINE
  5
5B4
330
1F
100
AcDbEntity
  8
OBRYS
100
AcDbPolyline
 90
        2
 70
     0
 43
0.0
 10
126.8904295973509
 20
136.4077382523517
 10
214.8903983796044
 20
136.4077382523517
  0
LWPOLYLINE
  5
5B5
330
1F
100
AcDbEntity
  8
OBRYS
100
AcDbPolyline
 90
        2
 70
     0
 43
0.0
 10
214.8903983796044
 20
136.0601281178901
 10
126.8904295973509
 20
136.0601281178901
  0
LWPOLYLINE
  5
5B6
330
1F
100
AcDbEntity
  8
OBRYS
100
AcDbPolyline
 90
        2
 70
     0
 43
0.0
 10
126.8904295973509
 20
135.3606014796101
 10
214.8903983796044
 20
135.3606014796101
  0
LWPOLYLINE
  5
5B7
330
1F
100
AcDbEntity
  8
OBRYS
100
AcDbPolyline
 90
        2
 70
     0
 43
0.0
 10
214.8903983796044
 20
135.0202260456674
 10
126.8904295973509
 20
135.0202260456674
  0
LWPOLYLINE
  5
5B8
330
1F
100
AcDbEntity
  8
OBRYS
100
AcDbPolyline
 90
        2
 70
     0
 43
0.0
 10
126.8904295973509
 20
134.3143259807397
 10
214.8903983796044
 20
134.3143259807397
  0
LWPOLYLINE
  5
5B9
330
1F
100
AcDbEntity
  8
OBRYS
100
AcDbPolyline
 90
        2
 70
     0
 43
0.0
 10
214.8903983796044
 20
133.981185247316
 10
126.8904295973509
 20
133.981185247316
  0
LWPOLYLINE
  5
5BA
330
1F
100
AcDbEntity
  8
OBRYS
100
AcDbPolyline
 90
        2
 70
     0
 43
0.0
 10
126.8904295973509
 20
133.2687395009664
 10
214.8903983796044
 20
133.2687395009664
  0
LWPOLYLINE
  5
5BB
330
1F
100
AcDbEntity
  8
OBRYS
100
AcDbPolyline
 90
        2
 70
     0
 43
0.0
 10
214.8903983796044
 20
132.9430057228359
 10
126.8904295973509
 20
132.9430057228359
  0
LWPOLYLINE
  5
5BC
330
1F
100
AcDbEntity
  8
OBRYS
100
AcDbPolyline
 90
        2
 70
     0
 43
0.0
 10
126.8904295973509
 20
132.2243588046128
 10
214.8903983796044
 20
132.2243588046128
  0
LWPOLYLINE
  5
5BD
330
1F
100
AcDbEntity
  8
OBRYS
100
AcDbPolyline
 90
        2
 70
     0
 43
0.0
 10
214.8903983796044
 20
131.72637025222
 10
126.8904295973509
 20
131.72637025222
  0
LWPOLYLINE
  5
5BE
330
1F
100
AcDbEntity
  8
OBRYS
100
AcDbPolyline
 90
        2
 70
     0
 43
0.0
 10
126.8904295973509
 20
131.181700656002
 10
214.8903983796044
 20
131.181700656002
  0
LWPOLYLINE
  5
5BF
330
1F
100
AcDbEntity
  8
OBRYS
100
AcDbPolyline
 90
        2
 70
     0
 43
0.0
 10
214.8903983796044
 20
130.6845733774805
 10
126.8904295973509
 20
130.6845733774805
  0
LWPOLYLINE
  5
5C0
330
1F
100
AcDbEntity
  8
OBRYS
100
AcDbPolyline
 90
        2
 70
     0
 43
0.0
 10
126.8904295973509
 20
130.140937309908
 10
214.8903983796044
 20
130.140937309908
  0
LWPOLYLINE
  5
5C1
330
1F
100
AcDbEntity
  8
OBRYS
100
AcDbPolyline
 90
        2
 70
     0
 43
0.0
 10
214.8903983796044
 20
129.6444990504835
 10
126.8904295973509
 20
129.6444990504835
  0
LWPOLYLINE
  5
5C2
330
1F
100
AcDbEntity
  8
OBRYS
100
AcDbPolyline
 90
        2
 70
     0
 43
0.0
 10
126.8904295973509
 20
129.2047326117914
 10
214.8903983796044
 20
129.2047326117914
  0
LWPOLYLINE
  5
5C3
330
1F
100
AcDbEntity
  8
OBRYS
100
AcDbPolyline
 90
        2
 70
     0
 43
0.0
 10
214.8903983796044
 20
121.9888078631613
 10
214.8903983796044
 20
121.7045874856282
  0
LWPOLYLINE
  5
5C4
330
1F
100
AcDbEntity
  8
OBRYS
100
AcDbPolyline
 90
        2
 70
     0
 43
0.0
 10
126.8904295973509
 20
121.7045874856282
 10
214.8903983796044
 20
121.7045874856282
  0
LWPOLYLINE
  5
5C5
330
1F
100
AcDbEntity
  8
OBRYS
100
AcDbPolyline
 90
        2
 70
     0
 43
0.0
 10
126.8904295973509
 20
117.2049482723434
 10
214.8903983796044
 20
117.2049482723434
  0
LWPOLYLINE
  5
5C6
330
1F
100
AcDbEntity
  8
OBRYS
100
AcDbPolyline
 90
        2
 70
     0
 43
0.0
 10
126.0903061709016
 20
117.5046715795601
 10
126.8904295973509
 20
117.5046715795601
  0
LWPOLYLINE
  5
5C7
330
1F
100
AcDbEntity
  8
OBRYS
100
AcDbPolyline
 90
        2
 70
     0
 43
0.0
 10
126.0903061709016
 20
121.804839764249
 10
126.8904295973509
 20
121.804839764249
  0
LWPOLYLINE
  5
5C8
330
1F
100
AcDbEntity
  8
OBRYS
100
AcDbPolyline
 90
        2
 70
     0
 43
0.0
 10
126.0903061709016
 20
129.3048126356379
 10
126.8904295973509
 20
129.3048126356379
  0
LWPOLYLINE
  5
5C9
330
1F
100
AcDbEntity
  8
OBRYS
100
AcDbPolyline
 90
        2
 70
     0
 43
0.0
 10
126.8904295973509
 20
137.20458883809
 10
126.0903061709016
 20
137.20458883809
  0
LWPOLYLINE
  5
5CA
330
1F
100
AcDbEntity
  8
OBRYS
100
AcDbPolyline
 90
        2
 70
     0
 43
0.0
 10
126.0903061709016
 20
145.1047095500907
 10
126.8904295973509
 20
145.1047095500907
  0
LWPOLYLINE
  5
5CB
330
1F
100
AcDbEntity
  8
OBRYS
100
AcDbPolyline
 90
        2
 70
     0
 43
0.0
 10
126.0903061709016
 20
152.6046824214795
 10
126.8904295973509
 20
152.6046824214795
  0
LWPOLYLINE
  5
5CC
330
1F
100
AcDbEntity
  8
OBRYS
100
AcDbPolyline
 90
        2
 70
     0
 43
0.0
 10
126.0903061709016
 20
156.9048506061683
 10
126.8904295973509
 20
156.9048506061683
  0
LWPOLYLINE
  5
5CD
330
1F
100
AcDbEntity
  8
OBRYS
100
AcDbPolyline
 90
        2
 70
     0
 43
0.0
 10
126.8904295973509
 20
117.5046715795601
 10
126.0903061709016
 20
117.5046715795601
  0
LWPOLYLINE
  5
5CE
330
1F
100
AcDbEntity
  8
OBRYS
100
AcDbPolyline
 90
        2
 70
     0
 43
0.0
 10
119.090561163971
 20
117.7048316272531
 10
126.0903061709016
 20
117.7048316272531
  0
LWPOLYLINE
  5
5CF
330
1F
100
AcDbEntity
  8
OBRYS
100
AcDbPolyline
 90
        2
 70
     0
 43
0.0
 10
119.5904445188808
 20
118.5047827989282
 10
119.5904445188808
 20
117.7048316272531
  0
LWPOLYLINE
  5
5D0
330
1F
100
AcDbEntity
  8
OBRYS
100
AcDbPolyline
 90
        2
 70
     0
 43
0.0
 10
119.090561163971
 20
117.7048316272531
 10
118.090449944603
 20
117.8812205160979
  0
LWPOLYLINE
  5
5D1
330
1F
100
AcDbEntity
  8
OBRYS
100
AcDbPolyline
 90
        2
 70
     0
 43
0.0
 10
118.090449944603
 20
117.8812205160979
 10
118.090449944603
 20
118.3283939100834
  0
LWPOLYLINE
  5
5D2
330
1F
100
AcDbEntity
  8
OBRYS
100
AcDbPolyline
 90
        2
 70
     0
 43
0.0
 10
118.090449944603
 20
118.3283939100834
 10
119.090561163971
 20
118.5047827989282
  0
LWPOLYLINE
  5
5D3
330
1F
100
AcDbEntity
  8
OBRYS
100
AcDbPolyline
 90
        2
 70
     0
 43
0.0
 10
126.0903061709016
 20
118.5047827989282
 10
119.090561163971
 20
118.5047827989282
  0
LWPOLYLINE
  5
5D4
330
1F
100
AcDbEntity
  8
OBRYS
100
AcDbPolyline
 90
        2
 70
     0
 43
0.0
 10
215.690694060828
 20
152.6046824214795
 10
214.8903983796044
 20
152.6046824214795
  0
LWPOLYLINE
  5
5D5
330
1F
100
AcDbEntity
  8
OBRYS
100
AcDbPolyline
 90
        2
 70
     0
 43
0.0
 10
215.690694060828
 20
156.9048506061683
 10
214.8903983796044
 20
156.9048506061683
  0
LWPOLYLINE
  5
5D6
330
1F
100
AcDbEntity
  8
OBRYS
100
AcDbPolyline
 90
        2
 70
     0
 43
0.0
 10
215.690694060828
 20
117.5046715795601
 10
214.8903983796044
 20
117.5046715795601
  0
LWPOLYLINE
  5
5D7
330
1F
100
AcDbEntity
  8
OBRYS
100
AcDbPolyline
 90
        2
 70
     0
 43
0.0
 10
215.690694060828
 20
121.804839764249
 10
214.8903983796044
 20
121.804839764249
  0
LWPOLYLINE
  5
5D8
330
1F
100
AcDbEntity
  8
OBRYS
100
AcDbPolyline
 90
        2
 70
     0
 43
0.0
 10
215.690694060828
 20
129.3048126356379
 10
214.8903983796044
 20
129.3048126356379
  0
LWPOLYLINE
  5
5D9
330
1F
100
AcDbEntity
  8
OBRYS
100
AcDbPolyline
 90
        2
 70
     0
 43
0.0
 10
215.690694060828
 20
137.20458883809
 10
214.8903983796044
 20
137.20458883809
  0
LWPOLYLINE
  5
5DA
330
1F
100
AcDbEntity
  8
OBRYS
100
AcDbPolyline
 90
        2
 70
     0
 43
0.0
 10
215.690694060828
 20
145.1047095500907
 10
214.8903983796044
 20
145.1047095500907
  0
LWPOLYLINE
  5
5DB
330
1F
100
AcDbEntity
  8
OBRYS
100
AcDbPolyline
 90
        2
 70
     0
 43
0.0
 10
217.8524914778222
 20
122.3546770036949
 10
218.0726330793297
 20
122.3546770036949
  0
LWPOLYLINE
  5
5DC
330
1F
100
AcDbEntity
  8
OBRYS
100
AcDbPolyline
 90
        3
 70
     0
 43
0.0
 10
217.8524914778222
 20
121.7545413701644
 10
217.8600706878898
 20
122.0907826895247
 10
217.8524914778222
 20
122.3546770036949
  0
LWPOLYLINE
  5
5DD
330
1F
100
AcDbEntity
  8
OBRYS
100
AcDbPolyline
 90
        2
 70
     0
 43
0.0
 10
218.0726330793297
 20
121.7545413701644
 10
217.8524914778222
 20
121.7545413701644
  0
SPLINE
  5
5DE
330
1F
100
AcDbEntity
  8
OBRYS
100
AcDbSpline
210
0.0
220
0.0
230
1.0
 70
     8
 71
     3
 72
     8
 73
     4
 74
     0
 42
0.000000001
 43
0.0000000001
 40
0.0
 40
0.0
 40
0.0
 40
0.0
 40
1.0
 40
1.0
 40
1.0
 40
1.0
 10
217.3560532183977
 20
124.6634077431351
 30
0.0
 10
217.2833617036589
 20
124.7822635373762
 30
0.0
 10
217.1538261134136
 20
124.854955052115
 30
0.0
 10
217.014988765358
 20
124.854955052115
 30
0.0
  0
SPLINE
  5
5DF
330
1F
100
AcDbEntity
  8
OBRYS
100
AcDbSpline
210
0.0
220
0.0
230
1.0
 70
     8
 71
     3
 72
     8
 73
     4
 74
     0
 42
0.000000001
 43
0.0000000001
 40
0.0
 40
0.0
 40
0.0
 40
0.0
 40
1.0
 40
1.0
 40
1.0
 40
1.0
 10
217.014988765358
 20
119.254780086067
 30
0.0
 10
217.1538261134136
 20
119.254780086067
 30
0.0
 10
217.2833617036589
 20
119.3271270912573
 30
0.0
 10
217.3560532183977
 20
119.4459828854984
 30
0.0
  0
LWPOLYLINE
  5
5E0
330
1F
100
AcDbEntity
  8
OBRYS
100
AcDbPolyline
 90
        2
 70
     0
 43
0.0
 10
217.014988765358
 20
119.254780086067
 10
215.690694060828
 20
119.254780086067
  0
LWPOLYLINE
  5
5E1
330
1F
100
AcDbEntity
  8
OBRYS
100
AcDbPolyline
 90
        2
 70
     0
 43
0.0
 10
215.690694060828
 20
124.854955052115
 10
217.014988765358
 20
124.854955052115
  0
SPLINE
  5
5E2
330
1F
100
AcDbEntity
  8
OBRYS
100
AcDbSpline
210
0.0
220
0.0
230
1.0
 70
     8
 71
     3
 72
     8
 73
     4
 74
     0
 42
0.000000001
 43
0.0000000001
 40
0.0
 40
0.0
 40
0.0
 40
0.0
 40
1.0
 40
1.0
 40
1.0
 40
1.0
 10
217.8600706878898
 20
123.5549482707559
 30
0.0
 10
217.7377697981634
 20
123.9432105319436
 30
0.0
 10
217.5686156098376
 20
124.3157976086734
 30
0.0
 10
217.3560532183977
 20
124.6634077431351
 30
0.0
  0
SPLINE
  5
5E3
330
1F
100
AcDbEntity
  8
OBRYS
100
AcDbSpline
210
0.0
220
0.0
230
1.0
 70
     8
 71
     3
 72
     8
 73
     4
 74
     0
 42
0.000000001
 43
0.0000000001
 40
0.0
 40
0.0
 40
0.0
 40
0.0
 40
1.0
 40
1.0
 40
1.0
 40
1.0
 10
217.3560532183977
 20
119.4459828854984
 30
0.0
 10
217.5686156098376
 20
119.7935930199601
 30
0.0
 10
217.7377697981634
 20
120.1660078419157
 30
0.0
 10
217.8600706878898
 20
120.5549591222004
 30
0.0
  0
LWPOLYLINE
  5
5E4
330
1F
100
AcDbEntity
  8
OBRYS
100
AcDbPolyline
 90
        3
 70
     0
 43
0.0
 10
217.8524914778222
 20
123.5501251370766
 10
217.8586926496957
 20
123.5539147421104
 10
217.8600706878898
 20
123.5549482707559
  0
LWPOLYLINE
  5
5E5
330
1F
100
AcDbEntity
  8
OBRYS
100
AcDbPolyline
 90
        3
 70
     0
 43
0.0
 10
217.8600706878898
 20
120.5549591222004
 10
217.8576591210501
 20
120.5563371603945
 10
217.8524914778222
 20
120.5597822558797
  0
LWPOLYLINE
  5
5E6
330
1F
100
AcDbEntity
  8
OBRYS
100
AcDbPolyline
 90
        2
 70
     0
 43
0.0
 10
217.8524914778222
 20
120.5597822558797
 10
218.0726330793297
 20
121.7545413701644
  0
LWPOLYLINE
  5
5E7
330
1F
100
AcDbEntity
  8
OBRYS
100
AcDbPolyline
 90
        2
 70
     0
 43
0.0
 10
218.0726330793297
 20
122.3546770036949
 10
217.8524914778222
 20
123.5501251370766
  0
LWPOLYLINE
  5
5E8
330
1F
100
AcDbEntity
  8
OBRYS
100
AcDbPolyline
 90
        2
 70
     0
 43
0.0
 10
217.8524914778222
 20
152.6548085607899
 10
218.0726330793297
 20
152.6548085607899
  0
LWPOLYLINE
  5
5E9
330
1F
100
AcDbEntity
  8
OBRYS
100
AcDbPolyline
 90
        3
 70
     0
 43
0.0
 10
217.8524914778222
 20
152.0548451820337
 10
217.8600706878898
 20
152.3905697370712
 10
217.8524914778222
 20
152.6548085607899
  0
LWPOLYLINE
  5
5EA
330
1F
100
AcDbEntity
  8
OBRYS
100
AcDbPolyline
 90
        2
 70
     0
 43
0.0
 10
218.0726330793297
 20
152.0548451820337
 10
217.8524914778222
 20
152.0548451820337
  0
SPLINE
  5
5EB
330
1F
100
AcDbEntity
  8
OBRYS
100
AcDbSpline
210
0.0
220
0.0
230
1.0
 70
     8
 71
     3
 72
     8
 73
     4
 74
     0
 42
0.000000001
 43
0.0000000001
 40
0.0
 40
0.0
 40
0.0
 40
0.0
 40
1.0
 40
1.0
 40
1.0
 40
1.0
 10
217.3560532183977
 20
154.9633670454559
 30
0.0
 10
217.2833617036589
 20
155.0823950944713
 30
0.0
 10
217.1538261134136
 20
155.1545698448872
 30
0.0
 10
217.014988765358
 20
155.1545698448872
 30
0.0
  0
SPLINE
  5
5EC
330
1F
100
AcDbEntity
  8
OBRYS
100
AcDbSpline
210
0.0
220
0.0
230
1.0
 70
     8
 71
     3
 72
     8
 73
     4
 74
     0
 42
0.000000001
 43
0.0000000001
 40
0.0
 40
0.0
 40
0.0
 40
0.0
 40
1.0
 40
1.0
 40
1.0
 40
1.0
 10
217.014988765358
 20
149.5545671336137
 30
0.0
 10
217.1538261134136
 20
149.5545671336137
 30
0.0
 10
217.2833617036589
 20
149.6272586483524
 30
0.0
 10
217.3560532183977
 20
149.7462866973678
 30
0.0
  0
LWPOLYLINE
  5
5ED
330
1F
100
AcDbEntity
  8
OBRYS
100
AcDbPolyline
 90
        2
 70
     0
 43
0.0
 10
217.014988765358
 20
149.5545671336137
 10
215.690694060828
 20
149.5545671336137
  0
LWPOLYLINE
  5
5EE
330
1F
100
AcDbEntity
  8
OBRYS
100
AcDbPolyline
 90
        2
 70
     0
 43
0.0
 10
215.690694060828
 20
155.1545698448872
 10
217.014988765358
 20
155.1545698448872
  0
SPLINE
  5
5EF
330
1F
100
AcDbEntity
  8
OBRYS
100
AcDbSpline
210
0.0
220
0.0
230
1.0
 70
     8
 71
     3
 72
     8
 73
     4
 74
     0
 42
0.000000001
 43
0.0000000001
 40
0.0
 40
0.0
 40
0.0
 40
0.0
 40
1.0
 40
1.0
 40
1.0
 40
1.0
 10
217.8600706878898
 20
153.8545630635282
 30
0.0
 10
217.7377697981634
 20
154.2433420890387
 30
0.0
 10
217.5686156098376
 20
154.6159291657685
 30
0.0
 10
217.3560532183977
 20
154.9633670454559
 30
0.0
  0
SPLINE
  5
5F0
330
1F
100
AcDbEntity
  8
OBRYS
100
AcDbSpline
210
0.0
220
0.0
230
1.0
 70
     8
 71
     3
 72
     8
 73
     4
 74
     0
 42
0.000000001
 43
0.0000000001
 40
0.0
 40
0.0
 40
0.0
 40
0.0
 40
1.0
 40
1.0
 40
1.0
 40
1.0
 10
217.3560532183977
 20
149.7462866973678
 30
0.0
 10
217.5686156098376
 20
150.0937245770552
 30
0.0
 10
217.7377697981634
 20
150.4657948894622
 30
0.0
 10
217.8600706878898
 20
150.8545739149727
 30
0.0
  0
LWPOLYLINE
  5
5F1
330
1F
100
AcDbEntity
  8
OBRYS
100
AcDbPolyline
 90
        3
 70
     0
 43
0.0
 10
217.8524914778222
 20
153.8497399298489
 10
217.8586926496957
 20
153.8538740444312
 10
217.8600706878898
 20
153.8545630635282
  0
LWPOLYLINE
  5
5F2
330
1F
100
AcDbEntity
  8
OBRYS
100
AcDbPolyline
 90
        3
 70
     0
 43
0.0
 10
217.8600706878898
 20
150.8545739149727
 10
217.8576591210501
 20
150.8564687174896
 10
217.8524914778222
 20
150.8595693034263
  0
LWPOLYLINE
  5
5F3
330
1F
100
AcDbEntity
  8
OBRYS
100
AcDbPolyline
 90
        2
 70
     0
 43
0.0
 10
217.8524914778222
 20
150.8595693034263
 10
218.0726330793297
 20
152.0548451820337
  0
LWPOLYLINE
  5
5F4
330
1F
100
AcDbEntity
  8
OBRYS
100
AcDbPolyline
 90
        2
 70
     0
 43
0.0
 10
218.0726330793297
 20
152.6548085607899
 10
217.8524914778222
 20
153.8497399298489
  0
SPLINE
  5
5F5
330
1F
100
AcDbEntity
  8
OBRYS
100
AcDbSpline
210
0.0
220
0.0
230
1.0
 70
     8
 71
     3
 72
     8
 73
     4
 74
     0
 42
0.000000001
 43
0.0000000001
 40
0.0
 40
0.0
 40
0.0
 40
0.0
 40
1.0
 40
1.0
 40
1.0
 40
1.0
 10
124.7663559759201
 20
124.854955052115
 30
0.0
 10
124.6270018635418
 20
124.854955052115
 30
0.0
 10
124.4974662732964
 20
124.7822635373762
 30
0.0
 10
124.4249470133319
 20
124.6634077431351
 30
0.0
  0
SPLINE
  5
5F6
330
1F
100
AcDbEntity
  8
OBRYS
100
AcDbSpline
210
0.0
220
0.0
230
1.0
 70
     8
 71
     3
 72
     8
 73
     4
 74
     0
 42
0.000000001
 43
0.0000000001
 40
0.0
 40
0.0
 40
0.0
 40
0.0
 40
1.0
 40
1.0
 40
1.0
 40
1.0
 10
124.4249470133319
 20
119.4459828854984
 30
0.0
 10
124.4974662732964
 20
119.3271270912573
 30
0.0
 10
124.6270018635418
 20
119.254780086067
 30
0.0
 10
124.7663559759201
 20
119.254780086067
 30
0.0
  0
LWPOLYLINE
  5
5F7
330
1F
100
AcDbEntity
  8
OBRYS
100
AcDbPolyline
 90
        2
 70
     0
 43
0.0
 10
124.7663559759201
 20
119.254780086067
 10
126.0903061709016
 20
119.254780086067
  0
LWPOLYLINE
  5
5F8
330
1F
100
AcDbEntity
  8
OBRYS
100
AcDbPolyline
 90
        2
 70
     0
 43
0.0
 10
126.0903061709016
 20
124.854955052115
 10
124.7663559759201
 20
124.854955052115
  0
SPLINE
  5
5F9
330
1F
100
AcDbEntity
  8
OBRYS
100
AcDbSpline
210
0.0
220
0.0
230
1.0
 70
     8
 71
     3
 72
     8
 73
     4
 74
     0
 42
0.000000001
 43
0.0000000001
 40
0.0
 40
0.0
 40
0.0
 40
0.0
 40
1.0
 40
1.0
 40
1.0
 40
1.0
 10
124.4249470133319
 20
124.6634077431351
 30
0.0
 10
124.2125568766662
 20
124.3157976086734
 30
0.0
 10
124.0432304335662
 20
123.9432105319436
 30
0.0
 10
123.9207572890656
 20
123.5549482707559
 30
0.0
  0
SPLINE
  5
5FA
330
1F
100
AcDbEntity
  8
OBRYS
100
AcDbSpline
210
0.0
220
0.0
230
1.0
 70
     8
 71
     3
 72
     8
 73
     4
 74
     0
 42
0.000000001
 43
0.0000000001
 40
0.0
 40
0.0
 40
0.0
 40
0.0
 40
1.0
 40
1.0
 40
1.0
 40
1.0
 10
123.9207572890656
 20
120.5549591222004
 30
0.0
 10
124.0432304335662
 20
120.1660078419157
 30
0.0
 10
124.2125568766662
 20
119.7935930199601
 30
0.0
 10
124.4249470133319
 20
119.4459828854984
 30
0.0
  0
LWPOLYLINE
  5
5FB
330
1F
100
AcDbEntity
  8
OBRYS
100
AcDbPolyline
 90
        3
 70
     0
 43
0.0
 10
123.9207572890656
 20
123.5549482707559
 10
123.9231688559052
 20
123.5532257230133
 10
123.9285087539074
 20
123.5501251370766
  0
LWPOLYLINE
  5
5FC
330
1F
100
AcDbEntity
  8
OBRYS
100
AcDbPolyline
 90
        2
 70
     0
 43
0.0
 10
123.9285087539074
 20
123.5501251370766
 10
123.7083671523999
 20
122.3546770036949
  0
LWPOLYLINE
  5
5FD
330
1F
100
AcDbEntity
  8
OBRYS
100
AcDbPolyline
 90
        2
 70
     0
 43
0.0
 10
123.7083671523999
 20
122.3546770036949
 10
123.9285087539074
 20
122.3546770036949
  0
LWPOLYLINE
  5
5FE
330
1F
100
AcDbEntity
  8
OBRYS
100
AcDbPolyline
 90
        2
 70
     0
 43
0.0
 10
123.9285087539074
 20
121.7545413701644
 10
123.7083671523999
 20
121.7545413701644
  0
LWPOLYLINE
  5
5FF
330
1F
100
AcDbEntity
  8
OBRYS
100
AcDbPolyline
 90
        2
 70
     0
 43
0.0
 10
123.7083671523999
 20
121.7545413701644
 10
123.9285087539074
 20
120.5597822558797
  0
LWPOLYLINE
  5
600
330
1F
100
AcDbEntity
  8
OBRYS
100
AcDbPolyline
 90
        3
 70
     0
 43
0.0
 10
123.9285087539074
 20
120.5597822558797
 10
123.9221353272597
 20
120.5556481412974
 10
123.9207572890656
 20
120.5549591222004
  0
SPLINE
  5
601
330
1F
100
AcDbEntity
  8
OBRYS
100
AcDbSpline
210
0.0
220
0.0
230
1.0
 70
     8
 71
     3
 72
     8
 73
     4
 74
     0
 42
0.000000001
 43
0.0000000001
 40
0.0
 40
0.0
 40
0.0
 40
0.0
 40
1.0
 40
1.0
 40
1.0
 40
1.0
 10
124.7663559759201
 20
155.1545698448872
 30
0.0
 10
124.6270018635418
 20
155.1545698448872
 30
0.0
 10
124.4974662732964
 20
155.0823950944713
 30
0.0
 10
124.4249470133319
 20
154.9633670454559
 30
0.0
  0
SPLINE
  5
602
330
1F
100
AcDbEntity
  8
OBRYS
100
AcDbSpline
210
0.0
220
0.0
230
1.0
 70
     8
 71
     3
 72
     8
 73
     4
 74
     0
 42
0.000000001
 43
0.0000000001
 40
0.0
 40
0.0
 40
0.0
 40
0.0
 40
1.0
 40
1.0
 40
1.0
 40
1.0
 10
124.4249470133319
 20
149.7462866973678
 30
0.0
 10
124.4974662732964
 20
149.6272586483524
 30
0.0
 10
124.6270018635418
 20
149.5545671336137
 30
0.0
 10
124.7663559759201
 20
149.5545671336137
 30
0.0
  0
LWPOLYLINE
  5
603
330
1F
100
AcDbEntity
  8
OBRYS
100
AcDbPolyline
 90
        2
 70
     0
 43
0.0
 10
124.7663559759201
 20
149.5545671336137
 10
126.0903061709016
 20
149.5545671336137
  0
LWPOLYLINE
  5
604
330
1F
100
AcDbEntity
  8
OBRYS
100
AcDbPolyline
 90
        2
 70
     0
 43
0.0
 10
126.0903061709016
 20
155.1545698448872
 10
124.7663559759201
 20
155.1545698448872
  0
SPLINE
  5
605
330
1F
100
AcDbEntity
  8
OBRYS
100
AcDbSpline
210
0.0
220
0.0
230
1.0
 70
     8
 71
     3
 72
     8
 73
     4
 74
     0
 42
0.000000001
 43
0.0000000001
 40
0.0
 40
0.0
 40
0.0
 40
0.0
 40
1.0
 40
1.0
 40
1.0
 40
1.0
 10
124.4249470133319
 20
154.9633670454559
 30
0.0
 10
124.2125568766662
 20
154.6159291657685
 30
0.0
 10
124.0432304335662
 20
154.2433420890387
 30
0.0
 10
123.9207572890656
 20
153.8545630635282
 30
0.0
  0
SPLINE
  5
606
330
1F
100
AcDbEntity
  8
OBRYS
100
AcDbSpline
210
0.0
220
0.0
230
1.0
 70
     8
 71
     3
 72
     8
 73
     4
 74
     0
 42
0.000000001
 43
0.0000000001
 40
0.0
 40
0.0
 40
0.0
 40
0.0
 40
1.0
 40
1.0
 40
1.0
 40
1.0
 10
123.9207572890656
 20
150.8545739149727
 30
0.0
 10
124.0432304335662
 20
150.4657948894622
 30
0.0
 10
124.2125568766662
 20
150.0937245770552
 30
0.0
 10
124.4249470133319
 20
149.7462866973678
 30
0.0
  0
LWPOLYLINE
  5
607
330
1F
100
AcDbEntity
  8
OBRYS
100
AcDbPolyline
 90
        3
 70
     0
 43
0.0
 10
123.9207572890656
 20
153.8545630635282
 10
123.9231688559052
 20
153.8531850253341
 10
123.9285087539074
 20
153.8497399298489
  0
LWPOLYLINE
  5
608
330
1F
100
AcDbEntity
  8
OBRYS
100
AcDbPolyline
 90
        2
 70
     0
 43
0.0
 10
123.9285087539074
 20
153.8497399298489
 10
123.7083671523999
 20
152.6548085607899
  0
LWPOLYLINE
  5
609
330
1F
100
AcDbEntity
  8
OBRYS
100
AcDbPolyline
 90
        2
 70
     0
 43
0.0
 10
123.7083671523999
 20
152.6548085607899
 10
123.9285087539074
 20
152.6548085607899
  0
LWPOLYLINE
  5
60A
330
1F
100
AcDbEntity
  8
OBRYS
100
AcDbPolyline
 90
        3
 70
     0
 43
0.0
 10
123.9285087539074
 20
152.6548085607899
 10
123.9207572890656
 20
152.3187394962039
 10
123.9285087539074
 20
152.0548451820337
  0
LWPOLYLINE
  5
60B
330
1F
100
AcDbEntity
  8
OBRYS
100
AcDbPolyline
 90
        2
 70
     0
 43
0.0
 10
123.9285087539074
 20
152.0548451820337
 10
123.7083671523999
 20
152.0548451820337
  0
LWPOLYLINE
  5
60C
330
1F
100
AcDbEntity
  8
OBRYS
100
AcDbPolyline
 90
        2
 70
     0
 43
0.0
 10
123.7083671523999
 20
152.0548451820337
 10
123.9285087539074
 20
150.8595693034263
  0
LWPOLYLINE
  5
60D
330
1F
100
AcDbEntity
  8
OBRYS
100
AcDbPolyline
 90
        3
 70
     0
 43
0.0
 10
123.9285087539074
 20
150.8595693034263
 10
123.9221353272597
 20
150.8556074436183
 10
123.9207572890656
 20
150.8545739149727
  0
LINE
  5
60E
330
1F
100
AcDbEntity
  8
OBRYS
100
AcDbLine
 10
123.9285087539074
 20
122.3546770036949
 30
0.0
 11
123.9285087539074
 21
121.7545413701644
 31
0.0
  0
LINE
  5
60F
330
1F
100
AcDbEntity
  8
OBRYS
100
AcDbLine
 10
126.0903061709016
 20
156.9048506061683
 30
0.0
 11
126.0903061709016
 21
117.5046715795601
 31
0.0
  0
LINE
  5
610
330
1F
100
AcDbEntity
  8
OBRYS
100
AcDbLine
 10
126.8904295973509
 20
109.7049754009545
 30
0.0
 11
126.8904295973509
 21
157.2045739133852
 31
0.0
  0
ARC
  5
611
330
1F
100
AcDbEntity
  8
OBRYS
100
AcDbCircle
 10
252.1482447787101
 20
118.9047583847657
 30
0.0
 40
0.3998033310633105
100
AcDbArc
 50
0.0
 51
180.0
  0
ARC
  5
612
330
1F
100
AcDbEntity
  8
OBRYS
100
AcDbCircle
 10
257.7482474899838
 20
118.9047583847657
 30
0.0
 40
0.3998033310633105
100
AcDbArc
 50
0.0
 51
180.0
  0
CIRCLE
  5
613
330
1F
100
AcDbEntity
  8
OBRYS
100
AcDbCircle
 10
254.9482461343469
 20
123.5049943862198
 30
0.0
 40
0.5997911239819871
  0
LINE
  5
614
330
1F
100
AcDbEntity
  8
OBRYS
100
AcDbLine
 10
244.553015017154
 20
122.3546770036949
 30
0.0
 11
244.553015017154
 21
121.7545413701644
 31
0.0
  0
LINE
  5
615
330
1F
100
AcDbEntity
  8
OBRYS
100
AcDbLine
 10
245.7484631505357
 20
123.5501251370766
 30
0.0
 11
246.3479097649692
 21
123.5501251370766
 31
0.0
  0
LINE
  5
616
330
1F
100
AcDbEntity
  8
OBRYS
100
AcDbLine
 10
247.5433578983509
 20
122.3546770036949
 30
0.0
 11
247.5433578983509
 21
121.7545413701644
 31
0.0
  0
LINE
  5
617
330
1F
100
AcDbEntity
  8
OBRYS
100
AcDbLine
 10
245.7484631505357
 20
120.5597822558797
 30
0.0
 11
246.3479097649692
 21
120.5597822558797
 31
0.0
  0
LINE
  5
618
330
1F
100
AcDbEntity
  8
OBRYS
100
AcDbLine
 10
244.553015017154
 20
122.3546770036949
 30
0.0
 11
247.5433578983509
 21
122.3546770036949
 31
0.0
  0
LINE
  5
619
330
1F
100
AcDbEntity
  8
OBRYS
100
AcDbLine
 10
244.553015017154
 20
121.7545413701644
 30
0.0
 11
247.5433578983509
 21
121.7545413701644
 31
0.0
  0
LINE
  5
61A
330
1F
100
AcDbEntity
  8
OBRYS
100
AcDbLine
 10
245.7484631505357
 20
123.5501251370766
 30
0.0
 11
245.7484631505357
 21
120.5597822558797
 31
0.0
  0
LINE
  5
61B
330
1F
100
AcDbEntity
  8
OBRYS
100
AcDbLine
 10
246.3479097649692
 20
123.5501251370766
 30
0.0
 11
246.3479097649692
 21
120.5597822558797
 31
0.0
  0
CIRCLE
  5
61C
330
1F
100
AcDbEntity
  8
OBRYS
100
AcDbCircle
 10
246.0481864577524
 20
122.0546091869296
 30
0.0
 40
2.800345865185349
  0
LINE
  5
61D
330
1F
100
AcDbEntity
  8
OBRYS
100
AcDbLine
 10
262.3529621155686
 20
122.3546770036949
 30
0.0
 11
262.3529621155686
 21
121.7545413701644
 31
0.0
  0
LINE
  5
61E
330
1F
100
AcDbEntity
  8
OBRYS
100
AcDbLine
 10
263.5484102489503
 20
123.5501251370766
 30
0.0
 11
264.1478568633838
 21
123.5501251370766
 31
0.0
  0
LINE
  5
61F
330
1F
100
AcDbEntity
  8
OBRYS
100
AcDbLine
 10
265.3433049967655
 20
122.3546770036949
 30
0.0
 11
265.3433049967655
 21
121.7545413701644
 31
0.0
  0
LINE
  5
620
330
1F
100
AcDbEntity
  8
OBRYS
100
AcDbLine
 10
263.5484102489503
 20
120.5597822558797
 30
0.0
 11
264.1478568633838
 21
120.5597822558797
 31
0.0
  0
LINE
  5
621
330
1F
100
AcDbEntity
  8
OBRYS
100
AcDbLine
 10
262.3529621155686
 20
122.3546770036949
 30
0.0
 11
265.3433049967655
 21
122.3546770036949
 31
0.0
  0
LINE
  5
622
330
1F
100
AcDbEntity
  8
OBRYS
100
AcDbLine
 10
262.3529621155686
 20
121.7545413701644
 30
0.0
 11
265.3433049967655
 21
121.7545413701644
 31
0.0
  0
LINE
  5
623
330
1F
100
AcDbEntity
  8
OBRYS
100
AcDbLine
 10
263.5484102489503
 20
123.5501251370766
 30
0.0
 11
263.5484102489503
 21
120.5597822558797
 31
0.0
  0
LINE
  5
624
330
1F
100
AcDbEntity
  8
OBRYS
100
AcDbLine
 10
264.1478568633838
 20
123.5501251370766
 30
0.0
 11
264.1478568633838
 21
120.5597822558797
 31
0.0
  0
CIRCLE
  5
625
330
1F
100
AcDbEntity
  8
OBRYS
100
AcDbCircle
 10
263.8481335561671
 20
122.0546091869296
 30
0.0
 40
2.800345865185349
  0
LINE
  5
626
330
1F
100
AcDbEntity
  8
OBRYS
100
AcDbLine
 10
262.3529621155686
 20
152.6548946881771
 30
0.0
 11
262.3529621155686
 21
152.0547590546466
 31
0.0
  0
LINE
  5
627
330
1F
100
AcDbEntity
  8
OBRYS
100
AcDbLine
 10
263.5484102489503
 20
153.8503428215587
 30
0.0
 11
264.1478568633838
 21
153.8503428215587
 31
0.0
  0
LINE
  5
628
330
1F
100
AcDbEntity
  8
OBRYS
100
AcDbLine
 10
265.3433049967655
 20
152.6548946881771
 30
0.0
 11
265.3433049967655
 21
152.0547590546466
 31
0.0
  0
LINE
  5
629
330
1F
100
AcDbEntity
  8
OBRYS
100
AcDbLine
 10
263.5484102489503
 20
150.8599999403619
 30
0.0
 11
264.1478568633838
 21
150.8599999403619
 31
0.0
  0
LINE
  5
62A
330
1F
100
AcDbEntity
  8
OBRYS
100
AcDbLine
 10
262.3529621155686
 20
152.6548946881771
 30
0.0
 11
265.3433049967655
 21
152.6548946881771
 31
0.0
  0
LINE
  5
62B
330
1F
100
AcDbEntity
  8
OBRYS
100
AcDbLine
 10
262.3529621155686
 20
152.0547590546466
 30
0.0
 11
265.3433049967655
 21
152.0547590546466
 31
0.0
  0
LINE
  5
62C
330
1F
100
AcDbEntity
  8
OBRYS
100
AcDbLine
 10
263.5484102489503
 20
153.8503428215587
 30
0.0
 11
263.5484102489503
 21
150.8599999403619
 31
0.0
  0
LINE
  5
62D
330
1F
100
AcDbEntity
  8
OBRYS
100
AcDbLine
 10
264.1478568633838
 20
153.8503428215587
 30
0.0
 11
264.1478568633838
 21
150.8599999403619
 31
0.0
  0
CIRCLE
  5
62E
330
1F
100
AcDbEntity
  8
OBRYS
100
AcDbCircle
 10
263.8481335561671
 20
152.3548268714118
 30
0.0
 40
2.800345865185349
  0
LINE
  5
62F
330
1F
100
AcDbEntity
  8
OBRYS
100
AcDbLine
 10
244.553015017154
 20
152.6548946881771
 30
0.0
 11
244.553015017154
 21
152.0547590546466
 31
0.0
  0
LINE
  5
630
330
1F
100
AcDbEntity
  8
OBRYS
100
AcDbLine
 10
245.7484631505357
 20
153.8503428215587
 30
0.0
 11
246.3479097649692
 21
153.8503428215587
 31
0.0
  0
LINE
  5
631
330
1F
100
AcDbEntity
  8
OBRYS
100
AcDbLine
 10
247.5433578983509
 20
152.6548946881771
 30
0.0
 11
247.5433578983509
 21
152.0547590546466
 31
0.0
  0
LINE
  5
632
330
1F
100
AcDbEntity
  8
OBRYS
100
AcDbLine
 10
245.7484631505357
 20
150.8599999403619
 30
0.0
 11
246.3479097649692
 21
150.8599999403619
 31
0.0
  0
LINE
  5
633
330
1F
100
AcDbEntity
  8
OBRYS
100
AcDbLine
 10
244.553015017154
 20
152.6548946881771
 30
0.0
 11
247.5433578983509
 21
152.6548946881771
 31
0.0
  0
LINE
  5
634
330
1F
100
AcDbEntity
  8
OBRYS
100
AcDbLine
 10
244.553015017154
 20
152.0547590546466
 30
0.0
 11
247.5433578983509
 21
152.0547590546466
 31
0.0
  0
LINE
  5
635
330
1F
100
AcDbEntity
  8
OBRYS
100
AcDbLine
 10
245.7484631505357
 20
153.8503428215587
 30
0.0
 11
245.7484631505357
 21
150.8599999403619
 31
0.0
  0
LINE
  5
636
330
1F
100
AcDbEntity
  8
OBRYS
100
AcDbLine
 10
246.3479097649692
 20
153.8503428215587
 30
0.0
 11
246.3479097649692
 21
150.8599999403619
 31
0.0
  0
CIRCLE
  5
637
330
1F
100
AcDbEntity
  8
OBRYS
100
AcDbCircle
 10
246.0481864577524
 20
152.3548268714118
 30
0.0
 40
2.800345865185349
  0
LINE
  5
638
330
1F
100
AcDbEntity
  8
OBRYS
100
AcDbLine
 10
245.4480508242219
 20
105.9046905711754
 30
0.0
 11
245.4480508242219
 21
117.2049482723434
 31
0.0
  0
LINE
  5
639
330
1F
100
AcDbEntity
  8
OBRYS
100
AcDbLine
 10
264.4484414444718
 20
105.9046905711754
 30
0.0
 11
264.4484414444718
 21
117.2049482723434
 31
0.0
  0
LINE
  5
63A
330
1F
100
AcDbEntity
  8
OBRYS
100
AcDbLine
 10
214.8903983796044
 20
157.2045739133852
 30
0.0
 11
214.8903983796044
 21
117.2049482723434
 31
0.0
  0
LINE
  5
63B
330
1F
100
AcDbEntity
  8
OBRYS
100
AcDbLine
 10
215.690694060828
 20
156.9048506061683
 30
0.0
 11
215.690694060828
 21
117.5046715795601
 31
0.0
  0
ARC
  5
63C
330
1F
100
AcDbEntity
  8
OBRYS
100
AcDbCircle
 10
215.0824624819158
 20
113.6761368236836
 30
0.0
 40
0.1959696924870553
100
AcDbArc
 50
11.45812803478508
 51
191.4580426446171
  0
DIMENSION
  5
649
330
1F
100
AcDbEntity
  8
KOTY
100
AcDbDimension
  2
*D1
 10
267.5483383620997
 20
168.0850352129351
 30
0.0
 11
254.9482461343469
 21
171.1270352129351
 31
0.0
 70
    32
  3
STANDARD
100
AcDbAlignedDimension
 13
242.3481539065941
 23
152.7045901905519
 33
0.0
 14
267.5483383620997
 24
152.7045901905519
 34
0.0
100
AcDbRotatedDimension
1001
ACAD
1000
DSTYLE
1002
{
1070
   271
1070
     0
1070
   278
1070
    44
1070
   140
1040
4.0
1070
    73
1070
     0
1070
    77
1070
     1
1070
   147
1040
1.0
1070
    41
1040
4.0
1002
}
  0
DIMENSION
  5
659
330
1F
100
AcDbEntity
  8
KOTY
100
AcDbDimension
  2
*D2
 10
215.690694060828
 20
168.0850352129351
 30
0.0
 11
170.8905001158648
 21
171.1270352129351
 31
0.0
 70
    32
  3
STANDARD
100
AcDbAlignedDimension
 13
126.0903061709016
 23
156.9048506061683
 33
0.0
 14
215.690694060828
 24
156.9048506061683
 34
0.0
100
AcDbRotatedDimension
1001
ACAD
1000
DSTYLE
1002
{
1070
   271
1070
     0
1070
   278
1070
    44
1070
   140
1040
4.0
1070
    73
1070
     0
1070
    77
1070
     1
1070
   147
1040
1.0
1070
    41
1040
4.0
1002
}
  0
DIMENSION
  5
667
330
1F
100
AcDbEntity
  8
KOTY
100
AcDbDimension
  2
*D3
 10
97.20443037632127
 20
103.0049537012406
 30
0.0
 11
94.17043037632128
 21
130.1047638073129
 31
0.0
 70
    32
  3
STANDARD
100
AcDbAlignedDimension
 13
126.8904295973509
 23
157.2045739133852
 33
0.0
 14
158.8905435216426
 24
103.0049537012406
 34
0.0
 50
90.0
100
AcDbRotatedDimension
1001
ACAD
1000
DSTYLE
1002
{
1070
   271
1070
     0
1070
   278
1070
    44
1070
   140
1040
4.0
1070
    73
1070
     0
1070
    77
1070
     1
1070
   147
1040
1.0
1070
    41
1040
4.0
1002
}
  0
DIMENSION
  5
677
330
1F
100
AcDbEntity
  8
KOTY
100
AcDbDimension
  2
*D4
 10
112.4314046107112
 20
110.304422015388
 30
0.0
 11
109.4314046107112
 21
133.7544979643866
 31
0.0
 70
    32
  3
STANDARD
100
AcDbAlignedDimension
 13
126.8279295973509
 23
157.2045739133852
 33
0.0
 14
156.3904377279968
 24
110.304422015388
 34
0.0
 50
90.0
100
AcDbRotatedDimension
1001
ACAD
1000
DSTYLE
1002
{
1070
   271
1070
     0
1070
   278
1070
    44
1070
   140
1040
4.0
1070
    73
1070
     0
1070
    77
1070
     1
1070
   147
1040
1.0
1070
    41
1040
4.0
1002
}
  0
VIEWPORT
  5
687
330
58
100
AcDbEntity
 67
     1
  8
0
100
AcDbViewport
 10
0.0
 20
0.0
 30
0.0
 40
8.976
 41
6.936000000000001
 68
     1
 69
     1
1001
ACAD
1000
MVIEW
1002
{
1070
    16
1010
0.0
1020
0.0
1030
0.0
1010
0.0
1020
0.0
1030
1.0
1040
0.0
1040
6.936000000000001
1040
5.25
1040
4.0
1040
50.0
1040
0.0
1040
0.0
1070
     0
1070
   100
1070
     0
1070
     3
1070
     0
1070
     0
1070
     0
1070
     0
1040
0.0
1040
0.0
1040
0.0
1040
0.5
1040
0.5
1040
0.0
1040
0.0
1070
     0
1002
{
1002
}
1002
}
  0
VIEWPORT
  5
688
330
58
100
AcDbEntity
 67
     1
  8
0
100
AcDbViewport
 10
5.25
 20
4.0
 30
0.0
 40
8.4
 41
6.4
 68
     2
 69
     2
1001
ACAD
1000
MVIEW
1002
{
1070
    16
1010
0.0
1020
0.0
1030
0.0
1010
0.0
1020
0.0
1030
1.0
1040
0.0
1040
135.5274256346621
1040
180.3523843692105
1040
137.5794944570879
1040
50.0
1040
0.0
1040
0.0
1070
     0
1070
   100
1070
     0
1070
     3
1070
     0
1070
     0
1070
     0
1070
     0
1040
0.0
1040
0.0
1040
0.0
1040
0.5
1040
0.5
1040
0.0
1040
0.0
1070
     0
1002
{
1002
}
1002
}
  0
ENDSEC
  0
SECTION
  2
OBJECTS
  0
DICTIONARY
  5
C
330
0
100
AcDbDictionary
  3
ACAD_DETAILVIEWSTYLE
350
122
  3
ACAD_GROUP
350
D
  3
ACAD_IMAGE_VARS
350
DC
  3
ACAD_MLINESTYLE
350
17
  3
ACAD_SCALELIST
350
68B
  3
ACAD_SECTIONVIEWSTYLE
350
123
  3
ACDBVARIABLEDICTIONARY
350
66
  3
APPDATA
350
E1
  3
DWGPROPS
350
6D1
  0
DICTIONARY
  5
63D
330
2
100
AcDbDictionary
280
     1
  3
ACAD_LAYERSTATES
360
63E
  3
ACLYDICTIONARY
360
647
  0
DICTIONARY
  5
122
102
{ACAD_REACTORS
330
C
102
}
330
C
100
AcDbDictionary
  0
DICTIONARY
  5
D
102
{ACAD_REACTORS
330
C
102
}
330
C
100
AcDbDictionary
  0
RASTERVARIABLES
  5
DC
102
{ACAD_REACTORS
330
C
102
}
330
C
100
AcDbRasterVariables
 90
        0
 70
     1
 71
     1
 72
     5
  0
DICTIONARY
  5
17
102
{ACAD_REACTORS
330
C
102
}
330
C
100
AcDbDictionary
  3
STANDARD
350
18
  0
DICTIONARY
  5
68B
102
{ACAD_REACTORS
330
C
102
}
330
C
100
AcDbDictionary
  0
DICTIONARY
  5
123
102
{ACAD_REACTORS
330
C
102
}
330
C
100
AcDbDictionary
  0
DICTIONARY
  5
66
102
{ACAD_REACTORS
330
C
102
}
330
C
100
AcDbDictionary
  3
DIMASSOC
350
67
  3
HIDETEXT
350
6B
  0
DICTIONARY
  5
E1
102
{ACAD_REACTORS
330
C
102
}
330
C
100
AcDbDictionary
  0
XRECORD
  5
6D1
102
{ACAD_REACTORS
330
C
102
}
330
C
100
AcDbXrecord
  1
DWGPROPS COOKIE
  2

  3

  4

  6

  7

  8
jaromir.podrabsky
  9

300
=
301
=
302
=
303
=
304
=
305
=
306
=
307
=
308
=
309
=
 40
0.0
 41
2452643.021717593
 42
2456764.537388993
  1

 90
        0
  0
DICTIONARY
  5
63E
102
{ACAD_REACTORS
330
63D
102
}
330
63D
100
AcDbDictionary
  0
DICTIONARY
  5
647
102
{ACAD_REACTORS
330
63D
102
}
330
63D
100
AcDbDictionary
1001
ACAD
1000
<All
  0
MLINESTYLE
  5
18
102
{ACAD_REACTORS
330
17
102
}
330
17
100
AcDbMlineStyle
  2
STANDARD
 70
     0
  3

 62
   256
 51
90.0
 52
90.0
 71
     2
 49
0.5
 62
   256
  6
BYLAYER
 49
-0.5
 62
   256
  6
BYLAYER
  0
DICTIONARYVAR
  5
67
102
{ACAD_REACTORS
330
66
102
}
330
66
100
DictionaryVariables
280
     0
  1
2
  0
DICTIONARYVAR
  5
6B
102
{ACAD_REACTORS
330
66
102
}
330
66
100
DictionaryVariables
280
     0
  1
1
  0
ENDSEC
  0
EOF
