  0
SECTION
  2
HEADER
  9
$ACADVER
  1
AC1014
  9
$ACADMAINTVER
 70
     9
  9
$DWGCODEPAGE
  3
ANSI_1250
  9
$INSBASE
 10
0.0
 20
0.0
 30
0.0
  9
$EXTMIN
 10
1.000000000000000E+20
 20
1.000000000000000E+20
 30
1.000000000000000E+20
  9
$EXTMAX
 10
-1.000000000000000E+20
 20
-1.000000000000000E+20
 30
-1.000000000000000E+20
  9
$LIMMIN
 10
0.0
 20
0.0
  9
$LIMMAX
 10
12.0
 20
9.0
  9
$ORTHOMODE
 70
     0
  9
$REGENMODE
 70
     1
  9
$FILLMODE
 70
     1
  9
$QTEXTMODE
 70
     0
  9
$MIRRTEXT
 70
     0
  9
$DRAGMODE
 70
     2
  9
$LTSCALE
 40
1.0
  9
$OSMODE
 70
 15359
  9
$ATTMODE
 70
     1
  9
$TEXTSIZE
 40
0.2
  9
$TRACEWID
 40
0.05
  9
$TEXTSTYLE
  7
STANDARD
  9
$CLAYER
  8
0
  9
$CELTYPE
  6
BYLAYER
  9
$CECOLOR
 62
   256
  9
$CELTSCALE
 40
1.0
  9
$DELOBJ
 70
     1
  9
$DISPSILH
 70
     0
  9
$DIMSCALE
 40
1.0
  9
$DIMASZ
 40
0.18
  9
$DIMEXO
 40
0.0625
  9
$DIMDLI
 40
0.38
  9
$DIMRND
 40
0.0
  9
$DIMDLE
 40
0.0
  9
$DIMEXE
 40
0.18
  9
$DIMTP
 40
0.0
  9
$DIMTM
 40
0.0
  9
$DIMTXT
 40
0.18
  9
$DIMCEN
 40
0.09
  9
$DIMTSZ
 40
0.0
  9
$DIMTOL
 70
     0
  9
$DIMLIM
 70
     0
  9
$DIMTIH
 70
     1
  9
$DIMTOH
 70
     1
  9
$DIMSE1
 70
     0
  9
$DIMSE2
 70
     0
  9
$DIMTAD
 70
     0
  9
$DIMZIN
 70
     0
  9
$DIMBLK
  1

  9
$DIMASO
 70
     1
  9
$DIMSHO
 70
     1
  9
$DIMPOST
  1

  9
$DIMAPOST
  1

  9
$DIMALT
 70
     0
  9
$DIMALTD
 70
     2
  9
$DIMALTF
 40
25.4
  9
$DIMLFAC
 40
1.0
  9
$DIMTOFL
 70
     0
  9
$DIMTVP
 40
0.0
  9
$DIMTIX
 70
     0
  9
$DIMSOXD
 70
     0
  9
$DIMSAH
 70
     0
  9
$DIMBLK1
  1

  9
$DIMBLK2
  1

  9
$DIMSTYLE
  2
STANDARD
  9
$DIMCLRD
 70
     0
  9
$DIMCLRE
 70
     0
  9
$DIMCLRT
 70
     0
  9
$DIMTFAC
 40
1.0
  9
$DIMGAP
 40
0.09
  9
$DIMJUST
 70
     0
  9
$DIMSD1
 70
     0
  9
$DIMSD2
 70
     0
  9
$DIMTOLJ
 70
     1
  9
$DIMTZIN
 70
     0
  9
$DIMALTZ
 70
     0
  9
$DIMALTTZ
 70
     0
  9
$DIMFIT
 70
     5
  9
$DIMUPT
 70
     0
  9
$DIMUNIT
 70
     2
  9
$DIMDEC
 70
     4
  9
$DIMTDEC
 70
     4
  9
$DIMALTU
 70
     2
  9
$DIMALTTD
 70
     2
  9
$DIMTXSTY
  7
STANDARD
  9
$DIMAUNIT
 70
     0
  9
$LUNITS
 70
     2
  9
$LUPREC
 70
     4
  9
$SKETCHINC
 40
0.1
  9
$FILLETRAD
 40
0.0
  9
$AUNITS
 70
     0
  9
$AUPREC
 70
     0
  9
$MENU
  1
.
  9
$ELEVATION
 40
0.0
  9
$PELEVATION
 40
0.0
  9
$THICKNESS
 40
0.0
  9
$LIMCHECK
 70
     0
  9
$CHAMFERA
 40
0.0
  9
$CHAMFERB
 40
0.0
  9
$CHAMFERC
 40
0.0
  9
$CHAMFERD
 40
0.0
  9
$SKPOLY
 70
     0
  9
$TDCREATE
 40
2452643.105050926
  9
$TDUPDATE
 40
2457777.479332373
  9
$TDINDWG
 40
0.0083425116
  9
$TDUSRTIMER
 40
2457777.437327951
  9
$USRTIMER
 70
     1
  9
$ANGBASE
 50
0.0
  9
$ANGDIR
 70
     0
  9
$PDMODE
 70
     0
  9
$PDSIZE
 40
0.0
  9
$PLINEWID
 40
0.0
  9
$COORDS
 70
     1
  9
$SPLFRAME
 70
     0
  9
$SPLINETYPE
 70
     6
  9
$SPLINESEGS
 70
     8
  9
$ATTDIA
 70
     0
  9
$ATTREQ
 70
     1
  9
$HANDLING
 70
     1
  9
$HANDSEED
  5
12B6
  9
$SURFTAB1
 70
     6
  9
$SURFTAB2
 70
     6
  9
$SURFTYPE
 70
     6
  9
$SURFU
 70
     6
  9
$SURFV
 70
     6
  9
$UCSNAME
  2

  9
$UCSORG
 10
0.0
 20
0.0
 30
0.0
  9
$UCSXDIR
 10
1.0
 20
0.0
 30
0.0
  9
$UCSYDIR
 10
0.0
 20
1.0
 30
0.0
  9
$PUCSNAME
  2

  9
$PUCSORG
 10
0.0
 20
0.0
 30
0.0
  9
$PUCSXDIR
 10
1.0
 20
0.0
 30
0.0
  9
$PUCSYDIR
 10
0.0
 20
1.0
 30
0.0
  9
$USERI1
 70
     0
  9
$USERI2
 70
     0
  9
$USERI3
 70
     0
  9
$USERI4
 70
     0
  9
$USERI5
 70
     0
  9
$USERR1
 40
0.0
  9
$USERR2
 40
0.0
  9
$USERR3
 40
0.0
  9
$USERR4
 40
0.0
  9
$USERR5
 40
0.0
  9
$WORLDVIEW
 70
     1
  9
$SHADEDGE
 70
     3
  9
$SHADEDIF
 70
    70
  9
$TILEMODE
 70
     1
  9
$MAXACTVP
 70
    64
  9
$PINSBASE
 10
0.0
 20
0.0
 30
0.0
  9
$PLIMCHECK
 70
     0
  9
$PEXTMIN
 10
1.05
 20
0.7999999999999998
 30
0.0
  9
$PEXTMAX
 10
9.45
 20
7.2
 30
0.0
  9
$PLIMMIN
 10
0.8214285714285712
 20
0.1142857142857141
  9
$PLIMMAX
 10
10.87857142857143
 20
7.885714285714286
  9
$UNITMODE
 70
     0
  9
$VISRETAIN
 70
     1
  9
$PLINEGEN
 70
     0
  9
$PSLTSCALE
 70
     1
  9
$TREEDEPTH
 70
  3020
  9
$PICKSTYLE
 70
     1
  9
$CMLSTYLE
  2
STANDARD
  9
$CMLJUST
 70
     0
  9
$CMLSCALE
 40
1.0
  9
$PROXYGRAPHICS
 70
     1
  9
$MEASUREMENT
 70
     0
  0
ENDSEC
  0
SECTION
  2
CLASSES
  0
CLASS
  1
ACDBDICTIONARYWDFLT
  2
AcDbDictionaryWithDefault
  3
ObjectDBX Classes
 90
        0
280
     0
281
     0
  0
CLASS
  1
ACDBPLACEHOLDER
  2
AcDbPlaceHolder
  3
ObjectDBX Classes
 90
        0
280
     0
281
     0
  0
CLASS
  1
LAYOUT
  2
AcDbLayout
  3
ObjectDBX Classes
 90
        0
280
     0
281
     0
  0
CLASS
  1
DICTIONARYVAR
  2
AcDbDictionaryVar
  3
ObjectDBX Classes
 90
        0
280
     0
281
     0
  0
CLASS
  1
TABLESTYLE
  2
AcDbTableStyle
  3
ObjectDBX Classes
 90
     4095
280
     0
281
     0
  0
CLASS
  1
MATERIAL
  2
AcDbMaterial
  3
ObjectDBX Classes
 90
     1153
280
     0
281
     0
  0
CLASS
  1
VISUALSTYLE
  2
AcDbVisualStyle
  3
ObjectDBX Classes
 90
     4095
280
     0
281
     0
  0
CLASS
  1
SCALE
  2
AcDbScale
  3
ObjectDBX Classes
 90
     1153
280
     0
281
     0
  0
CLASS
  1
CELLSTYLEMAP
  2
AcDbCellStyleMap
  3
ObjectDBX Classes
 90
     1152
280
     0
281
     0
  0
CLASS
  1
RASTERVARIABLES
  2
AcDbRasterVariables
  3
ISM
 90
        0
280
     0
281
     0
  0
CLASS
  1
SUN
  2
AcDbSun
  3
SCENEOE
 90
     1153
280
     0
281
     0
  0
CLASS
  1
DIMASSOC
  2
AcDbDimAssoc
  3
"AcDbDimAssoc|Product Desc:     AcDim ARX App For Dimension|Company:          Autodesk, Inc.|WEB Address:      www.autodesk.com"
 90
        0
280
     0
281
     0
  0
CLASS
  1
XRECORD
  2
AcDbXrecord
  3
ObjectDBX Classes
 90
        0
280
     0
281
     0
  0
CLASS
  1
LWPOLYLINE
  2
AcDbPolyline
  3
ObjectDBX Classes
 90
        0
280
     0
281
     1
  0
CLASS
  1
HATCH
  2
AcDbHatch
  3
ObjectDBX Classes
 90
        0
280
     0
281
     1
  0
CLASS
  1
MLEADERSTYLE
  2
AcDbMLeaderStyle
  3
ACDB_MLEADERSTYLE_CLASS
 90
     4095
280
     0
281
     0
  0
ENDSEC
  0
SECTION
  2
TABLES
  0
TABLE
  2
VPORT
  5
8
330
0
100
AcDbSymbolTable
 70
     1
  0
VPORT
  5
94
330
8
100
AcDbSymbolTableRecord
100
AcDbViewportTableRecord
  2
*ACTIVE
 70
     0
 10
0.0
 20
0.0
 11
1.0
 21
1.0
 12
170.4444749466414
 22
108.0059359344786
 13
0.0
 23
0.0
 14
0.5
 24
0.5
 15
0.5
 25
0.5
 16
0.0
 26
0.0
 36
1.0
 17
-27.66959356597974
 27
-19.53870295786206
 37
0.0
 40
111.4227421997541
 41
1.943696450428397
 42
50.0
 43
0.0
 44
0.0
 50
0.0
 51
0.0
 71
    16
 72
  1000
 73
     1
 74
     3
 75
     0
 76
     0
 77
     0
 78
     0
  0
ENDTAB
  0
TABLE
  2
LTYPE
  5
5
330
0
100
AcDbSymbolTable
 70
     1
  0
LTYPE
  5
14
330
5
100
AcDbSymbolTableRecord
100
AcDbLinetypeTableRecord
  2
BYBLOCK
 70
     0
  3

 72
    65
 73
     0
 40
0.0
  0
LTYPE
  5
15
330
5
100
AcDbSymbolTableRecord
100
AcDbLinetypeTableRecord
  2
BYLAYER
 70
     0
  3

 72
    65
 73
     0
 40
0.0
  0
LTYPE
  5
16
330
5
100
AcDbSymbolTableRecord
100
AcDbLinetypeTableRecord
  2
CONTINUOUS
 70
     0
  3
Solid line
 72
    65
 73
     0
 40
0.0
  0
ENDTAB
  0
TABLE
  2
LAYER
  5
2
330
0
100
AcDbSymbolTable
 70
     5
  0
LAYER
  5
10
330
2
100
AcDbSymbolTableRecord
100
AcDbLayerTableRecord
  2
0
 70
     0
 62
     7
  6
CONTINUOUS
  0
LAYER
  5
125
330
2
100
AcDbSymbolTableRecord
100
AcDbLayerTableRecord
  2
DEFPOINTS
 70
     0
 62
     7
  6
CONTINUOUS
  0
LAYER
  5
126
330
2
100
AcDbSymbolTableRecord
100
AcDbLayerTableRecord
  2
OBRYS
 70
     0
 62
     5
  6
CONTINUOUS
  0
LAYER
  5
128
330
2
100
AcDbSymbolTableRecord
100
AcDbLayerTableRecord
  2
KOTY
 70
     0
 62
     1
  6
CONTINUOUS
  0
LAYER
  5
6E7
330
2
100
AcDbSymbolTableRecord
100
AcDbLayerTableRecord
  2
VRSTVA_1
 70
     0
 62
     7
  6
CONTINUOUS
  0
ENDTAB
  0
TABLE
  2
STYLE
  5
3
330
0
100
AcDbSymbolTable
 70
     1
  0
STYLE
  5
11
330
3
100
AcDbSymbolTableRecord
100
AcDbTextStyleTableRecord
  2
STANDARD
 70
     0
 40
0.0
 41
1.0
 50
0.0
 71
     0
 42
0.2
  3
arial.ttf
  4

1001
ACAD
1000
Arial
1071
        0
  0
ENDTAB
  0
TABLE
  2
VIEW
  5
6
330
0
100
AcDbSymbolTable
 70
     0
  0
ENDTAB
  0
TABLE
  2
UCS
  5
7
330
0
100
AcDbSymbolTable
 70
     0
  0
ENDTAB
  0
TABLE
  2
APPID
  5
9
330
0
100
AcDbSymbolTable
 70
     1
  0
APPID
  5
12
330
9
100
AcDbSymbolTableRecord
100
AcDbRegAppTableRecord
  2
ACAD
 70
     0
  0
ENDTAB
  0
TABLE
  2
DIMSTYLE
  5
A
330
0
100
AcDbSymbolTable
 70
     2
  0
DIMSTYLE
105
27
330
A
100
AcDbSymbolTableRecord
100
AcDbDimStyleTableRecord
  2
STANDARD
 70
     0
  3

  4

  5

  6

  7

 40
1.0
 41
0.18
 42
0.0625
 43
0.38
 44
0.18
 45
0.0
 46
0.0
 47
0.0
 48
0.0
140
0.18
141
0.09
142
0.0
143
25.4
144
1.0
145
0.0
146
1.0
147
0.09
 71
     0
 72
     0
 73
     1
 74
     1
 75
     0
 76
     0
 77
     0
 78
     0
170
     0
171
     2
172
     0
173
     0
174
     0
175
     0
176
     0
177
     0
178
     0
270
     2
271
     4
272
     4
273
     2
274
     2
340
11
275
     0
280
     0
281
     0
282
     0
283
     1
284
     0
285
     0
286
     0
287
     3
288
     0
  0
DIMSTYLE
105
129
102
{ACAD_REACTORS
330
557
330
559
330
55C
102
}
330
A
100
AcDbSymbolTableRecord
100
AcDbDimStyleTableRecord
  2
ISO-25
 70
     0
  3

  4

  5

  6

  7

 40
1.0
 41
6.0
 42
0.0
 43
3.75
 44
1.25
 45
0.0
 46
0.0
 47
0.0
 48
0.0
140
3.0
141
2.5
142
0.0
143
0.03937007874016
144
1.0
145
0.0
146
1.0
147
0.625
 71
     0
 72
     0
 73
     0
 74
     1
 75
     0
 76
     0
 77
     1
 78
     8
170
     0
171
     3
172
     1
173
     0
174
     0
175
     0
176
     5
177
     5
178
     5
270
     2
271
     4
272
     4
273
     2
274
     2
340
11
275
     0
280
     0
281
     0
282
     0
283
     1
284
     0
285
     0
286
     0
287
     3
288
     0
  0
ENDTAB
  0
TABLE
  2
BLOCK_RECORD
  5
1
330
0
100
AcDbSymbolTable
 70
     8
  0
BLOCK_RECORD
  5
1F
330
1
100
AcDbSymbolTableRecord
100
AcDbBlockTableRecord
  2
*MODEL_SPACE
  0
BLOCK_RECORD
  5
58
330
1
100
AcDbSymbolTableRecord
100
AcDbBlockTableRecord
  2
*PAPER_SPACE
  0
BLOCK_RECORD
  5
5D
330
1
100
AcDbSymbolTableRecord
100
AcDbBlockTableRecord
  2
*PAPER_SPACE0
  0
BLOCK_RECORD
  5
591
330
1
100
AcDbSymbolTableRecord
100
AcDbBlockTableRecord
  2
*D1
  0
BLOCK_RECORD
  5
59D
330
1
100
AcDbSymbolTableRecord
100
AcDbBlockTableRecord
  2
*D2
  0
BLOCK_RECORD
  5
5A9
330
1
100
AcDbSymbolTableRecord
100
AcDbBlockTableRecord
  2
*D3
  0
BLOCK_RECORD
  5
5B5
330
1
100
AcDbSymbolTableRecord
100
AcDbBlockTableRecord
  2
*D4
  0
BLOCK_RECORD
  5
1092
330
1
100
AcDbSymbolTableRecord
100
AcDbBlockTableRecord
  2
*D6
  0
BLOCK_RECORD
  5
10A2
330
1
100
AcDbSymbolTableRecord
100
AcDbBlockTableRecord
  2
*D7
  0
ENDTAB
  0
ENDSEC
  0
SECTION
  2
BLOCKS
  0
BLOCK
  5
20
330
1F
100
AcDbEntity
  8
0
100
AcDbBlockBegin
  2
*MODEL_SPACE
 70
     0
 10
0.0
 20
0.0
 30
0.0
  3
*MODEL_SPACE
  1

  0
ENDBLK
  5
21
330
1F
100
AcDbEntity
  8
0
100
AcDbBlockEnd
  0
BLOCK
  5
5A
330
58
100
AcDbEntity
 67
     1
  8
0
100
AcDbBlockBegin
  2
*PAPER_SPACE
 70
     0
 10
0.0
 20
0.0
 30
0.0
  3
*PAPER_SPACE
  1

  0
ENDBLK
  5
5B
330
58
100
AcDbEntity
 67
     1
  8
0
100
AcDbBlockEnd
  0
BLOCK
  5
5F
330
5D
100
AcDbEntity
  8
0
100
AcDbBlockBegin
  2
*PAPER_SPACE0
 70
     0
 10
0.0
 20
0.0
 30
0.0
  3
*PAPER_SPACE0
  1
*PAPER_SPACE0
  0
ENDBLK
  5
60
330
5D
100
AcDbEntity
  8
0
100
AcDbBlockEnd
  0
BLOCK
  5
592
330
591
100
AcDbEntity
  8
0
100
AcDbBlockBegin
  2
*D1
 70
     1
 10
0.0
 20
0.0
 30
0.0
  3
*D1
  1
*D6
  0
LINE
  5
594
330
591
100
AcDbEntity
  8
KOTY
100
AcDbLine
 10
85.50236987956734
 20
103.8672398848925
 30
0.0
 11
85.50236987956734
 21
122.8004493592366
 31
0.0
  0
LINE
  5
595
330
591
100
AcDbEntity
  8
KOTY
100
AcDbLine
 10
175.1029300242678
 20
103.8672398848925
 30
0.0
 11
175.1029300242678
 21
122.8004493592366
 31
0.0
  0
LINE
  5
596
330
591
100
AcDbEntity
  8
KOTY
100
AcDbLine
 10
89.50236987956734
 20
121.5504493592366
 30
0.0
 11
171.1029300242678
 21
121.5504493592366
 31
0.0
  0
SOLID
  5
597
330
591
100
AcDbEntity
  8
KOTY
100
AcDbTrace
 10
89.50236987956734
 20
122.2171160259033
 30
0.0
 11
89.50236987956734
 21
120.8837826925699
 31
0.0
 12
85.50236987956734
 22
121.5504493592366
 32
0.0
 13
85.50236987956734
 23
121.5504493592366
 33
0.0
  0
SOLID
  5
598
330
591
100
AcDbEntity
  8
KOTY
100
AcDbTrace
 10
171.1029300242678
 20
120.8837826925699
 30
0.0
 11
171.1029300242678
 21
122.2171160259033
 31
0.0
 12
175.1029300242678
 22
121.5504493592366
 32
0.0
 13
175.1029300242678
 23
121.5504493592366
 33
0.0
  0
MTEXT
  5
599
330
591
100
AcDbEntity
  8
KOTY
100
AcDbMText
 10
130.3026499519176
 20
124.5924493592366
 30
0.0
 40
4.0
 41
0.0
 71
     5
 72
     1
  1
\A1;90
  0
POINT
  5
59A
330
591
100
AcDbEntity
  8
DEFPOINTS
 62
     0
100
AcDbPoint
 10
85.50236987956734
 20
103.8672398848925
 30
0.0
  0
POINT
  5
59B
330
591
100
AcDbEntity
  8
DEFPOINTS
 62
     0
100
AcDbPoint
 10
175.1029300242678
 20
103.8672398848925
 30
0.0
  0
POINT
  5
59C
330
591
100
AcDbEntity
  8
DEFPOINTS
 62
     0
100
AcDbPoint
 10
175.1029300242678
 20
121.5504493592366
 30
0.0
  0
ENDBLK
  5
593
330
591
100
AcDbEntity
  8
0
100
AcDbBlockEnd
  0
BLOCK
  5
59E
330
59D
100
AcDbEntity
  8
0
100
AcDbBlockBegin
  2
*D2
 70
     1
 10
0.0
 20
0.0
 30
0.0
  3
*D2
  1
*D7
  0
LINE
  5
5A0
330
59D
100
AcDbEntity
  8
KOTY
100
AcDbLine
 10
86.30283781556508
 20
104.2176060957415
 30
0.0
 11
64.99713736595558
 21
104.2176060957415
 31
0.0
  0
LINE
  5
5A1
330
59D
100
AcDbEntity
  8
KOTY
100
AcDbLine
 10
86.30283781556508
 20
56.71749081898854
 30
0.0
 11
64.99713736595558
 21
56.71749081898854
 31
0.0
  0
LINE
  5
5A2
330
59D
100
AcDbEntity
  8
KOTY
100
AcDbLine
 10
66.24713736595558
 20
100.2176060957415
 30
0.0
 11
66.24713736595558
 21
60.71749081898854
 31
0.0
  0
SOLID
  5
5A3
330
59D
100
AcDbEntity
  8
KOTY
100
AcDbTrace
 10
66.91380403262225
 20
100.2176060957415
 30
0.0
 11
65.58047069928891
 21
100.2176060957415
 31
0.0
 12
66.24713736595558
 22
104.2176060957415
 32
0.0
 13
66.24713736595558
 23
104.2176060957415
 33
0.0
  0
SOLID
  5
5A4
330
59D
100
AcDbEntity
  8
KOTY
100
AcDbTrace
 10
65.58047069928891
 20
60.71749081898854
 30
0.0
 11
66.91380403262225
 21
60.71749081898854
 31
0.0
 12
66.24713736595558
 22
56.71749081898854
 32
0.0
 13
66.24713736595558
 23
56.71749081898854
 33
0.0
  0
MTEXT
  5
5A5
330
59D
100
AcDbEntity
  8
KOTY
100
AcDbMText
 10
63.20513736595558
 20
80.46754845736501
 30
0.0
 40
4.0
 41
0.0
 71
     5
 72
     1
  1
\A1;48
 11
0.0
 21
1.0
 31
0.0
  0
POINT
  5
5A6
330
59D
100
AcDbEntity
  8
DEFPOINTS
 62
     0
100
AcDbPoint
 10
86.30283781556508
 20
104.2176060957415
 30
0.0
  0
POINT
  5
5A7
330
59D
100
AcDbEntity
  8
DEFPOINTS
 62
     0
100
AcDbPoint
 10
86.30283781556508
 20
56.71749081898854
 30
0.0
  0
POINT
  5
5A8
330
59D
100
AcDbEntity
  8
DEFPOINTS
 62
     0
100
AcDbPoint
 10
66.24713736595558
 20
56.71749081898854
 30
0.0
  0
ENDBLK
  5
59F
330
59D
100
AcDbEntity
  8
0
100
AcDbBlockEnd
  0
BLOCK
  5
5AA
330
5A9
100
AcDbEntity
  8
0
100
AcDbBlockBegin
  2
*D3
 70
     1
 10
0.0
 20
0.0
 30
0.0
  3
*D3
  1
*D8
  0
LINE
  5
5AC
330
5A9
100
AcDbEntity
  8
KOTY
100
AcDbLine
 10
86.30283781556508
 20
104.2176060957415
 30
0.0
 11
48.0244460197766
 21
104.2176060957415
 31
0.0
  0
LINE
  5
5AD
330
5A9
100
AcDbEntity
  8
KOTY
100
AcDbLine
 10
117.0526126560306
 20
49.81713681680747
 30
0.0
 11
48.0244460197766
 21
49.81713681680748
 31
0.0
  0
LINE
  5
5AE
330
5A9
100
AcDbEntity
  8
KOTY
100
AcDbLine
 10
49.2744460197766
 20
100.2176060957415
 30
0.0
 11
49.2744460197766
 21
53.81713681680748
 31
0.0
  0
SOLID
  5
5AF
330
5A9
100
AcDbEntity
  8
KOTY
100
AcDbTrace
 10
49.94111268644326
 20
100.2176060957415
 30
0.0
 11
48.60777935310993
 21
100.2176060957415
 31
0.0
 12
49.2744460197766
 22
104.2176060957415
 32
0.0
 13
49.2744460197766
 23
104.2176060957415
 33
0.0
  0
SOLID
  5
5B0
330
5A9
100
AcDbEntity
  8
KOTY
100
AcDbTrace
 10
48.60777935310993
 20
53.81713681680748
 30
0.0
 11
49.94111268644326
 21
53.81713681680748
 31
0.0
 12
49.2744460197766
 22
49.81713681680748
 32
0.0
 13
49.2744460197766
 23
49.81713681680748
 33
0.0
  0
MTEXT
  5
5B1
330
5A9
100
AcDbEntity
  8
KOTY
100
AcDbMText
 10
46.24044601977659
 20
77.01737145627449
 30
0.0
 40
4.0
 41
0.0
 71
     5
 72
     1
  1
\A1;54
 11
0.0
 21
1.0
 31
0.0
  0
POINT
  5
5B2
330
5A9
100
AcDbEntity
  8
DEFPOINTS
 62
     0
100
AcDbPoint
 10
86.30283781556508
 20
104.2176060957415
 30
0.0
  0
POINT
  5
5B3
330
5A9
100
AcDbEntity
  8
DEFPOINTS
 62
     0
100
AcDbPoint
 10
117.0526126560306
 20
49.81713681680747
 30
0.0
  0
POINT
  5
5B4
330
5A9
100
AcDbEntity
  8
DEFPOINTS
 62
     0
100
AcDbPoint
 10
49.2744460197766
 20
49.81713681680748
 30
0.0
  0
ENDBLK
  5
5AB
330
5A9
100
AcDbEntity
  8
0
100
AcDbBlockEnd
  0
BLOCK
  5
5B6
330
5B5
100
AcDbEntity
  8
0
100
AcDbBlockBegin
  2
*D4
 70
     1
 10
0.0
 20
0.0
 30
0.0
  3
*D4
  1
*D9
  0
LINE
  5
5B8
330
5B5
100
AcDbEntity
  8
KOTY
100
AcDbLine
 10
209.3929405793911
 20
101.337079616255
 30
0.0
 11
209.3929405793911
 21
122.8004493592366
 31
0.0
  0
LINE
  5
5B9
330
5B5
100
AcDbEntity
  8
KOTY
100
AcDbLine
 10
234.4428489910593
 20
101.3172919857388
 30
0.0
 11
234.4428489910593
 21
122.8004493592366
 31
0.0
  0
LINE
  5
5BA
330
5B5
100
AcDbEntity
  8
KOTY
100
AcDbLine
 10
213.3929405793911
 20
121.5504493592366
 30
0.0
 11
230.4428489910593
 21
121.5504493592366
 31
0.0
  0
SOLID
  5
5BB
330
5B5
100
AcDbEntity
  8
KOTY
100
AcDbTrace
 10
213.3929405793911
 20
122.2171160259033
 30
0.0
 11
213.3929405793911
 21
120.8837826925699
 31
0.0
 12
209.3929405793911
 22
121.5504493592366
 32
0.0
 13
209.3929405793911
 23
121.5504493592366
 33
0.0
  0
SOLID
  5
5BC
330
5B5
100
AcDbEntity
  8
KOTY
100
AcDbTrace
 10
230.4428489910593
 20
120.8837826925699
 30
0.0
 11
230.4428489910593
 21
122.2171160259033
 31
0.0
 12
234.4428489910593
 22
121.5504493592366
 32
0.0
 13
234.4428489910593
 23
121.5504493592366
 33
0.0
  0
MTEXT
  5
5BD
330
5B5
100
AcDbEntity
  8
KOTY
100
AcDbMText
 10
221.9178947852252
 20
124.2174493592366
 30
0.0
 40
4.0
 41
0.0
 71
     5
 72
     1
  1
\A1;25
  0
POINT
  5
5BE
330
5B5
100
AcDbEntity
  8
DEFPOINTS
 62
     0
100
AcDbPoint
 10
209.3929405793911
 20
101.337079616255
 30
0.0
  0
POINT
  5
5BF
330
5B5
100
AcDbEntity
  8
DEFPOINTS
 62
     0
100
AcDbPoint
 10
234.4428489910593
 20
101.3172919857388
 30
0.0
  0
POINT
  5
5C0
330
5B5
100
AcDbEntity
  8
DEFPOINTS
 62
     0
100
AcDbPoint
 10
234.4428489910593
 20
121.5504493592366
 30
0.0
  0
ENDBLK
  5
5B7
330
5B5
100
AcDbEntity
  8
0
100
AcDbBlockEnd
  0
BLOCK
  5
1093
330
1092
100
AcDbEntity
  8
0
100
AcDbBlockBegin
  2
*D6
 70
     1
 10
0.0
 20
0.0
 30
0.0
  3
*D6
  1
*D6
  0
LINE
  5
1095
330
1092
100
AcDbEntity
  8
0
 62
     0
100
AcDbLine
 10
230.5514367870654
 20
92.31742000005907
 30
0.0
 11
241.0956195825338
 21
92.31742000005907
 31
0.0
  0
LINE
  5
1096
330
1092
100
AcDbEntity
  8
0
 62
     0
100
AcDbLine
 10
221.9801875901108
 20
103.9173964237481
 30
0.0
 11
241.0956195825338
 21
103.9173964237481
 31
0.0
  0
LINE
  5
1097
330
1092
100
AcDbEntity
  8
0
 62
     0
100
AcDbLine
 10
240.9156195825338
 20
92.49742000005908
 30
0.0
 11
240.9156195825338
 21
97.93551821190357
 31
0.0
  0
LINE
  5
1098
330
1092
100
AcDbEntity
  8
0
 62
     0
100
AcDbLine
 10
240.9156195825338
 20
103.7373964237481
 30
0.0
 11
240.9156195825338
 21
98.29929821190359
 31
0.0
  0
SOLID
  5
1099
330
1092
100
AcDbEntity
  8
0
 62
     0
100
AcDbTrace
 10
240.8856195825338
 20
92.49742000005908
 30
0.0
 11
240.9456195825338
 21
92.49742000005908
 31
0.0
 12
240.9156195825338
 22
92.31742000005907
 32
0.0
 13
240.9156195825338
 23
92.31742000005907
 33
0.0
  0
SOLID
  5
109A
330
1092
100
AcDbEntity
  8
0
 62
     0
100
AcDbTrace
 10
240.9456195825338
 20
103.7373964237481
 30
0.0
 11
240.8856195825338
 21
103.7373964237481
 31
0.0
 12
240.9156195825338
 22
103.9173964237481
 32
0.0
 13
240.9156195825338
 23
103.9173964237481
 33
0.0
  0
MTEXT
  5
109B
330
1092
100
AcDbEntity
  8
0
 62
     0
100
AcDbMText
 10
240.9156195825338
 20
98.11740821190358
 30
0.0
 40
0.18
 41
0.0
 71
     5
 72
     1
  1
\A1;11.6000
  0
POINT
  5
109C
330
1092
100
AcDbEntity
  8
DEFPOINTS
 62
     0
100
AcDbPoint
 10
230.4889367870654
 20
92.31742000005907
 30
0.0
  0
POINT
  5
109D
330
1092
100
AcDbEntity
  8
DEFPOINTS
 62
     0
100
AcDbPoint
 10
221.9176875901108
 20
103.9173964237481
 30
0.0
  0
POINT
  5
109E
330
1092
100
AcDbEntity
  8
DEFPOINTS
 62
     0
100
AcDbPoint
 10
240.9156195825338
 20
103.9173964237481
 30
0.0
  0
ENDBLK
  5
1094
330
1092
100
AcDbEntity
  8
0
100
AcDbBlockEnd
  0
BLOCK
  5
10A3
330
10A2
100
AcDbEntity
  8
0
100
AcDbBlockBegin
  2
*D7
 70
     1
 10
0.0
 20
0.0
 30
0.0
  3
*D7
  1
*D7
  0
LINE
  5
10A5
330
10A2
100
AcDbEntity
  8
0
 62
     0
100
AcDbLine
 10
230.0062367870654
 20
92.37992000005907
 30
0.0
 11
230.0062367870654
 21
108.9081693409216
 31
0.0
  0
LINE
  5
10A6
330
10A2
100
AcDbEntity
  8
0
 62
     0
100
AcDbLine
 10
221.9176875901108
 20
103.9798964237481
 30
0.0
 11
221.9176875901108
 21
108.9081693409216
 31
0.0
  0
LINE
  5
10A7
330
10A2
100
AcDbEntity
  8
0
 62
     0
100
AcDbLine
 10
229.8262367870654
 20
108.7281693409216
 30
0.0
 11
226.4259121885881
 21
108.7281693409216
 31
0.0
  0
LINE
  5
10A8
330
10A2
100
AcDbEntity
  8
0
 62
     0
100
AcDbLine
 10
222.0976875901108
 20
108.7281693409216
 30
0.0
 11
225.4980121885881
 21
108.7281693409216
 31
0.0
  0
SOLID
  5
10A9
330
10A2
100
AcDbEntity
  8
0
 62
     0
100
AcDbTrace
 10
229.8262367870654
 20
108.6981693409216
 30
0.0
 11
229.8262367870654
 21
108.7581693409216
 31
0.0
 12
230.0062367870654
 22
108.7281693409216
 32
0.0
 13
230.0062367870654
 23
108.7281693409216
 33
0.0
  0
SOLID
  5
10AA
330
10A2
100
AcDbEntity
  8
0
 62
     0
100
AcDbTrace
 10
222.0976875901108
 20
108.7581693409216
 30
0.0
 11
222.0976875901108
 21
108.6981693409216
 31
0.0
 12
221.9176875901108
 22
108.7281693409216
 32
0.0
 13
221.9176875901108
 23
108.7281693409216
 33
0.0
  0
MTEXT
  5
10AB
330
10A2
100
AcDbEntity
  8
0
 62
     0
100
AcDbMText
 10
225.9619621885881
 20
108.7281693409216
 30
0.0
 40
0.18
 41
0.0
 71
     5
 72
     1
  1
\A1;8.0885
  0
POINT
  5
10AC
330
10A2
100
AcDbEntity
  8
DEFPOINTS
 62
     0
100
AcDbPoint
 10
230.0062367870654
 20
92.31742000005907
 30
0.0
  0
POINT
  5
10AD
330
10A2
100
AcDbEntity
  8
DEFPOINTS
 62
     0
100
AcDbPoint
 10
221.9176875901108
 20
103.9173964237481
 30
0.0
  0
POINT
  5
10AE
330
10A2
100
AcDbEntity
  8
DEFPOINTS
 62
     0
100
AcDbPoint
 10
221.9176875901108
 20
108.7281693409216
 30
0.0
  0
ENDBLK
  5
10A4
330
10A2
100
AcDbEntity
  8
0
100
AcDbBlockEnd
  0
ENDSEC
  0
SECTION
  2
ENTITIES
  0
LWPOLYLINE
  5
49B
330
1F
100
AcDbEntity
  8
OBRYS
100
AcDbPolyline
 90
        2
 70
     0
 43
0.0
 10
177.2721343965554
 20
97.86760609732954
 10
177.2643829317137
 20
97.87225697623461
  0
LWPOLYLINE
  5
49C
330
1F
100
AcDbEntity
  8
OBRYS
100
AcDbPolyline
 90
        2
 70
     0
 43
0.0
 10
177.2643829317137
 20
100.8622553478826
 10
177.2721343965554
 20
100.8675952458854
  0
LWPOLYLINE
  5
49D
330
1F
100
AcDbEntity
  8
OBRYS
100
AcDbPolyline
 90
        7
 70
     0
 43
0.0
 10
175.1029300242678
 20
96.56759931597043
 10
176.516471147646
 20
96.56759931597043
 42
0.277506992092949
 10
176.7372875284916
 20
96.7003810326259
 10
177.0542321071133
 20
97.29744279452046
 10
177.6021354207927
 20
98.7279591020594
 42
0.5248895955304514
 10
177.3694562093366
 20
99.06737624176793
 10
177.2643829317137
 20
99.0677051096165
  0
LWPOLYLINE
  5
49E
330
1F
100
AcDbEntity
  8
OBRYS
100
AcDbPolyline
 90
        7
 70
     0
 43
0.0
 10
177.2643829317137
 20
99.66749623359846
 10
177.3686349709471
 20
99.66749623359846
 42
0.5259202862586583
 10
177.6020876189478
 20
100.0069381764521
 10
177.0542321071133
 20
101.4368972748225
 10
176.7369472419102
 20
102.0347910906482
 42
0.2775426205144201
 10
176.5161153524138
 20
102.1676020272445
 10
175.1029300242678
 20
102.1676020272445
  0
LWPOLYLINE
  5
49F
330
1F
100
AcDbEntity
  8
OBRYS
100
AcDbPolyline
 90
        2
 70
     0
 43
0.0
 10
177.4845245332213
 20
99.06701609051942
 10
177.4845245332213
 20
99.06701609051942
  0
LWPOLYLINE
  5
4A0
330
1F
100
AcDbEntity
  8
OBRYS
100
AcDbPolyline
 90
        2
 70
     0
 43
0.0
 10
177.2721343965554
 20
97.86760609732954
 10
177.2721343965554
 20
97.86760609732954
  0
LWPOLYLINE
  5
4A1
330
1F
100
AcDbEntity
  8
OBRYS
100
AcDbPolyline
 90
        2
 70
     0
 43
0.0
 10
177.2643829317137
 20
100.8622553478826
 10
177.2643829317137
 20
100.8622553478826
  0
LWPOLYLINE
  5
4A2
330
1F
100
AcDbEntity
  8
OBRYS
100
AcDbPolyline
 90
        2
 70
     0
 43
0.0
 10
177.2721343965554
 20
100.8672507363364
 10
177.2721343965554
 20
100.8675952458854
  0
LWPOLYLINE
  5
4A3
330
1F
100
AcDbEntity
  8
OBRYS
100
AcDbPolyline
 90
        2
 70
     0
 43
0.0
 10
177.4845245332213
 20
99.66749623359846
 10
177.4845245332213
 20
99.66749623359846
  0
LWPOLYLINE
  5
4A4
330
1F
100
AcDbEntity
  8
OBRYS
100
AcDbPolyline
 90
        2
 70
     0
 43
0.0
 10
177.2721343965554
 20
67.56747454023451
 10
177.2643829317137
 20
67.57212541913958
  0
LWPOLYLINE
  5
4A5
330
1F
100
AcDbEntity
  8
OBRYS
100
AcDbPolyline
 90
        2
 70
     0
 43
0.0
 10
177.2643829317137
 20
70.56264055511059
 10
177.2721343965554
 20
70.56711917924162
  0
LWPOLYLINE
  5
4A6
330
1F
100
AcDbEntity
  8
OBRYS
100
AcDbPolyline
 90
        7
 70
     0
 43
0.0
 10
175.1029300242678
 20
66.2671232493264
 10
176.5160954130303
 20
66.2671232493264
 42
0.2774713465558348
 10
176.7368962736207
 20
66.39987573352067
 10
177.0542321071133
 20
66.99748349219948
 10
177.602219609754
 20
68.42778710011879
 42
0.5259202862584886
 10
177.3687669617532
 20
68.76722904297247
 10
177.2643829317137
 20
68.76722904297247
  0
LWPOLYLINE
  5
4A7
330
1F
100
AcDbEntity
  8
OBRYS
100
AcDbPolyline
 90
        7
 70
     0
 43
0.0
 10
177.2643829317137
 20
69.36736467650343
 10
177.3683362196579
 20
69.36736467650343
 42
0.525823641449903
 10
177.6018159429532
 20
69.70673591801864
 10
177.0542321071133
 20
71.13728248205047
 10
176.7368707550478
 20
71.73474723094245
 42
0.2774356838908463
 10
176.5160854263285
 20
71.86747047014859
 10
175.1029300242678
 20
71.86747047014859
  0
LWPOLYLINE
  5
4A8
330
1F
100
AcDbEntity
  8
OBRYS
100
AcDbPolyline
 90
        2
 70
     0
 43
0.0
 10
177.4845245332213
 20
68.76722904297247
 10
177.4845245332213
 20
68.76722904297247
  0
LWPOLYLINE
  5
4A9
330
1F
100
AcDbEntity
  8
OBRYS
100
AcDbPolyline
 90
        2
 70
     0
 43
0.0
 10
177.2721343965554
 20
67.56747454023451
 10
177.2721343965554
 20
67.56747454023451
  0
LWPOLYLINE
  5
4AA
330
1F
100
AcDbEntity
  8
OBRYS
100
AcDbPolyline
 90
        2
 70
     0
 43
0.0
 10
177.2643829317137
 20
70.56264055511059
 10
177.2643829317137
 20
70.56264055511059
  0
LWPOLYLINE
  5
4AB
330
1F
100
AcDbEntity
  8
OBRYS
100
AcDbPolyline
 90
        2
 70
     0
 43
0.0
 10
177.2721343965554
 20
70.56711917924162
 10
177.2721343965554
 20
70.56711917924162
  0
LWPOLYLINE
  5
4AC
330
1F
100
AcDbEntity
  8
OBRYS
100
AcDbPolyline
 90
        2
 70
     0
 43
0.0
 10
177.4845245332213
 20
69.36736467650343
 10
177.4845245332213
 20
69.36736467650343
  0
LWPOLYLINE
  5
4AD
330
1F
100
AcDbEntity
  8
OBRYS
100
AcDbPolyline
 90
        2
 70
     0
 43
0.0
 10
83.12077537061404
 20
99.06701609051942
 10
83.12077537061404
 20
99.06701609051942
  0
LWPOLYLINE
  5
4AE
330
1F
100
AcDbEntity
  8
OBRYS
100
AcDbPolyline
 90
        2
 70
     0
 43
0.0
 10
83.33316550727974
 20
97.86760609732954
 10
83.33316550727974
 20
97.86760609732954
  0
LWPOLYLINE
  5
4AF
330
1F
100
AcDbEntity
  8
OBRYS
100
AcDbPolyline
 90
        2
 70
     0
 43
0.0
 10
83.34091697212168
 20
100.8622553478826
 10
83.34091697212168
 20
100.8622553478826
  0
LWPOLYLINE
  5
4B0
330
1F
100
AcDbEntity
  8
OBRYS
100
AcDbPolyline
 90
        2
 70
     0
 43
0.0
 10
83.33316550727974
 20
100.8672507363364
 10
83.33316550727974
 20
100.8675952458854
  0
LWPOLYLINE
  5
4B1
330
1F
100
AcDbEntity
  8
OBRYS
100
AcDbPolyline
 90
        2
 70
     0
 43
0.0
 10
83.12077537061404
 20
99.66749623359846
 10
83.12077537061404
 20
99.66749623359846
  0
LWPOLYLINE
  5
4B2
330
1F
100
AcDbEntity
  8
OBRYS
100
AcDbPolyline
 90
        2
 70
     0
 43
0.0
 10
83.12077537061404
 20
68.76722904297247
 10
83.12077537061404
 20
68.76722904297247
  0
LWPOLYLINE
  5
4B3
330
1F
100
AcDbEntity
  8
OBRYS
100
AcDbPolyline
 90
        2
 70
     0
 43
0.0
 10
83.33316550727974
 20
67.56747454023451
 10
83.33316550727974
 20
67.56747454023451
  0
LWPOLYLINE
  5
4B4
330
1F
100
AcDbEntity
  8
OBRYS
100
AcDbPolyline
 90
        2
 70
     0
 43
0.0
 10
83.12077537061404
 20
69.36736467650343
 10
83.12077537061404
 20
69.36736467650343
  0
LWPOLYLINE
  5
4B5
330
1F
100
AcDbEntity
  8
OBRYS
100
AcDbPolyline
 90
        7
 70
     0
 43
0.0
 10
83.34091697212168
 20
99.0677051096165
 10
83.23670758063517
 20
99.06737894563679
 42
0.5247214455279277
 10
83.00398124639102
 20
98.72808493562428
 10
83.55106779672175
 20
97.29744279452046
 10
83.86801237534357
 20
96.7003810326259
 42
0.2775069920927901
 10
84.08882875618926
 20
96.56759931597043
 10
85.50236987956734
 20
96.56759931597043
  0
LWPOLYLINE
  5
4B6
330
1F
100
AcDbEntity
  8
OBRYS
100
AcDbPolyline
 90
        7
 70
     0
 43
0.0
 10
83.34091697212168
 20
99.66749623359846
 10
83.23752977756257
 20
99.66749623359846
 42
-0.525751955619958
 10
83.00402998373565
 20
100.0068150237984
 10
83.55106779672175
 20
101.4368972748225
 10
83.86835266192472
 20
102.0347910906482
 42
-0.2775426205137559
 10
84.08918455142131
 20
102.1676020272445
 10
85.50236987956734
 20
102.1676020272445
  0
LWPOLYLINE
  5
4B7
330
1F
100
AcDbEntity
  8
OBRYS
100
AcDbPolyline
 90
        7
 70
     0
 43
0.0
 10
85.50236987956734
 20
66.2671232493264
 10
84.08920449080503
 20
66.2671232493264
 42
-0.2774713465551575
 10
83.86840363021494
 20
66.39987573352045
 10
83.55106779672175
 20
66.99748349219948
 10
83.0038982012812
 20
68.42791025277273
 42
-0.5257519556197878
 10
83.23739799510824
 20
68.76722904297247
 10
83.34091697212168
 20
68.76722904297247
  0
LWPOLYLINE
  5
4B8
330
1F
100
AcDbEntity
  8
OBRYS
100
AcDbPolyline
 90
        7
 70
     0
 43
0.0
 10
83.34091697212168
 20
69.36736467650343
 10
83.23782809994802
 20
69.36736467650343
 42
-0.5256554378022379
 10
83.00430129989522
 20
69.70661283422754
 10
83.55106779672175
 20
71.13728248205047
 10
83.8684291487875
 20
71.73474723094245
 42
-0.2774356838905651
 10
84.08921447750672
 20
71.86747047014859
 10
85.50236987956734
 20
71.86747047014859
  0
LWPOLYLINE
  5
4B9
330
1F
100
AcDbEntity
  8
OBRYS
100
AcDbPolyline
 90
        2
 70
     0
 43
0.0
 10
175.1029300242678
 20
64.4672331130584
 10
174.3024620882702
 20
64.4672331130584
  0
LWPOLYLINE
  5
4BA
330
1F
100
AcDbEntity
  8
OBRYS
100
AcDbPolyline
 90
        2
 70
     0
 43
0.0
 10
174.3024620882702
 20
84.16715037158741
 10
174.3024620882702
 20
84.11237335337245
  0
LWPOLYLINE
  5
4BB
330
1F
100
AcDbEntity
  8
OBRYS
100
AcDbPolyline
 90
        2
 70
     0
 43
0.0
 10
174.3024620882702
 20
78.09120771902661
 10
174.3024620882702
 20
77.88381297081554
  0
LWPOLYLINE
  5
4BC
330
1F
100
AcDbEntity
  8
OBRYS
100
AcDbPolyline
 90
        2
 70
     0
 43
0.0
 10
174.3024620882702
 20
77.05750681867761
 10
174.3024620882702
 20
76.8504565800144
  0
LWPOLYLINE
  5
4BD
330
1F
100
AcDbEntity
  8
OBRYS
100
AcDbPolyline
 90
        2
 70
     0
 43
0.0
 10
175.1029300242678
 20
76.26737416913551
 10
174.3024620882702
 20
76.26737416913551
  0
LWPOLYLINE
  5
4BE
330
1F
100
AcDbEntity
  8
OBRYS
100
AcDbPolyline
 90
        2
 70
     0
 43
0.0
 10
175.1029300242678
 20
68.76722904297247
 10
174.3024620882702
 20
68.76722904297247
  0
LWPOLYLINE
  5
4BF
330
1F
100
AcDbEntity
  8
OBRYS
100
AcDbPolyline
 90
        2
 70
     0
 43
0.0
 10
85.50236987956734
 20
103.8672398848925
 10
86.30283781556508
 20
103.8672398848925
  0
LWPOLYLINE
  5
4C0
330
1F
100
AcDbEntity
  8
OBRYS
100
AcDbPolyline
 90
        2
 70
     0
 43
0.0
 10
86.30283781556508
 20
84.16715037158741
 10
86.30283781556508
 20
84.32200741364949
  0
LWPOLYLINE
  5
4C1
330
1F
100
AcDbEntity
  8
OBRYS
100
AcDbPolyline
 90
        2
 70
     0
 43
0.0
 10
85.50236987956734
 20
92.06761559313753
 10
86.30283781556508
 20
92.06761559313753
  0
LWPOLYLINE
  5
4C2
330
1F
100
AcDbEntity
  8
OBRYS
100
AcDbPolyline
 90
        2
 70
     0
 43
0.0
 10
85.50236987956734
 20
103.8672398848925
 10
85.50236987956734
 20
103.8672398848925
  0
LWPOLYLINE
  5
4C3
330
1F
100
AcDbEntity
  8
OBRYS
100
AcDbPolyline
 90
        2
 70
     0
 43
0.0
 10
85.50236987956734
 20
99.56724395497753
 10
86.30283781556508
 20
99.56724395497753
  0
LWPOLYLINE
  5
4C4
330
1F
100
AcDbEntity
  8
OBRYS
100
AcDbPolyline
 90
        2
 70
     0
 43
0.0
 10
174.3024620882702
 20
64.21746369037754
 10
86.30283781556508
 20
64.21746369037754
  0
LWPOLYLINE
  5
4C5
330
1F
100
AcDbEntity
  8
OBRYS
100
AcDbPolyline
 90
        2
 70
     0
 43
0.0
 10
174.3024620882702
 20
104.2172615861936
 10
86.30283781556508
 20
104.2172615861936
  0
LWPOLYLINE
  5
4C6
330
1F
100
AcDbEntity
  8
OBRYS
100
AcDbPolyline
 90
        2
 70
     0
 43
0.0
 10
86.30283781556508
 20
77.15345272794156
 10
174.3024620882702
 20
77.15345272794156
  0
LWPOLYLINE
  5
4C7
330
1F
100
AcDbEntity
  8
OBRYS
100
AcDbPolyline
 90
        2
 70
     0
 43
0.0
 10
174.3024620882702
 20
76.65718672329143
 10
86.30283781556508
 20
76.65718672329143
  0
LWPOLYLINE
  5
4C8
330
1F
100
AcDbEntity
  8
OBRYS
100
AcDbPolyline
 90
        2
 70
     0
 43
0.0
 10
86.30283781556508
 20
78.1945605835844
 10
174.3024620882702
 20
78.1945605835844
  0
LWPOLYLINE
  5
4C9
330
1F
100
AcDbEntity
  8
OBRYS
100
AcDbPolyline
 90
        2
 70
     0
 43
0.0
 10
86.30283781556508
 20
77.88381297081554
 10
174.3024620882702
 20
77.88381297081554
  0
LWPOLYLINE
  5
4CA
330
1F
100
AcDbEntity
  8
OBRYS
100
AcDbPolyline
 90
        2
 70
     0
 43
0.0
 10
86.30283781556508
 20
79.2373909869695
 10
174.3024620882702
 20
79.2373909869695
  0
LWPOLYLINE
  5
4CB
330
1F
100
AcDbEntity
  8
OBRYS
100
AcDbPolyline
 90
        2
 70
     0
 43
0.0
 10
86.30283781556508
 20
78.91837514503544
 10
174.3024620882702
 20
78.91837514503544
  0
LWPOLYLINE
  5
4CC
330
1F
100
AcDbEntity
  8
OBRYS
100
AcDbPolyline
 90
        2
 70
     0
 43
0.0
 10
86.30283781556508
 20
80.28125491900045
 10
174.3024620882702
 20
80.28125491900045
  0
LWPOLYLINE
  5
4CD
330
1F
100
AcDbEntity
  8
OBRYS
100
AcDbPolyline
 90
        2
 70
     0
 43
0.0
 10
86.30283781556508
 20
79.95569339564457
 10
174.3024620882702
 20
79.95569339564457
  0
LWPOLYLINE
  5
4CE
330
1F
100
AcDbEntity
  8
OBRYS
100
AcDbPolyline
 90
        2
 70
     0
 43
0.0
 10
86.30283781556508
 20
81.32684139877341
 10
174.3024620882702
 20
81.32684139877341
  0
LWPOLYLINE
  5
4CF
330
1F
100
AcDbEntity
  8
OBRYS
100
AcDbPolyline
 90
        2
 70
     0
 43
0.0
 10
86.30283781556508
 20
80.9938729201246
 10
174.3024620882702
 20
80.9938729201246
  0
LWPOLYLINE
  5
4D0
330
1F
100
AcDbEntity
  8
OBRYS
100
AcDbPolyline
 90
        2
 70
     0
 43
0.0
 10
86.30283781556508
 20
82.37328915241841
 10
174.3024620882702
 20
82.37328915241841
  0
LWPOLYLINE
  5
4D1
330
1F
100
AcDbEntity
  8
OBRYS
100
AcDbPolyline
 90
        2
 70
     0
 43
0.0
 10
86.30283781556508
 20
82.03274146370148
 10
174.3024620882702
 20
82.03274146370148
  0
LWPOLYLINE
  5
4D2
330
1F
100
AcDbEntity
  8
OBRYS
100
AcDbPolyline
 90
        2
 70
     0
 43
0.0
 10
86.30283781556508
 20
83.42025367038553
 10
174.3024620882702
 20
83.42025367038553
  0
LWPOLYLINE
  5
4D3
330
1F
100
AcDbEntity
  8
OBRYS
100
AcDbPolyline
 90
        2
 70
     0
 43
0.0
 10
86.30283781556508
 20
83.07281579069848
 10
174.3024620882702
 20
83.07281579069848
  0
LWPOLYLINE
  5
4D4
330
1F
100
AcDbEntity
  8
OBRYS
100
AcDbPolyline
 90
        2
 70
     0
 43
0.0
 10
174.3024620882702
 20
92.21713273719746
 10
86.30283781556508
 20
92.21713273719746
  0
LWPOLYLINE
  5
4D5
330
1F
100
AcDbEntity
  8
OBRYS
100
AcDbPolyline
 90
        2
 70
     0
 43
0.0
 10
86.30283781556508
 20
90.73763648105654
 10
174.3024620882702
 20
90.73763648105654
  0
LWPOLYLINE
  5
4D6
330
1F
100
AcDbEntity
  8
OBRYS
100
AcDbPolyline
 90
        2
 70
     0
 43
0.0
 10
174.3024620882702
 20
91.28161705817746
 10
86.30283781556508
 20
91.28161705817746
  0
LWPOLYLINE
  5
4D7
330
1F
100
AcDbEntity
  8
OBRYS
100
AcDbPolyline
 90
        2
 70
     0
 43
0.0
 10
86.30283781556508
 20
89.69583960631661
 10
174.3024620882702
 20
89.69583960631661
  0
LWPOLYLINE
  5
4D8
330
1F
100
AcDbEntity
  8
OBRYS
100
AcDbPolyline
 90
        2
 70
     0
 43
0.0
 10
86.30283781556508
 20
88.65197567428658
 10
174.3024620882702
 20
88.65197567428658
  0
LWPOLYLINE
  5
4D9
330
1F
100
AcDbEntity
  8
OBRYS
100
AcDbPolyline
 90
        2
 70
     0
 43
0.0
 10
86.30283781556508
 20
87.60707821360955
 10
174.3024620882702
 20
87.60707821360955
  0
LWPOLYLINE
  5
4DA
330
1F
100
AcDbEntity
  8
OBRYS
100
AcDbPolyline
 90
        2
 70
     0
 43
0.0
 10
86.30283781556508
 20
86.56097496951355
 10
174.3024620882702
 20
86.56097496951355
  0
LWPOLYLINE
  5
4DB
330
1F
100
AcDbEntity
  8
OBRYS
100
AcDbPolyline
 90
        2
 70
     0
 43
0.0
 10
86.30283781556508
 20
85.51435496109451
 10
174.3024620882702
 20
85.51435496109451
  0
LWPOLYLINE
  5
4DC
330
1F
100
AcDbEntity
  8
OBRYS
100
AcDbPolyline
 90
        2
 70
     0
 43
0.0
 10
86.30283781556508
 20
84.46739044312761
 10
174.3024620882702
 20
84.46739044312761
  0
LWPOLYLINE
  5
4DD
330
1F
100
AcDbEntity
  8
OBRYS
100
AcDbPolyline
 90
        2
 70
     0
 43
0.0
 10
86.30283781556508
 20
76.21724802982561
 10
174.3024620882702
 20
76.21724802982561
  0
LWPOLYLINE
  5
4DE
330
1F
100
AcDbEntity
  8
OBRYS
100
AcDbPolyline
 90
        2
 70
     0
 43
0.0
 10
86.30283781556508
 20
84.11306237246953
 10
174.3024620882702
 20
84.11306237246953
  0
LWPOLYLINE
  5
4DF
330
1F
100
AcDbEntity
  8
OBRYS
100
AcDbPolyline
 90
        2
 70
     0
 43
0.0
 10
174.3024620882702
 20
68.7172751584364
 10
86.30283781556508
 20
68.7172751584364
  0
LWPOLYLINE
  5
4E0
330
1F
100
AcDbEntity
  8
OBRYS
100
AcDbPolyline
 90
        2
 70
     0
 43
0.0
 10
174.3024620882702
 20
99.71710560858554
 10
86.30283781556508
 20
99.71710560858554
  0
LWPOLYLINE
  5
4E1
330
1F
100
AcDbEntity
  8
OBRYS
100
AcDbPolyline
 90
        2
 70
     0
 43
0.0
 10
86.30283781556508
 20
85.15279218991844
 10
174.3024620882702
 20
85.15279218991844
  0
LWPOLYLINE
  5
4E2
330
1F
100
AcDbEntity
  8
OBRYS
100
AcDbPolyline
 90
        2
 70
     0
 43
0.0
 10
86.30283781556508
 20
86.19303877168949
 10
174.3024620882702
 20
86.19303877168949
  0
LWPOLYLINE
  5
4E3
330
1F
100
AcDbEntity
  8
OBRYS
100
AcDbPolyline
 90
        2
 70
     0
 43
0.0
 10
86.30283781556508
 20
87.2324240795885
 10
174.3024620882702
 20
87.2324240795885
  0
LWPOLYLINE
  5
4E4
330
1F
100
AcDbEntity
  8
OBRYS
100
AcDbPolyline
 90
        2
 70
     0
 43
0.0
 10
86.30283781556508
 20
88.27060360406853
 10
174.3024620882702
 20
88.27060360406853
  0
LWPOLYLINE
  5
4E5
330
1F
100
AcDbEntity
  8
OBRYS
100
AcDbPolyline
 90
        2
 70
     0
 43
0.0
 10
86.30283781556508
 20
89.30774959990362
 10
174.3024620882702
 20
89.30774959990362
  0
LWPOLYLINE
  5
4E6
330
1F
100
AcDbEntity
  8
OBRYS
100
AcDbPolyline
 90
        2
 70
     0
 43
0.0
 10
86.30283781556508
 20
90.34317304799555
 10
174.3024620882702
 20
90.34317304799555
  0
LWPOLYLINE
  5
4E7
330
1F
100
AcDbEntity
  8
OBRYS
100
AcDbPolyline
 90
        2
 70
     0
 43
0.0
 10
86.30283781556508
 20
91.58461320610553
 10
174.3024620882702
 20
91.58461320610553
  0
LWPOLYLINE
  5
4E8
330
1F
100
AcDbEntity
  8
OBRYS
100
AcDbPolyline
 90
        5
 70
     0
 43
0.0
 10
122.6144887396469
 20
53.54249081978258
 10
122.7841596922956
 20
53.64222633408047
 10
122.9309207599672
 20
53.77348447206844
 10
123.0496042994341
 20
53.93092533574457
 10
123.1345259031454
 20
54.10834775323445
  0
LWPOLYLINE
  5
4E9
330
1F
100
AcDbEntity
  8
OBRYS
100
AcDbPolyline
 90
        3
 70
     0
 43
0.0
 10
121.0424916697275
 20
52.9170337344355
 10
121.2574656280071
 20
52.94028812896061
 10
121.462104299831
 20
53.00936229344045
  0
LWPOLYLINE
  5
4EA
330
1F
100
AcDbEntity
  8
OBRYS
100
AcDbPolyline
 90
        2
 70
     0
 43
0.0
 10
176.3757205512933
 20
56.71749081898854
 10
176.2032935222568
 20
56.71749081898854
  0
LWPOLYLINE
  5
4EB
330
1F
100
AcDbEntity
  8
OBRYS
100
AcDbPolyline
 90
        2
 70
     0
 43
0.0
 10
174.3024620882702
 20
56.71749081898854
 10
174.3024620882702
 20
60.65023957017541
  0
LWPOLYLINE
  5
4EC
330
1F
100
AcDbEntity
  8
OBRYS
100
AcDbPolyline
 90
        2
 70
     0
 43
0.0
 10
174.3024620882702
 20
64.21746369037754
 10
174.3024620882702
 20
64.21746369037754
  0
LWPOLYLINE
  5
4ED
330
1F
100
AcDbEntity
  8
OBRYS
100
AcDbPolyline
 90
        3
 70
     0
 43
0.0
 10
174.3024620882702
 20
56.71749081898854
 10
175.8024566625478
 20
57.97581194497541
 10
175.8024566625478
 20
58.0777867713395
  0
LWPOLYLINE
  5
4EE
330
1F
100
AcDbEntity
  8
OBRYS
100
AcDbPolyline
 90
        2
 70
     0
 43
0.0
 10
112.8023400333327
 20
56.25843184557851
 10
112.8316233449573
 20
56.18763513335755
  0
LWPOLYLINE
  5
4EF
330
1F
100
AcDbEntity
  8
OBRYS
100
AcDbPolyline
 90
        3
 70
     0
 43
0.0
 10
136.1953996520503
 20
60.24389055769046
 10
136.2057349385062
 20
60.2187413606486
 10
136.2219268872867
 20
60.1972095138646
  0
LWPOLYLINE
  5
4F0
330
1F
100
AcDbEntity
  8
OBRYS
100
AcDbPolyline
 90
        2
 70
     0
 43
0.0
 10
121.462104299831
 20
53.00936229344045
 10
122.6148332491955
 20
53.54249081978258
  0
LWPOLYLINE
  5
4F1
330
1F
100
AcDbEntity
  8
OBRYS
100
AcDbPolyline
 90
        2
 70
     0
 43
0.0
 10
123.1348704126939
 20
54.10800324368545
 10
125.7769141403321
 20
61.36733619543059
  0
LWPOLYLINE
  5
4F2
330
1F
100
AcDbEntity
  8
OBRYS
100
AcDbPolyline
 90
       14
 70
     0
 43
0.0
 10
117.5527238753984
 20
57.31710968819646
 10
118.2529395327755
 20
57.31710968819646
 42
-0.414213562373095
 10
118.5029395327755
 20
57.06710968819646
 10
118.5029395327755
 20
56.06711511391853
 42
0.4142135623732282
 10
118.7529395327755
 20
55.81711511391853
 10
119.0527184496765
 20
55.81711511391853
 42
-0.4142135623732282
 10
119.3027184496765
 20
55.56711511391853
 10
119.3027184496765
 20
54.39243832248274
 42
-0.3155564368973375
 10
119.1380032468552
 20
54.15743512384454
 10
118.9672057880396
 20
54.09545117333658
 42
0.315556436897258
 10
118.802490585218
 20
53.86044797469815
 10
118.802490585218
 20
53.16737824398381
 42
0.4142135623729619
 10
119.0524905852179
 20
52.91737824398381
 10
121.0424916697275
 20
52.91737824398358
  0
LWPOLYLINE
  5
4F3
330
1F
100
AcDbEntity
  8
OBRYS
100
AcDbPolyline
 90
        2
 70
     0
 43
0.0
 10
112.802684542881
 20
56.25843184557851
 10
112.802684542881
 20
56.31734297837641
  0
LWPOLYLINE
  5
4F4
330
1F
100
AcDbEntity
  8
OBRYS
100
AcDbPolyline
 90
        6
 70
     0
 43
0.0
 10
115.8028459462109
 20
57.31710968819646
 10
117.5527238753984
 20
57.31710968819646
 42
-0.4142135623732282
 10
117.8027238753984
 20
57.06710968819646
 10
117.8027238753984
 20
51.06870928025767
 42
0.4125091737027842
 10
118.0512682207514
 20
50.81871351815442
 10
118.3029517398566
 20
50.81363295158638
  0
LWPOLYLINE
  5
4F5
330
1F
100
AcDbEntity
  8
OBRYS
100
AcDbPolyline
 90
        7
 70
     0
 43
0.0
 10
149.2027021661597
 20
56.95916426727847
 10
149.1818593384739
 20
57.16121911748854
 10
149.120881148385
 20
57.3553502480824
 10
149.0216623984097
 20
57.5327726655725
 10
148.888681712679
 20
57.68659617898941
 10
148.7274512439694
 20
57.81027510690949
 10
148.5443444189283
 20
57.89898631565546
  0
LWPOLYLINE
  5
4F6
330
1F
100
AcDbEntity
  8
OBRYS
100
AcDbPolyline
 90
        2
 70
     0
 43
0.0
 10
148.5443444189283
 20
57.89898631565546
 10
147.861009729429
 20
58.14754995491551
  0
LWPOLYLINE
  5
4F7
330
1F
100
AcDbEntity
  8
OBRYS
100
AcDbPolyline
 90
        3
 70
     0
 43
0.0
 10
147.8024431061798
 20
58.17028758511849
 10
147.8313819082559
 20
58.15822975092049
 10
147.8606652198805
 20
58.14686093581843
  0
LWPOLYLINE
  5
4F8
330
1F
100
AcDbEntity
  8
OBRYS
100
AcDbPolyline
 90
        8
 70
     0
 43
0.0
 10
147.2028242369721
 20
59.28701528666254
 10
147.2028242369721
 20
62.63852814414161
 42
-0.4836672144663662
 10
147.5715646153106
 20
62.93054656887846
 10
152.0713394621261
 20
61.87131126313687
 42
-0.3480111850547431
 10
152.3025990837876
 20
61.57929283839979
 10
152.3025990837875
 20
57.0174908189885
 42
0.414213562373428
 10
152.6025990837875
 20
56.71749081898854
 10
174.3024620882702
 20
56.71749081898854
  0
LWPOLYLINE
  5
4F9
330
1F
100
AcDbEntity
  8
OBRYS
100
AcDbPolyline
 90
        7
 70
     0
 43
0.0
 10
134.570864875981
 20
57.66713138949756
 10
134.8414771263471
 20
57.71898007655039
 10
135.1024431093548
 20
57.80717452097354
 10
135.3487674365502
 20
57.93068119411958
 10
135.5756269742539
 20
58.08657176482659
 10
135.7792321174321
 20
58.27243466625549
 10
135.9547597324056
 20
58.48413578382445
  0
LWPOLYLINE
  5
4FA
330
1F
100
AcDbEntity
  8
OBRYS
100
AcDbPolyline
 90
        4
 70
     0
 43
0.0
 10
135.9552764967285
 20
58.48448029337344
 10
136.6352233931628
 20
59.42919185497743
 42
0.3678797016628993
 10
136.6036944034587
 20
59.81674423705811
 10
136.2222713968352
 20
60.19755402341359
  0
LWPOLYLINE
  5
4FB
330
1F
100
AcDbEntity
  8
OBRYS
100
AcDbPolyline
 90
       10
 70
     0
 43
0.0
 10
136.1960886711474
 20
60.24423506723854
 10
135.5959030905011
 20
62.64459302505855
 42
-0.4879400266617023
 10
135.886943098945
 20
63.01736467809058
 10
136.7025855242443
 20
63.01736467809058
 42
-0.4142135623728732
 10
137.0025855242444
 20
62.71736467809063
 10
137.0025855242444
 20
62.11726566580335
 42
0.414213562373872
 10
137.3025855242443
 20
61.8172656658034
 10
146.1023563009744
 20
61.8172656658034
 42
-0.414213562373206
 10
146.4023563009744
 20
61.51726566580344
 10
146.4023563009743
 20
59.28701528666254
  0
LWPOLYLINE
  5
4FC
330
1F
100
AcDbEntity
  8
OBRYS
100
AcDbPolyline
 90
        5
 70
     0
 43
0.0
 10
147.4028120298909
 20
56.21726295453043
 10
147.2115575484201
 20
56.21726295453043
 42
0.4574379185147027
 10
146.9147184428035
 20
55.87382857440678
 10
146.9361738464137
 20
55.72719812175358
 10
147.0324642652264
 20
55.51876984489552
  0
LWPOLYLINE
  5
4FD
330
1F
100
AcDbEntity
  8
OBRYS
100
AcDbPolyline
 90
        6
 70
     0
 43
0.0
 10
147.0321197556779
 20
55.51842533534744
 10
148.1140112905872
 20
53.85368107587458
 42
0.2538783936153234
 10
148.3655576474079
 20
53.71715716088459
 10
178.2718389026806
 20
53.71715716088459
 42
0.5363848947619309
 10
178.5483293264878
 20
54.13357470914496
 10
174.3024620882702
 20
64.21746369037754
  0
LWPOLYLINE
  5
4FE
330
1F
100
AcDbEntity
  8
OBRYS
100
AcDbPolyline
 90
       25
 70
     0
 43
0.0
 10
127.1029313926047
 20
61.13393097630449
 10
127.1029313926047
 20
57.69886330208458
 42
0.3381495855721574
 10
127.2870968883031
 20
57.45768739523776
 10
127.5612449865989
 20
57.38285237381086
 42
-0.4141040482018554
 10
127.7366109890715
 20
57.07593214757565
 10
127.5025624688937
 20
56.21726295453043
 10
127.035137806624
 20
55.7494168092466
 42
0.3521401432927004
 10
127.0014343617384
 20
55.43794377533975
 10
128.0291298552984
 20
53.83238113930445
 42
0.2557209825123939
 10
128.239689642549
 20
53.71715716088459
 10
128.9372521538985
 20
53.71715716088459
 42
0.2689990366824321
 10
129.1542464729873
 20
53.84300618230139
 10
129.4933108950453
 20
54.43563182433348
 10
129.7837324444517
 20
54.86540748611849
 10
130.1051598532256
 20
55.27210100815244
 10
130.4560428283985
 20
55.65416209746643
 10
130.8343143126789
 20
56.00866242289856
 10
131.2379072487758
 20
56.33439620102848
 10
131.6647545793982
 20
56.62895186501753
 10
132.1124447377065
 20
56.89060686712258
 10
132.5780493925381
 20
57.11849993347158
 10
133.0596737413759
 20
57.3112530258715
 10
133.5542171982836
 20
57.46748810612751
 10
134.0585791773242
 20
57.58634390036848
 10
134.570864875981
 20
57.66747589904656
  0
LWPOLYLINE
  5
4FF
330
1F
100
AcDbEntity
  8
OBRYS
100
AcDbPolyline
 90
        6
 70
     0
 43
0.0
 10
174.6871069991981
 20
60.7274097090455
 10
177.0424239755273
 20
55.13368824428579
 42
-0.5363875911034958
 10
176.7659345267982
 20
54.7172683802525
 10
149.5027021661597
 20
54.7172683802525
 42
-0.414213562373095
 10
149.2027021661597
 20
55.01726838025245
 10
149.2027021661597
 20
56.95916426727847
  0
LWPOLYLINE
  5
500
330
1F
100
AcDbEntity
  8
OBRYS
100
AcDbPolyline
 90
        2
 70
     0
 43
0.0
 10
154.302477012975
 20
64.21746369037754
 10
154.302477012975
 20
64.21746369037754
  0
LWPOLYLINE
  5
501
330
1F
100
AcDbEntity
  8
OBRYS
100
AcDbPolyline
 90
        2
 70
     0
 43
0.0
 10
172.8028120235408
 20
64.21746369037754
 10
172.8028120235408
 20
64.21746369037754
  0
LWPOLYLINE
  5
502
330
1F
100
AcDbEntity
  8
OBRYS
100
AcDbPolyline
 90
        2
 70
     0
 43
0.0
 10
86.30283781556508
 20
64.21746369037754
 10
86.30283781556508
 20
56.71749081898854
  0
LWPOLYLINE
  5
503
330
1F
100
AcDbEntity
  8
OBRYS
100
AcDbPolyline
 90
        2
 70
     0
 43
0.0
 10
87.80248788029448
 20
64.21746369037754
 10
87.80248788029448
 20
64.21746369037754
  0
LWPOLYLINE
  5
504
330
1F
100
AcDbEntity
  8
OBRYS
100
AcDbPolyline
 90
        2
 70
     0
 43
0.0
 10
174.8026899527284
 20
54.7172683802525
 10
176.2032935222568
 20
56.71749081898854
  0
LWPOLYLINE
  5
505
330
1F
100
AcDbEntity
  8
OBRYS
100
AcDbPolyline
 90
       12
 70
     0
 43
0.0
 10
86.30283781556508
 20
56.71749081898854
 10
108.0527008200476
 20
56.71749081898854
 42
-0.4142135623732282
 10
108.3027008200476
 20
56.46749081898854
 10
108.3027008200479
 20
53.96715716088459
 42
0.4142135623732282
 10
108.5527008200479
 20
53.71715716088459
 10
112.0476780670653
 20
53.71715716088459
 42
0.3589784147481687
 10
112.2930750083535
 20
53.9194042425824
 10
112.3117042691
 20
54.01513794364512
 42
-0.358978414747413
 10
112.5571012103883
 20
54.21738502534247
 10
113.3540343346453
 20
54.21738502534247
 42
0.6681786379193959
 10
113.7782984033572
 20
55.24164909405447
 10
112.8319678545058
 20
56.18797964290541
  0
LWPOLYLINE
  5
506
330
1F
100
AcDbEntity
  8
OBRYS
100
AcDbPolyline
 90
        2
 70
     0
 43
0.0
 10
86.30283781556508
 20
104.2176060957415
 10
86.30283781556508
 20
104.2172615861936
  0
LWPOLYLINE
  5
507
330
1F
100
AcDbEntity
  8
OBRYS
100
AcDbPolyline
 90
        2
 70
     0
 43
0.0
 10
174.3024620882702
 20
104.2172615861936
 10
174.3024620882702
 20
104.2176060957415
  0
LWPOLYLINE
  5
508
330
1F
100
AcDbEntity
  8
OBRYS
100
AcDbPolyline
 90
        2
 70
     0
 43
0.0
 10
85.50236987956734
 20
64.4672331130584
 10
86.30283781556508
 20
64.4672331130584
  0
LWPOLYLINE
  5
509
330
1F
100
AcDbEntity
  8
OBRYS
100
AcDbPolyline
 90
        4
 70
     0
 43
0.0
 10
78.50245261786242
 20
64.66739316075149
 10
77.50268590804316
 20
64.84378204959552
 10
77.50268590804316
 20
65.2909554435816
 10
78.50245261786242
 20
65.46734433242653
  0
LWPOLYLINE
  5
50A
330
1F
100
AcDbEntity
  8
OBRYS
100
AcDbPolyline
 90
        2
 70
     0
 43
0.0
 10
86.30283781556508
 20
84.16715037158741
 10
85.50236987956734
 20
84.16715037158741
  0
LWPOLYLINE
  5
50B
330
1F
100
AcDbEntity
  8
OBRYS
100
AcDbPolyline
 90
        2
 70
     0
 43
0.0
 10
78.50245261786242
 20
64.66739316075149
 10
85.50236987956734
 20
64.66739316075149
  0
LWPOLYLINE
  5
50C
330
1F
100
AcDbEntity
  8
OBRYS
100
AcDbPolyline
 90
        2
 70
     0
 43
0.0
 10
86.30283781556508
 20
78.91837514503544
 10
86.30283781556508
 20
79.1273201862154
  0
LWPOLYLINE
  5
50D
330
1F
100
AcDbEntity
  8
OBRYS
100
AcDbPolyline
 90
        2
 70
     0
 43
0.0
 10
86.30283781556508
 20
84.11237335337245
 10
86.30283781556508
 20
84.16715037158741
  0
LWPOLYLINE
  5
50E
330
1F
100
AcDbEntity
  8
OBRYS
100
AcDbPolyline
 90
        2
 70
     0
 43
0.0
 10
79.00268048232076
 20
65.46734433242653
 10
79.00268048232076
 20
64.66739316075149
  0
LWPOLYLINE
  5
50F
330
1F
100
AcDbEntity
  8
OBRYS
100
AcDbPolyline
 90
        2
 70
     0
 43
0.0
 10
85.50236987956734
 20
68.76722904297247
 10
86.30283781556508
 20
68.76722904297247
  0
LWPOLYLINE
  5
510
330
1F
100
AcDbEntity
  8
OBRYS
100
AcDbPolyline
 90
        2
 70
     0
 43
0.0
 10
85.50236987956734
 20
76.26737416913551
 10
86.30283781556508
 20
76.26737416913551
  0
LWPOLYLINE
  5
511
330
1F
100
AcDbEntity
  8
OBRYS
100
AcDbPolyline
 90
        2
 70
     0
 43
0.0
 10
174.3024620882702
 20
84.16715037158741
 10
175.1029300242678
 20
84.16715037158741
  0
LWPOLYLINE
  5
512
330
1F
100
AcDbEntity
  8
OBRYS
100
AcDbPolyline
 90
        2
 70
     0
 43
0.0
 10
175.1029300242678
 20
103.8672398848925
 10
174.3024620882702
 20
103.8672398848925
  0
LWPOLYLINE
  5
513
330
1F
100
AcDbEntity
  8
OBRYS
100
AcDbPolyline
 90
        2
 70
     0
 43
0.0
 10
174.3024620882702
 20
86.40198381286945
 10
174.3024620882702
 20
86.19303877168949
  0
LWPOLYLINE
  5
514
330
1F
100
AcDbEntity
  8
OBRYS
100
AcDbPolyline
 90
        2
 70
     0
 43
0.0
 10
175.1029300242678
 20
92.06761559313753
 10
174.3024620882702
 20
92.06761559313753
  0
LWPOLYLINE
  5
515
330
1F
100
AcDbEntity
  8
OBRYS
100
AcDbPolyline
 90
        2
 70
     0
 43
0.0
 10
175.1029300242678
 20
99.56724395497753
 10
174.3024620882702
 20
99.56724395497753
  0
LWPOLYLINE
  5
516
330
1F
100
AcDbEntity
  8
OBRYS
100
AcDbPolyline
 90
        2
 70
     0
 43
0.0
 10
175.1029300242678
 20
103.8672398848925
 10
175.1029300242678
 20
103.8672398848925
  0
LWPOLYLINE
  5
517
330
1F
100
AcDbEntity
  8
OBRYS
100
AcDbPolyline
 90
        2
 70
     0
 43
0.0
 10
174.3024620882702
 20
103.8672398848925
 10
174.3024620882702
 20
103.8672398848925
  0
LWPOLYLINE
  5
518
330
1F
100
AcDbEntity
  8
OBRYS
100
AcDbPolyline
 90
        2
 70
     0
 43
0.0
 10
122.4024431125299
 20
53.44430559845244
 10
122.4024431125299
 20
52.31724261045354
  0
LWPOLYLINE
  5
519
330
1F
100
AcDbEntity
  8
OBRYS
100
AcDbPolyline
 90
        2
 70
     0
 43
0.0
 10
127.2024946521285
 20
52.31724261045354
 10
127.2024946521285
 20
55.12361739273745
  0
LWPOLYLINE
  5
51A
330
1F
100
AcDbEntity
  8
OBRYS
100
AcDbPolyline
 90
        2
 70
     0
 43
0.0
 10
127.2024946521285
 20
55.91702288299046
 10
127.2024946521285
 20
57.37688209486549
  0
LWPOLYLINE
  5
51B
330
1F
100
AcDbEntity
  8
OBRYS
100
AcDbPolyline
 90
        4
 70
     0
 43
0.0
 10
147.8024431061798
 20
59.28701528666254
 10
147.8024431061798
 20
59.11321021943143
 10
147.8024431061798
 20
57.5567160791956
 10
147.8024431061798
 20
56.31734297837641
  0
LWPOLYLINE
  5
51C
330
1F
100
AcDbEntity
  8
OBRYS
100
AcDbPolyline
 90
        2
 70
     0
 43
0.0
 10
144.8024539576242
 20
59.28701528666254
 10
144.8024539576242
 20
56.31734297837641
  0
LWPOLYLINE
  5
51F
330
1F
100
AcDbEntity
  8
OBRYS
100
AcDbPolyline
 90
        6
 70
     0
 43
0.0
 10
144.8024539576242
 20
57.31710968819646
 10
143.1025760284367
 20
57.31710968819646
 42
0.414213562373428
 10
142.8025760284367
 20
57.01710968819651
 10
142.8025760284367
 20
51.1180032853453
 42
-0.4131123223598102
 10
142.5037044253594
 20
50.81800540748548
 10
142.3023481639783
 20
50.81724803617561
  0
LWPOLYLINE
  5
522
330
1F
100
AcDbEntity
  8
OBRYS
100
AcDbPolyline
 90
        2
 70
     0
 43
0.0
 10
115.8028459462109
 20
56.31734297837641
 10
115.8028459462109
 20
59.28701528666254
  0
LWPOLYLINE
  5
523
330
1F
100
AcDbEntity
  8
OBRYS
100
AcDbPolyline
 90
        2
 70
     0
 43
0.0
 10
115.8028459462109
 20
56.31734297837641
 10
112.802684542881
 20
56.31734297837641
  0
LWPOLYLINE
  5
524
330
1F
100
AcDbEntity
  8
OBRYS
100
AcDbPolyline
 90
       11
 70
     0
 43
0.0
 10
147.8024431061798
 20
56.31734297837641
 10
144.8024539576242
 20
56.31734297837641
 10
144.1026872478047
 20
56.31734297837641
 42
0.4142135623738721
 10
143.8026872478048
 20
56.01734297837645
 10
143.8026872478048
 20
50.11713681680742
 42
-0.4142135623733169
 10
143.5026872478048
 20
49.81713681680747
 10
117.0526126560305
 20
49.81713681680747
 42
-0.4142135623732282
 10
116.8026126560305
 20
50.06713681680747
 10
116.8026126560306
 20
56.06734297837641
 42
0.4142135623732282
 10
116.5526126560306
 20
56.31734297837641
 10
115.8028459462109
 20
56.31734297837641
  0
LWPOLYLINE
  5
525
330
1F
100
AcDbEntity
  8
OBRYS
100
AcDbPolyline
 90
        4
 70
     0
 43
0.0
 10
112.802684542881
 20
56.31734297837641
 10
112.802684542881
 20
57.5567160791956
 10
112.802684542881
 20
59.11321021943143
 10
112.802684542881
 20
59.28701528666254
  0
LWPOLYLINE
  5
526
330
1F
100
AcDbEntity
  8
OBRYS
100
AcDbPolyline
 90
        2
 70
     0
 43
0.0
 10
138.2026845365312
 20
52.31724261045354
 10
138.2026845365312
 20
57.37688209486549
  0
LWPOLYLINE
  5
527
330
1F
100
AcDbEntity
  8
OBRYS
100
AcDbPolyline
 90
        2
 70
     0
 43
0.0
 10
133.4028052517068
 20
57.37688209486549
 10
133.4028052517068
 20
52.31724261045354
  0
LWPOLYLINE
  5
528
330
1F
100
AcDbEntity
  8
OBRYS
100
AcDbPolyline
 90
        2
 70
     0
 43
0.0
 10
142.3023481639783
 20
52.31724261045354
 10
118.3029517398566
 20
52.31724261045354
  0
LWPOLYLINE
  5
52A
330
1F
100
AcDbEntity
  8
OBRYS
100
AcDbPolyline
 90
        2
 70
     0
 43
0.0
 10
142.3023481639783
 20
52.31724261045354
 10
142.3023481639783
 20
49.81713681680747
  0
LWPOLYLINE
  5
52B
330
1F
100
AcDbEntity
  8
OBRYS
100
AcDbPolyline
 90
        2
 70
     0
 43
0.0
 10
118.3029517398566
 20
49.81713681680747
 10
118.3029517398566
 20
52.31724261045354
  0
LWPOLYLINE
  5
52D
330
1F
100
AcDbEntity
  8
OBRYS
100
AcDbPolyline
 90
        3
 70
     0
 43
0.0
 10
127.2024946521285
 20
57.37688209486549
 10
126.7024390424444
 20
57.86935849448144
 10
124.5032623394352
 20
57.86935849448144
  0
LWPOLYLINE
  5
52E
330
1F
100
AcDbEntity
  8
OBRYS
100
AcDbPolyline
 90
        2
 70
     0
 43
0.0
 10
133.4028052517068
 20
57.37688209486549
 10
133.4701568684434
 20
57.44354469250441
  0
LWPOLYLINE
  5
52F
330
1F
100
AcDbEntity
  8
OBRYS
100
AcDbPolyline
 90
        2
 70
     0
 43
0.0
 10
136.7026899622534
 20
58.82347768912148
 10
138.2026845365312
 20
57.37688209486549
  0
LWPOLYLINE
  5
530
330
1F
100
AcDbEntity
  8
OBRYS
100
AcDbPolyline
 90
        2
 70
     0
 43
0.0
 10
137.7028011816213
 20
57.86935849448144
 10
135.2366295785054
 20
57.86935849448144
  0
LWPOLYLINE
  5
531
330
1F
100
AcDbEntity
  8
OBRYS
100
AcDbPolyline
 90
        3
 70
     0
 43
0.0
 10
126.7024390424444
 20
57.86935849448144
 10
125.7026723326249
 20
58.82347768912148
 10
124.8508724738969
 20
58.82347768912148
  0
LWPOLYLINE
  5
532
330
1F
100
AcDbEntity
  8
OBRYS
100
AcDbPolyline
 90
        2
 70
     0
 43
0.0
 10
147.8024431061798
 20
59.28701528666254
 10
144.8024539576242
 20
59.28701528666254
  0
LWPOLYLINE
  5
533
330
1F
100
AcDbEntity
  8
OBRYS
100
AcDbPolyline
 90
        2
 70
     0
 43
0.0
 10
115.8028459462109
 20
59.28701528666254
 10
112.802684542881
 20
59.28701528666254
  0
LWPOLYLINE
  5
534
330
1F
100
AcDbEntity
  8
OBRYS
100
AcDbPolyline
 90
        2
 70
     0
 43
0.0
 10
136.7026899622534
 20
58.82347768912148
 10
136.1990170023099
 20
58.82347768912148
  0
LWPOLYLINE
  5
537
330
1F
100
AcDbEntity
  8
OBRYS
100
AcDbPolyline
 90
        2
 70
     0
 43
0.0
 10
147.4028120298909
 20
56.21726295453043
 10
147.4391577872602
 20
56.31734297837641
  0
LINE
  5
538
330
1F
100
AcDbEntity
  8
OBRYS
100
AcDbLine
 10
78.50245261786242
 20
65.46734433242653
 30
0.0
 11
85.50236987956734
 21
65.46734433242653
 31
0.0
  0
LINE
  5
539
330
1F
100
AcDbEntity
  8
OBRYS
100
AcDbLine
 10
83.34091697212168
 20
68.76722904297247
 30
0.0
 11
83.34091697212168
 21
69.36736467650343
 31
0.0
  0
LINE
  5
53A
330
1F
100
AcDbEntity
  8
OBRYS
100
AcDbLine
 10
83.34091697212168
 20
99.0677051096165
 30
0.0
 11
83.34091697212168
 21
99.66749623359846
 31
0.0
  0
ELLIPSE
  5
53B
330
1F
100
AcDbEntity
  8
OBRYS
100
AcDbEllipse
 10
126.4399227664685
 20
61.25063358586743
 30
0.0
 11
-0.6630086261363886
 21
0.1167026095631627
 31
0.0
210
0.0
220
0.0
230
1.0
 40
0.5976804459346348
 41
3.14159265359014
 42
6.283185307179586
  0
LINE
  5
53C
330
1F
100
AcDbEntity
  8
OBRYS
100
AcDbLine
 10
133.7182566420242
 20
58.29763625959134
 30
0.0
 11
133.5549062173806
 21
58.26330516322053
 31
0.0
  0
LINE
  5
53D
330
1F
100
AcDbEntity
  8
OBRYS
100
AcDbLine
 10
133.5549062173806
 20
58.26330516322053
 30
0.0
 11
133.0321129774939
 21
58.11447703825745
 31
0.0
  0
LINE
  5
53E
330
1F
100
AcDbEntity
  8
OBRYS
100
AcDbLine
 10
133.0321129774939
 20
58.11447703825745
 30
0.0
 11
132.5212053170313
 21
57.92895864637642
 31
0.0
  0
LINE
  5
53F
330
1F
100
AcDbEntity
  8
OBRYS
100
AcDbLine
 10
132.5212053170313
 20
57.92895864637642
 30
0.0
 11
132.0245948028326
 21
57.70778351622351
 31
0.0
  0
LINE
  5
540
330
1F
100
AcDbEntity
  8
OBRYS
100
AcDbLine
 10
132.0245948028326
 20
57.70778351622351
 30
0.0
 11
131.5446930017373
 21
57.45232968599242
 31
0.0
  0
LINE
  5
541
330
1F
100
AcDbEntity
  8
OBRYS
100
AcDbLine
 10
131.5446930017373
 20
57.45232968599242
 30
0.0
 11
131.0844282449079
 21
57.16328617478046
 31
0.0
  0
LINE
  5
542
330
1F
100
AcDbEntity
  8
OBRYS
100
AcDbLine
 10
131.0844282449079
 20
57.16328617478046
 30
0.0
 11
130.6451785705386
 21
56.8430645494256
 31
0.0
  0
LINE
  5
543
330
1F
100
AcDbEntity
  8
OBRYS
100
AcDbLine
 10
130.6451785705386
 20
56.8430645494256
 30
0.0
 11
130.2298723097916
 21
56.49235382902742
 31
0.0
  0
LINE
  5
544
330
1F
100
AcDbEntity
  8
OBRYS
100
AcDbLine
 10
130.2298723097916
 20
56.49235382902742
 30
0.0
 11
129.8405765199586
 21
56.11322107087556
 31
0.0
  0
LINE
  5
545
330
1F
100
AcDbEntity
  8
OBRYS
100
AcDbLine
 10
129.8405765199586
 20
56.11322107087556
 30
0.0
 11
129.4784969844587
 21
55.70738882271342
 31
0.0
  0
LINE
  5
546
330
1F
100
AcDbEntity
  8
OBRYS
100
AcDbLine
 10
129.4784969844587
 20
55.70738882271342
 30
0.0
 11
129.0504689453386
 21
55.15297367707574
 31
0.0
  0
ARC
  5
547
330
1F
100
AcDbEntity
  8
OBRYS
100
AcDbCircle
 10
128.8525814573339
 20
55.30574979461783
 30
0.0
 40
0.250000000000026
100
AcDbArc
 50
180.0
 51
322.3305937371464
  0
LINE
  5
548
330
1F
100
AcDbEntity
  8
OBRYS
100
AcDbLine
 10
128.6025814573339
 20
55.30574979461783
 30
0.0
 11
128.6025814573339
 21
57.86723311464555
 31
0.0
  0
ARC
  5
549
330
1F
100
AcDbEntity
  8
OBRYS
100
AcDbCircle
 10
128.3525814573339
 20
57.86723311464555
 30
0.0
 40
0.2499999999999432
100
AcDbArc
 50
0.0
 51
90.0
  0
LINE
  5
54A
330
1F
100
AcDbEntity
  8
OBRYS
100
AcDbLine
 10
128.3525814573339
 20
58.11723311464555
 30
0.0
 11
128.1527103095054
 21
58.11723311464555
 31
0.0
  0
ARC
  5
54B
330
1F
100
AcDbEntity
  8
OBRYS
100
AcDbCircle
 10
128.1527103095054
 20
58.36723311464555
 30
0.0
 40
0.2499999999999432
100
AcDbArc
 50
180.0
 51
270.0
  0
LINE
  5
54C
330
1F
100
AcDbEntity
  8
OBRYS
100
AcDbLine
 10
127.9027103095054
 20
58.36723311464555
 30
0.0
 11
127.9027103095054
 21
61.60776955485556
 31
0.0
  0
ARC
  5
54D
330
1F
100
AcDbEntity
  8
OBRYS
100
AcDbCircle
 10
128.1527103095057
 20
61.60776955485533
 30
0.0
 40
0.2500000000002957
100
AcDbArc
 50
100.0056301602125
 51
179.9999999999479
  0
LINE
  5
54E
330
1F
100
AcDbEntity
  8
OBRYS
100
AcDbLine
 10
128.1092740723062
 20
61.8539672260428
 30
0.0
 11
134.450072257548
 21
62.97266348615806
 31
0.0
  0
ARC
  5
54F
330
1F
100
AcDbEntity
  8
OBRYS
100
AcDbCircle
 10
134.493508494747
 20
62.72646581497059
 30
0.0
 40
0.2500000000002673
100
AcDbArc
 50
14.01937268405249
 51
100.0056301600881
  0
LINE
  5
550
330
1F
100
AcDbEntity
  8
OBRYS
100
AcDbLine
 10
134.736061962967
 20
62.78702830381138
 30
0.0
 11
135.247334258279
 21
60.73937684814512
 31
0.0
  0
ARC
  5
551
330
1F
100
AcDbEntity
  8
OBRYS
100
AcDbCircle
 10
133.3069065125204
 20
60.25487693742269
 30
0.0
 40
2.000000000000001
100
AcDbArc
 50
281.8690195444073
 51
14.01937268395295
  0
ELLIPSE
  5
552
330
1F
100
AcDbEntity
  8
OBRYS
100
AcDbEllipse
 10
174.4947845437341
 20
60.6890830217714
 30
0.0
 11
-0.1923224554639091
 21
-0.03884345159599434
 31
0.0
210
0.0
220
0.0
230
1.0
 40
0.6726905110995991
 41
3.137255986357017
 42
6.285917136582214
  0
LINE
  5
553
330
1F
100
AcDbEntity
  8
OBRYS
100
AcDbLine
 10
177.2643829317137
 20
69.36736467650343
 30
0.0
 11
177.2643829317137
 21
68.76722904297247
 31
0.0
  0
LINE
  5
554
330
1F
100
AcDbEntity
  8
OBRYS
100
AcDbLine
 10
177.2643829317137
 20
99.66749623359846
 30
0.0
 11
177.2643829317137
 21
99.0677051096165
 31
0.0
  0
CIRCLE
  5
555
330
1F
100
AcDbEntity
  8
OBRYS
100
AcDbCircle
 10
124.8054402771852
 20
55.88959131018913
 30
0.0
 40
0.743272328504955
  0
CIRCLE
  5
556
330
1F
100
AcDbEntity
  8
OBRYS
100
AcDbCircle
 10
135.8123911614777
 20
55.8772750938296
 30
0.0
 40
0.7080004021513181
  0
DIMENSION
  5
557
330
1F
100
AcDbEntity
  8
KOTY
100
AcDbDimension
  2
*D1
 10
175.1029300242678
 20
121.5504493592366
 30
0.0
 11
130.3026499519176
 21
124.5924493592366
 31
0.0
 70
    32
  3
ISO-25
100
AcDbAlignedDimension
 13
85.50236987956734
 23
103.8672398848925
 33
0.0
 14
175.1029300242678
 24
103.8672398848925
 34
0.0
100
AcDbRotatedDimension
1001
ACAD
1000
DSTYLE
1002
{
1070
   287
1070
     5
1070
   271
1070
     0
1070
   278
1070
    44
1070
   140
1040
4.0
1070
   147
1040
1.0
1070
    41
1040
4.0
1070
   178
1070
   256
1070
   176
1070
   256
1070
   177
1070
   256
1070
   279
1070
     2
1002
}
  0
DIMENSION
  5
559
330
1F
100
AcDbEntity
  8
KOTY
100
AcDbDimension
  2
*D2
 10
66.24713736595558
 20
56.71749081898854
 30
0.0
 11
63.20513736595558
 21
80.46754845736501
 31
0.0
 70
    32
  3
ISO-25
100
AcDbAlignedDimension
 13
86.30283781556508
 23
104.2176060957415
 33
0.0
 14
86.30283781556508
 24
56.71749081898854
 34
0.0
 50
90.0
100
AcDbRotatedDimension
1001
ACAD
1000
DSTYLE
1002
{
1070
   287
1070
     5
1070
   271
1070
     0
1070
   278
1070
    44
1070
   140
1040
4.0
1070
   147
1040
1.0
1070
    41
1040
4.0
1070
   178
1070
   256
1070
   176
1070
   256
1070
   177
1070
   256
1070
   279
1070
     2
1002
}
  0
DIMENSION
  5
55C
330
1F
100
AcDbEntity
  8
KOTY
100
AcDbDimension
  2
*D3
 10
49.2744460197766
 20
49.81713681680748
 30
0.0
 11
46.24044601977659
 21
77.01737145627449
 31
0.0
 70
    32
  3
ISO-25
100
AcDbAlignedDimension
 13
86.30283781556508
 23
104.2176060957415
 33
0.0
 14
117.0526126560306
 24
49.81713681680747
 34
0.0
 50
90.0
100
AcDbRotatedDimension
1001
ACAD
1000
DSTYLE
1002
{
1070
   287
1070
     5
1070
   271
1070
     0
1070
   278
1070
    44
1070
   140
1040
4.0
1070
   147
1040
1.0
1070
    41
1040
4.0
1070
   178
1070
   256
1070
   176
1070
   256
1070
   177
1070
   256
1070
   279
1070
     2
1002
}
  0
LINE
  5
55F
330
1F
100
AcDbEntity
  8
OBRYS
100
AcDbLine
 10
86.30283781556508
 20
64.21746369037754
 30
0.0
 11
86.30283781556508
 21
104.2176060957415
 31
0.0
  0
LINE
  5
560
330
1F
100
AcDbEntity
  8
OBRYS
100
AcDbLine
 10
85.50236987956734
 20
103.8672398848925
 30
0.0
 11
85.50236987956734
 21
64.4672331130584
 31
0.0
  0
LINE
  5
561
330
1F
100
AcDbEntity
  8
OBRYS
100
AcDbLine
 10
174.3024620882702
 20
104.2172615861936
 30
0.0
 11
174.3024620882702
 21
64.21746369037754
 31
0.0
  0
LINE
  5
562
330
1F
100
AcDbEntity
  8
OBRYS
100
AcDbLine
 10
175.1029300242678
 20
64.4672331130584
 30
0.0
 11
175.1029300242678
 21
103.8672398848925
 31
0.0
  0
LINE
  5
563
330
1F
100
AcDbEntity
  8
OBRYS
100
AcDbLine
 10
211.0857906201622
 20
59.11289610942816
 30
0.0
 11
211.3502923143809
 21
57.61194868130513
 31
0.0
  0
ARC
  5
564
330
1F
100
AcDbEntity
  8
OBRYS
100
AcDbCircle
 10
212.8275301646295
 20
57.87227219886056
 30
0.0
 40
1.499999999999818
100
AcDbArc
 50
189.9942306092539
 51
254.1562987951538
  0
ARC
  5
565
330
1F
100
AcDbEntity
  8
OBRYS
100
AcDbCircle
 10
231.0091090743633
 20
57.87749029414015
 30
0.0
 40
1.500000000000132
100
AcDbArc
 50
285.8071932490247
 51
350.0057693907481
  0
LINE
  5
566
330
1F
100
AcDbEntity
  8
OBRYS
100
AcDbLine
 10
232.4863469246122
 20
57.61716677658472
 30
0.0
 11
232.7499290696074
 21
59.11289610942816
 31
0.0
  0
ARC
  5
567
330
1F
100
AcDbEntity
  8
OBRYS
100
AcDbCircle
 10
219.1178584892482
 20
65.91730420234529
 30
0.0
 40
0.4001478406116803
100
AcDbArc
 50
359.9999999999674
 51
179.9999999999675
  0
ARC
  5
568
330
1F
100
AcDbEntity
  8
OBRYS
100
AcDbCircle
 10
224.7178612005216
 20
65.91730420234506
 30
0.0
 40
0.4001478406116803
100
AcDbArc
 50
0.0
 51
180.0
  0
CIRCLE
  5
569
330
1F
100
AcDbEntity
  8
OBRYS
100
AcDbCircle
 10
213.0927309950947
 20
69.06715500450917
 30
0.0
 40
2.795178221957485
  0
CIRCLE
  5
56A
330
1F
100
AcDbEntity
  8
OBRYS
100
AcDbCircle
 10
230.7429886946752
 20
69.06715500450917
 30
0.0
 40
2.795867241054566
  0
CIRCLE
  5
56B
330
1F
100
AcDbEntity
  8
OBRYS
100
AcDbCircle
 10
213.0927309950947
 20
99.3672865616042
 30
0.0
 40
2.795295446849343
  0
CIRCLE
  5
56C
330
1F
100
AcDbEntity
  8
OBRYS
100
AcDbCircle
 10
230.7429886946752
 20
99.3672865616042
 30
0.0
 40
2.795821162529823
  0
CIRCLE
  5
56D
330
1F
100
AcDbEntity
  8
OBRYS
100
AcDbCircle
 10
221.9202714117245
 20
70.51715263055684
 30
0.0
 40
0.4978162976186695
  0
LINE
  5
56F
330
1F
100
AcDbEntity
  8
OBRYS
100
AcDbLine
 10
215.5930090435149
 20
104.2169474761901
 30
0.0
 11
215.5930090435149
 21
103.9173964237481
 31
0.0
  0
LINE
  5
570
330
1F
100
AcDbEntity
  8
OBRYS
100
AcDbLine
 10
215.6670785964477
 20
104.2172919857391
 30
0.0
 11
215.6670785964477
 21
103.9173964237481
 31
0.0
  0
LINE
  5
571
330
1F
100
AcDbEntity
  8
OBRYS
100
AcDbLine
 10
212.7928354331038
 20
100.8619412378802
 30
0.0
 11
213.3926265570855
 21
100.8619412378802
 31
0.0
  0
LINE
  5
572
330
1F
100
AcDbEntity
  8
OBRYS
100
AcDbLine
 10
211.5977318092705
 20
99.66718212359518
 30
0.0
 11
211.5977318092705
 21
99.067390999613
 31
0.0
  0
LINE
  5
573
330
1F
100
AcDbEntity
  8
OBRYS
100
AcDbLine
 10
212.7928354331038
 20
97.8722873757801
 30
0.0
 11
213.3926265570855
 21
97.8722873757801
 31
0.0
  0
LINE
  5
574
330
1F
100
AcDbEntity
  8
OBRYS
100
AcDbLine
 10
214.5884192000157
 20
99.66718212359518
 30
0.0
 11
214.5884192000157
 21
99.067390999613
 31
0.0
  0
LINE
  5
575
330
1F
100
AcDbEntity
  8
OBRYS
100
AcDbLine
 10
212.7928354331038
 20
100.8619412378802
 30
0.0
 11
212.7928354331038
 21
97.8722873757801
 31
0.0
  0
LINE
  5
576
330
1F
100
AcDbEntity
  8
OBRYS
100
AcDbLine
 10
213.3926265570855
 20
100.8619412378802
 30
0.0
 11
213.3926265570855
 21
97.8722873757801
 31
0.0
  0
LINE
  5
577
330
1F
100
AcDbEntity
  8
OBRYS
100
AcDbLine
 10
211.5977318092705
 20
99.66718212359518
 30
0.0
 11
214.5884192000157
 21
99.66718212359518
 31
0.0
  0
LINE
  5
578
330
1F
100
AcDbEntity
  8
OBRYS
100
AcDbLine
 10
211.5977318092705
 20
99.067390999613
 30
0.0
 11
214.5884192000157
 21
99.067390999613
 31
0.0
  0
LINE
  5
579
330
1F
100
AcDbEntity
  8
OBRYS
100
AcDbLine
 10
229.2476449993024
 20
99.66718212359518
 30
0.0
 11
229.2476449993024
 21
99.067390999613
 31
0.0
  0
LINE
  5
57A
330
1F
100
AcDbEntity
  8
OBRYS
100
AcDbLine
 10
231.0428842566662
 20
100.8619412378802
 30
0.0
 11
230.4427486231355
 21
100.8619412378802
 31
0.0
  0
LINE
  5
57B
330
1F
100
AcDbEntity
  8
OBRYS
100
AcDbLine
 10
232.2376433709506
 20
99.66718212359518
 30
0.0
 11
232.2376433709506
 21
99.067390999613
 31
0.0
  0
LINE
  5
57C
330
1F
100
AcDbEntity
  8
OBRYS
100
AcDbLine
 10
230.4427486231355
 20
97.8722873757801
 30
0.0
 11
231.0428842566662
 21
97.8722873757801
 31
0.0
  0
LINE
  5
57D
330
1F
100
AcDbEntity
  8
OBRYS
100
AcDbLine
 10
230.4427486231355
 20
100.8619412378802
 30
0.0
 11
230.4430931326841
 21
97.8722873757801
 31
0.0
  0
LINE
  5
57E
330
1F
100
AcDbEntity
  8
OBRYS
100
AcDbLine
 10
231.0428842566662
 20
100.8619412378802
 30
0.0
 11
231.0428842566662
 21
97.8722873757801
 31
0.0
  0
LINE
  5
57F
330
1F
100
AcDbEntity
  8
OBRYS
100
AcDbLine
 10
229.2476449993024
 20
99.66718212359518
 30
0.0
 11
232.2376433709506
 21
99.66718212359518
 31
0.0
  0
LINE
  5
580
330
1F
100
AcDbEntity
  8
OBRYS
100
AcDbLine
 10
229.2476449993024
 20
99.067390999613
 30
0.0
 11
232.2376433709506
 21
99.067390999613
 31
0.0
  0
LINE
  5
581
330
1F
100
AcDbEntity
  8
OBRYS
100
AcDbLine
 10
213.3926265570855
 20
70.56232644510709
 30
0.0
 11
212.7928354331038
 21
70.56232644510709
 31
0.0
  0
LINE
  5
582
330
1F
100
AcDbEntity
  8
OBRYS
100
AcDbLine
 10
211.5977318092705
 20
69.36705056650015
 30
0.0
 11
211.5977318092705
 21
68.7672594425182
 31
0.0
  0
LINE
  5
583
330
1F
100
AcDbEntity
  8
OBRYS
100
AcDbLine
 10
212.7928354331038
 20
67.57181130913608
 30
0.0
 11
213.3926265570855
 21
67.57181130913608
 31
0.0
  0
LINE
  5
584
330
1F
100
AcDbEntity
  8
OBRYS
100
AcDbLine
 10
214.5884192000157
 20
69.36705056650015
 30
0.0
 11
214.5884192000157
 21
68.7672594425182
 31
0.0
  0
LINE
  5
585
330
1F
100
AcDbEntity
  8
OBRYS
100
AcDbLine
 10
212.7928354331038
 20
70.56232644510709
 30
0.0
 11
212.7928354331038
 21
67.57181130913608
 31
0.0
  0
LINE
  5
586
330
1F
100
AcDbEntity
  8
OBRYS
100
AcDbLine
 10
213.3926265570855
 20
70.56232644510709
 30
0.0
 11
213.3926265570855
 21
67.57181130913608
 31
0.0
  0
LINE
  5
587
330
1F
100
AcDbEntity
  8
OBRYS
100
AcDbLine
 10
211.5977318092705
 20
69.36705056650015
 30
0.0
 11
214.5884192000157
 21
69.36705056650015
 31
0.0
  0
LINE
  5
588
330
1F
100
AcDbEntity
  8
OBRYS
100
AcDbLine
 10
211.5977318092705
 20
68.7672594425182
 30
0.0
 11
214.5884192000157
 21
68.7672594425182
 31
0.0
  0
LINE
  5
589
330
1F
100
AcDbEntity
  8
OBRYS
100
AcDbLine
 10
231.0428842566662
 20
70.56232644510709
 30
0.0
 11
230.4427486231355
 21
70.56232644510709
 31
0.0
  0
LINE
  5
58A
330
1F
100
AcDbEntity
  8
OBRYS
100
AcDbLine
 10
229.2476449993024
 20
69.36705056650015
 30
0.0
 11
229.2476449993024
 21
68.7672594425182
 31
0.0
  0
LINE
  5
58B
330
1F
100
AcDbEntity
  8
OBRYS
100
AcDbLine
 10
232.2376433709506
 20
69.36705056650015
 30
0.0
 11
232.2376433709506
 21
68.7672594425182
 31
0.0
  0
LINE
  5
58C
330
1F
100
AcDbEntity
  8
OBRYS
100
AcDbLine
 10
231.0428842566662
 20
67.57181130913608
 30
0.0
 11
230.4430931326841
 21
67.57181130913608
 31
0.0
  0
LINE
  5
58D
330
1F
100
AcDbEntity
  8
OBRYS
100
AcDbLine
 10
230.4427486231355
 20
70.56232644510709
 30
0.0
 11
230.4427486231355
 21
67.57181130913608
 31
0.0
  0
LINE
  5
58E
330
1F
100
AcDbEntity
  8
OBRYS
100
AcDbLine
 10
231.0428842566662
 20
70.56232644510709
 30
0.0
 11
231.0428842566662
 21
67.57181130913608
 31
0.0
  0
LINE
  5
58F
330
1F
100
AcDbEntity
  8
OBRYS
100
AcDbLine
 10
229.2476449993024
 20
69.36705056650015
 30
0.0
 11
232.2376433709506
 21
69.36705056650015
 31
0.0
  0
LINE
  5
590
330
1F
100
AcDbEntity
  8
OBRYS
100
AcDbLine
 10
229.2476449993024
 20
68.7672594425182
 30
0.0
 11
232.2376433709506
 21
68.7672594425182
 31
0.0
  0
LINE
  5
10B4
330
1F
100
AcDbEntity
  8
OBRYS
100
AcDbLine
 10
216.891094132281
 20
76.36713414536008
 30
0.0
 11
216.891094132281
 21
92.06730590283098
 31
0.0
  0
LINE
  5
10B5
330
1F
100
AcDbEntity
  8
OBRYS
100
AcDbLine
 10
217.0912543120186
 20
91.87748101636728
 30
0.0
 11
217.0912543120186
 21
76.55730354159958
 31
0.0
  0
LINE
  5
10B6
330
1F
100
AcDbEntity
  8
OBRYS
100
AcDbLine
 10
216.8063447274352
 20
92.31742000005907
 30
0.0
 11
216.8063447274352
 21
76.11770906768368
 31
0.0
  0
LINE
  5
10BC
330
1F
100
AcDbEntity
  8
OBRYS
100
AcDbLine
 10
216.8063447274352
 20
76.11770906768368
 30
0.0
 11
230.0062367870654
 21
76.11770906768368
 31
0.0
  0
LINE
  5
10BD
330
1F
100
AcDbEntity
  8
OBRYS
100
AcDbLine
 10
216.891094132281
 20
76.36713414536008
 30
0.0
 11
229.4512315382578
 21
76.36713414536008
 31
0.0
  0
LINE
  5
10BE
330
1F
100
AcDbEntity
  8
OBRYS
100
AcDbLine
 10
217.0912543120186
 20
76.55730354159958
 30
0.0
 11
226.5411574621075
 21
76.55730354159958
 31
0.0
  0
LINE
  5
10BF
330
1F
100
AcDbEntity
  8
OBRYS
100
AcDbLine
 10
226.5411574621075
 20
78.11741606129257
 30
0.0
 11
226.5411574621075
 21
76.36713414536008
 31
0.0
  0
LINE
  5
10C0
330
1F
100
AcDbEntity
  8
OBRYS
100
AcDbLine
 10
226.5411574621075
 20
78.11741606129257
 30
0.0
 11
223.741326514212
 21
78.11741606129257
 31
0.0
  0
LINE
  5
10C1
330
1F
100
AcDbEntity
  8
OBRYS
100
AcDbLine
 10
213.3926265570855
 20
100.8619412378802
 30
0.0
 11
213.3926265570855
 21
100.8619412378802
 31
0.0
  0
LINE
  5
10C2
330
1F
100
AcDbEntity
  8
OBRYS
100
AcDbLine
 10
212.7928354331038
 20
97.8722873757801
 30
0.0
 11
212.7928354331038
 21
97.8722873757801
 31
0.0
  0
LINE
  5
10C3
330
1F
100
AcDbEntity
  8
OBRYS
100
AcDbLine
 10
213.3926265570855
 20
70.56232644510709
 30
0.0
 11
213.3926265570855
 21
70.56232644510709
 31
0.0
  0
LINE
  5
10C4
330
1F
100
AcDbEntity
  8
OBRYS
100
AcDbLine
 10
212.7928354331038
 20
67.57181130913608
 30
0.0
 11
212.7928354331038
 21
67.57181130913608
 31
0.0
  0
LINE
  5
10C5
330
1F
100
AcDbEntity
  8
OBRYS
100
AcDbLine
 10
232.2376433709506
 20
99.66718212359518
 30
0.0
 11
232.2376433709506
 21
99.66718212359518
 31
0.0
  0
LINE
  5
10C6
330
1F
100
AcDbEntity
  8
OBRYS
100
AcDbLine
 10
231.0428842566662
 20
100.8619412378802
 30
0.0
 11
231.0428842566662
 21
100.8619412378802
 31
0.0
  0
LINE
  5
10C7
330
1F
100
AcDbEntity
  8
OBRYS
100
AcDbLine
 10
230.4427486231355
 20
97.8722873757801
 30
0.0
 11
230.4430931326841
 21
97.8722873757801
 31
0.0
  0
LINE
  5
10C8
330
1F
100
AcDbEntity
  8
OBRYS
100
AcDbLine
 10
229.2476449993024
 20
68.7672594425182
 30
0.0
 11
229.2476449993024
 21
68.7672594425182
 31
0.0
  0
LINE
  5
10C9
330
1F
100
AcDbEntity
  8
OBRYS
100
AcDbLine
 10
231.0428842566662
 20
70.56232644510709
 30
0.0
 11
231.0428842566662
 21
70.56232644510709
 31
0.0
  0
LINE
  5
10CA
330
1F
100
AcDbEntity
  8
OBRYS
100
AcDbLine
 10
230.4427486231355
 20
67.57181130913608
 30
0.0
 11
230.4430931326841
 21
67.57181130913608
 31
0.0
  0
LINE
  5
10CB
330
1F
100
AcDbEntity
  8
OBRYS
100
AcDbLine
 10
233.7431500980051
 20
71.00140386470315
 30
0.0
 11
233.7648541995621
 21
70.5835137823421
 31
0.0
  0
LINE
  5
10CC
330
1F
100
AcDbEntity
  8
OBRYS
100
AcDbLine
 10
233.7648541995621
 20
70.5835137823421
 30
0.0
 11
233.8299665042333
 21
70.16993006933711
 31
0.0
  0
LINE
  5
10CD
330
1F
100
AcDbEntity
  8
OBRYS
100
AcDbLine
 10
233.8299665042333
 20
70.16993006933711
 30
0.0
 11
233.9388315215672
 21
69.76564811414318
 31
0.0
  0
LINE
  5
10CE
330
1F
100
AcDbEntity
  8
OBRYS
100
AcDbLine
 10
233.9388315215672
 20
69.76564811414318
 30
0.0
 11
234.0886931751756
 21
69.37480203134209
 31
0.0
  0
LINE
  5
10CF
330
1F
100
AcDbEntity
  8
OBRYS
100
AcDbLine
 10
234.0886931751756
 20
69.37480203134209
 30
0.0
 11
234.2788624459613
 21
69.00152593551519
 31
0.0
  0
LINE
  5
10D0
330
1F
100
AcDbEntity
  8
OBRYS
100
AcDbLine
 10
234.2788624459613
 20
99.43291563059819
 30
0.0
 11
234.0886931751756
 21
99.05963953477107
 31
0.0
  0
LINE
  5
10D1
330
1F
100
AcDbEntity
  8
OBRYS
100
AcDbLine
 10
234.0886931751756
 20
99.05963953477107
 30
0.0
 11
233.9388315215672
 21
98.66879345196907
 31
0.0
  0
LINE
  5
10D2
330
1F
100
AcDbEntity
  8
OBRYS
100
AcDbLine
 10
233.9388315215672
 20
98.66879345196907
 30
0.0
 11
233.8299665042333
 21
98.26451149677604
 31
0.0
  0
LINE
  5
10D3
330
1F
100
AcDbEntity
  8
OBRYS
100
AcDbLine
 10
233.8299665042333
 20
98.26451149677604
 30
0.0
 11
233.7648541995621
 21
97.85110003854601
 31
0.0
  0
LINE
  5
10D4
330
1F
100
AcDbEntity
  8
OBRYS
100
AcDbLine
 10
233.7648541995621
 20
97.85110003854601
 30
0.0
 11
233.7431500980051
 21
97.43303770141
 31
0.0
  0
LINE
  5
10D5
330
1F
100
AcDbEntity
  8
OBRYS
100
AcDbLine
 10
233.5784745338101
 20
77.08802631326802
 30
0.0
 11
233.8613168731491
 21
77.153310872713
 31
0.0
  0
LINE
  5
10D6
330
1F
100
AcDbEntity
  8
OBRYS
100
AcDbLine
 10
233.8003386830602
 20
76.65687261328816
 30
0.0
 11
233.5374778975355
 21
76.79123133721299
 31
0.0
  0
LINE
  5
10D7
330
1F
100
AcDbEntity
  8
OBRYS
100
AcDbLine
 10
233.7076656145068
 20
78.12758387594221
 30
0.0
 11
233.9753495337107
 21
78.19424647358113
 31
0.0
  0
LINE
  5
10D8
330
1F
100
AcDbEntity
  8
OBRYS
100
AcDbLine
 10
233.9229840823352
 20
77.69694694028516
 30
0.0
 11
233.6718366214603
 21
77.81959233956007
 31
0.0
  0
LINE
  5
10D9
330
1F
100
AcDbEntity
  8
OBRYS
100
AcDbLine
 10
233.8148080840982
 20
79.16834722203606
 30
0.0
 11
234.0714676977493
 21
79.237076876966
 31
0.0
  0
LINE
  5
10DA
330
1F
100
AcDbEntity
  8
OBRYS
100
AcDbLine
 10
234.028059494635
 20
78.73891606979913
 30
0.0
 11
233.7496957794268
 21
78.86845166004508
 31
0.0
  0
LINE
  5
10DB
330
1F
100
AcDbEntity
  8
OBRYS
100
AcDbLine
 10
233.8992129234868
 20
80.20962733245204
 30
0.0
 11
234.1489823461672
 21
80.28094080899717
 31
0.0
  0
LINE
  5
10DC
330
1F
100
AcDbEntity
  8
OBRYS
100
AcDbLine
 10
234.1145313913149
 20
79.78243549228108
 30
0.0
 11
233.8757862741872
 21
79.88906119755
 31
0.0
  0
LINE
  5
10DD
330
1F
100
AcDbEntity
  8
OBRYS
100
AcDbLine
 10
233.9615691517698
 20
81.2510796976432
 30
0.0
 11
234.2089270076106
 21
81.32687179831913
 31
0.0
  0
LINE
  5
10DE
330
1F
100
AcDbEntity
  8
OBRYS
100
AcDbLine
 10
234.1827442819228
 20
80.8273329529581
 30
0.0
 11
233.9226395727864
 21
80.93809277280906
 31
0.0
  0
LINE
  5
10DF
330
1F
100
AcDbEntity
  8
OBRYS
100
AcDbLine
 10
234.0022212784956
 20
82.29253206283505
 30
0.0
 11
234.2502681534338
 21
82.37297504241513
 31
0.0
  0
LINE
  5
10E0
330
1F
100
AcDbEntity
  8
OBRYS
100
AcDbLine
 10
234.2326981664589
 20
81.8734361970541
 30
0.0
 11
233.99188599204
 21
81.97041563496413
 31
0.0
  0
LINE
  5
10E1
330
1F
100
AcDbEntity
  8
OBRYS
100
AcDbLine
 10
234.0197912654706
 20
83.33277864460518
 30
0.0
 11
234.273350293185
 21
83.41993956038317
 31
0.0
  0
LINE
  5
10E2
330
1F
100
AcDbEntity
  8
OBRYS
100
AcDbLine
 10
234.2643930449233
 20
82.92005620547314
 30
0.0
 11
234.0166906795339
 21
83.01531309564001
 31
0.0
  0
LINE
  5
10E3
330
1F
100
AcDbEntity
  8
OBRYS
100
AcDbLine
 10
233.8003386830602
 20
91.77756895282408
 30
0.0
 11
233.7431500980051
 21
92.21750764629104
 31
0.0
  0
LINE
  5
10E4
330
1F
100
AcDbEntity
  8
OBRYS
100
AcDbLine
 10
233.9229840823352
 20
90.73732237105304
 30
0.0
 11
233.8613168731491
 21
91.28130294817419
 31
0.0
  0
LINE
  5
10E5
330
1F
100
AcDbEntity
  8
OBRYS
100
AcDbLine
 10
234.028059494635
 20
89.69552549631402
 30
0.0
 11
233.9753495337107
 21
90.24019509253111
 31
0.0
  0
LINE
  5
10E6
330
1F
100
AcDbEntity
  8
OBRYS
100
AcDbLine
 10
234.1145313913149
 20
88.65166156428307
 30
0.0
 11
234.0714676977493
 21
89.19736468914715
 31
0.0
  0
LINE
  5
10E7
330
1F
100
AcDbEntity
  8
OBRYS
100
AcDbLine
 10
234.1827442819228
 20
87.60710861315505
 30
0.0
 11
234.1489823461672
 21
88.15315624756721
 31
0.0
  0
LINE
  5
10E8
330
1F
100
AcDbEntity
  8
OBRYS
100
AcDbLine
 10
234.2326981664589
 20
86.56117762383309
 30
0.0
 11
234.2089270076106
 21
87.10756976779402
 31
0.0
  0
LINE
  5
10E9
330
1F
100
AcDbEntity
  8
OBRYS
100
AcDbLine
 10
234.2643930449233
 20
85.51404085109215
 30
0.0
 11
234.2502681534338
 21
86.06163877847206
 31
0.0
  0
LINE
  5
10EA
330
1F
100
AcDbEntity
  8
OBRYS
100
AcDbLine
 10
234.2781734268643
 20
84.46707633312411
 30
0.0
 11
234.2736948027335
 21
85.01450200573112
 31
0.0
  0
LINE
  5
10EB
330
1F
100
AcDbEntity
  8
OBRYS
100
AcDbLine
 10
233.7431500980051
 20
76.21693391982211
 30
0.0
 11
233.8003386830602
 21
76.65687261328816
 31
0.0
  0
LINE
  5
10EC
330
1F
100
AcDbEntity
  8
OBRYS
100
AcDbLine
 10
233.8613168731491
 20
77.153310872713
 30
0.0
 11
233.9229840823352
 21
77.69694694028516
 31
0.0
  0
LINE
  5
10ED
330
1F
100
AcDbEntity
  8
OBRYS
100
AcDbLine
 10
233.9753495337107
 20
78.19424647358113
 30
0.0
 11
234.028059494635
 21
78.73891606979913
 31
0.0
  0
LINE
  5
10EE
330
1F
100
AcDbEntity
  8
OBRYS
100
AcDbLine
 10
234.0714676977493
 20
79.237076876966
 30
0.0
 11
234.1145313913149
 21
79.78243549228108
 31
0.0
  0
LINE
  5
10EF
330
1F
100
AcDbEntity
  8
OBRYS
100
AcDbLine
 10
234.1489823461672
 20
80.28094080899717
 30
0.0
 11
234.1827442819228
 21
80.8273329529581
 31
0.0
  0
LINE
  5
10F0
330
1F
100
AcDbEntity
  8
OBRYS
100
AcDbLine
 10
234.2089270076106
 20
81.32687179831913
 30
0.0
 11
234.2326981664589
 21
81.8734361970541
 31
0.0
  0
LINE
  5
10F1
330
1F
100
AcDbEntity
  8
OBRYS
100
AcDbLine
 10
234.2736948027335
 20
83.41993956038317
 30
0.0
 11
234.2781734268643
 21
83.96719297821409
 31
0.0
  0
LINE
  5
10F2
330
1F
100
AcDbEntity
  8
OBRYS
100
AcDbLine
 10
234.2502681534338
 20
82.37297504241513
 30
0.0
 11
234.2643930449233
 21
82.92005620547314
 31
0.0
  0
LINE
  5
10F3
330
1F
100
AcDbEntity
  8
OBRYS
100
AcDbLine
 10
234.0191022463734
 20
84.3728529716031
 30
0.0
 11
234.2781734268643
 21
84.46707633312411
 31
0.0
  0
LINE
  5
10F4
330
1F
100
AcDbEntity
  8
OBRYS
100
AcDbLine
 10
234.2781734268643
 20
83.96719297821409
 30
0.0
 11
234.0132455840486
 21
84.06348339702703
 31
0.0
  0
LINE
  5
10F5
330
1F
100
AcDbEntity
  8
OBRYS
100
AcDbLine
 10
225.1180090411333
 20
65.71731640942602
 30
0.0
 11
224.3177133599099
 21
65.71731640942602
 31
0.0
  0
LINE
  5
10F6
330
1F
100
AcDbEntity
  8
OBRYS
100
AcDbLine
 10
219.5180063298598
 20
65.71731640942602
 30
0.0
 11
218.7177106486365
 21
65.71731640942602
 31
0.0
  0
LINE
  5
10F7
330
1F
100
AcDbEntity
  8
OBRYS
100
AcDbLine
 10
228.247189270386
 20
64.51704514236502
 30
0.0
 11
228.244088684449
 21
64.49206820009721
 31
0.0
  0
LINE
  5
10F8
330
1F
100
AcDbEntity
  8
OBRYS
100
AcDbLine
 10
228.244088684449
 20
64.49206820009721
 30
0.0
 11
228.2427106462551
 21
64.46657449350613
 31
0.0
  0
LINE
  5
10F9
330
1F
100
AcDbEntity
  8
OBRYS
100
AcDbLine
 10
228.2427106462551
 20
64.21714958037404
 30
0.0
 11
228.2427106462551
 21
64.46657449350613
 31
0.0
  0
LINE
  5
10FA
330
1F
100
AcDbEntity
  8
OBRYS
100
AcDbLine
 10
231.4428598425037
 20
64.21714958037404
 30
0.0
 11
231.4177106454613
 21
64.21714958037404
 31
0.0
  0
LINE
  5
10FB
330
1F
100
AcDbEntity
  8
OBRYS
100
AcDbLine
 10
228.3178137278336
 20
64.21714958037404
 30
0.0
 11
228.2427106462551
 21
64.21714958037404
 31
0.0
  0
LINE
  5
10FC
330
1F
100
AcDbEntity
  8
OBRYS
100
AcDbLine
 10
234.4428489910593
 20
68.71696104843312
 30
0.0
 11
234.4428489910593
 21
67.11714958037413
 31
0.0
  0
ARC
  5
10FD
330
1F
100
AcDbEntity
  8
OBRYS
100
AcDbCircle
 10
231.5428489910593
 20
67.11714958037409
 30
0.0
 40
2.900000000000048
100
AcDbArc
 50
270.0000000000009
 51
0.0000000000008379
  0
LINE
  5
10FE
330
1F
100
AcDbEntity
  8
OBRYS
100
AcDbLine
 10
231.5428489910593
 20
64.21714958037404
 30
0.0
 11
228.3178137278336
 21
64.21714958037404
 31
0.0
  0
LINE
  5
10FF
330
1F
100
AcDbEntity
  8
OBRYS
100
AcDbLine
 10
234.4428489910593
 20
68.71696104843312
 30
0.0
 11
234.2785179364127
 21
69.0011814259662
 31
0.0
  0
LINE
  5
1100
330
1F
100
AcDbEntity
  8
OBRYS
100
AcDbLine
 10
233.7431500980051
 20
71.00140386470315
 30
0.0
 11
233.7431500980051
 21
76.21693391982211
 31
0.0
  0
LINE
  5
1101
330
1F
100
AcDbEntity
  8
OBRYS
100
AcDbLine
 10
233.7431500980051
 20
92.21750764629104
 30
0.0
 11
233.7431500980051
 21
97.43303770141
 31
0.0
  0
LINE
  5
1102
330
1F
100
AcDbEntity
  8
OBRYS
100
AcDbLine
 10
228.2427106462551
 20
104.2172919857391
 30
0.0
 11
231.5428489910593
 21
104.2172919857391
 31
0.0
  0
ARC
  5
1103
330
1F
100
AcDbEntity
  8
OBRYS
100
AcDbCircle
 10
231.5428489910589
 20
101.3172919857387
 30
0.0
 40
2.900000000000347
100
AcDbArc
 50
0.0000000000089819
 51
89.99999999999326
  0
LINE
  5
1104
330
1F
100
AcDbEntity
  8
OBRYS
100
AcDbLine
 10
234.4428489910593
 20
101.3172919857392
 30
0.0
 11
234.4428489910593
 21
99.71696375335699
 31
0.0
  0
LINE
  5
1105
330
1F
100
AcDbEntity
  8
OBRYS
100
AcDbLine
 10
234.4428489910593
 20
99.71696375335699
 30
0.0
 11
234.2785179364127
 21
99.43291563059819
 31
0.0
  0
LINE
  5
1106
330
1F
100
AcDbEntity
  8
OBRYS
100
AcDbLine
 10
228.2427106462551
 20
103.9173964237481
 30
0.0
 11
228.2427106462551
 21
104.2172919857391
 31
0.0
  0
LINE
  5
1107
330
1F
100
AcDbEntity
  8
OBRYS
100
AcDbLine
 10
234.2736948027335
 20
85.01450200573112
 30
0.0
 11
234.0197912654706
 21
85.10166292150706
 31
0.0
  0
LINE
  5
1108
330
1F
100
AcDbEntity
  8
OBRYS
100
AcDbLine
 10
234.0166906795339
 20
85.41912847047314
 30
0.0
 11
234.2643930449233
 21
85.51404085109215
 31
0.0
  0
LINE
  5
1109
330
1F
100
AcDbEntity
  8
OBRYS
100
AcDbLine
 10
234.2502681534338
 20
86.06163877847206
 30
0.0
 11
234.0022212784956
 21
86.1419095032781
 31
0.0
  0
LINE
  5
110A
330
1F
100
AcDbEntity
  8
OBRYS
100
AcDbLine
 10
233.99188599204
 20
86.46368142160117
 30
0.0
 11
234.2326981664589
 21
86.56117762383309
 31
0.0
  0
LINE
  5
110B
330
1F
100
AcDbEntity
  8
OBRYS
100
AcDbLine
 10
234.2089270076106
 20
87.10756976779402
 30
0.0
 11
233.9615691517698
 21
87.18336186846904
 31
0.0
  0
LINE
  5
110C
330
1F
100
AcDbEntity
  8
OBRYS
100
AcDbLine
 10
233.9446881838922
 20
87.50582280588918
 30
0.0
 11
234.1827442819228
 21
87.60710861315505
 31
0.0
  0
LINE
  5
110D
330
1F
100
AcDbEntity
  8
OBRYS
100
AcDbLine
 10
234.1489823461672
 20
88.15315624756721
 30
0.0
 11
233.8992129234868
 21
88.2248142336611
 31
0.0
  0
LINE
  5
110E
330
1F
100
AcDbEntity
  8
OBRYS
100
AcDbLine
 10
233.8757862741872
 20
88.54555262333719
 30
0.0
 11
234.1145313913149
 21
88.65166156428307
 31
0.0
  0
LINE
  5
110F
330
1F
100
AcDbEntity
  8
OBRYS
100
AcDbLine
 10
234.0714676977493
 20
89.19736468914715
 30
0.0
 11
233.8148080840982
 21
89.26626659885113
 31
0.0
  0
LINE
  5
1110
330
1F
100
AcDbEntity
  8
OBRYS
100
AcDbLine
 10
233.784491243828
 20
89.5820096000752
 30
0.0
 11
234.028059494635
 21
89.69552549631402
 31
0.0
  0
LINE
  5
1111
330
1F
100
AcDbEntity
  8
OBRYS
100
AcDbLine
 10
233.9753495337107
 20
90.24019509253111
 30
0.0
 11
233.7076656145068
 21
90.30685769017117
 31
0.0
  0
LINE
  5
1112
330
1F
100
AcDbEntity
  8
OBRYS
100
AcDbLine
 10
233.6718366214603
 20
90.61484922655308
 30
0.0
 11
233.9229840823352
 21
90.73732237105304
 31
0.0
  0
LINE
  5
1113
330
1F
100
AcDbEntity
  8
OBRYS
100
AcDbLine
 10
233.8613168731491
 20
91.28130294817419
 30
0.0
 11
233.5784745338101
 21
91.34658750761918
 31
0.0
  0
LINE
  5
1114
330
1F
100
AcDbEntity
  8
OBRYS
100
AcDbLine
 10
233.5374778975355
 20
91.64321022890016
 30
0.0
 11
233.8003386830602
 21
91.77756895282408
 31
0.0
  0
LINE
  5
1115
330
1F
100
AcDbEntity
  8
OBRYS
100
AcDbLine
 10
210.0929141013132
 20
97.43303770141
 30
0.0
 11
210.0708654902078
 21
97.85110003854601
 31
0.0
  0
LINE
  5
1116
330
1F
100
AcDbEntity
  8
OBRYS
100
AcDbLine
 10
210.0708654902078
 20
97.85110003854601
 30
0.0
 11
210.005408675988
 21
98.26451149677604
 31
0.0
  0
LINE
  5
1117
330
1F
100
AcDbEntity
  8
OBRYS
100
AcDbLine
 10
210.005408675988
 20
98.26451149677604
 30
0.0
 11
209.8968881682028
 21
98.66879345196907
 31
0.0
  0
LINE
  5
1118
330
1F
100
AcDbEntity
  8
OBRYS
100
AcDbLine
 10
209.8968881682028
 20
98.66879345196907
 30
0.0
 11
209.7470265145941
 21
99.05963953477107
 31
0.0
  0
LINE
  5
1119
330
1F
100
AcDbEntity
  8
OBRYS
100
AcDbLine
 10
209.7470265145941
 20
99.05963953477107
 30
0.0
 11
209.5568572438086
 21
99.43291563059819
 31
0.0
  0
LINE
  5
111A
330
1F
100
AcDbEntity
  8
OBRYS
100
AcDbLine
 10
209.5568572438086
 20
69.00152593551519
 30
0.0
 11
209.7470265145941
 21
69.37480203134209
 31
0.0
  0
LINE
  5
111B
330
1F
100
AcDbEntity
  8
OBRYS
100
AcDbLine
 10
209.7470265145941
 20
69.37480203134209
 30
0.0
 11
209.8968881682028
 21
69.76564811414318
 31
0.0
  0
LINE
  5
111C
330
1F
100
AcDbEntity
  8
OBRYS
100
AcDbLine
 10
209.8968881682028
 20
69.76564811414318
 30
0.0
 11
210.005408675988
 21
70.16993006933711
 31
0.0
  0
LINE
  5
111D
330
1F
100
AcDbEntity
  8
OBRYS
100
AcDbLine
 10
210.005408675988
 20
70.16993006933711
 30
0.0
 11
210.0708654902078
 21
70.5835137823421
 31
0.0
  0
LINE
  5
111E
330
1F
100
AcDbEntity
  8
OBRYS
100
AcDbLine
 10
210.0708654902078
 20
70.5835137823421
 30
0.0
 11
210.0929141013132
 21
71.00140386470315
 31
0.0
  0
LINE
  5
111F
330
1F
100
AcDbEntity
  8
OBRYS
100
AcDbLine
 10
210.2572451559599
 20
91.34658750761918
 30
0.0
 11
209.9744028166208
 21
91.28130294817419
 31
0.0
  0
LINE
  5
1120
330
1F
100
AcDbEntity
  8
OBRYS
100
AcDbLine
 10
210.0353810067098
 20
91.77756895282408
 30
0.0
 11
210.2985863017828
 21
91.64321022890016
 31
0.0
  0
LINE
  5
1121
330
1F
100
AcDbEntity
  8
OBRYS
100
AcDbLine
 10
210.1280540752628
 20
90.30685769017117
 30
0.0
 11
209.860370156059
 21
90.24019509253111
 31
0.0
  0
LINE
  5
1122
330
1F
100
AcDbEntity
  8
OBRYS
100
AcDbLine
 10
209.9120465883379
 20
90.73732237105304
 30
0.0
 11
210.163538558761
 21
90.61484922655308
 31
0.0
  0
LINE
  5
1123
330
1F
100
AcDbEntity
  8
OBRYS
100
AcDbLine
 10
210.0212561152201
 20
89.26626659885113
 30
0.0
 11
209.7642519920205
 21
89.19736468914715
 31
0.0
  0
LINE
  5
1124
330
1F
100
AcDbEntity
  8
OBRYS
100
AcDbLine
 10
209.8076601951346
 20
89.69552549631402
 30
0.0
 11
210.0512284459417
 21
89.5820096000752
 31
0.0
  0
LINE
  5
1125
330
1F
100
AcDbEntity
  8
OBRYS
100
AcDbLine
 10
209.9365067662829
 20
88.2248142336611
 30
0.0
 11
209.6863928340539
 21
88.15315624756721
 31
0.0
  0
LINE
  5
1126
330
1F
100
AcDbEntity
  8
OBRYS
100
AcDbLine
 10
209.7211882984548
 20
88.65166156428307
 30
0.0
 11
209.9602779251313
 21
88.54555262333719
 31
0.0
  0
LINE
  5
1127
330
1F
100
AcDbEntity
  8
OBRYS
100
AcDbLine
 10
209.8741505380001
 20
87.18336186846904
 30
0.0
 11
209.6267926821591
 21
87.10756976779402
 31
0.0
  0
LINE
  5
1128
330
1F
100
AcDbEntity
  8
OBRYS
100
AcDbLine
 10
209.6529754078469
 20
87.60710861315505
 30
0.0
 11
209.8906869963292
 21
87.50582280588918
 31
0.0
  0
LINE
  5
1129
330
1F
100
AcDbEntity
  8
OBRYS
100
AcDbLine
 10
209.8334984112741
 20
86.1419095032781
 30
0.0
 11
209.5854515363362
 21
86.06129426892306
 31
0.0
  0
LINE
  5
112A
330
1F
100
AcDbEntity
  8
OBRYS
100
AcDbLine
 10
209.6030215233107
 20
86.56117762383309
 30
0.0
 11
209.8441782072783
 21
86.46368142160117
 31
0.0
  0
LINE
  5
112B
330
1F
100
AcDbEntity
  8
OBRYS
100
AcDbLine
 10
209.8159284242991
 20
85.10166292150706
 30
0.0
 11
209.562369396585
 21
85.01450200573112
 31
0.0
  0
LINE
  5
112C
330
1F
100
AcDbEntity
  8
OBRYS
100
AcDbLine
 10
209.5713266448467
 20
85.51404085109215
 30
0.0
 11
209.819029010236
 21
85.41912847047314
 31
0.0
  0
LINE
  5
112D
330
1F
100
AcDbEntity
  8
OBRYS
100
AcDbLine
 10
210.0353810067098
 20
76.65687261328816
 30
0.0
 11
210.0929141013132
 21
76.21693391982211
 31
0.0
  0
LINE
  5
112E
330
1F
100
AcDbEntity
  8
OBRYS
100
AcDbLine
 10
209.9120465883379
 20
77.69694694028516
 30
0.0
 11
209.9747473261693
 21
77.153310872713
 31
0.0
  0
LINE
  5
112F
330
1F
100
AcDbEntity
  8
OBRYS
100
AcDbLine
 10
209.8076601951346
 20
78.73891606979913
 30
0.0
 11
209.860370156059
 21
78.19424647358113
 31
0.0
  0
LINE
  5
1130
330
1F
100
AcDbEntity
  8
OBRYS
100
AcDbLine
 10
209.7211882984548
 20
79.78243549228108
 30
0.0
 11
209.7642519920205
 21
79.237076876966
 31
0.0
  0
LINE
  5
1131
330
1F
100
AcDbEntity
  8
OBRYS
100
AcDbLine
 10
209.6529754078469
 20
80.8273329529581
 30
0.0
 11
209.6863928340539
 21
80.28094080899717
 31
0.0
  0
LINE
  5
1132
330
1F
100
AcDbEntity
  8
OBRYS
100
AcDbLine
 10
209.6030215233107
 20
81.8734361970541
 30
0.0
 11
209.6267926821591
 21
81.32687179831913
 31
0.0
  0
LINE
  5
1133
330
1F
100
AcDbEntity
  8
OBRYS
100
AcDbLine
 10
209.5713266448467
 20
82.92005620547314
 30
0.0
 11
209.5854515363362
 21
82.37297504241513
 31
0.0
  0
LINE
  5
1134
330
1F
100
AcDbEntity
  8
OBRYS
100
AcDbLine
 10
209.5575462629054
 20
83.96719297821409
 30
0.0
 11
209.562369396585
 21
83.41993956038317
 31
0.0
  0
LINE
  5
1135
330
1F
100
AcDbEntity
  8
OBRYS
100
AcDbLine
 10
210.0929141013132
 20
92.21750764629104
 30
0.0
 11
210.0353810067098
 21
91.77756895282408
 31
0.0
  0
LINE
  5
1136
330
1F
100
AcDbEntity
  8
OBRYS
100
AcDbLine
 10
209.9744028166208
 20
91.28130294817419
 30
0.0
 11
209.9120465883379
 21
90.73732237105304
 31
0.0
  0
LINE
  5
1137
330
1F
100
AcDbEntity
  8
OBRYS
100
AcDbLine
 10
209.860370156059
 20
90.24019509253111
 30
0.0
 11
209.8076601951346
 21
89.69552549631402
 31
0.0
  0
LINE
  5
1138
330
1F
100
AcDbEntity
  8
OBRYS
100
AcDbLine
 10
209.7642519920205
 20
89.19736468914715
 30
0.0
 11
209.7211882984548
 21
88.65166156428307
 31
0.0
  0
LINE
  5
1139
330
1F
100
AcDbEntity
  8
OBRYS
100
AcDbLine
 10
209.6863928340539
 20
88.15315624756721
 30
0.0
 11
209.6529754078469
 21
87.60710861315505
 31
0.0
  0
LINE
  5
113A
330
1F
100
AcDbEntity
  8
OBRYS
100
AcDbLine
 10
209.6267926821591
 20
87.10756976779402
 30
0.0
 11
209.6030215233107
 21
86.56117762383309
 31
0.0
  0
LINE
  5
113B
330
1F
100
AcDbEntity
  8
OBRYS
100
AcDbLine
 10
209.562369396585
 20
85.01450200573112
 30
0.0
 11
209.5575462629054
 21
84.46707633312411
 31
0.0
  0
LINE
  5
113C
330
1F
100
AcDbEntity
  8
OBRYS
100
AcDbLine
 10
209.5854515363362
 20
86.06129426892306
 30
0.0
 11
209.5713266448467
 21
85.51404085109215
 31
0.0
  0
LINE
  5
113D
330
1F
100
AcDbEntity
  8
OBRYS
100
AcDbLine
 10
209.8224741057214
 20
84.06348339702703
 30
0.0
 11
209.5575462629054
 21
83.96719297821409
 31
0.0
  0
LINE
  5
113E
330
1F
100
AcDbEntity
  8
OBRYS
100
AcDbLine
 10
209.5575462629054
 20
84.46707633312411
 30
0.0
 11
209.8162729338479
 21
84.3728529716031
 31
0.0
  0
LINE
  5
113F
330
1F
100
AcDbEntity
  8
OBRYS
100
AcDbLine
 10
209.3928706987107
 20
99.71696375335699
 30
0.0
 11
209.3928706987107
 21
101.31694747619
 31
0.0
  0
ARC
  5
1140
330
1F
100
AcDbEntity
  8
OBRYS
100
AcDbCircle
 10
212.2928706987108
 20
101.3169474761901
 30
0.0
 40
2.900000000000055
100
AcDbArc
 50
90.00000000000324
 51
180.000000000001
  0
LINE
  5
1141
330
1F
100
AcDbEntity
  8
OBRYS
100
AcDbLine
 10
212.2928706987106
 20
104.2169474761901
 30
0.0
 11
215.5930090435149
 21
104.2169474761901
 31
0.0
  0
LINE
  5
1142
330
1F
100
AcDbEntity
  8
OBRYS
100
AcDbLine
 10
209.3928706987107
 20
99.71696375335699
 30
0.0
 11
209.5568572438086
 21
99.43291563059819
 31
0.0
  0
LINE
  5
1143
330
1F
100
AcDbEntity
  8
OBRYS
100
AcDbLine
 10
210.0929141013132
 20
97.43303770141
 30
0.0
 11
210.0929141013132
 21
92.21750764629104
 31
0.0
  0
LINE
  5
1144
330
1F
100
AcDbEntity
  8
OBRYS
100
AcDbLine
 10
210.0929141013132
 20
76.21693391982211
 30
0.0
 11
210.0929141013132
 21
71.00140386470315
 31
0.0
  0
LINE
  5
1145
330
1F
100
AcDbEntity
  8
OBRYS
100
AcDbLine
 10
215.5930090435149
 20
64.21714958037404
 30
0.0
 11
215.5179059619362
 21
64.21714958037404
 31
0.0
  0
LINE
  5
1146
330
1F
100
AcDbEntity
  8
OBRYS
100
AcDbLine
 10
212.4180090443083
 20
64.21714958037404
 30
0.0
 11
212.3928598472663
 21
64.21714958037404
 31
0.0
  0
LINE
  5
1147
330
1F
100
AcDbEntity
  8
OBRYS
100
AcDbLine
 10
215.5930090435149
 20
64.46657449350613
 30
0.0
 11
215.5930090435149
 21
64.21714958037404
 31
0.0
  0
LINE
  5
1148
330
1F
100
AcDbEntity
  8
OBRYS
100
AcDbLine
 10
215.5930090435149
 20
64.46657449350613
 30
0.0
 11
215.5919755148693
 21
64.49275721919406
 31
0.0
  0
LINE
  5
1149
330
1F
100
AcDbEntity
  8
OBRYS
100
AcDbLine
 10
215.5919755148693
 20
64.49275721919406
 30
0.0
 11
215.5881859098353
 21
64.51876769010818
 31
0.0
  0
LINE
  5
114A
330
1F
100
AcDbEntity
  8
OBRYS
100
AcDbLine
 10
209.562369396585
 20
83.41993956038317
 30
0.0
 11
209.8159284242991
 21
83.33277864460518
 31
0.0
  0
LINE
  5
114B
330
1F
100
AcDbEntity
  8
OBRYS
100
AcDbLine
 10
209.819029010236
 20
83.01531309564001
 30
0.0
 11
209.5713266448467
 21
82.92005620547314
 31
0.0
  0
LINE
  5
114C
330
1F
100
AcDbEntity
  8
OBRYS
100
AcDbLine
 10
209.5854515363362
 20
82.37297504241513
 30
0.0
 11
209.8334984112741
 21
82.29253206283505
 31
0.0
  0
LINE
  5
114D
330
1F
100
AcDbEntity
  8
OBRYS
100
AcDbLine
 10
209.8441782072783
 20
81.97041563496413
 30
0.0
 11
209.6030215233107
 21
81.8734361970541
 31
0.0
  0
LINE
  5
114E
330
1F
100
AcDbEntity
  8
OBRYS
100
AcDbLine
 10
209.6267926821591
 20
81.32687179831913
 30
0.0
 11
209.8741505380001
 21
81.2510796976432
 31
0.0
  0
LINE
  5
114F
330
1F
100
AcDbEntity
  8
OBRYS
100
AcDbLine
 10
209.8951924845463
 20
80.93047572138056
 30
0.0
 11
209.6529754078469
 21
80.8273329529581
 31
0.0
  0
LINE
  5
1150
330
1F
100
AcDbEntity
  8
OBRYS
100
AcDbLine
 10
209.6863928340539
 20
80.28094080899717
 30
0.0
 11
209.9365067662829
 21
80.20962733245204
 31
0.0
  0
LINE
  5
1151
330
1F
100
AcDbEntity
  8
OBRYS
100
AcDbLine
 10
209.9602779251313
 20
79.88906119755
 30
0.0
 11
209.7211882984548
 21
79.78243549228108
 31
0.0
  0
LINE
  5
1152
330
1F
100
AcDbEntity
  8
OBRYS
100
AcDbLine
 10
209.7642519920205
 20
79.237076876966
 30
0.0
 11
210.0212561152201
 21
79.16834722203606
 31
0.0
  0
LINE
  5
1153
330
1F
100
AcDbEntity
  8
OBRYS
100
AcDbLine
 10
210.0518465225349
 20
78.8525473310651
 30
0.0
 11
209.8076601951346
 21
78.73891606979913
 31
0.0
  0
LINE
  5
1154
330
1F
100
AcDbEntity
  8
OBRYS
100
AcDbLine
 10
209.860370156059
 20
78.19424647358113
 30
0.0
 11
210.1280540752628
 21
78.12758387594221
 31
0.0
  0
LINE
  5
1155
330
1F
100
AcDbEntity
  8
OBRYS
100
AcDbLine
 10
210.163538558761
 20
77.81959233956007
 30
0.0
 11
209.9120465883379
 21
77.69694694028516
 31
0.0
  0
LINE
  5
1156
330
1F
100
AcDbEntity
  8
OBRYS
100
AcDbLine
 10
209.9744028166208
 20
77.153310872713
 30
0.0
 11
210.2572451559599
 21
77.08802631326802
 31
0.0
  0
LINE
  5
1157
330
1F
100
AcDbEntity
  8
OBRYS
100
AcDbLine
 10
210.3147782505634
 20
76.79932731160415
 30
0.0
 11
210.0353810067098
 21
76.65687261328816
 31
0.0
  0
LINE
  5
1158
330
1F
100
AcDbEntity
  8
OBRYS
100
AcDbLine
 10
231.4177106454613
 20
53.71753206997817
 30
0.0
 11
212.4180090443083
 21
53.71753206997817
 31
0.0
  0
LINE
  5
1159
330
1F
100
AcDbEntity
  8
OBRYS
100
AcDbLine
 10
212.4180090443083
 20
52.91706413398008
 30
0.0
 11
212.4180090443083
 21
56.71717670898504
 31
0.0
  0
LINE
  5
115A
330
1F
100
AcDbEntity
  8
OBRYS
100
AcDbLine
 10
212.4180090443083
 20
56.71717670898504
 30
0.0
 11
212.4180090443083
 21
64.21714958037404
 31
0.0
  0
LINE
  5
115B
330
1F
100
AcDbEntity
  8
OBRYS
100
AcDbLine
 10
231.4177106454613
 20
64.21714958037404
 30
0.0
 11
231.4177106454613
 21
52.91706413398008
 31
0.0
  0
LINE
  5
115C
330
1F
100
AcDbEntity
  8
OBRYS
100
AcDbLine
 10
231.4177106454613
 20
52.91706413398008
 30
0.0
 11
230.917482781003
 21
52.91706413398008
 31
0.0
  0
LINE
  5
115D
330
1F
100
AcDbEntity
  8
OBRYS
100
AcDbLine
 10
212.9178923992183
 20
52.91706413398008
 30
0.0
 11
212.4180090443083
 21
52.91706413398008
 31
0.0
  0
LINE
  5
115E
330
1F
100
AcDbEntity
  8
OBRYS
100
AcDbLine
 10
218.7177106486365
 20
65.51750087128215
 30
0.0
 11
219.5180063298598
 21
65.51750087128215
 31
0.0
  0
LINE
  5
115F
330
1F
100
AcDbEntity
  8
OBRYS
100
AcDbLine
 10
224.3177133599099
 20
65.51750087128215
 30
0.0
 11
225.1180090411333
 21
65.51750087128215
 31
0.0
  0
LINE
  5
1160
330
1F
100
AcDbEntity
  8
OBRYS
100
AcDbLine
 10
209.5568572438086
 20
69.0011814259662
 30
0.0
 11
209.3928706987107
 21
68.71696104843312
 31
0.0
  0
LINE
  5
1161
330
1F
100
AcDbEntity
  8
OBRYS
100
AcDbLine
 10
209.3928706987107
 20
68.71696104843312
 30
0.0
 11
209.3928706987107
 21
67.1171495803739
 31
0.0
  0
ARC
  5
1162
330
1F
100
AcDbEntity
  8
OBRYS
100
AcDbCircle
 10
212.2928706987109
 20
67.11714958037426
 30
0.0
 40
2.900000000000219
100
AcDbArc
 50
180.000000000007
 51
269.9999999999935
  0
LINE
  5
1163
330
1F
100
AcDbEntity
  8
OBRYS
100
AcDbLine
 10
212.2928706987106
 20
64.21714958037404
 30
0.0
 11
215.5179059619362
 21
64.21714958037404
 31
0.0
  0
LINE
  5
1164
330
1F
100
AcDbEntity
  8
OBRYS
100
AcDbLine
 10
231.4177106454613
 20
56.71717670898504
 30
0.0
 11
212.4180090443083
 21
56.71717670898504
 31
0.0
  0
LINE
  5
1165
330
1F
100
AcDbEntity
  8
OBRYS
100
AcDbLine
 10
216.1669619513574
 20
104.2176364952872
 30
0.0
 11
217.5446556359087
 21
104.041592115991
 31
0.0
  0
LINE
  5
1166
330
1F
100
AcDbEntity
  8
OBRYS
100
AcDbLine
 10
217.5446556359087
 20
104.041592115991
 30
0.0
 11
218.9278614732366
 21
103.9139513282632
 31
0.0
  0
LINE
  5
1167
330
1F
100
AcDbEntity
  8
OBRYS
100
AcDbLine
 10
224.9540224960357
 20
103.9173964237481
 30
0.0
 11
226.3131126649667
 21
104.0443481923791
 31
0.0
  0
LINE
  5
1168
330
1F
100
AcDbEntity
  8
OBRYS
100
AcDbLine
 10
226.3131126649667
 20
104.0443481923791
 30
0.0
 11
227.6670351906698
 21
104.2176364952872
 31
0.0
  0
LINE
  5
1169
330
1F
100
AcDbEntity
  8
OBRYS
100
AcDbLine
 10
215.6670785964477
 20
104.2172919857391
 30
0.0
 11
216.1669619513574
 21
104.2172919857391
 31
0.0
  0
LINE
  5
116A
330
1F
100
AcDbEntity
  8
OBRYS
100
AcDbLine
 10
228.1669185455795
 20
104.2172919857391
 30
0.0
 11
228.1669185455795
 21
103.9173964237481
 31
0.0
  0
LINE
  5
116B
330
1F
100
AcDbEntity
  8
OBRYS
100
AcDbLine
 10
227.6670351906698
 20
104.2172919857391
 30
0.0
 11
228.1669185455795
 21
104.2172919857391
 31
0.0
  0
LINE
  5
116C
330
1F
100
AcDbEntity
  8
OBRYS
100
AcDbLine
 10
212.9178923992183
 20
53.71753206997817
 30
0.0
 11
212.9178923992183
 21
49.81716721635319
 31
0.0
  0
LINE
  5
116D
330
1F
100
AcDbEntity
  8
OBRYS
100
AcDbLine
 10
210.3275251038588
 20
58.82368034344102
 30
0.0
 11
210.674101709675
 21
57.86938889402716
 31
0.0
  0
LINE
  5
116E
330
1F
100
AcDbEntity
  8
OBRYS
100
AcDbLine
 10
209.6894934199907
 20
58.711025721074
 30
0.0
 11
210.3275251038588
 21
58.82368034344102
 31
0.0
  0
LINE
  5
116F
330
1F
100
AcDbEntity
  8
OBRYS
100
AcDbLine
 10
209.6894934199907
 20
57.69575608157009
 30
0.0
 11
209.6894934199907
 21
58.711025721074
 31
0.0
  0
LINE
  5
1170
330
1F
100
AcDbEntity
  8
OBRYS
100
AcDbLine
 10
231.7653207799231
 20
59.28687343143309
 30
0.0
 11
231.4904021602
 21
57.73072380074603
 31
0.0
  0
LINE
  5
1171
330
1F
100
AcDbEntity
  8
OBRYS
100
AcDbLine
 10
232.7499290696074
 20
59.11289610942816
 30
0.0
 11
231.7653207799231
 21
59.28687343143309
 31
0.0
  0
LINE
  5
1172
330
1F
100
AcDbEntity
  8
OBRYS
100
AcDbLine
 10
231.4177106454613
 20
57.54554991841399
 30
0.0
 11
231.4904021602
 21
57.73072380074603
 31
0.0
  0
LINE
  5
1173
330
1F
100
AcDbEntity
  8
OBRYS
100
AcDbLine
 10
212.0703989098467
 20
59.28687343143309
 30
0.0
 11
211.0857906201622
 21
59.11289610942816
 31
0.0
  0
LINE
  5
1174
330
1F
100
AcDbEntity
  8
OBRYS
100
AcDbLine
 10
212.3449730200211
 20
57.73072380074603
 30
0.0
 11
212.0703989098467
 21
59.28687343143309
 31
0.0
  0
LINE
  5
1175
330
1F
100
AcDbEntity
  8
OBRYS
100
AcDbLine
 10
212.3449730200211
 20
57.73072380074603
 30
0.0
 11
212.4180090443083
 21
57.54554991841399
 31
0.0
  0
LINE
  5
1176
330
1F
100
AcDbEntity
  8
OBRYS
100
AcDbLine
 10
230.917482781003
 20
50.8169339261721
 30
0.0
 11
230.9178706931542
 21
50.8169339261721
 31
0.0
  0
ARC
  5
1177
330
1F
100
AcDbEntity
  8
OBRYS
100
AcDbCircle
 10
230.9178706931544
 20
51.51693392617194
 30
0.0
 40
0.6999999999998499
100
AcDbArc
 50
269.9999999999886
 51
0.0000000000165898
  0
LINE
  5
1178
330
1F
100
AcDbEntity
  8
OBRYS
100
AcDbLine
 10
231.6178706931542
 20
51.51693392617215
 30
0.0
 11
231.6178706931542
 21
52.31727300999903
 31
0.0
  0
LINE
  5
1179
330
1F
100
AcDbEntity
  8
OBRYS
100
AcDbLine
 10
231.6178706931542
 20
52.31727300999903
 30
0.0
 11
232.6179819125224
 21
52.31727300999903
 31
0.0
  0
LINE
  5
117A
330
1F
100
AcDbEntity
  8
OBRYS
100
AcDbLine
 10
232.6179819125224
 20
52.31727300999903
 30
0.0
 11
232.6179819125224
 21
51.31716721635319
 31
0.0
  0
ARC
  5
117B
330
1F
100
AcDbEntity
  8
OBRYS
100
AcDbCircle
 10
231.1179819125223
 20
51.31716721635325
 30
0.0
 40
1.500000000000057
100
AcDbArc
 50
270.0000000000021
 51
359.9999999999978
  0
LINE
  5
117C
330
1F
100
AcDbEntity
  8
OBRYS
100
AcDbLine
 10
231.1179819125224
 20
49.81716721635319
 30
0.0
 11
230.917482781003
 21
49.81716721635319
 31
0.0
  0
LINE
  5
117D
330
1F
100
AcDbEntity
  8
OBRYS
100
AcDbLine
 10
230.917482781003
 20
49.81716721635319
 30
0.0
 11
212.9178923992183
 21
49.81716721635319
 31
0.0
  0
LINE
  5
117E
330
1F
100
AcDbEntity
  8
OBRYS
100
AcDbLine
 10
212.9178923992183
 20
49.81716721635319
 30
0.0
 11
212.3373516026498
 21
49.81716721635319
 31
0.0
  0
ARC
  5
117F
330
1F
100
AcDbEntity
  8
OBRYS
100
AcDbCircle
 10
212.3373516026499
 20
51.31716721635329
 30
0.0
 40
1.500000000000098
100
AcDbArc
 50
190.0000079433836
 51
269.9999999999957
  0
LINE
  5
1180
330
1F
100
AcDbEntity
  8
OBRYS
100
AcDbLine
 10
210.8601400092429
 20
51.05669474505492
 30
0.0
 11
209.6894934199907
 21
57.69575608157009
 31
0.0
  0
LINE
  5
1181
330
1F
100
AcDbEntity
  8
OBRYS
100
AcDbLine
 10
212.9178923992183
 20
50.8169339261721
 30
0.0
 11
212.5052876792975
 21
50.8169339261721
 31
0.0
  0
ARC
  5
1182
330
1F
100
AcDbEntity
  8
OBRYS
100
AcDbCircle
 10
212.5052876792975
 20
51.51693392617211
 30
0.0
 40
0.700000000000018
100
AcDbArc
 50
190.002209566258
 51
269.9999999999972
  0
LINE
  5
1183
330
1F
100
AcDbEntity
  8
OBRYS
100
AcDbLine
 10
211.8159269403245
 20
51.39535361706515
 30
0.0
 11
210.7609181159033
 21
57.37725700395907
 31
0.0
  0
LINE
  5
1184
330
1F
100
AcDbEntity
  8
OBRYS
100
AcDbLine
 10
210.7609181159033
 20
57.37725700395907
 30
0.0
 11
210.674101709675
 21
57.86938889402716
 31
0.0
  0
LINE
  5
1185
330
1F
100
AcDbEntity
  8
OBRYS
100
AcDbLine
 10
230.917482781003
 20
49.81716721635319
 30
0.0
 11
230.917482781003
 21
51.31716179062999
 31
0.0
  0
LINE
  5
1186
330
1F
100
AcDbEntity
  8
OBRYS
100
AcDbLine
 10
230.917482781003
 20
51.31716179062999
 30
0.0
 11
230.917482781003
 21
53.71753206997817
 31
0.0
  0
LINE
  5
1187
330
1F
100
AcDbEntity
  8
OBRYS
100
AcDbLine
 10
211.1519364534791
 20
55.16137158784607
 30
0.0
 11
211.1519364534791
 21
55.16137158784607
 31
0.0
  0
LINE
  5
1188
330
1F
100
AcDbEntity
  8
OBRYS
100
AcDbLine
 10
210.7609181159033
 20
57.37725700395907
 30
0.0
 11
209.7763098262189
 21
57.20327968195414
 31
0.0
  0
LINE
  5
1189
330
1F
100
AcDbEntity
  8
OBRYS
100
AcDbLine
 10
224.3177133599099
 20
64.71703293528407
 30
0.0
 11
223.8178300050002
 21
64.71703293528407
 31
0.0
  0
LINE
  5
118A
330
1F
100
AcDbEntity
  8
OBRYS
100
AcDbLine
 10
223.8178300050002
 20
64.71703293528407
 30
0.0
 11
220.0178896847695
 21
64.71703293528407
 31
0.0
  0
LINE
  5
118B
330
1F
100
AcDbEntity
  8
OBRYS
100
AcDbLine
 10
220.0178896847695
 20
64.71703293528407
 30
0.0
 11
219.5180063298598
 21
64.71703293528407
 31
0.0
  0
LINE
  5
118C
330
1F
100
AcDbEntity
  8
OBRYS
100
AcDbLine
 10
219.5180063298598
 20
65.51750087128215
 30
0.0
 11
220.0178896847695
 21
65.51750087128215
 31
0.0
  0
LINE
  5
118D
330
1F
100
AcDbEntity
  8
OBRYS
100
AcDbLine
 10
220.0178896847695
 20
65.51750087128215
 30
0.0
 11
224.3177133599099
 21
65.51750087128215
 31
0.0
  0
LINE
  5
118E
330
1F
100
AcDbEntity
  8
OBRYS
100
AcDbLine
 10
210.3678327210364
 20
71.27425542713416
 30
0.0
 11
210.3678327210364
 21
76.31718619844304
 31
0.0
  0
LINE
  5
118F
330
1F
100
AcDbEntity
  8
OBRYS
100
AcDbLine
 10
233.4678869687336
 20
76.31718619844304
 30
0.0
 11
233.4678869687336
 21
71.27425542713416
 31
0.0
  0
LINE
  5
1190
330
1F
100
AcDbEntity
  8
OBRYS
100
AcDbLine
 10
233.4678869687336
 20
71.27425542713416
 30
0.0
 11
233.4889020511935
 21
70.84034565076712
 31
0.0
  0
LINE
  5
1191
330
1F
100
AcDbEntity
  8
OBRYS
100
AcDbLine
 10
233.4889020511935
 20
70.84034565076712
 30
0.0
 11
233.5533253367676
 21
70.4109144985311
 31
0.0
  0
LINE
  5
1192
330
1F
100
AcDbEntity
  8
OBRYS
100
AcDbLine
 10
233.5533253367676
 20
70.4109144985311
 30
0.0
 11
233.6594342777134
 21
69.98975157545914
 31
0.0
  0
LINE
  5
1193
330
1F
100
AcDbEntity
  8
OBRYS
100
AcDbLine
 10
233.6594342777134
 20
69.98975157545914
 30
0.0
 11
233.8065398549336
 21
69.58081874136013
 31
0.0
  0
LINE
  5
1194
330
1F
100
AcDbEntity
  8
OBRYS
100
AcDbLine
 10
233.8065398549336
 20
69.58081874136013
 30
0.0
 11
233.9932640302341
 21
69.18893912991206
 31
0.0
  0
LINE
  5
1195
330
1F
100
AcDbEntity
  8
OBRYS
100
AcDbLine
 10
233.9932640302341
 20
69.18893912991206
 30
0.0
 11
234.2178842558725
 21
68.81704107228
 31
0.0
  0
LINE
  5
1196
330
1F
100
AcDbEntity
  8
OBRYS
100
AcDbLine
 10
209.6178354338976
 20
68.81704107228
 30
0.0
 11
209.8428001690843
 21
69.18893912991206
 31
0.0
  0
LINE
  5
1197
330
1F
100
AcDbEntity
  8
OBRYS
100
AcDbLine
 10
209.8428001690843
 20
69.18893912991206
 30
0.0
 11
210.0291798348364
 21
69.58081874136013
 31
0.0
  0
LINE
  5
1198
330
1F
100
AcDbEntity
  8
OBRYS
100
AcDbLine
 10
210.0291798348364
 20
69.58081874136013
 30
0.0
 11
210.1762854120564
 21
69.98975157545914
 31
0.0
  0
LINE
  5
1199
330
1F
100
AcDbEntity
  8
OBRYS
100
AcDbLine
 10
210.1762854120564
 20
69.98975157545914
 30
0.0
 11
210.2827388625505
 21
70.4109144985311
 31
0.0
  0
LINE
  5
119A
330
1F
100
AcDbEntity
  8
OBRYS
100
AcDbLine
 10
210.2827388625505
 20
70.4109144985311
 30
0.0
 11
210.3468176385762
 21
70.84034565076712
 31
0.0
  0
LINE
  5
119B
330
1F
100
AcDbEntity
  8
OBRYS
100
AcDbLine
 10
210.3468176385762
 20
70.84034565076712
 30
0.0
 11
210.3678327210364
 21
71.27425542713416
 31
0.0
  0
LINE
  5
119C
330
1F
100
AcDbEntity
  8
OBRYS
100
AcDbLine
 10
210.3674882114877
 20
97.16035839375303
 30
0.0
 11
210.3674882114877
 21
92.11742762244415
 31
0.0
  0
LINE
  5
119D
330
1F
100
AcDbEntity
  8
OBRYS
100
AcDbLine
 10
233.4678869687336
 20
92.11742762244415
 30
0.0
 11
233.4678869687336
 21
97.16035839375303
 31
0.0
  0
LINE
  5
119E
330
1F
100
AcDbEntity
  8
OBRYS
100
AcDbLine
 10
234.2178842558725
 20
99.61740049383314
 30
0.0
 11
233.9932640302341
 21
99.24567469097514
 31
0.0
  0
LINE
  5
119F
330
1F
100
AcDbEntity
  8
OBRYS
100
AcDbLine
 10
233.9932640302341
 20
99.24567469097514
 30
0.0
 11
233.8065398549336
 21
98.85327831520516
 31
0.0
  0
LINE
  5
11A0
330
1F
100
AcDbEntity
  8
OBRYS
100
AcDbLine
 10
233.8065398549336
 20
98.85327831520516
 30
0.0
 11
233.6594342777134
 21
98.44468999065401
 31
0.0
  0
LINE
  5
11A1
330
1F
100
AcDbEntity
  8
OBRYS
100
AcDbLine
 10
233.6594342777134
 20
98.44468999065401
 30
0.0
 11
233.5533253367676
 21
98.02352706758205
 31
0.0
  0
LINE
  5
11A2
330
1F
100
AcDbEntity
  8
OBRYS
100
AcDbLine
 10
233.5533253367676
 20
98.02352706758205
 30
0.0
 11
233.4889020511935
 21
97.59426817012007
 31
0.0
  0
LINE
  5
11A3
330
1F
100
AcDbEntity
  8
OBRYS
100
AcDbLine
 10
233.4889020511935
 20
97.59426817012007
 30
0.0
 11
233.4678869687336
 21
97.16035839375303
 31
0.0
  0
LINE
  5
11A4
330
1F
100
AcDbEntity
  8
OBRYS
100
AcDbLine
 10
234.2178842558725
 20
99.61740049383314
 30
0.0
 11
234.2178842558725
 21
101.017396423748
 31
0.0
  0
ARC
  5
11A5
330
1F
100
AcDbEntity
  8
OBRYS
100
AcDbCircle
 10
231.3178842558724
 20
101.017396423748
 30
0.0
 40
2.900000000000098
100
AcDbArc
 50
359.9999999999998
 51
89.99999999999761
  0
LINE
  5
11A6
330
1F
100
AcDbEntity
  8
OBRYS
100
AcDbLine
 10
231.3178842558725
 20
103.9173964237481
 30
0.0
 11
212.5174909243491
 21
103.9173964237481
 31
0.0
  0
ARC
  5
11A7
330
1F
100
AcDbEntity
  8
OBRYS
100
AcDbCircle
 10
212.5174909243493
 20
101.0173964237479
 30
0.0
 40
2.900000000000212
100
AcDbArc
 50
90.00000000000463
 51
179.9999999999979
  0
LINE
  5
11A8
330
1F
100
AcDbEntity
  8
OBRYS
100
AcDbLine
 10
209.6174909243491
 20
101.017396423748
 30
0.0
 11
209.6174909243491
 21
99.61740049383314
 31
0.0
  0
LINE
  5
11A9
330
1F
100
AcDbEntity
  8
OBRYS
100
AcDbLine
 10
210.3678327210364
 20
97.16035839375303
 30
0.0
 11
210.3468176385762
 21
97.59426817012007
 31
0.0
  0
LINE
  5
11AA
330
1F
100
AcDbEntity
  8
OBRYS
100
AcDbLine
 10
210.3468176385762
 20
97.59426817012007
 30
0.0
 11
210.2827388625505
 21
98.02352706758205
 31
0.0
  0
LINE
  5
11AB
330
1F
100
AcDbEntity
  8
OBRYS
100
AcDbLine
 10
210.2827388625505
 20
98.02352706758205
 30
0.0
 11
210.1762854120564
 21
98.44468999065401
 31
0.0
  0
LINE
  5
11AC
330
1F
100
AcDbEntity
  8
OBRYS
100
AcDbLine
 10
210.1762854120564
 20
98.44468999065401
 30
0.0
 11
210.0291798348364
 21
98.85362282475302
 31
0.0
  0
LINE
  5
11AD
330
1F
100
AcDbEntity
  8
OBRYS
100
AcDbLine
 10
210.0291798348364
 20
98.85362282475302
 30
0.0
 11
209.8428001690843
 21
99.24567469097514
 31
0.0
  0
LINE
  5
11AE
330
1F
100
AcDbEntity
  8
OBRYS
100
AcDbLine
 10
209.8428001690843
 20
99.24567469097514
 30
0.0
 11
209.6178354338976
 21
99.61740049383314
 31
0.0
  0
LINE
  5
11AF
330
1F
100
AcDbEntity
  8
OBRYS
100
AcDbLine
 10
209.8179954815904
 20
84.21730691044417
 30
0.0
 11
209.8204070484302
 21
82.89576828230219
 31
0.0
  0
LINE
  5
11B0
330
1F
100
AcDbEntity
  8
OBRYS
100
AcDbLine
 10
209.8204070484302
 20
82.89576828230219
 30
0.0
 11
209.858992117865
 21
81.57526318280605
 31
0.0
  0
LINE
  5
11B1
330
1F
100
AcDbEntity
  8
OBRYS
100
AcDbLine
 10
209.858992117865
 20
81.57526318280605
 30
0.0
 11
209.9330616707976
 21
80.25596386672913
 31
0.0
  0
LINE
  5
11B2
330
1F
100
AcDbEntity
  8
OBRYS
100
AcDbLine
 10
209.9330616707976
 20
80.25596386672913
 30
0.0
 11
210.0422711976803
 21
78.93924837226717
 31
0.0
  0
LINE
  5
11B3
330
1F
100
AcDbEntity
  8
OBRYS
100
AcDbLine
 10
210.0422711976803
 20
78.93924837226717
 30
0.0
 11
210.1873097176092
 21
77.62597797328903
 31
0.0
  0
LINE
  5
11B4
330
1F
100
AcDbEntity
  8
OBRYS
100
AcDbLine
 10
210.1873097176092
 20
77.62597797328903
 30
0.0
 11
210.3678327210364
 21
76.31718619844304
 31
0.0
  0
LINE
  5
11B5
330
1F
100
AcDbEntity
  8
OBRYS
100
AcDbLine
 10
233.467542459185
 20
76.31718619844304
 30
0.0
 11
233.6477209530637
 21
77.62597797328903
 31
0.0
  0
LINE
  5
11B6
330
1F
100
AcDbEntity
  8
OBRYS
100
AcDbLine
 10
233.6477209530637
 20
77.62597797328903
 30
0.0
 11
233.7927594729924
 21
78.93924837226717
 31
0.0
  0
LINE
  5
11B7
330
1F
100
AcDbEntity
  8
OBRYS
100
AcDbLine
 10
233.7927594729924
 20
78.93924837226717
 30
0.0
 11
233.9023135094235
 21
80.25596386672913
 31
0.0
  0
LINE
  5
11B8
330
1F
100
AcDbEntity
  8
OBRYS
100
AcDbLine
 10
233.9023135094235
 20
80.25596386672913
 30
0.0
 11
233.9760385528079
 21
81.57526318280605
 31
0.0
  0
LINE
  5
11B9
330
1F
100
AcDbEntity
  8
OBRYS
100
AcDbLine
 10
233.9760385528079
 20
81.57526318280605
 30
0.0
 11
234.0146236222426
 21
82.89576828230219
 31
0.0
  0
LINE
  5
11BA
330
1F
100
AcDbEntity
  8
OBRYS
100
AcDbLine
 10
234.0146236222426
 20
82.89576828230219
 30
0.0
 11
234.0173796986307
 21
84.21730691044417
 31
0.0
  0
LINE
  5
11BB
330
1F
100
AcDbEntity
  8
OBRYS
100
AcDbLine
 10
210.3678327210364
 20
92.11742762244415
 30
0.0
 11
210.1873097176092
 21
90.80863584759817
 31
0.0
  0
LINE
  5
11BC
330
1F
100
AcDbEntity
  8
OBRYS
100
AcDbLine
 10
210.1873097176092
 20
90.80863584759817
 30
0.0
 11
210.0422711976803
 21
89.4951931938462
 31
0.0
  0
LINE
  5
11BD
330
1F
100
AcDbEntity
  8
OBRYS
100
AcDbLine
 10
210.0422711976803
 20
89.4951931938462
 30
0.0
 11
209.9330616707976
 21
88.17864995415806
 31
0.0
  0
LINE
  5
11BE
330
1F
100
AcDbEntity
  8
OBRYS
100
AcDbLine
 10
209.9330616707976
 20
88.17864995415806
 30
0.0
 11
209.858992117865
 21
86.859178383308
 31
0.0
  0
LINE
  5
11BF
330
1F
100
AcDbEntity
  8
OBRYS
100
AcDbLine
 10
209.858992117865
 20
86.859178383308
 30
0.0
 11
209.8204070484302
 21
85.53867328381119
 31
0.0
  0
LINE
  5
11C0
330
1F
100
AcDbEntity
  8
OBRYS
100
AcDbLine
 10
209.8204070484302
 20
85.53867328381119
 30
0.0
 11
209.8179954815904
 21
84.21730691044417
 31
0.0
  0
LINE
  5
11C1
330
1F
100
AcDbEntity
  8
OBRYS
100
AcDbLine
 10
234.0173796986307
 20
84.21730691044417
 30
0.0
 11
234.0146236222426
 21
85.53867328381119
 31
0.0
  0
LINE
  5
11C2
330
1F
100
AcDbEntity
  8
OBRYS
100
AcDbLine
 10
234.0146236222426
 20
85.53867328381119
 30
0.0
 11
233.9760385528079
 21
86.859178383308
 31
0.0
  0
LINE
  5
11C3
330
1F
100
AcDbEntity
  8
OBRYS
100
AcDbLine
 10
233.9760385528079
 20
86.859178383308
 30
0.0
 11
233.9023135094235
 21
88.17864995415806
 31
0.0
  0
LINE
  5
11C4
330
1F
100
AcDbEntity
  8
OBRYS
100
AcDbLine
 10
233.9023135094235
 20
88.17864995415806
 30
0.0
 11
233.7927594729924
 21
89.4951931938462
 31
0.0
  0
LINE
  5
11C5
330
1F
100
AcDbEntity
  8
OBRYS
100
AcDbLine
 10
233.7927594729924
 20
89.4951931938462
 30
0.0
 11
233.6477209530637
 21
90.80863584759817
 31
0.0
  0
LINE
  5
11C6
330
1F
100
AcDbEntity
  8
OBRYS
100
AcDbLine
 10
233.6477209530637
 20
90.80863584759817
 30
0.0
 11
233.467542459185
 21
92.11742762244415
 31
0.0
  0
LINE
  5
11C7
330
1F
100
AcDbEntity
  8
OBRYS
100
AcDbLine
 10
225.1180090411333
 20
65.91730420234506
 30
0.0
 11
225.1180090411333
 21
64.51704514236502
 31
0.0
  0
LINE
  5
11C8
330
1F
100
AcDbEntity
  8
OBRYS
100
AcDbLine
 10
218.7177106486365
 20
64.51704514236502
 30
0.0
 11
218.7177106486365
 21
65.91730420234506
 31
0.0
  0
LINE
  5
11C9
330
1F
100
AcDbEntity
  8
OBRYS
100
AcDbLine
 10
219.5180063298598
 20
64.71703293528407
 30
0.0
 11
219.5180063298598
 21
65.51750087128215
 31
0.0
  0
LINE
  5
11CA
330
1F
100
AcDbEntity
  8
OBRYS
100
AcDbLine
 10
219.5180063298598
 20
65.51750087128215
 30
0.0
 11
219.5180063298598
 21
65.71731640942602
 31
0.0
  0
LINE
  5
11CB
330
1F
100
AcDbEntity
  8
OBRYS
100
AcDbLine
 10
219.5180063298598
 20
65.71731640942602
 30
0.0
 11
219.5180063298598
 21
65.91730420234506
 31
0.0
  0
LINE
  5
11CC
330
1F
100
AcDbEntity
  8
OBRYS
100
AcDbLine
 10
224.3177133599099
 20
65.71731640942602
 30
0.0
 11
224.3177133599099
 21
65.91730420234506
 31
0.0
  0
LINE
  5
11CD
330
1F
100
AcDbEntity
  8
OBRYS
100
AcDbLine
 10
224.3177133599099
 20
65.71731640942602
 30
0.0
 11
224.3177133599099
 21
65.51750087128215
 31
0.0
  0
LINE
  5
11CE
330
1F
100
AcDbEntity
  8
OBRYS
100
AcDbLine
 10
224.3177133599099
 20
65.51750087128215
 30
0.0
 11
224.3177133599099
 21
64.71703293528407
 31
0.0
  0
LINE
  5
11CF
330
1F
100
AcDbEntity
  8
OBRYS
100
AcDbLine
 10
234.2178842558725
 20
68.81704107228
 30
0.0
 11
234.2178842558725
 21
67.41704514236511
 31
0.0
  0
ARC
  5
11D0
330
1F
100
AcDbEntity
  8
OBRYS
100
AcDbCircle
 10
231.3178842558726
 20
67.41704514236488
 30
0.0
 40
2.899999999999864
100
AcDbArc
 50
269.9999999999978
 51
0.0000000000044835
  0
LINE
  5
11D1
330
1F
100
AcDbEntity
  8
OBRYS
100
AcDbLine
 10
231.3178842558725
 20
64.51704514236502
 30
0.0
 11
225.1180090411333
 21
64.51704514236502
 31
0.0
  0
LINE
  5
11D2
330
1F
100
AcDbEntity
  8
OBRYS
100
AcDbLine
 10
218.7177106486365
 20
64.51704514236502
 30
0.0
 11
212.5174909243491
 21
64.51704514236502
 31
0.0
  0
ARC
  5
11D3
330
1F
100
AcDbEntity
  8
OBRYS
100
AcDbCircle
 10
212.517490924349
 20
67.41704514236488
 30
0.0
 40
2.899999999999864
100
AcDbArc
 50
179.9999999999955
 51
270.0000000000022
  0
LINE
  5
11D4
330
1F
100
AcDbEntity
  8
OBRYS
100
AcDbLine
 10
209.6174909243491
 20
67.41704514236511
 30
0.0
 11
209.6174909243491
 21
68.81704107228
 31
0.0
  0
LINE
  5
11D5
330
1F
100
AcDbEntity
  8
OBRYS
100
AcDbLine
 10
223.8178300050002
 20
64.71703293528407
 30
0.0
 11
222.8177187856323
 21
64.893421824129
 31
0.0
  0
LINE
  5
11D6
330
1F
100
AcDbEntity
  8
OBRYS
100
AcDbLine
 10
222.8177187856323
 20
65.34111198243721
 30
0.0
 11
223.8178300050002
 21
65.51750087128215
 31
0.0
  0
LINE
  5
11D7
330
1F
100
AcDbEntity
  8
OBRYS
100
AcDbLine
 10
222.8177187856323
 20
64.893421824129
 30
0.0
 11
222.8177187856323
 21
65.34111198243721
 31
0.0
  0
LINE
  5
11D8
330
1F
100
AcDbEntity
  8
OBRYS
100
AcDbLine
 10
220.0178896847695
 20
65.51750087128215
 30
0.0
 11
221.0180009041377
 21
65.34111198243721
 31
0.0
  0
LINE
  5
11D9
330
1F
100
AcDbEntity
  8
OBRYS
100
AcDbLine
 10
221.0180009041377
 20
64.893421824129
 30
0.0
 11
220.0178896847695
 21
64.71703293528407
 31
0.0
  0
LINE
  5
11DA
330
1F
100
AcDbEntity
  8
OBRYS
100
AcDbLine
 10
221.0180009041377
 20
65.34111198243721
 30
0.0
 11
221.0180009041377
 21
64.893421824129
 31
0.0
  0
LINE
  5
11DB
330
1F
100
AcDbEntity
  8
OBRYS
100
AcDbLine
 10
222.8177187856323
 20
65.34111198243721
 30
0.0
 11
221.0180009041377
 21
65.34111198243721
 31
0.0
  0
LINE
  5
11DC
330
1F
100
AcDbEntity
  8
OBRYS
100
AcDbLine
 10
221.0180009041377
 20
64.893421824129
 30
0.0
 11
222.8177187856323
 21
64.893421824129
 31
0.0
  0
LINE
  5
11DD
330
1F
100
AcDbEntity
  8
KOTY
100
AcDbLine
 10
209.3929405793911
 20
101.337079616255
 30
0.0
 11
209.3929405793911
 21
122.8004493592366
 31
0.0
1001
ACAD
1000
DSTYLE
1002
{
1070
   271
1070
     0
1070
   278
1070
    44
1070
   140
1040
4.0
1070
   178
1070
   256
1070
   176
1070
   256
1070
   177
1070
   256
1070
    41
1040
4.0
1070
   279
1070
     2
1002
}
  0
LINE
  5
11DE
330
1F
100
AcDbEntity
  8
KOTY
100
AcDbLine
 10
234.4428489910593
 20
101.3172919857388
 30
0.0
 11
234.4428489910593
 21
122.8004493592366
 31
0.0
1001
ACAD
1000
DSTYLE
1002
{
1070
   271
1070
     0
1070
   278
1070
    44
1070
   140
1040
4.0
1070
   178
1070
   256
1070
   176
1070
   256
1070
   177
1070
   256
1070
    41
1040
4.0
1070
   279
1070
     2
1002
}
  0
LINE
  5
11DF
330
1F
100
AcDbEntity
  8
KOTY
100
AcDbLine
 10
213.3929405793911
 20
121.5504493592366
 30
0.0
 11
230.4428489910593
 21
121.5504493592366
 31
0.0
1001
ACAD
1000
DSTYLE
1002
{
1070
   271
1070
     0
1070
   278
1070
    44
1070
   140
1040
4.0
1070
   178
1070
   256
1070
   176
1070
   256
1070
   177
1070
   256
1070
    41
1040
4.0
1070
   279
1070
     2
1002
}
  0
SOLID
  5
11E0
330
1F
100
AcDbEntity
  8
KOTY
100
AcDbTrace
 10
213.3929405793911
 20
122.2171160259033
 30
0.0
 11
213.3929405793911
 21
120.8837826925699
 31
0.0
 12
209.3929405793911
 22
121.5504493592366
 32
0.0
 13
209.3929405793911
 23
121.5504493592366
 33
0.0
1001
ACAD
1000
DSTYLE
1002
{
1070
   271
1070
     0
1070
   278
1070
    44
1070
   140
1040
4.0
1070
   178
1070
   256
1070
   176
1070
   256
1070
   177
1070
   256
1070
    41
1040
4.0
1070
   279
1070
     2
1002
}
  0
SOLID
  5
11E1
330
1F
100
AcDbEntity
  8
KOTY
100
AcDbTrace
 10
230.4428489910593
 20
120.8837826925699
 30
0.0
 11
230.4428489910593
 21
122.2171160259033
 31
0.0
 12
234.4428489910593
 22
121.5504493592366
 32
0.0
 13
234.4428489910593
 23
121.5504493592366
 33
0.0
1001
ACAD
1000
DSTYLE
1002
{
1070
   271
1070
     0
1070
   278
1070
    44
1070
   140
1040
4.0
1070
   178
1070
   256
1070
   176
1070
   256
1070
   177
1070
   256
1070
    41
1040
4.0
1070
   279
1070
     2
1002
}
  0
MTEXT
  5
11E2
330
1F
100
AcDbEntity
  8
KOTY
100
AcDbMText
 10
221.9178947852252
 20
124.2174493592366
 30
0.0
 40
4.0
 41
0.0
 71
     5
 72
     1
  1
\A1;25
1001
ACAD
1000
DSTYLE
1002
{
1070
   271
1070
     0
1070
   278
1070
    44
1070
   140
1040
4.0
1070
   178
1070
   256
1070
   176
1070
   256
1070
   177
1070
   256
1070
    41
1040
4.0
1070
   279
1070
     2
1002
}
  0
LINE
  5
11E3
330
1F
100
AcDbEntity
  8
OBRYS
100
AcDbLine
 10
223.8701731703598
 20
88.66733892549858
 30
0.0
 11
223.8701731703598
 21
79.76744563246828
 31
0.0
  0
LINE
  5
11E4
330
1F
100
AcDbEntity
  8
OBRYS
100
AcDbLine
 10
228.0911069434145
 20
87.41745745891018
 30
0.0
 11
223.8701731703598
 21
87.41745745891018
 31
0.0
  0
LINE
  5
11E6
330
1F
100
AcDbEntity
  8
OBRYS
100
AcDbLine
 10
222.2892178092312
 20
88.66733892549858
 30
0.0
 11
223.8701731703598
 21
88.66733892549858
 31
0.0
  0
LINE
  5
11E7
330
1F
100
AcDbEntity
  8
OBRYS
100
AcDbLine
 10
222.2892178092312
 20
79.76744563246828
 30
0.0
 11
222.2892178092312
 21
88.66733892549858
 31
0.0
  0
LINE
  5
11E8
330
1F
100
AcDbEntity
  8
OBRYS
100
AcDbLine
 10
223.8701731703598
 20
79.76744563246828
 30
0.0
 11
222.2892178092312
 21
79.76744563246828
 31
0.0
  0
LINE
  5
11ED
330
1F
100
AcDbEntity
  8
OBRYS
100
AcDbLine
 10
221.4052057245382
 20
80.44733567500208
 30
0.0
 11
221.4052057245382
 21
79.76744563246828
 31
0.0
  0
LINE
  5
11EE
330
1F
100
AcDbEntity
  8
OBRYS
100
AcDbLine
 10
221.4052057245382
 20
81.46742912113447
 30
0.0
 11
221.4052057245382
 21
80.84748377958928
 31
0.0
  0
LINE
  5
11EF
330
1F
100
AcDbEntity
  8
OBRYS
100
AcDbLine
 10
221.4052057245382
 20
82.48752256726698
 30
0.0
 11
221.4052057245382
 21
81.86757722572177
 31
0.0
  0
LINE
  5
11F0
330
1F
100
AcDbEntity
  8
OBRYS
100
AcDbLine
 10
221.4052057245382
 20
83.50744375851147
 30
0.0
 11
221.4052057245382
 21
82.88732616207838
 31
0.0
  0
LINE
  5
11F1
330
1F
100
AcDbEntity
  8
OBRYS
100
AcDbLine
 10
221.4052057245382
 20
84.52736494975608
 30
0.0
 11
221.4052057245382
 21
83.90741960821087
 31
0.0
  0
LINE
  5
11F2
330
1F
100
AcDbEntity
  8
OBRYS
100
AcDbLine
 10
221.4052057245382
 20
85.54745839588848
 30
0.0
 11
221.4052057245382
 21
84.92734079945538
 31
0.0
  0
LINE
  5
11F3
330
1F
100
AcDbEntity
  8
OBRYS
100
AcDbLine
 10
221.4052057245382
 20
86.56720733224518
 30
0.0
 11
221.4052057245382
 21
85.94726199069997
 31
0.0
  0
LINE
  5
11F4
330
1F
100
AcDbEntity
  8
OBRYS
100
AcDbLine
 10
221.4052057245382
 20
87.58730077837768
 30
0.0
 11
221.4052057245382
 21
86.96735543683248
 31
0.0
  0
LINE
  5
11F5
330
1F
100
AcDbEntity
  8
OBRYS
100
AcDbLine
 10
221.4052057245382
 20
88.66733892549858
 30
0.0
 11
221.4052057245382
 21
87.98744888296488
 31
0.0
  0
LINE
  5
11F6
330
1F
100
AcDbEntity
  8
OBRYS
100
AcDbLine
 10
222.1958556599904
 20
88.66733892549858
 30
0.0
 11
221.4052057245382
 21
88.66733892549858
 31
0.0
  0
LINE
  5
11F7
330
1F
100
AcDbEntity
  8
OBRYS
100
AcDbLine
 10
221.4992568933306
 20
80.44733567500208
 30
0.0
 11
221.4992568933306
 21
79.76744563246828
 31
0.0
  0
LINE
  5
11F8
330
1F
100
AcDbEntity
  8
OBRYS
100
AcDbLine
 10
221.4992568933306
 20
81.46742912113447
 30
0.0
 11
221.4992568933306
 21
80.84748377958928
 31
0.0
  0
LINE
  5
11F9
330
1F
100
AcDbEntity
  8
OBRYS
100
AcDbLine
 10
221.4992568933306
 20
82.48752256726698
 30
0.0
 11
221.4992568933306
 21
81.86757722572177
 31
0.0
  0
LINE
  5
11FA
330
1F
100
AcDbEntity
  8
OBRYS
100
AcDbLine
 10
221.4992568933306
 20
83.50744375851147
 30
0.0
 11
221.4992568933306
 21
82.88732616207838
 31
0.0
  0
LINE
  5
11FB
330
1F
100
AcDbEntity
  8
OBRYS
100
AcDbLine
 10
221.4992568933306
 20
84.52736494975608
 30
0.0
 11
221.4992568933306
 21
83.90741960821087
 31
0.0
  0
LINE
  5
11FC
330
1F
100
AcDbEntity
  8
OBRYS
100
AcDbLine
 10
221.4992568933306
 20
85.54745839588848
 30
0.0
 11
221.4992568933306
 21
84.92734079945538
 31
0.0
  0
LINE
  5
11FD
330
1F
100
AcDbEntity
  8
OBRYS
100
AcDbLine
 10
221.4992568933306
 20
86.56720733224518
 30
0.0
 11
221.4992568933306
 21
85.94726199069997
 31
0.0
  0
LINE
  5
11FE
330
1F
100
AcDbEntity
  8
OBRYS
100
AcDbLine
 10
221.4992568933306
 20
87.58730077837768
 30
0.0
 11
221.4992568933306
 21
86.96735543683248
 31
0.0
  0
LINE
  5
11FF
330
1F
100
AcDbEntity
  8
OBRYS
100
AcDbLine
 10
221.4992568933306
 20
88.66733892549858
 30
0.0
 11
221.4992568933306
 21
87.98744888296488
 31
0.0
  0
LINE
  5
1200
330
1F
100
AcDbEntity
  8
OBRYS
100
AcDbLine
 10
222.1958556599904
 20
79.76744563246828
 30
0.0
 11
221.4052057245382
 21
79.76744563246828
 31
0.0
  0
LINE
  5
1201
330
1F
100
AcDbEntity
  8
OBRYS
100
AcDbLine
 10
222.1958556599904
 20
88.66733892549858
 30
0.0
 11
222.1958556599904
 21
79.76744563246828
 31
0.0
  0
LINE
  5
1203
330
1F
100
AcDbEntity
  8
OBRYS
100
AcDbLine
 10
225.2509683517509
 20
90.26741457918398
 30
0.0
 11
225.2509683517509
 21
87.41745745891018
 31
0.0
  0
LINE
  5
1205
330
1F
100
AcDbEntity
  8
OBRYS
100
AcDbLine
 10
225.2509683517509
 20
81.01732709905677
 30
0.0
 11
225.2509683517509
 21
78.16736997878297
 31
0.0
  0
LINE
  5
120A
330
1F
100
AcDbEntity
  8
OBRYS
100
AcDbLine
 10
221.8754615685
 20
85.54745839588848
 30
0.0
 11
221.8754615685
 21
85.94743424558787
 31
0.0
  0
LINE
  5
120F
330
1F
100
AcDbEntity
  8
OBRYS
100
AcDbLine
 10
221.8754615685
 20
82.48735031237908
 30
0.0
 11
221.8754615685
 21
82.88732616207838
 31
0.0
  0
LINE
  5
1214
330
1F
100
AcDbEntity
  8
OBRYS
100
AcDbLine
 10
221.8754615685
 20
80.44733567500208
 30
0.0
 11
221.8754615685
 21
80.84731152470138
 31
0.0
  0
LINE
  5
1219
330
1F
100
AcDbEntity
  8
OBRYS
100
AcDbLine
 10
221.8754615685
 20
87.58730077837768
 30
0.0
 11
221.8754615685
 21
87.98744888296488
 31
0.0
  0
LINE
  5
121E
330
1F
100
AcDbEntity
  8
OBRYS
100
AcDbLine
 10
221.8754615685
 20
81.46742912113447
 30
0.0
 11
221.8754615685
 21
81.86740497083387
 31
0.0
  0
LINE
  5
1223
330
1F
100
AcDbEntity
  8
OBRYS
100
AcDbLine
 10
221.8754615685
 20
83.50744375851147
 30
0.0
 11
221.8754615685
 21
83.90741960821087
 31
0.0
  0
LINE
  5
1228
330
1F
100
AcDbEntity
  8
OBRYS
100
AcDbLine
 10
221.8754615685
 20
84.52736494975608
 30
0.0
 11
221.8754615685
 21
84.92734079945538
 31
0.0
  0
LINE
  5
122D
330
1F
100
AcDbEntity
  8
OBRYS
100
AcDbLine
 10
221.8754615685
 20
86.56737958713308
 30
0.0
 11
221.8754615685
 21
86.96735543683248
 31
0.0
  0
LINE
  5
122E
330
1F
100
AcDbEntity
  8
OBRYS
100
AcDbLine
 10
228.0911069434145
 20
87.41745745891018
 30
0.0
 11
228.0911069434145
 21
81.01732709905677
 31
0.0
  0
LINE
  5
122F
330
1F
100
AcDbEntity
  8
OBRYS
100
AcDbLine
 10
217.0912543120186
 20
92.06730590283098
 30
0.0
 11
216.891094132281
 21
92.06730590283098
 31
0.0
  0
LINE
  5
1234
330
1F
100
AcDbEntity
  8
OBRYS
100
AcDbLine
 10
219.5913617549714
 20
81.46742912113447
 30
0.0
 11
221.8754615685
 21
81.46742912113447
 31
0.0
  0
LINE
  5
1235
330
1F
100
AcDbEntity
  8
OBRYS
100
AcDbLine
 10
221.8754615685
 20
81.86740497083387
 30
0.0
 11
219.5913617549714
 21
81.86740497083387
 31
0.0
  0
LINE
  5
1236
330
1F
100
AcDbEntity
  8
OBRYS
100
AcDbLine
 10
221.8754615685
 20
80.84731152470138
 30
0.0
 11
219.5913617549714
 21
80.84731152470138
 31
0.0
  0
LINE
  5
1237
330
1F
100
AcDbEntity
  8
OBRYS
100
AcDbLine
 10
221.8754615685
 20
80.44733567500208
 30
0.0
 11
219.5913617549714
 21
80.44733567500208
 31
0.0
  0
LINE
  5
1238
330
1F
100
AcDbEntity
  8
OBRYS
100
AcDbLine
 10
219.5913617549714
 20
84.52736494975608
 30
0.0
 11
221.8754615685
 21
84.52736494975608
 31
0.0
  0
LINE
  5
1239
330
1F
100
AcDbEntity
  8
OBRYS
100
AcDbLine
 10
221.8754615685
 20
84.92734079945538
 30
0.0
 11
219.5913617549714
 21
84.92734079945538
 31
0.0
  0
LINE
  5
123A
330
1F
100
AcDbEntity
  8
OBRYS
100
AcDbLine
 10
219.5913617549714
 20
83.50744375851147
 30
0.0
 11
221.8754615685
 21
83.50744375851147
 31
0.0
  0
LINE
  5
123B
330
1F
100
AcDbEntity
  8
OBRYS
100
AcDbLine
 10
221.8754615685
 20
83.90741960821087
 30
0.0
 11
219.5913617549714
 21
83.90741960821087
 31
0.0
  0
LINE
  5
123C
330
1F
100
AcDbEntity
  8
OBRYS
100
AcDbLine
 10
221.8754615685
 20
86.96735543683248
 30
0.0
 11
219.5913617549714
 21
86.96735543683248
 31
0.0
  0
LINE
  5
123D
330
1F
100
AcDbEntity
  8
OBRYS
100
AcDbLine
 10
219.5913617549714
 20
86.56737958713308
 30
0.0
 11
221.8754615685
 21
86.56737958713308
 31
0.0
  0
LINE
  5
123E
330
1F
100
AcDbEntity
  8
OBRYS
100
AcDbLine
 10
221.8754615685
 20
85.94743424558787
 30
0.0
 11
219.5913617549714
 21
85.94743424558787
 31
0.0
  0
LINE
  5
123F
330
1F
100
AcDbEntity
  8
OBRYS
100
AcDbLine
 10
219.5913617549714
 20
85.54745839588848
 30
0.0
 11
221.8754615685
 21
85.54745839588848
 31
0.0
  0
LINE
  5
1240
330
1F
100
AcDbEntity
  8
OBRYS
100
AcDbLine
 10
221.8754615685
 20
82.88732616207838
 30
0.0
 11
219.5913617549714
 21
82.88732616207838
 31
0.0
  0
LINE
  5
1241
330
1F
100
AcDbEntity
  8
OBRYS
100
AcDbLine
 10
219.5913617549714
 20
82.48735031237908
 30
0.0
 11
221.8754615685
 21
82.48735031237908
 31
0.0
  0
LINE
  5
1242
330
1F
100
AcDbEntity
  8
OBRYS
100
AcDbLine
 10
219.5913617549714
 20
87.58730077837768
 30
0.0
 11
221.8754615685
 21
87.58730077837768
 31
0.0
  0
LINE
  5
1243
330
1F
100
AcDbEntity
  8
OBRYS
100
AcDbLine
 10
221.8754615685
 20
87.98744888296488
 30
0.0
 11
219.5913617549714
 21
87.98744888296488
 31
0.0
  0
LINE
  5
1246
330
1F
100
AcDbEntity
  8
OBRYS
100
AcDbLine
 10
223.741326514212
 20
89.21734878255718
 30
0.0
 11
223.741326514212
 21
90.31736849667438
 31
0.0
  0
LINE
  5
1248
330
1F
100
AcDbEntity
  8
OBRYS
100
AcDbLine
 10
222.0411707706579
 20
89.21734878255718
 30
0.0
 11
223.741326514212
 21
89.21734878255718
 31
0.0
  0
LINE
  5
124A
330
1F
100
AcDbEntity
  8
OBRYS
100
AcDbLine
 10
222.0411707706579
 20
79.21743577540968
 30
0.0
 11
222.0411707706579
 21
78.11741606129257
 31
0.0
  0
LINE
  5
124D
330
1F
100
AcDbEntity
  8
OBRYS
100
AcDbLine
 10
223.741326514212
 20
79.21743577540968
 30
0.0
 11
222.0411707706579
 21
79.21743577540968
 31
0.0
  0
LINE
  5
124E
330
1F
100
AcDbEntity
  8
OBRYS
100
AcDbLine
 10
229.6410564247214
 20
86.36739166228338
 30
0.0
 11
229.6410564247214
 21
82.06739289568348
 31
0.0
  0
LINE
  5
124F
330
1F
100
AcDbEntity
  8
OBRYS
100
AcDbLine
 10
229.4412407547597
 20
86.36739166228338
 30
0.0
 11
229.4412407547597
 21
82.06739289568348
 31
0.0
  0
LINE
  5
1254
330
1F
100
AcDbEntity
  8
OBRYS
100
AcDbLine
 10
229.4412407547597
 20
82.11734681317398
 30
0.0
 11
228.0911069434145
 21
82.11734681317398
 31
0.0
  0
LINE
  5
1255
330
1F
100
AcDbEntity
  8
OBRYS
100
AcDbLine
 10
228.0911069434145
 20
81.01732709905677
 30
0.0
 11
223.8701731703598
 21
81.01732709905677
 31
0.0
  0
LINE
  5
1256
330
1F
100
AcDbEntity
  8
OBRYS
100
AcDbLine
 10
226.5911113795979
 20
81.01732709905677
 30
0.0
 11
226.5911113795979
 21
78.16736997878297
 31
0.0
  0
LINE
  5
1258
330
1F
100
AcDbEntity
  8
OBRYS
100
AcDbLine
 10
219.5913617549714
 20
78.16736997878297
 30
0.0
 11
219.5913617549714
 21
90.26741457918398
 31
0.0
  0
LINE
  5
125C
330
1F
100
AcDbEntity
  8
OBRYS
100
AcDbLine
 10
219.5913617549714
 20
90.26741457918398
 30
0.0
 11
226.5911113795979
 21
90.26741457918398
 31
0.0
  0
LINE
  5
125D
330
1F
100
AcDbEntity
  8
OBRYS
100
AcDbLine
 10
226.5911113795979
 20
90.26741457918398
 30
0.0
 11
226.5911113795979
 21
87.41745745891018
 31
0.0
  0
LINE
  5
1260
330
1F
100
AcDbEntity
  8
OBRYS
100
AcDbLine
 10
228.0911069434145
 20
86.31743774479298
 30
0.0
 11
229.4412407547597
 21
86.31743774479298
 31
0.0
  0
LINE
  5
1268
330
1F
100
AcDbEntity
  8
OBRYS
100
AcDbLine
 10
226.6410652970884
 20
91.86731797798137
 30
0.0
 11
229.4512315382578
 21
91.86731797798137
 31
0.0
  0
LINE
  5
1269
330
1F
100
AcDbEntity
  8
OBRYS
100
AcDbLine
 10
226.6410652970884
 20
87.48222529675978
 30
0.0
 11
228.1414053706807
 21
87.48222529675978
 31
0.0
  0
LINE
  5
126B
330
1F
100
AcDbEntity
  8
OBRYS
100
AcDbLine
 10
226.6410652970884
 20
87.48222529675978
 30
0.0
 11
226.6410652970884
 21
91.86731797798137
 31
0.0
  0
LINE
  5
126C
330
1F
100
AcDbEntity
  8
OBRYS
100
AcDbLine
 10
228.1414053706807
 20
87.48222529675978
 30
0.0
 11
228.1414053706807
 21
86.36739166228338
 31
0.0
  0
LINE
  5
126D
330
1F
100
AcDbEntity
  8
OBRYS
100
AcDbLine
 10
226.6410652970884
 20
76.56763883487348
 30
0.0
 11
229.4512315382578
 21
76.56763883487348
 31
0.0
  0
LINE
  5
126E
330
1F
100
AcDbEntity
  8
OBRYS
100
AcDbLine
 10
228.1414053706807
 20
80.95255926120717
 30
0.0
 11
226.6410652970884
 21
80.95255926120717
 31
0.0
  0
LINE
  5
126F
330
1F
100
AcDbEntity
  8
OBRYS
100
AcDbLine
 10
229.6410564247214
 20
82.06739289568348
 30
0.0
 11
228.1414053706807
 21
82.06739289568348
 31
0.0
  0
LINE
  5
1270
330
1F
100
AcDbEntity
  8
OBRYS
100
AcDbLine
 10
228.1414053706807
 20
82.06739289568348
 30
0.0
 11
228.1414053706807
 21
80.95255926120717
 31
0.0
  0
LINE
  5
1271
330
1F
100
AcDbEntity
  8
OBRYS
100
AcDbLine
 10
226.6410652970884
 20
80.95255926120717
 30
0.0
 11
226.6410652970884
 21
76.56763883487348
 31
0.0
  0
LINE
  5
1274
330
1F
100
AcDbEntity
  8
OBRYS
100
AcDbLine
 10
219.541407837481
 20
84.16735223404908
 30
0.0
 11
216.891094132281
 21
84.16786899871278
 31
0.0
  0
LINE
  5
1275
330
1F
100
AcDbEntity
  8
OBRYS
100
AcDbLine
 10
219.541407837481
 20
78.11741606129257
 30
0.0
 11
219.541407837481
 21
84.16735223404908
 31
0.0
  0
LINE
  5
1277
330
1F
100
AcDbEntity
  8
OBRYS
100
AcDbLine
 10
223.741326514212
 20
79.21743577540968
 30
0.0
 11
223.741326514212
 21
78.11741606129257
 31
0.0
  0
LINE
  5
1278
330
1F
100
AcDbEntity
  8
OBRYS
100
AcDbLine
 10
222.0411707706579
 20
78.11741606129257
 30
0.0
 11
219.541407837481
 21
78.11741606129257
 31
0.0
  0
LINE
  5
1279
330
1F
100
AcDbEntity
  8
OBRYS
100
AcDbLine
 10
226.5411574621075
 20
92.06730590283098
 30
0.0
 11
226.5411574621075
 21
92.01166757403998
 31
0.0
  0
LINE
  5
127A
330
1F
100
AcDbEntity
  8
OBRYS
100
AcDbLine
 10
226.5411574621075
 20
92.01166757403998
 30
0.0
 11
226.5411574621075
 21
91.87748101636728
 31
0.0
  0
LINE
  5
127B
330
1F
100
AcDbEntity
  8
OBRYS
100
AcDbLine
 10
217.0912543120186
 20
92.06730590283098
 30
0.0
 11
229.4512315382578
 21
92.06747815771888
 31
0.0
  0
LINE
  5
127E
330
1F
100
AcDbEntity
  8
OBRYS
100
AcDbLine
 10
229.6410564247214
 20
82.06739289568348
 30
0.0
 11
229.6410564247214
 21
76.56763883487348
 31
0.0
  0
LINE
  5
1283
330
1F
100
AcDbEntity
  8
OBRYS
100
AcDbLine
 10
229.6410564247214
 20
91.86731797798137
 30
0.0
 11
229.6410564247214
 21
86.36739166228338
 31
0.0
  0
LINE
  5
128C
330
1F
100
AcDbEntity
  8
OBRYS
100
AcDbLine
 10
226.5411574621075
 20
90.31736849667438
 30
0.0
 11
226.5411574621075
 21
91.87748101636728
 31
0.0
  0
LINE
  5
128D
330
1F
100
AcDbEntity
  8
OBRYS
100
AcDbLine
 10
219.541407837481
 20
84.26743232391787
 30
0.0
 11
216.891094132281
 21
84.26726006902997
 31
0.0
  0
LINE
  5
128E
330
1F
100
AcDbEntity
  8
OBRYS
100
AcDbLine
 10
219.541407837481
 20
84.26743232391787
 30
0.0
 11
219.541407837481
 21
90.31736849667438
 31
0.0
  0
LINE
  5
128F
330
1F
100
AcDbEntity
  8
OBRYS
100
AcDbLine
 10
219.541407837481
 20
90.31736849667438
 30
0.0
 11
222.0411707706579
 21
90.31736849667438
 31
0.0
  0
LINE
  5
1290
330
1F
100
AcDbEntity
  8
OBRYS
100
AcDbLine
 10
222.0411707706579
 20
89.21927464889929
 30
0.0
 11
222.0411707706579
 21
90.31736849667438
 31
0.0
  0
LINE
  5
1292
330
1F
100
AcDbEntity
  8
OBRYS
100
AcDbLine
 10
223.741326514212
 20
90.31736849667438
 30
0.0
 11
226.5411574621075
 21
90.31736849667438
 31
0.0
  0
LINE
  5
1294
330
1F
100
AcDbEntity
  8
OBRYS
100
AcDbLine
 10
230.0062367870654
 20
92.31742000005907
 30
0.0
 11
216.8063447274352
 21
92.31742000005907
 31
0.0
  0
LINE
  5
1295
330
1F
100
AcDbEntity
  8
OBRYS
100
AcDbLine
 10
230.0062367870654
 20
76.11770906768368
 30
0.0
 11
230.0062367870654
 21
92.31742000005907
 31
0.0
  0
LINE
  5
1296
330
1F
100
AcDbEntity
  8
OBRYS
100
AcDbLine
 10
221.804492554686
 20
81.46742912113447
 30
0.0
 11
221.804492554686
 21
81.86740497083387
 31
0.0
  0
LINE
  5
1297
330
1F
100
AcDbEntity
  8
OBRYS
100
AcDbLine
 10
221.804492554686
 20
80.44733567500208
 30
0.0
 11
221.804492554686
 21
80.84731152470138
 31
0.0
  0
LINE
  5
1298
330
1F
100
AcDbEntity
  8
OBRYS
100
AcDbLine
 10
221.804492554686
 20
84.52736494975608
 30
0.0
 11
221.804492554686
 21
84.92734079945538
 31
0.0
  0
LINE
  5
1299
330
1F
100
AcDbEntity
  8
OBRYS
100
AcDbLine
 10
221.804492554686
 20
83.50744375851147
 30
0.0
 11
221.804492554686
 21
83.90741960821087
 31
0.0
  0
LINE
  5
129A
330
1F
100
AcDbEntity
  8
OBRYS
100
AcDbLine
 10
221.804492554686
 20
86.56737958713308
 30
0.0
 11
221.804492554686
 21
86.96735543683248
 31
0.0
  0
LINE
  5
129B
330
1F
100
AcDbEntity
  8
OBRYS
100
AcDbLine
 10
221.804492554686
 20
85.54745839588848
 30
0.0
 11
221.804492554686
 21
85.94743424558787
 31
0.0
  0
LINE
  5
129C
330
1F
100
AcDbEntity
  8
OBRYS
100
AcDbLine
 10
221.804492554686
 20
82.48735031237908
 30
0.0
 11
221.804492554686
 21
82.88732616207838
 31
0.0
  0
LINE
  5
129D
330
1F
100
AcDbEntity
  8
OBRYS
100
AcDbLine
 10
221.804492554686
 20
87.58730077837768
 30
0.0
 11
221.804492554686
 21
87.98744888296488
 31
0.0
  0
LINE
  5
129E
330
1F
100
AcDbEntity
  8
OBRYS
100
AcDbLine
 10
223.741326514212
 20
79.15714656464537
 30
0.0
 11
222.0411707706579
 21
79.15714656464537
 31
0.0
  0
LINE
  5
129F
330
1F
100
AcDbEntity
  8
OBRYS
100
AcDbLine
 10
223.741326514212
 20
89.27763799332158
 30
0.0
 11
222.0411707706579
 21
89.27763799332158
 31
0.0
  0
LINE
  5
12A0
330
1F
100
AcDbEntity
  8
OBRYS
100
AcDbLine
 10
229.4512315382578
 20
76.56763883487348
 30
0.0
 11
229.4512315382578
 21
82.06739289568348
 31
0.0
  0
LINE
  5
12A1
330
1F
100
AcDbEntity
  8
OBRYS
100
AcDbLine
 10
229.4512315382578
 20
86.36739166228338
 30
0.0
 11
229.4512315382578
 21
91.86731797798137
 31
0.0
  0
LINE
  5
12A2
330
1F
100
AcDbEntity
  8
OBRYS
100
AcDbLine
 10
223.741326514212
 20
90.07948449648708
 30
0.0
 11
222.0411707706579
 21
90.07948449648708
 31
0.0
  0
LINE
  5
12A3
330
1F
100
AcDbEntity
  8
OBRYS
100
AcDbLine
 10
222.0411707706579
 20
78.35530006147978
 30
0.0
 11
223.741326514212
 21
78.35530006147978
 31
0.0
  0
LINE
  5
12A5
330
1F
100
AcDbEntity
  8
OBRYS
100
AcDbLine
 10
226.5411574621075
 20
91.87748101636728
 30
0.0
 11
217.0912543120186
 21
91.87748101636728
 31
0.0
  0
ARC
  5
12AC
330
1F
100
AcDbEntity
  8
OBRYS
100
AcDbCircle
 10
229.4510952897681
 20
91.87725722595938
 30
0.0
 40
0.190220980554466
100
AcDbArc
 50
357.0048708278148
 51
89.95896107744746
  0
ARC
  5
12AD
330
1F
100
AcDbEntity
  8
OBRYS
100
AcDbCircle
 10
229.4508346088709
 20
76.55761924666812
 30
0.0
 40
0.1904855148647085
100
AcDbArc
 50
270.1193917296417
 51
3.015164557134177
  0
CIRCLE
  5
12AE
330
1F
100
AcDbEntity
  8
OBRYS
100
AcDbCircle
 10
221.9202714117245
 20
70.51715263055684
 30
0.0
 40
2.25
  0
CIRCLE
  5
12AF
330
1F
100
AcDbEntity
  8
OBRYS
100
AcDbCircle
 10
221.9202714117245
 20
70.51715263055684
 30
0.0
 40
3.0
  0
VIEWPORT
  5
5C1
330
58
100
AcDbEntity
 67
     1
  8
0
100
AcDbViewport
 10
0.0
 20
0.0
 30
0.0
 40
15.40740409162441
 41
7.926857142857145
 68
     1
 69
     1
1001
ACAD
1000
MVIEW
1002
{
1070
    16
1010
0.0
1020
0.0
1030
0.0
1010
0.0
1020
0.0
1030
1.0
1040
0.0
1040
7.926857142857145
1040
5.853492862388532
1040
3.975549963280293
1040
50.0
1040
0.0
1040
0.0
1070
    16
1070
   100
1070
     0
1070
     3
1070
     0
1070
     0
1070
     0
1070
     0
1040
0.0
1040
0.0
1040
0.0
1040
0.5
1040
0.5
1040
0.0
1040
0.0
1070
     0
1002
{
1002
}
1002
}
  0
VIEWPORT
  5
5C2
330
58
100
AcDbEntity
 67
     1
  8
0
100
AcDbViewport
 10
5.25
 20
4.0
 30
0.0
 40
8.4
 41
6.4
 68
     2
 69
     2
1001
ACAD
1000
MVIEW
1002
{
1070
    16
1010
0.0
1020
0.0
1030
0.0
1010
0.0
1020
0.0
1030
1.0
1040
0.0
1040
148.6273303091112
1040
138.818647505418
1040
88.74129308802202
1040
50.0
1040
0.0
1040
0.0
1070
     0
1070
   100
1070
     0
1070
     3
1070
     0
1070
     0
1070
     0
1070
     0
1040
0.0
1040
0.0
1040
0.0
1040
0.5
1040
0.5
1040
0.0
1040
0.0
1070
     0
1002
{
1002
}
1002
}
  0
ENDSEC
  0
SECTION
  2
OBJECTS
  0
DICTIONARY
  5
C
330
0
100
AcDbDictionary
  3
ACAD_DETAILVIEWSTYLE
350
122
  3
ACAD_GROUP
350
D
  3
ACAD_IMAGE_VARS
350
DC
  3
ACAD_MLINESTYLE
350
17
  3
ACAD_SCALELIST
350
69B
  3
ACAD_SECTIONVIEWSTYLE
350
123
  3
ACDBVARIABLEDICTIONARY
350
66
  3
APPDATA
350
E1
  3
DWGPROPS
350
12B5
  0
DICTIONARY
  5
122
102
{ACAD_REACTORS
330
C
102
}
330
C
100
AcDbDictionary
  0
DICTIONARY
  5
D
102
{ACAD_REACTORS
330
C
102
}
330
C
100
AcDbDictionary
  0
RASTERVARIABLES
  5
DC
102
{ACAD_REACTORS
330
C
102
}
330
C
100
AcDbRasterVariables
 90
        0
 70
     1
 71
     1
 72
     5
  0
DICTIONARY
  5
17
102
{ACAD_REACTORS
330
C
102
}
330
C
100
AcDbDictionary
  3
STANDARD
350
18
  0
DICTIONARY
  5
69B
102
{ACAD_REACTORS
330
C
102
}
330
C
100
AcDbDictionary
  0
DICTIONARY
  5
123
102
{ACAD_REACTORS
330
C
102
}
330
C
100
AcDbDictionary
  0
DICTIONARY
  5
66
102
{ACAD_REACTORS
330
C
102
}
330
C
100
AcDbDictionary
  3
DIMASSOC
350
67
  3
HIDETEXT
350
6B
  0
DICTIONARY
  5
E1
102
{ACAD_REACTORS
330
C
102
}
330
C
100
AcDbDictionary
  0
XRECORD
  5
12B5
102
{ACAD_REACTORS
330
C
102
}
330
C
100
AcDbXrecord
  1
DWGPROPS COOKIE
  2

  3

  4

  6

  7

  8
jaromir.podrabsky
  9

300
=
301
=
302
=
303
=
304
=
305
=
306
=
307
=
308
=
309
=
 40
0.0
 41
2452643.063384259
 42
2457777.437665706
  1

 90
        0
  0
MLINESTYLE
  5
18
102
{ACAD_REACTORS
330
17
102
}
330
17
100
AcDbMlineStyle
  2
STANDARD
 70
     0
  3

 62
   256
 51
90.0
 52
90.0
 71
     2
 49
0.5
 62
   256
  6
BYLAYER
 49
-0.5
 62
   256
  6
BYLAYER
  0
DICTIONARYVAR
  5
67
102
{ACAD_REACTORS
330
66
102
}
330
66
100
DictionaryVariables
280
     0
  1
2
  0
DICTIONARYVAR
  5
6B
102
{ACAD_REACTORS
330
66
102
}
330
66
100
DictionaryVariables
280
     0
  1
1
  0
ENDSEC
  0
EOF
