  0
SECTION
  2
HEADER
  9
$ACADVER
  1
AC1027
  9
$ACADMAINTVER
 70
     8
  9
$DWGCODEPAGE
  3
ANSI_1250
  9
$REQUIREDVERSIONS
160
                 0
  9
$LASTSAVEDBY
  1
jaromir.podrabsky
  9
$INSBASE
 10
0.0
 20
0.0
 30
0.0
  9
$EXTMIN
 10
306.4576136542384
 20
122.1358462391053
 30
0.0
  9
$EXTMAX
 10
473.3426095781108
 20
284.8052118910404
 30
0.0
  9
$LIMMIN
 10
0.0
 20
0.0
  9
$LIMMAX
 10
12.0
 20
9.0
  9
$ORTHOMODE
 70
     0
  9
$REGENMODE
 70
     1
  9
$FILLMODE
 70
     1
  9
$QTEXTMODE
 70
     0
  9
$MIRRTEXT
 70
     0
  9
$LTSCALE
 40
1.0
  9
$ATTMODE
 70
     1
  9
$TEXTSIZE
 40
0.2
  9
$TRACEWID
 40
0.05
  9
$TEXTSTYLE
  7
STANDARD
  9
$CLAYER
  8
KOTY
  9
$CELTYPE
  6
BYLAYER
  9
$CECOLOR
 62
   256
  9
$CELTSCALE
 40
1.0
  9
$DISPSILH
 70
     0
  9
$DIMSCALE
 40
1.0
  9
$DIMASZ
 40
0.18
  9
$DIMEXO
 40
0.0625
  9
$DIMDLI
 40
0.38
  9
$DIMRND
 40
0.0
  9
$DIMDLE
 40
0.0
  9
$DIMEXE
 40
0.18
  9
$DIMTP
 40
0.0
  9
$DIMTM
 40
0.0
  9
$DIMTXT
 40
0.18
  9
$DIMCEN
 40
0.09
  9
$DIMTSZ
 40
0.0
  9
$DIMTOL
 70
     0
  9
$DIMLIM
 70
     0
  9
$DIMTIH
 70
     1
  9
$DIMTOH
 70
     1
  9
$DIMSE1
 70
     0
  9
$DIMSE2
 70
     0
  9
$DIMTAD
 70
     0
  9
$DIMZIN
 70
     0
  9
$DIMBLK
  1

  9
$DIMASO
 70
     1
  9
$DIMSHO
 70
     1
  9
$DIMPOST
  1

  9
$DIMAPOST
  1

  9
$DIMALT
 70
     0
  9
$DIMALTD
 70
     2
  9
$DIMALTF
 40
25.4
  9
$DIMLFAC
 40
1.0
  9
$DIMTOFL
 70
     0
  9
$DIMTVP
 40
0.0
  9
$DIMTIX
 70
     0
  9
$DIMSOXD
 70
     0
  9
$DIMSAH
 70
     0
  9
$DIMBLK1
  1

  9
$DIMBLK2
  1

  9
$DIMSTYLE
  2
STANDARD
  9
$DIMCLRD
 70
     0
  9
$DIMCLRE
 70
     0
  9
$DIMCLRT
 70
     0
  9
$DIMTFAC
 40
1.0
  9
$DIMGAP
 40
0.09
  9
$DIMJUST
 70
     0
  9
$DIMSD1
 70
     0
  9
$DIMSD2
 70
     0
  9
$DIMTOLJ
 70
     1
  9
$DIMTZIN
 70
     0
  9
$DIMALTZ
 70
     0
  9
$DIMALTTZ
 70
     0
  9
$DIMUPT
 70
     0
  9
$DIMDEC
 70
     4
  9
$DIMTDEC
 70
     4
  9
$DIMALTU
 70
     2
  9
$DIMALTTD
 70
     2
  9
$DIMTXSTY
  7
STANDARD
  9
$DIMAUNIT
 70
     0
  9
$DIMADEC
 70
     0
  9
$DIMALTRND
 40
0.0
  9
$DIMAZIN
 70
     0
  9
$DIMDSEP
 70
    46
  9
$DIMATFIT
 70
     3
  9
$DIMFRAC
 70
     0
  9
$DIMLDRBLK
  1

  9
$DIMLUNIT
 70
     2
  9
$DIMLWD
 70
    -2
  9
$DIMLWE
 70
    -2
  9
$DIMTMOVE
 70
     2
  9
$DIMFXL
 40
1.0
  9
$DIMFXLON
 70
     0
  9
$DIMJOGANG
 40
0.7853981633974483
  9
$DIMTFILL
 70
     0
  9
$DIMTFILLCLR
 70
     0
  9
$DIMARCSYM
 70
     0
  9
$DIMLTYPE
  6

  9
$DIMLTEX1
  6

  9
$DIMLTEX2
  6

  9
$DIMTXTDIRECTION
 70
     0
  9
$LUNITS
 70
     2
  9
$LUPREC
 70
     4
  9
$SKETCHINC
 40
0.1
  9
$FILLETRAD
 40
0.0
  9
$AUNITS
 70
     0
  9
$AUPREC
 70
     0
  9
$MENU
  1
.
  9
$ELEVATION
 40
0.0
  9
$PELEVATION
 40
0.0
  9
$THICKNESS
 40
0.0
  9
$LIMCHECK
 70
     0
  9
$CHAMFERA
 40
0.0
  9
$CHAMFERB
 40
0.0
  9
$CHAMFERC
 40
0.0
  9
$CHAMFERD
 40
0.0
  9
$SKPOLY
 70
     0
  9
$TDCREATE
 40
2452643.105050926
  9
$TDUCREATE
 40
2452643.021717593
  9
$TDUPDATE
 40
2457213.585857396
  9
$TDUUPDATE
 40
2457213.502524063
  9
$TDINDWG
 40
0.3658447801
  9
$TDUSRTIMER
 40
2457213.502055324
  9
$USRTIMER
 70
     1
  9
$ANGBASE
 50
0.0
  9
$ANGDIR
 70
     0
  9
$PDMODE
 70
     0
  9
$PDSIZE
 40
0.0
  9
$PLINEWID
 40
0.0
  9
$SPLFRAME
 70
     0
  9
$SPLINETYPE
 70
     6
  9
$SPLINESEGS
 70
     8
  9
$HANDSEED
  5
2382
  9
$SURFTAB1
 70
     6
  9
$SURFTAB2
 70
     6
  9
$SURFTYPE
 70
     6
  9
$SURFU
 70
     6
  9
$SURFV
 70
     6
  9
$UCSBASE
  2

  9
$UCSNAME
  2

  9
$UCSORG
 10
0.0
 20
0.0
 30
0.0
  9
$UCSXDIR
 10
1.0
 20
0.0
 30
0.0
  9
$UCSYDIR
 10
0.0
 20
1.0
 30
0.0
  9
$UCSORTHOREF
  2

  9
$UCSORTHOVIEW
 70
     0
  9
$UCSORGTOP
 10
0.0
 20
0.0
 30
0.0
  9
$UCSORGBOTTOM
 10
0.0
 20
0.0
 30
0.0
  9
$UCSORGLEFT
 10
0.0
 20
0.0
 30
0.0
  9
$UCSORGRIGHT
 10
0.0
 20
0.0
 30
0.0
  9
$UCSORGFRONT
 10
0.0
 20
0.0
 30
0.0
  9
$UCSORGBACK
 10
0.0
 20
0.0
 30
0.0
  9
$PUCSBASE
  2

  9
$PUCSNAME
  2

  9
$PUCSORG
 10
0.0
 20
0.0
 30
0.0
  9
$PUCSXDIR
 10
1.0
 20
0.0
 30
0.0
  9
$PUCSYDIR
 10
0.0
 20
1.0
 30
0.0
  9
$PUCSORTHOREF
  2

  9
$PUCSORTHOVIEW
 70
     0
  9
$PUCSORGTOP
 10
0.0
 20
0.0
 30
0.0
  9
$PUCSORGBOTTOM
 10
0.0
 20
0.0
 30
0.0
  9
$PUCSORGLEFT
 10
0.0
 20
0.0
 30
0.0
  9
$PUCSORGRIGHT
 10
0.0
 20
0.0
 30
0.0
  9
$PUCSORGFRONT
 10
0.0
 20
0.0
 30
0.0
  9
$PUCSORGBACK
 10
0.0
 20
0.0
 30
0.0
  9
$USERI1
 70
     0
  9
$USERI2
 70
     0
  9
$USERI3
 70
     0
  9
$USERI4
 70
     0
  9
$USERI5
 70
     0
  9
$USERR1
 40
0.0
  9
$USERR2
 40
0.0
  9
$USERR3
 40
0.0
  9
$USERR4
 40
0.0
  9
$USERR5
 40
0.0
  9
$WORLDVIEW
 70
     1
  9
$SHADEDGE
 70
     3
  9
$SHADEDIF
 70
    70
  9
$TILEMODE
 70
     0
  9
$MAXACTVP
 70
    64
  9
$PINSBASE
 10
0.0
 20
0.0
 30
0.0
  9
$PLIMCHECK
 70
     0
  9
$PEXTMIN
 10
1.05
 20
0.7999999999999998
 30
0.0
  9
$PEXTMAX
 10
9.45
 20
7.2
 30
0.0
  9
$PLIMMIN
 10
0.8214285714285712
 20
0.1142857142857141
  9
$PLIMMAX
 10
10.87857142857143
 20
7.885714285714286
  9
$UNITMODE
 70
     0
  9
$VISRETAIN
 70
     1
  9
$PLINEGEN
 70
     0
  9
$PSLTSCALE
 70
     1
  9
$TREEDEPTH
 70
  3020
  9
$CMLSTYLE
  2
STANDARD
  9
$CMLJUST
 70
     0
  9
$CMLSCALE
 40
1.0
  9
$PROXYGRAPHICS
 70
     1
  9
$MEASUREMENT
 70
     0
  9
$CELWEIGHT
370
    -1
  9
$ENDCAPS
280
     0
  9
$JOINSTYLE
280
     0
  9
$LWDISPLAY
290
     0
  9
$INSUNITS
 70
     0
  9
$HYPERLINKBASE
  1

  9
$STYLESHEET
  1

  9
$XEDIT
290
     1
  9
$CEPSNTYPE
380
     0
  9
$PSTYLEMODE
290
     1
  9
$FINGERPRINTGUID
  2
{1C76E08F-459E-4676-915B-CE38DC62CFB9}
  9
$VERSIONGUID
  2
{FAEB1C32-E019-11D5-929B-00C0DF256EC4}
  9
$EXTNAMES
290
     1
  9
$PSVPSCALE
 40
0.0
  9
$OLESTARTUP
290
     0
  9
$SORTENTS
280
   127
  9
$INDEXCTL
280
     0
  9
$HIDETEXT
280
     1
  9
$XCLIPFRAME
280
     2
  9
$HALOGAP
280
     0
  9
$OBSCOLOR
 70
   257
  9
$OBSLTYPE
280
     0
  9
$INTERSECTIONDISPLAY
280
     0
  9
$INTERSECTIONCOLOR
 70
   257
  9
$DIMASSOC
280
     2
  9
$PROJECTNAME
  1

  9
$CAMERADISPLAY
290
     0
  9
$LENSLENGTH
 40
50.0
  9
$CAMERAHEIGHT
 40
0.0
  9
$STEPSPERSEC
 40
2.0
  9
$STEPSIZE
 40
6.0
  9
$3DDWFPREC
 40
2.0
  9
$PSOLWIDTH
 40
0.25
  9
$PSOLHEIGHT
 40
4.0
  9
$LOFTANG1
 40
1.570796326794897
  9
$LOFTANG2
 40
1.570796326794897
  9
$LOFTMAG1
 40
0.0
  9
$LOFTMAG2
 40
0.0
  9
$LOFTPARAM
 70
     7
  9
$LOFTNORMALS
280
     1
  9
$LATITUDE
 40
37.795
  9
$LONGITUDE
 40
-122.394
  9
$NORTHDIRECTION
 40
0.0
  9
$TIMEZONE
 70
 -8000
  9
$LIGHTGLYPHDISPLAY
280
     1
  9
$TILEMODELIGHTSYNCH
280
     1
  9
$SOLIDHIST
280
     0
  9
$SHOWHIST
280
     1
  9
$DWFFRAME
280
     2
  9
$DGNFRAME
280
     2
  9
$REALWORLDSCALE
290
     1
  9
$INTERFERECOLOR
 62
   256
  9
$CSHADOW
280
     0
  9
$SHADOWPLANELOCATION
 40
0.0
  0
ENDSEC
  0
SECTION
  2
CLASSES
  0
CLASS
  1
ACDBDICTIONARYWDFLT
  2
AcDbDictionaryWithDefault
  3
ObjectDBX Classes
 90
        0
 91
        4
280
     0
281
     0
  0
CLASS
  1
ACDBPLACEHOLDER
  2
AcDbPlaceHolder
  3
ObjectDBX Classes
 90
        0
 91
        1
280
     0
281
     0
  0
CLASS
  1
LAYOUT
  2
AcDbLayout
  3
ObjectDBX Classes
 90
        0
 91
        1
280
     0
281
     0
  0
CLASS
  1
DICTIONARYVAR
  2
AcDbDictionaryVar
  3
ObjectDBX Classes
 90
        0
 91
        4
280
     0
281
     0
  0
CLASS
  1
TABLESTYLE
  2
AcDbTableStyle
  3
ObjectDBX Classes
 90
     4095
 91
        4
280
     0
281
     0
  0
CLASS
  1
MATERIAL
  2
AcDbMaterial
  3
ObjectDBX Classes
 90
     1153
 91
        4
280
     0
281
     0
  0
CLASS
  1
VISUALSTYLE
  2
AcDbVisualStyle
  3
ObjectDBX Classes
 90
     4095
 91
        4
280
     0
281
     0
  0
CLASS
  1
SCALE
  2
AcDbScale
  3
ObjectDBX Classes
 90
     1153
 91
        4
280
     0
281
     0
  0
CLASS
  1
CELLSTYLEMAP
  2
AcDbCellStyleMap
  3
ObjectDBX Classes
 90
     1152
 91
        4
280
     0
281
     0
  0
CLASS
  1
RASTERVARIABLES
  2
AcDbRasterVariables
  3
ISM
 90
        0
 91
        4
280
     0
281
     0
  0
CLASS
  1
SUN
  2
AcDbSun
  3
SCENEOE
 90
     1153
 91
        4
280
     0
281
     0
  0
CLASS
  1
DIMASSOC
  2
AcDbDimAssoc
  3
"AcDbDimAssoc|Product Desc:     AcDim ARX App For Dimension|Company:          Autodesk, Inc.|WEB Address:      www.autodesk.com"
 90
        0
 91
        4
280
     0
281
     0
  0
CLASS
  1
XRECORD
  2
AcDbXrecord
  3
ObjectDBX Classes
 90
        0
 91
        1
280
     0
281
     0
  0
CLASS
  1
LWPOLYLINE
  2
AcDbPolyline
  3
ObjectDBX Classes
 90
        0
 91
        1
280
     0
281
     1
  0
CLASS
  1
HATCH
  2
AcDbHatch
  3
ObjectDBX Classes
 90
        0
 91
        1
280
     0
281
     1
  0
CLASS
  1
MLEADERSTYLE
  2
AcDbMLeaderStyle
  3
ACDB_MLEADERSTYLE_CLASS
 90
     4095
 91
        4
280
     0
281
     0
  0
ENDSEC
  0
SECTION
  2
TABLES
  0
TABLE
  2
VPORT
  5
8
330
0
100
AcDbSymbolTable
 70
     1
  0
VPORT
  5
94
330
8
100
AcDbSymbolTableRecord
100
AcDbViewportTableRecord
  2
*ACTIVE
 70
     0
 10
0.0
 20
0.0
 11
1.0
 21
1.0
 12
432.7540698008129
 22
223.0147101792085
 13
0.0
 23
0.0
 14
0.5
 24
0.5
 15
0.5
 25
0.5
 16
0.0
 26
0.0
 36
1.0
 17
-27.66959356598301
 27
-19.53870295786234
 37
0.0
 40
169.8374025823294
 41
1.994628469113698
 42
50.0
 43
0.0
 44
0.0
 50
0.0
 51
0.0
 71
    16
 72
  1000
 73
     1
 74
     3
 75
     0
 76
     0
 77
     0
 78
     0
281
     0
 65
     1
110
0.0
120
0.0
130
0.0
111
1.0
121
0.0
131
0.0
112
0.0
122
1.0
132
0.0
 79
     0
146
0.0
348
235D
 60
     3
 61
     5
292
     1
282
     1
141
0.0
142
0.0
 63
   256
361
237A
  0
ENDTAB
  0
TABLE
  2
LTYPE
  5
5
330
0
100
AcDbSymbolTable
 70
     1
  0
LTYPE
  5
14
330
5
100
AcDbSymbolTableRecord
100
AcDbLinetypeTableRecord
  2
BYBLOCK
 70
     0
  3

 72
    65
 73
     0
 40
0.0
  0
LTYPE
  5
15
330
5
100
AcDbSymbolTableRecord
100
AcDbLinetypeTableRecord
  2
BYLAYER
 70
     0
  3

 72
    65
 73
     0
 40
0.0
  0
LTYPE
  5
16
330
5
100
AcDbSymbolTableRecord
100
AcDbLinetypeTableRecord
  2
CONTINUOUS
 70
     0
  3
Solid line
 72
    65
 73
     0
 40
0.0
  0
ENDTAB
  0
TABLE
  2
LAYER
  5
2
102
{ACAD_XDICTIONARY
360
1326
102
}
330
0
100
AcDbSymbolTable
 70
     5
  0
LAYER
  5
10
330
2
100
AcDbSymbolTableRecord
100
AcDbLayerTableRecord
  2
0
 70
     0
 62
     7
  6
CONTINUOUS
370
    -3
390
0
347
2374
348
0
  0
LAYER
  5
125
330
2
100
AcDbSymbolTableRecord
100
AcDbLayerTableRecord
  2
1
 70
     0
 62
     7
  6
CONTINUOUS
370
    -3
390
0
347
2374
348
0
  0
LAYER
  5
2D3
330
2
100
AcDbSymbolTableRecord
100
AcDbLayerTableRecord
  2
DEFPOINTS
 70
     0
 62
     7
  6
CONTINUOUS
290
     0
370
    -3
390
0
347
2374
348
0
  0
LAYER
  5
132B
330
2
100
AcDbSymbolTableRecord
100
AcDbLayerTableRecord
  2
OBRYS
 70
     0
 62
     5
  6
CONTINUOUS
370
    -3
390
0
347
2374
348
0
1001
ACAECLAYERSTANDARD
1000

1000

  0
LAYER
  5
132D
330
2
100
AcDbSymbolTableRecord
100
AcDbLayerTableRecord
  2
KOTY
 70
     0
 62
     1
  6
CONTINUOUS
370
    -3
390
0
347
2374
348
0
1001
ACAECLAYERSTANDARD
1000

1000

  0
ENDTAB
  0
TABLE
  2
STYLE
  5
3
330
0
100
AcDbSymbolTable
 70
     2
  0
STYLE
  5
11
330
3
100
AcDbSymbolTableRecord
100
AcDbTextStyleTableRecord
  2
STANDARD
 70
     0
 40
0.0
 41
1.0
 50
0.0
 71
     0
 42
0.2
  3
arial.ttf
  4

1001
ACAD
1000
Arial
1071
        0
  0
STYLE
  5
129
330
3
100
AcDbSymbolTableRecord
100
AcDbTextStyleTableRecord
  2
ARIAL
 70
     0
 40
0.0
 41
1.0
 50
0.0
 71
     0
 42
0.2
  3
Arial
  4

1001
ACAD
1000
Arial
1071
        0
  0
ENDTAB
  0
TABLE
  2
VIEW
  5
6
330
0
100
AcDbSymbolTable
 70
     0
  0
ENDTAB
  0
TABLE
  2
UCS
  5
7
330
0
100
AcDbSymbolTable
 70
     0
  0
ENDTAB
  0
TABLE
  2
APPID
  5
9
330
0
100
AcDbSymbolTable
 70
     2
  0
APPID
  5
12
330
9
100
AcDbSymbolTableRecord
100
AcDbRegAppTableRecord
  2
ACAD
 70
     0
  0
APPID
  5
132C
330
9
100
AcDbSymbolTableRecord
100
AcDbRegAppTableRecord
  2
ACAECLAYERSTANDARD
 70
     0
  0
ENDTAB
  0
TABLE
  2
DIMSTYLE
  5
A
330
0
100
AcDbSymbolTable
 70
     1
100
AcDbDimStyleTable
  0
DIMSTYLE
105
27
102
{ACAD_REACTORS
330
1330
330
1340
330
1350
330
1360
330
1370
330
1380
330
202A
330
22B9
330
22F1
102
}
330
A
100
AcDbSymbolTableRecord
100
AcDbDimStyleTableRecord
  2
STANDARD
 70
     0
178
     0
340
11
  0
ENDTAB
  0
TABLE
  2
BLOCK_RECORD
  5
1
330
0
100
AcDbSymbolTable
 70
    31
  0
BLOCK_RECORD
  5
1F
330
1
100
AcDbSymbolTableRecord
100
AcDbBlockTableRecord
  2
*MODEL_SPACE
340
2356
 70
     0
280
     1
281
     0
  0
BLOCK_RECORD
  5
232B
330
1
100
AcDbSymbolTableRecord
100
AcDbBlockTableRecord
  2
*PAPER_SPACE
340
2357
 70
     0
280
     1
281
     0
  0
BLOCK_RECORD
  5
296
330
1
100
AcDbSymbolTableRecord
100
AcDbBlockTableRecord
  2
DIMNDRAFT3D1
340
0
 70
     0
280
     1
281
     0
  0
BLOCK_RECORD
  5
2A0
330
1
100
AcDbSymbolTableRecord
100
AcDbBlockTableRecord
  2
DIMNDRAFT3D2
340
0
 70
     0
280
     1
281
     0
  0
BLOCK_RECORD
  5
2AA
330
1
100
AcDbSymbolTableRecord
100
AcDbBlockTableRecord
  2
DIMNDRAFT3D3
340
0
 70
     0
280
     1
281
     0
  0
BLOCK_RECORD
  5
2B4
330
1
100
AcDbSymbolTableRecord
100
AcDbBlockTableRecord
  2
DIMNDRAFT3D55
340
0
 70
     0
280
     1
281
     0
  0
BLOCK_RECORD
  5
2BE
330
1
100
AcDbSymbolTableRecord
100
AcDbBlockTableRecord
  2
DIMNDRAFT3D11
340
0
 70
     0
280
     1
281
     0
  0
BLOCK_RECORD
  5
2C8
330
1
100
AcDbSymbolTableRecord
100
AcDbBlockTableRecord
  2
DIMNDRAFT3D12
340
0
 70
     0
280
     1
281
     0
  0
BLOCK_RECORD
  5
B7F
330
1
100
AcDbSymbolTableRecord
100
AcDbBlockTableRecord
  2
DIMNDRAFT3D16
340
0
 70
     0
280
     1
281
     0
  0
BLOCK_RECORD
  5
1333
330
1
100
AcDbSymbolTableRecord
100
AcDbBlockTableRecord
  2
*D7
340
0
 70
     0
280
     1
281
     0
  0
BLOCK_RECORD
  5
1343
330
1
100
AcDbSymbolTableRecord
100
AcDbBlockTableRecord
  2
*D8
340
0
 70
     0
280
     1
281
     0
  0
BLOCK_RECORD
  5
1353
330
1
100
AcDbSymbolTableRecord
100
AcDbBlockTableRecord
  2
*D9
340
0
 70
     0
280
     1
281
     0
  0
BLOCK_RECORD
  5
1363
330
1
100
AcDbSymbolTableRecord
100
AcDbBlockTableRecord
  2
*D10
340
0
 70
     0
280
     1
281
     0
  0
BLOCK_RECORD
  5
1373
330
1
100
AcDbSymbolTableRecord
100
AcDbBlockTableRecord
  2
*D11
340
0
 70
     0
280
     1
281
     0
  0
BLOCK_RECORD
  5
1383
330
1
100
AcDbSymbolTableRecord
100
AcDbBlockTableRecord
  2
*D12
340
0
 70
     0
280
     1
281
     0
  0
BLOCK_RECORD
  5
198F
330
1
100
AcDbSymbolTableRecord
100
AcDbBlockTableRecord
  2
DIMNDRAFT3D6
340
0
 70
     0
280
     1
281
     0
  0
BLOCK_RECORD
  5
1F90
330
1
100
AcDbSymbolTableRecord
100
AcDbBlockTableRecord
  2
*D14
340
0
 70
     0
280
     1
281
     0
  0
BLOCK_RECORD
  5
200C
330
1
100
AcDbSymbolTableRecord
100
AcDbBlockTableRecord
  2
*D15
340
0
 70
     0
280
     1
281
     0
  0
BLOCK_RECORD
  5
201C
330
1
100
AcDbSymbolTableRecord
100
AcDbBlockTableRecord
  2
*D16
340
0
 70
     0
280
     1
281
     0
  0
BLOCK_RECORD
  5
202D
330
1
100
AcDbSymbolTableRecord
100
AcDbBlockTableRecord
  2
*D17
340
0
 70
     0
280
     1
281
     0
  0
BLOCK_RECORD
  5
20BE
330
1
100
AcDbSymbolTableRecord
100
AcDbBlockTableRecord
  2
*D18
340
0
 70
     0
280
     1
281
     0
  0
BLOCK_RECORD
  5
2101
330
1
100
AcDbSymbolTableRecord
100
AcDbBlockTableRecord
  2
*D19
340
0
 70
     0
280
     1
281
     0
  0
BLOCK_RECORD
  5
2160
330
1
100
AcDbSymbolTableRecord
100
AcDbBlockTableRecord
  2
*D20
340
0
 70
     0
280
     1
281
     0
  0
BLOCK_RECORD
  5
216D
330
1
100
AcDbSymbolTableRecord
100
AcDbBlockTableRecord
  2
*D21
340
0
 70
     0
280
     1
281
     0
  0
BLOCK_RECORD
  5
21B3
330
1
100
AcDbSymbolTableRecord
100
AcDbBlockTableRecord
  2
*D22
340
0
 70
     0
280
     1
281
     0
  0
BLOCK_RECORD
  5
21F6
330
1
100
AcDbSymbolTableRecord
100
AcDbBlockTableRecord
  2
*D23
340
0
 70
     0
280
     1
281
     0
  0
BLOCK_RECORD
  5
2240
330
1
100
AcDbSymbolTableRecord
100
AcDbBlockTableRecord
  2
*D24
340
0
 70
     0
280
     1
281
     0
  0
BLOCK_RECORD
  5
2283
330
1
100
AcDbSymbolTableRecord
100
AcDbBlockTableRecord
  2
*D25
340
0
 70
     0
280
     1
281
     0
  0
BLOCK_RECORD
  5
2292
330
1
100
AcDbSymbolTableRecord
100
AcDbBlockTableRecord
  2
*D26
340
0
 70
     0
280
     1
281
     0
  0
BLOCK_RECORD
  5
22F5
330
1
100
AcDbSymbolTableRecord
100
AcDbBlockTableRecord
  2
*D27
340
0
 70
     0
280
     1
281
     0
  0
BLOCK_RECORD
  5
2302
330
1
100
AcDbSymbolTableRecord
100
AcDbBlockTableRecord
  2
*D28
340
0
 70
     0
280
     1
281
     0
  0
BLOCK_RECORD
  5
230E
330
1
100
AcDbSymbolTableRecord
100
AcDbBlockTableRecord
  2
*D29
340
0
 70
     0
280
     1
281
     0
  0
BLOCK_RECORD
  5
231E
330
1
100
AcDbSymbolTableRecord
100
AcDbBlockTableRecord
  2
*D30
340
0
 70
     0
280
     1
281
     0
  0
ENDTAB
  0
ENDSEC
  0
SECTION
  2
BLOCKS
  0
BLOCK
  5
20
330
1F
100
AcDbEntity
  8
0
100
AcDbBlockBegin
  2
*MODEL_SPACE
 70
     0
 10
0.0
 20
0.0
 30
0.0
  3
*MODEL_SPACE
  1
*MODEL_SPACE
  0
ENDBLK
  5
21
330
1F
100
AcDbEntity
  8
0
100
AcDbBlockEnd
  0
BLOCK
  5
232D
330
232B
100
AcDbEntity
 67
     1
  8
0
100
AcDbBlockBegin
  2
*PAPER_SPACE
 70
     0
 10
0.0
 20
0.0
 30
0.0
  3
*PAPER_SPACE
  1
*PAPER_SPACE
  0
ENDBLK
  5
232E
330
232B
100
AcDbEntity
 67
     1
  8
0
100
AcDbBlockEnd
  0
BLOCK
  5
297
330
296
100
AcDbEntity
  8
0
100
AcDbBlockBegin
  2
DIMNDRAFT3D1
 70
     0
 10
0.0
 20
0.0
 30
0.0
  3
DIMNDRAFT3D1
  1
DimnDraft3D1
  0
LINE
  5
298
330
296
100
AcDbEntity
  8
1
  6
Continuous
 62
    18
100
AcDbLine
 10
32.49685266666667
 20
53.453898
 30
0.0
 11
32.49685266666667
 21
0.0
 31
0.0
  0
LINE
  5
299
330
296
100
AcDbEntity
  8
1
  6
Continuous
 62
    18
100
AcDbLine
 10
98.79685266666667
 20
57.3539
 30
0.0
 11
98.79685266666667
 21
0.0
 31
0.0
  0
LINE
  5
29A
330
296
100
AcDbEntity
  8
1
  6
Continuous
 62
    18
100
AcDbLine
 10
35.99685266666667
 20
1.0
 30
0.0
 11
95.29685266666667
 21
1.0
 31
0.0
  0
SOLID
  5
29B
330
296
100
AcDbEntity
  8
1
 62
    18
100
AcDbTrace
 10
35.99685266666667
 20
1.583333333333333
 30
0.0
 11
35.99685266666667
 21
0.4166666666666666
 31
0.0
 12
32.49685266666667
 22
1.0
 32
0.0
 13
32.49685266666667
 23
1.0
 33
0.0
  0
SOLID
  5
29C
330
296
100
AcDbEntity
  8
1
 62
    18
100
AcDbTrace
 10
95.29685266666667
 20
0.4166666666666666
 30
0.0
 11
95.29685266666667
 21
1.583333333333333
 31
0.0
 12
98.79685266666667
 22
1.0
 32
0.0
 13
98.79685266666667
 23
1.0
 33
0.0
  0
MTEXT
  5
29D
330
296
100
AcDbEntity
  8
1
 62
    18
100
AcDbMText
 10
65.64685266666666
 20
6.0525
 30
0.0
 40
5.0
 41
0.0
 46
0.0
 71
     5
 72
     1
  1
\A1;\C18;66
  7
ARIAL
 73
     1
 44
1.0
  0
POINT
  5
2D4
330
296
100
AcDbEntity
  8
DEFPOINTS
 62
     0
100
AcDbPoint
 10
32.49685266666667
 20
53.453898
 30
0.0
  0
POINT
  5
2D5
330
296
100
AcDbEntity
  8
DEFPOINTS
 62
     0
100
AcDbPoint
 10
98.79685266666667
 20
57.3539
 30
0.0
  0
POINT
  5
2D6
330
296
100
AcDbEntity
  8
DEFPOINTS
 62
     0
100
AcDbPoint
 10
98.79685266666667
 20
1.0
 30
0.0
  0
ENDBLK
  5
29E
330
296
100
AcDbEntity
  8
0
100
AcDbBlockEnd
  0
BLOCK
  5
2A1
330
2A0
100
AcDbEntity
  8
0
100
AcDbBlockBegin
  2
DIMNDRAFT3D2
 70
     0
 10
0.0
 20
0.0
 30
0.0
  3
DIMNDRAFT3D2
  1
DimnDraft3D2
  0
LINE
  5
2A2
330
2A0
100
AcDbEntity
  8
1
  6
Continuous
 62
    18
100
AcDbLine
 10
60.90518166666666
 20
120.653898
 30
0.0
 11
6.706473666666674
 21
120.653898
 31
0.0
  0
LINE
  5
2A3
330
2A0
100
AcDbEntity
  8
1
  6
Continuous
 62
    18
100
AcDbLine
 10
60.90518166666666
 20
30.853898
 30
0.0
 11
6.706473666666668
 21
30.853898
 31
0.0
  0
LINE
  5
2A4
330
2A0
100
AcDbEntity
  8
1
  6
Continuous
 62
    18
100
AcDbLine
 10
7.706473666666674
 20
117.153898
 30
0.0
 11
7.706473666666668
 21
34.353898
 31
0.0
  0
SOLID
  5
2A5
330
2A0
100
AcDbEntity
  8
1
 62
    18
100
AcDbTrace
 10
8.289807000000007
 20
117.153898
 30
0.0
 11
7.123140333333341
 21
117.153898
 31
0.0
 12
7.706473666666674
 22
120.653898
 32
0.0
 13
7.706473666666674
 23
120.653898
 33
0.0
  0
SOLID
  5
2A6
330
2A0
100
AcDbEntity
  8
1
 62
    18
100
AcDbTrace
 10
7.123140333333335
 20
34.353898
 30
0.0
 11
8.289807000000001
 21
34.353898
 31
0.0
 12
7.706473666666668
 22
30.853898
 32
0.0
 13
7.706473666666668
 23
30.853898
 33
0.0
  0
MTEXT
  5
2A7
330
2A0
100
AcDbEntity
  8
1
 62
    18
100
AcDbMText
 10
2.653973666666676
 20
75.753898
 30
0.0
 40
5.0
 41
0.0
 46
0.0
 71
     5
 72
     1
  1
\A1;\C18;90
  7
ARIAL
 11
5.934376969043154E-17
 21
1.0
 31
0.0
 73
     1
 44
1.0
  0
POINT
  5
2D7
330
2A0
100
AcDbEntity
  8
DEFPOINTS
 62
     0
100
AcDbPoint
 10
60.90518166666666
 20
120.653898
 30
0.0
  0
POINT
  5
2D8
330
2A0
100
AcDbEntity
  8
DEFPOINTS
 62
     0
100
AcDbPoint
 10
60.90518166666666
 20
30.853898
 30
0.0
  0
POINT
  5
2D9
330
2A0
100
AcDbEntity
  8
DEFPOINTS
 62
     0
100
AcDbPoint
 10
7.706473666666671
 20
30.853898
 30
0.0
  0
ENDBLK
  5
2A8
330
2A0
100
AcDbEntity
  8
0
100
AcDbBlockEnd
  0
BLOCK
  5
2AB
330
2AA
100
AcDbEntity
  8
0
100
AcDbBlockBegin
  2
DIMNDRAFT3D3
 70
     0
 10
0.0
 20
0.0
 30
0.0
  3
DIMNDRAFT3D3
  1
DimnDraft3D3
  0
LINE
  5
2AC
330
2AA
100
AcDbEntity
  8
1
  6
Continuous
 62
    18
100
AcDbLine
 10
32.69685266666667
 20
98.253898
 30
0.0
 11
18.32787566666667
 21
98.253898
 31
0.0
  0
LINE
  5
2AD
330
2AA
100
AcDbEntity
  8
1
  6
Continuous
 62
    18
100
AcDbLine
 10
32.69685266666667
 20
53.25389800000001
 30
0.0
 11
18.32787566666666
 21
53.25389800000001
 31
0.0
  0
LINE
  5
2AE
330
2AA
100
AcDbEntity
  8
1
  6
Continuous
 62
    18
100
AcDbLine
 10
19.32787566666667
 20
94.753898
 30
0.0
 11
19.32787566666666
 21
56.75389800000001
 31
0.0
  0
SOLID
  5
2AF
330
2AA
100
AcDbEntity
  8
1
 62
    18
100
AcDbTrace
 10
19.911209
 20
94.753898
 30
0.0
 11
18.74454233333334
 21
94.753898
 31
0.0
 12
19.32787566666667
 22
98.253898
 32
0.0
 13
19.32787566666667
 23
98.253898
 33
0.0
  0
SOLID
  5
2B0
330
2AA
100
AcDbEntity
  8
1
 62
    18
100
AcDbTrace
 10
18.74454233333333
 20
56.75389800000001
 30
0.0
 11
19.911209
 21
56.75389800000001
 31
0.0
 12
19.32787566666666
 22
53.25389800000001
 32
0.0
 13
19.32787566666666
 23
53.25389800000001
 33
0.0
  0
MTEXT
  5
2B1
330
2AA
100
AcDbEntity
  8
1
 62
    18
100
AcDbMText
 10
14.28537566666666
 20
75.753898
 30
0.0
 40
5.0
 41
0.0
 46
0.0
 71
     5
 72
     1
  1
\A1;\C18;45
  7
ARIAL
 11
7.894919286223336E-17
 21
1.0
 31
0.0
 73
     1
 44
1.0
  0
POINT
  5
2DA
330
2AA
100
AcDbEntity
  8
DEFPOINTS
 62
     0
100
AcDbPoint
 10
32.69685266666667
 20
98.253898
 30
0.0
  0
POINT
  5
2DB
330
2AA
100
AcDbEntity
  8
DEFPOINTS
 62
     0
100
AcDbPoint
 10
32.69685266666667
 20
53.25389800000001
 30
0.0
  0
POINT
  5
2DC
330
2AA
100
AcDbEntity
  8
DEFPOINTS
 62
     0
100
AcDbPoint
 10
19.32787566666667
 20
53.25389800000001
 30
0.0
  0
ENDBLK
  5
2B2
330
2AA
100
AcDbEntity
  8
0
100
AcDbBlockEnd
  0
BLOCK
  5
2B5
330
2B4
100
AcDbEntity
  8
0
100
AcDbBlockBegin
  2
DIMNDRAFT3D55
 70
     0
 10
0.0
 20
0.0
 30
0.0
  3
DIMNDRAFT3D55
  1
DimnDraft3D55
  0
LINE
  5
2B6
330
2B4
100
AcDbEntity
  8
1
  6
Continuous
 62
    18
100
AcDbLine
 10
119.777952
 20
103.078986
 30
0.0
 11
138.244735
 21
103.078986
 31
0.0
  0
LINE
  5
2B7
330
2B4
100
AcDbEntity
  8
1
  6
Continuous
 62
    18
100
AcDbLine
 10
121.104381
 20
196.47525
 30
0.0
 11
138.244735
 21
196.47525
 31
0.0
  0
LINE
  5
2B8
330
2B4
100
AcDbEntity
  8
1
  6
Continuous
 62
    18
100
AcDbLine
 10
137.244735
 20
103.078986
 30
0.0
 11
137.244735
 21
196.47525
 31
0.0
  0
SOLID
  5
2B9
330
2B4
100
AcDbEntity
  8
1
  6
Continuous
 62
    18
100
AcDbTrace
 10
137.244735
 20
103.078986
 30
0.0
 11
136.306912
 21
106.578982
 31
0.0
 12
138.182557
 22
106.578989
 32
0.0
 13
137.244735
 23
103.078986
 33
0.0
  0
SOLID
  5
2BA
330
2B4
100
AcDbEntity
  8
1
  6
Continuous
 62
    18
100
AcDbTrace
 10
137.244735
 20
196.47525
 30
0.0
 11
138.182557
 21
192.975254
 31
0.0
 12
136.306912
 22
192.975247
 32
0.0
 13
137.244735
 23
196.47525
 33
0.0
  0
MTEXT
  5
2BB
330
2B4
100
AcDbEntity
  8
1
  6
Continuous
 62
    18
100
AcDbMText
 10
136.224928
 20
147.392398
 30
0.0
 40
5.0
 41
0.0
 46
0.0
 71
     7
 72
     5
  1
\W1.0000;94
  7
ARIAL
 11
6.123233995736766E-17
 21
1.0
 31
0.0
 73
     1
 44
1.0
  0
ENDBLK
  5
2BC
330
2B4
100
AcDbEntity
  8
0
100
AcDbBlockEnd
  0
BLOCK
  5
2BF
330
2BE
100
AcDbEntity
  8
0
100
AcDbBlockBegin
  2
DIMNDRAFT3D11
 70
     0
 10
0.0
 20
0.0
 30
0.0
  3
DIMNDRAFT3D11
  1
DimnDraft3D11
  0
LINE
  5
2C0
330
2BE
100
AcDbEntity
  8
1
  6
Continuous
 62
    18
100
AcDbLine
 10
98.79685266666667
 20
57.3539
 30
0.0
 11
98.79685266666667
 21
11.670469
 31
0.0
  0
LINE
  5
2C1
330
2BE
100
AcDbEntity
  8
1
  6
Continuous
 62
    18
100
AcDbLine
 10
54.79685266666667
 20
34.469133
 30
0.0
 11
54.79685266666667
 21
11.670469
 31
0.0
  0
LINE
  5
2C2
330
2BE
100
AcDbEntity
  8
1
  6
Continuous
 62
    18
100
AcDbLine
 10
95.29685266666667
 20
12.670469
 30
0.0
 11
58.29685266666667
 21
12.670469
 31
0.0
  0
SOLID
  5
2C3
330
2BE
100
AcDbEntity
  8
1
 62
    18
100
AcDbTrace
 10
95.29685266666667
 20
12.08713566666666
 30
0.0
 11
95.29685266666667
 21
13.25380233333333
 31
0.0
 12
98.79685266666667
 22
12.670469
 32
0.0
 13
98.79685266666667
 23
12.670469
 33
0.0
  0
SOLID
  5
2C4
330
2BE
100
AcDbEntity
  8
1
 62
    18
100
AcDbTrace
 10
58.29685266666667
 20
13.25380233333333
 30
0.0
 11
58.29685266666667
 21
12.08713566666666
 31
0.0
 12
54.79685266666667
 22
12.670469
 32
0.0
 13
54.79685266666667
 23
12.670469
 33
0.0
  0
MTEXT
  5
2C5
330
2BE
100
AcDbEntity
  8
1
 62
    18
100
AcDbMText
 10
76.79685266666667
 20
17.670469
 30
0.0
 40
5.0
 41
0.0
 46
0.0
 71
     5
 72
     1
  1
\A1;\C18;44
  7
ARIAL
 73
     1
 44
1.0
  0
POINT
  5
2DD
330
2BE
100
AcDbEntity
  8
DEFPOINTS
 62
     0
100
AcDbPoint
 10
98.79685266666667
 20
57.3539
 30
0.0
  0
POINT
  5
2DE
330
2BE
100
AcDbEntity
  8
DEFPOINTS
 62
     0
100
AcDbPoint
 10
54.79685266666667
 20
34.469133
 30
0.0
  0
POINT
  5
2DF
330
2BE
100
AcDbEntity
  8
DEFPOINTS
 62
     0
100
AcDbPoint
 10
54.79685266666667
 20
12.670469
 30
0.0
  0
ENDBLK
  5
2C6
330
2BE
100
AcDbEntity
  8
0
100
AcDbBlockEnd
  0
BLOCK
  5
2C9
330
2C8
100
AcDbEntity
  8
0
100
AcDbBlockBegin
  2
DIMNDRAFT3D12
 70
     0
 10
0.0
 20
0.0
 30
0.0
  3
DIMNDRAFT3D12
  1
DimnDraft3D12
  0
LINE
  5
2CA
330
2C8
100
AcDbEntity
  8
1
  6
Continuous
 62
    18
100
AcDbLine
 10
104.2968526666667
 20
109.653898
 30
0.0
 11
104.2968526666667
 21
135.067356
 31
0.0
  0
LINE
  5
2CB
330
2C8
100
AcDbEntity
  8
1
  6
Continuous
 62
    18
100
AcDbLine
 10
32.49685266666667
 20
98.05389799999999
 30
0.0
 11
32.49685266666667
 21
135.067356
 31
0.0
  0
LINE
  5
2CC
330
2C8
100
AcDbEntity
  8
1
  6
Continuous
 62
    18
100
AcDbLine
 10
100.7968526666667
 20
134.067356
 30
0.0
 11
35.99685266666667
 21
134.067356
 31
0.0
  0
SOLID
  5
2CD
330
2C8
100
AcDbEntity
  8
1
 62
    18
100
AcDbTrace
 10
100.7968526666667
 20
133.4840226666667
 30
0.0
 11
100.7968526666667
 21
134.6506893333334
 31
0.0
 12
104.2968526666667
 22
134.067356
 32
0.0
 13
104.2968526666667
 23
134.067356
 33
0.0
  0
SOLID
  5
2CE
330
2C8
100
AcDbEntity
  8
1
 62
    18
100
AcDbTrace
 10
35.99685266666667
 20
134.6506893333334
 30
0.0
 11
35.99685266666667
 21
133.4840226666667
 31
0.0
 12
32.49685266666667
 22
134.067356
 32
0.0
 13
32.49685266666667
 23
134.067356
 33
0.0
  0
MTEXT
  5
2CF
330
2C8
100
AcDbEntity
  8
1
 62
    18
100
AcDbMText
 10
68.39685266666666
 20
139.077356
 30
0.0
 40
5.0
 41
0.0
 46
0.0
 71
     5
 72
     1
  1
\A1;\C18;72
  7
ARIAL
 73
     1
 44
1.0
  0
POINT
  5
2E0
330
2C8
100
AcDbEntity
  8
DEFPOINTS
 62
     0
100
AcDbPoint
 10
104.2968526666667
 20
109.653898
 30
0.0
  0
POINT
  5
2E1
330
2C8
100
AcDbEntity
  8
DEFPOINTS
 62
     0
100
AcDbPoint
 10
32.49685266666667
 20
98.05389799999999
 30
0.0
  0
POINT
  5
2E2
330
2C8
100
AcDbEntity
  8
DEFPOINTS
 62
     0
100
AcDbPoint
 10
32.49685266666667
 20
134.067356
 30
0.0
  0
ENDBLK
  5
2D0
330
2C8
100
AcDbEntity
  8
0
100
AcDbBlockEnd
  0
BLOCK
  5
B80
330
B7F
100
AcDbEntity
  8
0
100
AcDbBlockBegin
  2
DIMNDRAFT3D16
 70
     0
 10
0.0
 20
0.0
 30
0.0
  3
DIMNDRAFT3D16
  1
DimnDraft3D16
  0
LINE
  5
B81
330
B7F
100
AcDbEntity
  8
1
  6
Continuous
 62
    18
100
AcDbLine
 10
0.0000000525732275
 20
34.469133
 30
0.0
 11
0.0000000525732275
 21
0.0
 31
0.0
  0
LINE
  5
B82
330
B7F
100
AcDbEntity
  8
1
  6
Continuous
 62
    18
100
AcDbLine
 10
53.80000005257318
 20
34.469133
 30
0.0
 11
53.80000005257318
 21
0.0
 31
0.0
  0
LINE
  5
B83
330
B7F
100
AcDbEntity
  8
1
  6
Continuous
 62
    18
100
AcDbLine
 10
3.500000052573228
 20
1.0
 30
0.0
 11
50.30000005257318
 21
1.0
 31
0.0
  0
SOLID
  5
B84
330
B7F
100
AcDbEntity
  8
1
 62
    18
100
AcDbTrace
 10
3.500000052573228
 20
1.583333333333333
 30
0.0
 11
3.500000052573228
 21
0.4166666666666666
 31
0.0
 12
0.0000000525732275
 22
1.0
 32
0.0
 13
0.0000000525732275
 23
1.0
 33
0.0
  0
SOLID
  5
B85
330
B7F
100
AcDbEntity
  8
1
 62
    18
100
AcDbTrace
 10
50.30000005257318
 20
0.4166666666666666
 30
0.0
 11
50.30000005257318
 21
1.583333333333333
 31
0.0
 12
53.80000005257318
 22
1.0
 32
0.0
 13
53.80000005257318
 23
1.0
 33
0.0
  0
MTEXT
  5
B86
330
B7F
100
AcDbEntity
  8
1
 62
    18
100
AcDbMText
 10
31.49089805257324
 20
6.0425
 30
0.0
 40
5.0
 41
0.0
 46
0.0
 71
     5
 72
     1
  1
\A1;\C18;54
  7
ARIAL
 73
     1
 44
1.0
  0
POINT
  5
B8A
330
B7F
100
AcDbEntity
  8
DEFPOINTS
 62
     0
100
AcDbPoint
 10
0.0000000525732275
 20
34.469133
 30
0.0
  0
POINT
  5
B8B
330
B7F
100
AcDbEntity
  8
DEFPOINTS
 62
     0
100
AcDbPoint
 10
53.80000005257318
 20
34.469133
 30
0.0
  0
POINT
  5
B8C
330
B7F
100
AcDbEntity
  8
DEFPOINTS
 62
     0
100
AcDbPoint
 10
53.80000005257318
 20
1.0
 30
0.0
  0
ENDBLK
  5
B87
330
B7F
100
AcDbEntity
  8
0
100
AcDbBlockEnd
  0
BLOCK
  5
1334
330
1333
100
AcDbEntity
  8
0
100
AcDbBlockBegin
  2
*D7
 70
     1
 10
0.0
 20
0.0
 30
0.0
  3
*D7
  1
*D17
  0
LINE
  5
1336
330
1333
100
AcDbEntity
  8
KOTY
 62
     0
100
AcDbLine
 10
331.7600189177886
 20
213.2201939706726
 30
0.0
 11
331.7600189177886
 21
246.0494714153149
 31
0.0
  0
LINE
  5
1337
330
1333
100
AcDbEntity
  8
KOTY
 62
     0
100
AcDbLine
 10
403.5600189177886
 20
224.8201939706726
 30
0.0
 11
403.5600189177886
 21
246.0494714153149
 31
0.0
  0
LINE
  5
1338
330
1333
100
AcDbEntity
  8
KOTY
 62
     0
100
AcDbLine
 10
334.7600189177886
 20
245.8694714153149
 30
0.0
 11
400.5600189177886
 21
245.8694714153149
 31
0.0
  0
SOLID
  5
1339
330
1333
100
AcDbEntity
  8
KOTY
 62
     0
100
AcDbTrace
 10
334.7600189177886
 20
246.3694714153149
 30
0.0
 11
334.7600189177886
 21
245.3694714153149
 31
0.0
 12
331.7600189177886
 22
245.8694714153149
 32
0.0
 13
331.7600189177886
 23
245.8694714153149
 33
0.0
  0
SOLID
  5
133A
330
1333
100
AcDbEntity
  8
KOTY
 62
     0
100
AcDbTrace
 10
400.5600189177886
 20
245.3694714153149
 30
0.0
 11
400.5600189177886
 21
246.3694714153149
 31
0.0
 12
403.5600189177886
 22
245.8694714153149
 32
0.0
 13
403.5600189177886
 23
245.8694714153149
 33
0.0
  0
MTEXT
  5
133B
330
1333
100
AcDbEntity
  8
KOTY
 62
     0
100
AcDbMText
 10
367.6600189177885
 20
248.3754714153149
 30
0.0
 40
3.0
 41
0.0
 46
0.0
 71
     5
 72
     1
  1
\A1;72
 73
     1
 44
1.0
  0
POINT
  5
133C
330
1333
100
AcDbEntity
  8
DEFPOINTS
 62
     0
100
AcDbPoint
 10
331.7600189177886
 20
213.1576939706726
 30
0.0
  0
POINT
  5
133D
330
1333
100
AcDbEntity
  8
DEFPOINTS
 62
     0
100
AcDbPoint
 10
403.5600189177886
 20
224.7576939706726
 30
0.0
  0
POINT
  5
133E
330
1333
100
AcDbEntity
  8
DEFPOINTS
 62
     0
100
AcDbPoint
 10
403.5600189177886
 20
245.8694714153149
 30
0.0
  0
ENDBLK
  5
1335
330
1333
100
AcDbEntity
  8
0
100
AcDbBlockEnd
  0
BLOCK
  5
1344
330
1343
100
AcDbEntity
  8
0
100
AcDbBlockBegin
  2
*D8
 70
     1
 10
0.0
 20
0.0
 30
0.0
  3
*D8
  1
*D18
  0
LINE
  5
1346
330
1343
100
AcDbEntity
  8
KOTY
 62
     0
100
AcDbLine
 10
331.8975189177886
 20
168.3576939706726
 30
0.0
 11
320.293941592266
 21
168.3576939706726
 31
0.0
  0
LINE
  5
1347
330
1343
100
AcDbEntity
  8
KOTY
 62
     0
100
AcDbLine
 10
331.8975189177886
 20
213.3576939706726
 30
0.0
 11
320.293941592266
 21
213.3576939706726
 31
0.0
  0
LINE
  5
1348
330
1343
100
AcDbEntity
  8
KOTY
 62
     0
100
AcDbLine
 10
320.473941592266
 20
171.3576939706726
 30
0.0
 11
320.473941592266
 21
210.3576939706726
 31
0.0
  0
SOLID
  5
1349
330
1343
100
AcDbEntity
  8
KOTY
 62
     0
100
AcDbTrace
 10
319.973941592266
 20
171.3576939706726
 30
0.0
 11
320.973941592266
 21
171.3576939706726
 31
0.0
 12
320.473941592266
 22
168.3576939706726
 32
0.0
 13
320.473941592266
 23
168.3576939706726
 33
0.0
  0
SOLID
  5
134A
330
1343
100
AcDbEntity
  8
KOTY
 62
     0
100
AcDbTrace
 10
320.973941592266
 20
210.3576939706726
 30
0.0
 11
319.973941592266
 21
210.3576939706726
 31
0.0
 12
320.473941592266
 22
213.3576939706726
 32
0.0
 13
320.473941592266
 23
213.3576939706726
 33
0.0
  0
MTEXT
  5
134B
330
1343
100
AcDbEntity
  8
KOTY
 62
     0
100
AcDbMText
 10
317.948441592266
 20
190.8576939706726
 30
0.0
 40
3.0
 41
0.0
 46
0.0
 71
     5
 72
     1
  1
\A1;45
 11
0.0
 21
1.0
 31
0.0
 73
     1
 44
1.0
  0
POINT
  5
134C
330
1343
100
AcDbEntity
  8
DEFPOINTS
 62
     0
100
AcDbPoint
 10
331.9600189177886
 20
168.3576939706726
 30
0.0
  0
POINT
  5
134D
330
1343
100
AcDbEntity
  8
DEFPOINTS
 62
     0
100
AcDbPoint
 10
331.9600189177886
 20
213.3576939706726
 30
0.0
  0
POINT
  5
134E
330
1343
100
AcDbEntity
  8
DEFPOINTS
 62
     0
100
AcDbPoint
 10
320.473941592266
 20
213.3576939706726
 30
0.0
  0
ENDBLK
  5
1345
330
1343
100
AcDbEntity
  8
0
100
AcDbBlockEnd
  0
BLOCK
  5
1354
330
1353
100
AcDbEntity
  8
0
100
AcDbBlockBegin
  2
*D9
 70
     1
 10
0.0
 20
0.0
 30
0.0
  3
*D9
  1
*D19
  0
LINE
  5
1356
330
1353
100
AcDbEntity
  8
KOTY
 62
     0
100
AcDbLine
 10
360.1058479177885
 20
145.9576939706726
 30
0.0
 11
310.3466136542384
 21
145.9576939706726
 31
0.0
  0
LINE
  5
1357
330
1353
100
AcDbEntity
  8
KOTY
 62
     0
100
AcDbLine
 10
360.1058479177885
 20
235.7576939706726
 30
0.0
 11
310.3466136542384
 21
235.7576939706726
 31
0.0
  0
LINE
  5
1358
330
1353
100
AcDbEntity
  8
KOTY
 62
     0
100
AcDbLine
 10
310.5266136542384
 20
148.9576939706726
 30
0.0
 11
310.5266136542384
 21
232.7576939706726
 31
0.0
  0
SOLID
  5
1359
330
1353
100
AcDbEntity
  8
KOTY
 62
     0
100
AcDbTrace
 10
310.0266136542384
 20
148.9576939706726
 30
0.0
 11
311.0266136542384
 21
148.9576939706726
 31
0.0
 12
310.5266136542384
 22
145.9576939706726
 32
0.0
 13
310.5266136542384
 23
145.9576939706726
 33
0.0
  0
SOLID
  5
135A
330
1353
100
AcDbEntity
  8
KOTY
 62
     0
100
AcDbTrace
 10
311.0266136542384
 20
232.7576939706726
 30
0.0
 11
310.0266136542384
 21
232.7576939706726
 31
0.0
 12
310.5266136542384
 22
235.7576939706726
 32
0.0
 13
310.5266136542384
 23
235.7576939706726
 33
0.0
  0
MTEXT
  5
135B
330
1353
100
AcDbEntity
  8
KOTY
 62
     0
100
AcDbMText
 10
307.9951136542384
 20
190.8576939706726
 30
0.0
 40
3.0
 41
0.0
 46
0.0
 71
     5
 72
     1
  1
\A1;90
 11
0.0
 21
1.0
 31
0.0
 73
     1
 44
1.0
  0
POINT
  5
135C
330
1353
100
AcDbEntity
  8
DEFPOINTS
 62
     0
100
AcDbPoint
 10
360.1683479177885
 20
145.9576939706726
 30
0.0
  0
POINT
  5
135D
330
1353
100
AcDbEntity
  8
DEFPOINTS
 62
     0
100
AcDbPoint
 10
360.1683479177885
 20
235.7576939706726
 30
0.0
  0
POINT
  5
135E
330
1353
100
AcDbEntity
  8
DEFPOINTS
 62
     0
100
AcDbPoint
 10
310.5266136542384
 20
235.7576939706726
 30
0.0
  0
ENDBLK
  5
1355
330
1353
100
AcDbEntity
  8
0
100
AcDbBlockEnd
  0
BLOCK
  5
1364
330
1363
100
AcDbEntity
  8
0
100
AcDbBlockBegin
  2
*D10
 70
     1
 10
0.0
 20
0.0
 30
0.0
  3
*D10
  1
*D20
  0
LINE
  5
1366
330
1363
100
AcDbEntity
  8
KOTY
 62
     0
100
AcDbLine
 10
331.7600189177886
 20
168.4951939706726
 30
0.0
 11
331.7600189177886
 21
122.4558462391053
 31
0.0
  0
LINE
  5
1367
330
1363
100
AcDbEntity
  8
KOTY
 62
     0
100
AcDbLine
 10
398.0600189177886
 20
172.3951959706726
 30
0.0
 11
398.0600189177886
 21
122.4558462391053
 31
0.0
  0
LINE
  5
1368
330
1363
100
AcDbEntity
  8
KOTY
 62
     0
100
AcDbLine
 10
334.7600189177886
 20
122.6358462391053
 30
0.0
 11
395.0600189177886
 21
122.6358462391053
 31
0.0
  0
SOLID
  5
1369
330
1363
100
AcDbEntity
  8
KOTY
 62
     0
100
AcDbTrace
 10
334.7600189177886
 20
123.1358462391053
 30
0.0
 11
334.7600189177886
 21
122.1358462391053
 31
0.0
 12
331.7600189177886
 22
122.6358462391053
 32
0.0
 13
331.7600189177886
 23
122.6358462391053
 33
0.0
  0
SOLID
  5
136A
330
1363
100
AcDbEntity
  8
KOTY
 62
     0
100
AcDbTrace
 10
395.0600189177886
 20
122.1358462391053
 30
0.0
 11
395.0600189177886
 21
123.1358462391053
 31
0.0
 12
398.0600189177886
 22
122.6358462391053
 32
0.0
 13
398.0600189177886
 23
122.6358462391053
 33
0.0
  0
MTEXT
  5
136B
330
1363
100
AcDbEntity
  8
KOTY
 62
     0
100
AcDbMText
 10
364.9100189177885
 20
125.1673462391053
 30
0.0
 40
3.0
 41
0.0
 46
0.0
 71
     5
 72
     1
  1
\A1;66
 73
     1
 44
1.0
  0
POINT
  5
136C
330
1363
100
AcDbEntity
  8
DEFPOINTS
 62
     0
100
AcDbPoint
 10
331.7600189177886
 20
168.5576939706726
 30
0.0
  0
POINT
  5
136D
330
1363
100
AcDbEntity
  8
DEFPOINTS
 62
     0
100
AcDbPoint
 10
398.0600189177886
 20
172.4576959706726
 30
0.0
  0
POINT
  5
136E
330
1363
100
AcDbEntity
  8
DEFPOINTS
 62
     0
100
AcDbPoint
 10
398.0600189177886
 20
122.6358462391053
 30
0.0
  0
ENDBLK
  5
1365
330
1363
100
AcDbEntity
  8
0
100
AcDbBlockEnd
  0
BLOCK
  5
1374
330
1373
100
AcDbEntity
  8
0
100
AcDbBlockBegin
  2
*D11
 70
     1
 10
0.0
 20
0.0
 30
0.0
  3
*D11
  1
*D21
  0
LINE
  5
1376
330
1373
100
AcDbEntity
  8
KOTY
 62
     0
100
AcDbLine
 10
354.0600189177886
 20
149.5104289706726
 30
0.0
 11
354.0600189177886
 21
133.9706929986001
 31
0.0
  0
LINE
  5
1377
330
1373
100
AcDbEntity
  8
KOTY
 62
     0
100
AcDbLine
 10
398.0600189177886
 20
172.3951959706726
 30
0.0
 11
398.0600189177886
 21
133.9706929986001
 31
0.0
  0
LINE
  5
1378
330
1373
100
AcDbEntity
  8
KOTY
 62
     0
100
AcDbLine
 10
357.0600189177886
 20
134.1506929986001
 30
0.0
 11
395.0600189177886
 21
134.1506929986001
 31
0.0
  0
SOLID
  5
1379
330
1373
100
AcDbEntity
  8
KOTY
 62
     0
100
AcDbTrace
 10
357.0600189177886
 20
134.6506929986001
 30
0.0
 11
357.0600189177886
 21
133.6506929986001
 31
0.0
 12
354.0600189177886
 22
134.1506929986001
 32
0.0
 13
354.0600189177886
 23
134.1506929986001
 33
0.0
  0
SOLID
  5
137A
330
1373
100
AcDbEntity
  8
KOTY
 62
     0
100
AcDbTrace
 10
395.0600189177886
 20
133.6506929986001
 30
0.0
 11
395.0600189177886
 21
134.6506929986001
 31
0.0
 12
398.0600189177886
 22
134.1506929986001
 32
0.0
 13
398.0600189177886
 23
134.1506929986001
 33
0.0
  0
MTEXT
  5
137B
330
1373
100
AcDbEntity
  8
KOTY
 62
     0
100
AcDbMText
 10
376.0600189177886
 20
136.6506929986001
 30
0.0
 40
3.0
 41
0.0
 46
0.0
 71
     5
 72
     1
  1
\A1;44
 73
     1
 44
1.0
  0
POINT
  5
137C
330
1373
100
AcDbEntity
  8
DEFPOINTS
 62
     0
100
AcDbPoint
 10
354.0600189177886
 20
149.5729289706726
 30
0.0
  0
POINT
  5
137D
330
1373
100
AcDbEntity
  8
DEFPOINTS
 62
     0
100
AcDbPoint
 10
398.0600189177886
 20
172.4576959706726
 30
0.0
  0
POINT
  5
137E
330
1373
100
AcDbEntity
  8
DEFPOINTS
 62
     0
100
AcDbPoint
 10
398.0600189177886
 20
134.1506929986001
 30
0.0
  0
ENDBLK
  5
1375
330
1373
100
AcDbEntity
  8
0
100
AcDbBlockEnd
  0
BLOCK
  5
1384
330
1383
100
AcDbEntity
  8
0
100
AcDbBlockBegin
  2
*D12
 70
     1
 10
0.0
 20
0.0
 30
0.0
  3
*D12
  1
*D22
  0
LINE
  5
1386
330
1383
100
AcDbEntity
  8
KOTY
 62
     0
100
AcDbLine
 10
401.9989469177885
 20
235.7576939706726
 30
0.0
 11
412.9227093336444
 21
235.7576939706726
 31
0.0
  0
LINE
  5
1387
330
1383
100
AcDbEntity
  8
KOTY
 62
     0
100
AcDbLine
 10
402.5394312988689
 20
142.361432319528
 30
0.0
 11
412.9227093336444
 21
142.361432319528
 31
0.0
  0
LINE
  5
1388
330
1383
100
AcDbEntity
  8
KOTY
 62
     0
100
AcDbLine
 10
412.7427093336444
 20
232.7576939706726
 30
0.0
 11
412.7427093336444
 21
145.361432319528
 31
0.0
  0
SOLID
  5
1389
330
1383
100
AcDbEntity
  8
KOTY
 62
     0
100
AcDbTrace
 10
413.2427093336444
 20
232.7576939706726
 30
0.0
 11
412.2427093336444
 21
232.7576939706726
 31
0.0
 12
412.7427093336444
 22
235.7576939706726
 32
0.0
 13
412.7427093336444
 23
235.7576939706726
 33
0.0
  0
SOLID
  5
138A
330
1383
100
AcDbEntity
  8
KOTY
 62
     0
100
AcDbTrace
 10
412.2427093336444
 20
145.361432319528
 30
0.0
 11
413.2427093336444
 21
145.361432319528
 31
0.0
 12
412.7427093336444
 22
142.361432319528
 32
0.0
 13
412.7427093336444
 23
142.361432319528
 33
0.0
  0
MTEXT
  5
138B
330
1383
100
AcDbEntity
  8
KOTY
 62
     0
100
AcDbMText
 10
410.2112093336444
 20
189.0595631451003
 30
0.0
 40
3.0
 41
0.0
 46
0.0
 71
     5
 72
     1
  1
\A1;94
 11
0.0
 21
1.0
 31
0.0
 73
     1
 44
1.0
  0
POINT
  5
138C
330
1383
100
AcDbEntity
  8
DEFPOINTS
 62
     0
100
AcDbPoint
 10
401.9364469177885
 20
235.7576939706726
 30
0.0
  0
POINT
  5
138D
330
1383
100
AcDbEntity
  8
DEFPOINTS
 62
     0
100
AcDbPoint
 10
402.4769312988689
 20
142.361432319528
 30
0.0
  0
POINT
  5
138E
330
1383
100
AcDbEntity
  8
DEFPOINTS
 62
     0
100
AcDbPoint
 10
412.7427093336444
 20
142.361432319528
 30
0.0
  0
ENDBLK
  5
1385
330
1383
100
AcDbEntity
  8
0
100
AcDbBlockEnd
  0
BLOCK
  5
1990
330
198F
100
AcDbEntity
  8
0
100
AcDbBlockBegin
  2
DIMNDRAFT3D6
 70
     0
 10
0.0
 20
0.0
 30
0.0
  3
DIMNDRAFT3D6
  1
DimnDraft3D6
  0
LINE
  5
1991
330
198F
100
AcDbEntity
  8
1
  6
Continuous
 62
    18
100
AcDbLine
 10
0.0000000525732275
 20
34.469133
 30
0.0
 11
0.0000000525732275
 21
0.0
 31
0.0
  0
LINE
  5
1992
330
198F
100
AcDbEntity
  8
1
  6
Continuous
 62
    18
100
AcDbLine
 10
35.80000005257318
 20
34.469133
 30
0.0
 11
35.80000005257318
 21
0.0
 31
0.0
  0
LINE
  5
1993
330
198F
100
AcDbEntity
  8
1
  6
Continuous
 62
    18
100
AcDbLine
 10
3.500000052573228
 20
1.0
 30
0.0
 11
32.30000005257318
 21
1.0
 31
0.0
  0
SOLID
  5
1994
330
198F
100
AcDbEntity
  8
1
 62
    18
100
AcDbTrace
 10
3.500000052573228
 20
1.583333333333333
 30
0.0
 11
3.500000052573228
 21
0.4166666666666666
 31
0.0
 12
0.0000000525732275
 22
1.0
 32
0.0
 13
0.0000000525732275
 23
1.0
 33
0.0
  0
SOLID
  5
1995
330
198F
100
AcDbEntity
  8
1
 62
    18
100
AcDbTrace
 10
32.30000005257318
 20
0.4166666666666666
 30
0.0
 11
32.30000005257318
 21
1.583333333333333
 31
0.0
 12
35.80000005257318
 22
1.0
 32
0.0
 13
35.80000005257318
 23
1.0
 33
0.0
  0
MTEXT
  5
1996
330
198F
100
AcDbEntity
  8
1
 62
    18
100
AcDbMText
 10
15.39764705257323
 20
6.0525
 30
0.0
 40
5.0
 41
0.0
 46
0.0
 71
     5
 72
     1
  1
\A1;\C18;36
  7
ARIAL
 73
     1
 44
1.0
  0
POINT
  5
199A
330
198F
100
AcDbEntity
  8
DEFPOINTS
 62
     0
100
AcDbPoint
 10
0.0000000525732275
 20
34.469133
 30
0.0
  0
POINT
  5
199B
330
198F
100
AcDbEntity
  8
DEFPOINTS
 62
     0
100
AcDbPoint
 10
35.80000005257318
 20
34.469133
 30
0.0
  0
POINT
  5
199C
330
198F
100
AcDbEntity
  8
DEFPOINTS
 62
     0
100
AcDbPoint
 10
35.80000005257318
 20
1.0
 30
0.0
  0
ENDBLK
  5
1997
330
198F
100
AcDbEntity
  8
0
100
AcDbBlockEnd
  0
BLOCK
  5
1F91
330
1F90
100
AcDbEntity
  8
0
100
AcDbBlockBegin
  2
*D14
 70
     1
 10
0.0
 20
0.0
 30
0.0
  3
*D14
  1
*D18
  0
LINE
  5
1F93
330
1F90
100
AcDbEntity
  8
OBRYS
 62
     0
100
AcDbLine
 10
437.4801095781108
 20
146.4975301782606
 30
0.0
 11
437.1516702443846
 21
146.4975301782606
 31
0.0
  0
LINE
  5
1F94
330
1F90
100
AcDbEntity
  8
OBRYS
 62
     0
100
AcDbLine
 10
437.6801095781107
 20
149.0878710975039
 30
0.0
 11
437.1516702443846
 21
149.0878710975039
 31
0.0
  0
LINE
  5
1F95
330
1F90
100
AcDbEntity
  8
OBRYS
 62
     0
100
AcDbLine
 10
437.3316702443846
 20
146.6775301782606
 30
0.0
 11
437.3316702443846
 21
147.6108106378823
 31
0.0
  0
LINE
  5
1F96
330
1F90
100
AcDbEntity
  8
OBRYS
 62
     0
100
AcDbLine
 10
437.3316702443846
 20
148.9078710975039
 30
0.0
 11
437.3316702443846
 21
147.9745906378823
 31
0.0
  0
SOLID
  5
1F97
330
1F90
100
AcDbEntity
  8
OBRYS
 62
     0
100
AcDbTrace
 10
437.3016702443846
 20
146.6775301782606
 30
0.0
 11
437.3616702443846
 21
146.6775301782606
 31
0.0
 12
437.3316702443846
 22
146.4975301782606
 32
0.0
 13
437.3316702443846
 23
146.4975301782606
 33
0.0
  0
SOLID
  5
1F98
330
1F90
100
AcDbEntity
  8
OBRYS
 62
     0
100
AcDbTrace
 10
437.3616702443846
 20
148.9078710975039
 30
0.0
 11
437.3016702443846
 21
148.9078710975039
 31
0.0
 12
437.3316702443846
 22
149.0878710975039
 32
0.0
 13
437.3316702443846
 23
149.0878710975039
 33
0.0
  0
MTEXT
  5
1F99
330
1F90
100
AcDbEntity
  8
OBRYS
 62
     0
100
AcDbMText
 10
437.3316702443846
 20
147.7927006378823
 30
0.0
 40
0.18
 41
0.0
 46
0.0
 71
     5
 72
     1
  1
\A1;2.5903
 73
     1
 44
1.0
  0
POINT
  5
1F9A
330
1F90
100
AcDbEntity
  8
DEFPOINTS
 62
     0
100
AcDbPoint
 10
437.5426095781108
 20
146.4975301782606
 30
0.0
  0
POINT
  5
1F9B
330
1F90
100
AcDbEntity
  8
DEFPOINTS
 62
     0
100
AcDbPoint
 10
437.7426095781107
 20
149.0878710975039
 30
0.0
  0
POINT
  5
1F9C
330
1F90
100
AcDbEntity
  8
DEFPOINTS
 62
     0
100
AcDbPoint
 10
437.3316702443846
 20
149.0878710975039
 30
0.0
  0
ENDBLK
  5
1F92
330
1F90
100
AcDbEntity
  8
0
100
AcDbBlockEnd
  0
BLOCK
  5
200D
330
200C
100
AcDbEntity
  8
0
100
AcDbBlockBegin
  2
*D15
 70
     1
 10
0.0
 20
0.0
 30
0.0
  3
*D15
  1
*D19
  0
LINE
  5
200F
330
200C
100
AcDbEntity
  8
OBRYS
 62
     0
100
AcDbLine
 10
439.4426095228887
 20
168.5507201774337
 30
0.0
 11
439.4426095228887
 21
167.3768910421409
 31
0.0
  0
LINE
  5
2010
330
200C
100
AcDbEntity
  8
OBRYS
 62
     0
100
AcDbLine
 10
440.5426095781108
 20
168.5507201782606
 30
0.0
 11
440.5426095781108
 21
167.3768910421409
 31
0.0
  0
LINE
  5
2011
330
200C
100
AcDbEntity
  8
OBRYS
 62
     0
100
AcDbLine
 10
439.2626095228887
 20
167.5568910421409
 30
0.0
 11
439.0826095228887
 21
167.5568910421409
 31
0.0
  0
LINE
  5
2012
330
200C
100
AcDbEntity
  8
OBRYS
 62
     0
100
AcDbLine
 10
440.7226095781108
 20
167.5568910421409
 30
0.0
 11
440.9026095781108
 21
167.5568910421409
 31
0.0
  0
SOLID
  5
2013
330
200C
100
AcDbEntity
  8
OBRYS
 62
     0
100
AcDbTrace
 10
439.2626095228887
 20
167.5268910421409
 30
0.0
 11
439.2626095228887
 21
167.5868910421409
 31
0.0
 12
439.4426095228887
 22
167.5568910421409
 32
0.0
 13
439.4426095228887
 23
167.5568910421409
 33
0.0
  0
SOLID
  5
2014
330
200C
100
AcDbEntity
  8
OBRYS
 62
     0
100
AcDbTrace
 10
440.7226095781108
 20
167.5868910421409
 30
0.0
 11
440.7226095781108
 21
167.5268910421409
 31
0.0
 12
440.5426095781108
 22
167.5568910421409
 32
0.0
 13
440.5426095781108
 23
167.5568910421409
 33
0.0
  0
MTEXT
  5
2015
330
200C
100
AcDbEntity
  8
OBRYS
 62
     0
100
AcDbMText
 10
439.9926095504998
 20
167.5568910421409
 30
0.0
 40
0.18
 41
0.0
 46
0.0
 71
     5
 72
     1
  1
\A1;1.1000
 73
     1
 44
1.0
  0
POINT
  5
2016
330
200C
100
AcDbEntity
  8
DEFPOINTS
 62
     0
100
AcDbPoint
 10
439.4426095228887
 20
168.6132201774337
 30
0.0
  0
POINT
  5
2017
330
200C
100
AcDbEntity
  8
DEFPOINTS
 62
     0
100
AcDbPoint
 10
440.5426095781108
 20
168.6132201782606
 30
0.0
  0
POINT
  5
2018
330
200C
100
AcDbEntity
  8
DEFPOINTS
 62
     0
100
AcDbPoint
 10
440.5426095781108
 20
167.5568910421409
 30
0.0
  0
ENDBLK
  5
200E
330
200C
100
AcDbEntity
  8
0
100
AcDbBlockEnd
  0
BLOCK
  5
201D
330
201C
100
AcDbEntity
  8
0
100
AcDbBlockBegin
  2
*D16
 70
     1
 10
0.0
 20
0.0
 30
0.0
  3
*D16
  1
*D20
  0
LINE
  5
201F
330
201C
100
AcDbEntity
  8
OBRYS
 62
     0
100
AcDbLine
 10
470.2597665781107
 20
192.6791471782606
 30
0.0
 11
470.2597665781107
 21
192.4231906893551
 31
0.0
  0
LINE
  5
2020
330
201C
100
AcDbEntity
  8
OBRYS
 62
     0
100
AcDbLine
 10
470.7254525781107
 20
192.6791471782606
 30
0.0
 11
470.7254525781107
 21
192.4231906893551
 31
0.0
  0
LINE
  5
2021
330
201C
100
AcDbEntity
  8
OBRYS
 62
     0
100
AcDbLine
 10
470.0797665781107
 20
192.6031906893551
 30
0.0
 11
469.8997665781107
 21
192.6031906893551
 31
0.0
  0
LINE
  5
2022
330
201C
100
AcDbEntity
  8
OBRYS
 62
     0
100
AcDbLine
 10
470.9054525781107
 20
192.6031906893551
 30
0.0
 11
471.0854525781107
 21
192.6031906893551
 31
0.0
  0
SOLID
  5
2023
330
201C
100
AcDbEntity
  8
OBRYS
 62
     0
100
AcDbTrace
 10
470.0797665781107
 20
192.5731906893551
 30
0.0
 11
470.0797665781107
 21
192.6331906893551
 31
0.0
 12
470.2597665781107
 22
192.6031906893551
 32
0.0
 13
470.2597665781107
 23
192.6031906893551
 33
0.0
  0
SOLID
  5
2024
330
201C
100
AcDbEntity
  8
OBRYS
 62
     0
100
AcDbTrace
 10
470.9054525781107
 20
192.6331906893551
 30
0.0
 11
470.9054525781107
 21
192.5731906893551
 31
0.0
 12
470.7254525781107
 22
192.6031906893551
 32
0.0
 13
470.7254525781107
 23
192.6031906893551
 33
0.0
  0
MTEXT
  5
2025
330
201C
100
AcDbEntity
  8
OBRYS
 62
     0
100
AcDbMText
 10
470.4926095781107
 20
192.0125206893551
 30
0.0
 40
0.18
 41
0.0
 46
0.0
 71
     5
 72
     1
  1
\A1;0.4657
 73
     1
 44
1.0
  0
POINT
  5
2026
330
201C
100
AcDbEntity
  8
DEFPOINTS
 62
     0
100
AcDbPoint
 10
470.2597665781107
 20
192.7416471782606
 30
0.0
  0
POINT
  5
2027
330
201C
100
AcDbEntity
  8
DEFPOINTS
 62
     0
100
AcDbPoint
 10
470.7254525781107
 20
192.7416471782606
 30
0.0
  0
POINT
  5
2028
330
201C
100
AcDbEntity
  8
DEFPOINTS
 62
     0
100
AcDbPoint
 10
470.7254525781107
 20
192.6031906893551
 30
0.0
  0
ENDBLK
  5
201E
330
201C
100
AcDbEntity
  8
0
100
AcDbBlockEnd
  0
BLOCK
  5
202E
330
202D
100
AcDbEntity
  8
0
100
AcDbBlockBegin
  2
*D17
 70
     1
 10
0.0
 20
0.0
 30
0.0
  3
*D17
  1
*D21
  0
LINE
  5
2030
330
202D
100
AcDbEntity
  8
KOTY
 62
     0
100
AcDbLine
 10
437.5426095781107
 20
146.1507201782607
 30
0.0
 11
437.5426095781107
 21
122.4558462391053
 31
0.0
  0
LINE
  5
2031
330
202D
100
AcDbEntity
  8
KOTY
 62
     0
100
AcDbLine
 10
473.3426095781108
 20
146.1507201782607
 30
0.0
 11
473.3426095781108
 21
122.4558462391053
 31
0.0
  0
LINE
  5
2032
330
202D
100
AcDbEntity
  8
KOTY
 62
     0
100
AcDbLine
 10
440.5426095781107
 20
122.6358462391053
 30
0.0
 11
470.3426095781108
 21
122.6358462391053
 31
0.0
  0
SOLID
  5
2033
330
202D
100
AcDbEntity
  8
KOTY
 62
     0
100
AcDbTrace
 10
440.5426095781107
 20
123.1358462391053
 30
0.0
 11
440.5426095781107
 21
122.1358462391053
 31
0.0
 12
437.5426095781107
 22
122.6358462391053
 32
0.0
 13
437.5426095781107
 23
122.6358462391053
 33
0.0
  0
SOLID
  5
2034
330
202D
100
AcDbEntity
  8
KOTY
 62
     0
100
AcDbTrace
 10
470.3426095781108
 20
122.1358462391053
 30
0.0
 11
470.3426095781108
 21
123.1358462391053
 31
0.0
 12
473.3426095781108
 22
122.6358462391053
 32
0.0
 13
473.3426095781108
 23
122.6358462391053
 33
0.0
  0
MTEXT
  5
2035
330
202D
100
AcDbEntity
  8
KOTY
 62
     0
100
AcDbMText
 10
455.4426095781108
 20
125.1673462391053
 30
0.0
 40
3.0
 41
0.0
 46
0.0
 71
     5
 72
     1
  1
\A1;36
 73
     1
 44
1.0
  0
POINT
  5
2036
330
202D
100
AcDbEntity
  8
DEFPOINTS
 62
     0
100
AcDbPoint
 10
437.5426095781107
 20
146.2132201782607
 30
0.0
  0
POINT
  5
2037
330
202D
100
AcDbEntity
  8
DEFPOINTS
 62
     0
100
AcDbPoint
 10
473.3426095781108
 20
146.2132201782607
 30
0.0
  0
POINT
  5
2038
330
202D
100
AcDbEntity
  8
DEFPOINTS
 62
     0
100
AcDbPoint
 10
473.3426095781108
 20
122.6358462391053
 30
0.0
  0
ENDBLK
  5
202F
330
202D
100
AcDbEntity
  8
0
100
AcDbBlockEnd
  0
BLOCK
  5
20BF
330
20BE
100
AcDbEntity
  8
0
100
AcDbBlockBegin
  2
*D18
 70
     1
 10
0.0
 20
0.0
 30
0.0
  3
*D18
  1
*D46
  0
LINE
  5
20C0
330
20BE
100
AcDbEntity
  8
KOTY
 62
     0
100
AcDbLine
 10
17.28255916737436
 20
15.40000000000001
 30
0.0
 11
4.912000000000007
 21
15.40000000000001
 31
0.0
  0
LINE
  5
20C1
330
20BE
100
AcDbEntity
  8
KOTY
 62
     0
100
AcDbLine
 10
14.68255916737436
 20
6.400000000000006
 30
0.0
 11
4.912000000000006
 21
6.400000000000006
 31
0.0
  0
LINE
  5
20C2
330
20BE
100
AcDbEntity
  8
KOTY
 62
     0
100
AcDbLine
 10
5.092000000000007
 20
19.40000000000001
 30
0.0
 11
5.092000000000007
 21
23.40000000000001
 31
0.0
  0
LINE
  5
20C3
330
20BE
100
AcDbEntity
  8
KOTY
 62
     0
100
AcDbLine
 10
5.092000000000006
 20
2.400000000000006
 30
0.0
 11
5.092000000000006
 21
-1.599999999999994
 31
0.0
  0
SOLID
  5
20C4
330
20BE
100
AcDbEntity
  8
KOTY
 62
     0
100
AcDbTrace
 10
4.42533333333334
 20
19.40000000000001
 30
0.0
 11
5.758666666666674
 21
19.40000000000001
 31
0.0
 12
5.092000000000007
 22
15.40000000000001
 32
0.0
 13
5.092000000000007
 23
15.40000000000001
 33
0.0
  0
SOLID
  5
20C5
330
20BE
100
AcDbEntity
  8
KOTY
 62
     0
100
AcDbTrace
 10
5.758666666666673
 20
2.400000000000006
 30
0.0
 11
4.425333333333339
 21
2.400000000000006
 31
0.0
 12
5.092000000000006
 22
6.400000000000006
 32
0.0
 13
5.092000000000006
 23
6.400000000000006
 33
0.0
  0
MTEXT
  5
20C6
330
20BE
100
AcDbEntity
  8
KOTY
 62
     0
100
AcDbMText
 10
2.050000000000006
 20
10.8889487009736
 30
0.0
 40
4.0
 41
0.0
 46
0.0
 71
     5
 72
     1
  1
\A1;9
 11
9.868649107779169E-17
 21
1.0
 31
0.0
 73
     1
 44
1.0
  0
POINT
  5
20C7
330
20BE
100
AcDbEntity
  8
DEFPOINTS
 62
     0
100
AcDbPoint
 10
17.34505916737436
 20
15.40000000000001
 30
0.0
  0
POINT
  5
210F
330
20BE
100
AcDbEntity
  8
DEFPOINTS
 62
     0
100
AcDbPoint
 10
14.74505916737436
 20
6.400000000000006
 30
0.0
  0
POINT
  5
2110
330
20BE
100
AcDbEntity
  8
DEFPOINTS
 62
     0
100
AcDbPoint
 10
5.092000000000006
 20
6.400000000000007
 30
0.0
  0
ENDBLK
  5
20C8
330
20BE
100
AcDbEntity
  8
0
100
AcDbBlockEnd
  0
BLOCK
  5
2102
330
2101
100
AcDbEntity
  8
0
100
AcDbBlockBegin
  2
*D19
 70
     1
 10
0.0
 20
0.0
 30
0.0
  3
*D19
  1
*D48
  0
LINE
  5
2103
330
2101
100
AcDbEntity
  8
KOTY
 62
     0
100
AcDbLine
 10
71.34505916737439
 20
15.46250000000001
 30
0.0
 11
71.34505916737439
 21
25.57999999999999
 31
0.0
  0
LINE
  5
2104
330
2101
100
AcDbEntity
  8
KOTY
 62
     0
100
AcDbLine
 10
86.34505916737439
 20
15.46250000000001
 30
0.0
 11
86.34505916737439
 21
25.57999999999999
 31
0.0
  0
LINE
  5
2105
330
2101
100
AcDbEntity
  8
KOTY
 62
     0
100
AcDbLine
 10
75.34505916737439
 20
25.39999999999999
 30
0.0
 11
82.34505916737439
 21
25.39999999999999
 31
0.0
  0
SOLID
  5
2106
330
2101
100
AcDbEntity
  8
KOTY
 62
     0
100
AcDbTrace
 10
75.34505916737439
 20
26.06666666666666
 30
0.0
 11
75.34505916737439
 21
24.73333333333332
 31
0.0
 12
71.34505916737439
 22
25.39999999999999
 32
0.0
 13
71.34505916737439
 23
25.39999999999999
 33
0.0
  0
SOLID
  5
2107
330
2101
100
AcDbEntity
  8
KOTY
 62
     0
100
AcDbTrace
 10
82.34505916737439
 20
24.73333333333332
 30
0.0
 11
82.34505916737439
 21
26.06666666666666
 31
0.0
 12
86.34505916737439
 22
25.39999999999999
 32
0.0
 13
86.34505916737439
 23
25.39999999999999
 33
0.0
  0
MTEXT
  5
2108
330
2101
100
AcDbEntity
  8
KOTY
 62
     0
100
AcDbMText
 10
78.84505916737439
 20
28.44199999999999
 30
0.0
 40
4.0
 41
0.0
 46
0.0
 71
     5
 72
     1
  1
\A1;15
 73
     1
 44
1.0
  0
POINT
  5
2109
330
2101
100
AcDbEntity
  8
DEFPOINTS
 62
     0
100
AcDbPoint
 10
71.34505916737439
 20
15.40000000000001
 30
0.0
  0
POINT
  5
210A
330
2101
100
AcDbEntity
  8
DEFPOINTS
 62
     0
100
AcDbPoint
 10
86.34505916737439
 20
15.40000000000001
 30
0.0
  0
POINT
  5
210B
330
2101
100
AcDbEntity
  8
DEFPOINTS
 62
     0
100
AcDbPoint
 10
86.34505916737439
 20
25.39999999999999
 30
0.0
  0
ENDBLK
  5
210C
330
2101
100
AcDbEntity
  8
0
100
AcDbBlockEnd
  0
BLOCK
  5
2161
330
2160
100
AcDbEntity
  8
0
100
AcDbBlockBegin
  2
*D20
 70
     1
 10
0.0
 20
0.0
 30
0.0
  3
*D20
  1
*D21
  0
LINE
  5
2163
330
2160
100
AcDbEntity
  8
KOTY
 62
     0
100
AcDbLine
 10
354.2621570826749
 20
68.88233181404911
 30
0.0
 11
341.8915979153005
 21
68.88233181404911
 31
0.0
  0
LINE
  5
2164
330
2160
100
AcDbEntity
  8
KOTY
 62
     0
100
AcDbLine
 10
351.6621570826749
 20
59.88233181404911
 30
0.0
 11
341.8915979153005
 21
59.88233181404911
 31
0.0
  0
LINE
  5
2165
330
2160
100
AcDbEntity
  8
KOTY
 62
     0
100
AcDbLine
 10
342.0715979153005
 20
72.88233181404911
 30
0.0
 11
342.0715979153005
 21
76.88233181404911
 31
0.0
  0
LINE
  5
2166
330
2160
100
AcDbEntity
  8
KOTY
 62
     0
100
AcDbLine
 10
342.0715979153005
 20
55.88233181404911
 30
0.0
 11
342.0715979153005
 21
51.88233181404911
 31
0.0
  0
SOLID
  5
2167
330
2160
100
AcDbEntity
  8
KOTY
 62
     0
100
AcDbTrace
 10
341.4049312486338
 20
72.88233181404911
 30
0.0
 11
342.7382645819672
 21
72.88233181404911
 31
0.0
 12
342.0715979153005
 22
68.88233181404911
 32
0.0
 13
342.0715979153005
 23
68.88233181404911
 33
0.0
  0
SOLID
  5
2168
330
2160
100
AcDbEntity
  8
KOTY
 62
     0
100
AcDbTrace
 10
342.7382645819672
 20
55.88233181404911
 30
0.0
 11
341.4049312486338
 21
55.88233181404911
 31
0.0
 12
342.0715979153005
 22
59.88233181404911
 32
0.0
 13
342.0715979153005
 23
59.88233181404911
 33
0.0
  0
MTEXT
  5
2169
330
2160
100
AcDbEntity
  8
KOTY
 62
     0
100
AcDbMText
 10
339.0295979153005
 20
64.37128051502276
 30
0.0
 40
4.0
 41
0.0
 46
0.0
 71
     5
 72
     1
  1
\A1;9
 11
0.0
 21
1.0
 31
0.0
 73
     1
 44
1.0
  0
POINT
  5
216A
330
2160
100
AcDbEntity
  8
DEFPOINTS
 62
     0
100
AcDbPoint
 10
354.3246570826749
 20
68.88233181404911
 30
0.0
  0
POINT
  5
216B
330
2160
100
AcDbEntity
  8
DEFPOINTS
 62
     0
100
AcDbPoint
 10
351.7246570826749
 20
59.88233181404911
 30
0.0
  0
POINT
  5
216C
330
2160
100
AcDbEntity
  8
DEFPOINTS
 62
     0
100
AcDbPoint
 10
342.0715979153005
 20
59.88233181404911
 30
0.0
  0
ENDBLK
  5
2162
330
2160
100
AcDbEntity
  8
0
100
AcDbBlockEnd
  0
BLOCK
  5
216E
330
216D
100
AcDbEntity
  8
0
100
AcDbBlockBegin
  2
*D21
 70
     1
 10
0.0
 20
0.0
 30
0.0
  3
*D21
  1
*D22
  0
LINE
  5
2170
330
216D
100
AcDbEntity
  8
KOTY
 62
     0
100
AcDbLine
 10
408.3246570826749
 20
68.94483181404911
 30
0.0
 11
408.3246570826749
 21
79.06233181404912
 31
0.0
  0
LINE
  5
2171
330
216D
100
AcDbEntity
  8
KOTY
 62
     0
100
AcDbLine
 10
423.3246570826749
 20
68.94483181404911
 30
0.0
 11
423.3246570826749
 21
79.06233181404912
 31
0.0
  0
LINE
  5
2172
330
216D
100
AcDbEntity
  8
KOTY
 62
     0
100
AcDbLine
 10
412.3246570826749
 20
78.88233181404911
 30
0.0
 11
419.3246570826749
 21
78.88233181404911
 31
0.0
  0
SOLID
  5
2173
330
216D
100
AcDbEntity
  8
KOTY
 62
     0
100
AcDbTrace
 10
412.3246570826749
 20
79.54899848071578
 30
0.0
 11
412.3246570826749
 21
78.21566514738244
 31
0.0
 12
408.3246570826749
 22
78.88233181404911
 32
0.0
 13
408.3246570826749
 23
78.88233181404911
 33
0.0
  0
SOLID
  5
2174
330
216D
100
AcDbEntity
  8
KOTY
 62
     0
100
AcDbTrace
 10
419.3246570826749
 20
78.21566514738244
 30
0.0
 11
419.3246570826749
 21
79.54899848071578
 31
0.0
 12
423.3246570826749
 22
78.88233181404911
 32
0.0
 13
423.3246570826749
 23
78.88233181404911
 33
0.0
  0
MTEXT
  5
2175
330
216D
100
AcDbEntity
  8
KOTY
 62
     0
100
AcDbMText
 10
415.8246570826749
 20
81.92433181404911
 30
0.0
 40
4.0
 41
0.0
 46
0.0
 71
     5
 72
     1
  1
\A1;15
 73
     1
 44
1.0
  0
POINT
  5
2176
330
216D
100
AcDbEntity
  8
DEFPOINTS
 62
     0
100
AcDbPoint
 10
408.3246570826749
 20
68.88233181404911
 30
0.0
  0
POINT
  5
2177
330
216D
100
AcDbEntity
  8
DEFPOINTS
 62
     0
100
AcDbPoint
 10
423.3246570826749
 20
68.88233181404911
 30
0.0
  0
POINT
  5
2178
330
216D
100
AcDbEntity
  8
DEFPOINTS
 62
     0
100
AcDbPoint
 10
423.3246570826749
 20
78.88233181404911
 30
0.0
  0
ENDBLK
  5
216F
330
216D
100
AcDbEntity
  8
0
100
AcDbBlockEnd
  0
BLOCK
  5
21B4
330
21B3
100
AcDbEntity
  8
0
100
AcDbBlockBegin
  2
*D22
 70
     1
 10
0.0
 20
0.0
 30
0.0
  3
*D22
  1
*D46
  0
LINE
  5
21B5
330
21B3
100
AcDbEntity
  8
KOTY
 62
     0
100
AcDbLine
 10
17.28255916737436
 20
15.40000000000001
 30
0.0
 11
4.912000000000007
 21
15.40000000000001
 31
0.0
  0
LINE
  5
21B6
330
21B3
100
AcDbEntity
  8
KOTY
 62
     0
100
AcDbLine
 10
14.68255916737436
 20
6.400000000000006
 30
0.0
 11
4.912000000000006
 21
6.400000000000006
 31
0.0
  0
LINE
  5
21B7
330
21B3
100
AcDbEntity
  8
KOTY
 62
     0
100
AcDbLine
 10
5.092000000000007
 20
19.40000000000001
 30
0.0
 11
5.092000000000007
 21
23.40000000000001
 31
0.0
  0
LINE
  5
21B8
330
21B3
100
AcDbEntity
  8
KOTY
 62
     0
100
AcDbLine
 10
5.092000000000006
 20
2.400000000000006
 30
0.0
 11
5.092000000000006
 21
-1.599999999999994
 31
0.0
  0
SOLID
  5
21B9
330
21B3
100
AcDbEntity
  8
KOTY
 62
     0
100
AcDbTrace
 10
4.42533333333334
 20
19.40000000000001
 30
0.0
 11
5.758666666666674
 21
19.40000000000001
 31
0.0
 12
5.092000000000007
 22
15.40000000000001
 32
0.0
 13
5.092000000000007
 23
15.40000000000001
 33
0.0
  0
SOLID
  5
21BA
330
21B3
100
AcDbEntity
  8
KOTY
 62
     0
100
AcDbTrace
 10
5.758666666666673
 20
2.400000000000006
 30
0.0
 11
4.425333333333339
 21
2.400000000000006
 31
0.0
 12
5.092000000000006
 22
6.400000000000006
 32
0.0
 13
5.092000000000006
 23
6.400000000000006
 33
0.0
  0
MTEXT
  5
21BB
330
21B3
100
AcDbEntity
  8
KOTY
 62
     0
100
AcDbMText
 10
2.050000000000006
 20
10.8889487009736
 30
0.0
 40
4.0
 41
0.0
 46
0.0
 71
     5
 72
     1
  1
\A1;9
 11
9.868649107779169E-17
 21
1.0
 31
0.0
 73
     1
 44
1.0
  0
POINT
  5
21BC
330
21B3
100
AcDbEntity
  8
DEFPOINTS
 62
     0
100
AcDbPoint
 10
17.34505916737436
 20
15.40000000000001
 30
0.0
  0
POINT
  5
2204
330
21B3
100
AcDbEntity
  8
DEFPOINTS
 62
     0
100
AcDbPoint
 10
14.74505916737436
 20
6.400000000000006
 30
0.0
  0
POINT
  5
2205
330
21B3
100
AcDbEntity
  8
DEFPOINTS
 62
     0
100
AcDbPoint
 10
5.092000000000006
 20
6.400000000000007
 30
0.0
  0
ENDBLK
  5
21BD
330
21B3
100
AcDbEntity
  8
0
100
AcDbBlockEnd
  0
BLOCK
  5
21F7
330
21F6
100
AcDbEntity
  8
0
100
AcDbBlockBegin
  2
*D23
 70
     1
 10
0.0
 20
0.0
 30
0.0
  3
*D23
  1
*D48
  0
LINE
  5
21F8
330
21F6
100
AcDbEntity
  8
KOTY
 62
     0
100
AcDbLine
 10
71.34505916737439
 20
15.46250000000001
 30
0.0
 11
71.34505916737439
 21
25.57999999999999
 31
0.0
  0
LINE
  5
21F9
330
21F6
100
AcDbEntity
  8
KOTY
 62
     0
100
AcDbLine
 10
86.34505916737439
 20
15.46250000000001
 30
0.0
 11
86.34505916737439
 21
25.57999999999999
 31
0.0
  0
LINE
  5
21FA
330
21F6
100
AcDbEntity
  8
KOTY
 62
     0
100
AcDbLine
 10
75.34505916737439
 20
25.39999999999999
 30
0.0
 11
82.34505916737439
 21
25.39999999999999
 31
0.0
  0
SOLID
  5
21FB
330
21F6
100
AcDbEntity
  8
KOTY
 62
     0
100
AcDbTrace
 10
75.34505916737439
 20
26.06666666666666
 30
0.0
 11
75.34505916737439
 21
24.73333333333332
 31
0.0
 12
71.34505916737439
 22
25.39999999999999
 32
0.0
 13
71.34505916737439
 23
25.39999999999999
 33
0.0
  0
SOLID
  5
21FC
330
21F6
100
AcDbEntity
  8
KOTY
 62
     0
100
AcDbTrace
 10
82.34505916737439
 20
24.73333333333332
 30
0.0
 11
82.34505916737439
 21
26.06666666666666
 31
0.0
 12
86.34505916737439
 22
25.39999999999999
 32
0.0
 13
86.34505916737439
 23
25.39999999999999
 33
0.0
  0
MTEXT
  5
21FD
330
21F6
100
AcDbEntity
  8
KOTY
 62
     0
100
AcDbMText
 10
78.84505916737439
 20
28.44199999999999
 30
0.0
 40
4.0
 41
0.0
 46
0.0
 71
     5
 72
     1
  1
\A1;15
 73
     1
 44
1.0
  0
POINT
  5
21FE
330
21F6
100
AcDbEntity
  8
DEFPOINTS
 62
     0
100
AcDbPoint
 10
71.34505916737439
 20
15.40000000000001
 30
0.0
  0
POINT
  5
21FF
330
21F6
100
AcDbEntity
  8
DEFPOINTS
 62
     0
100
AcDbPoint
 10
86.34505916737439
 20
15.40000000000001
 30
0.0
  0
POINT
  5
2200
330
21F6
100
AcDbEntity
  8
DEFPOINTS
 62
     0
100
AcDbPoint
 10
86.34505916737439
 20
25.39999999999999
 30
0.0
  0
ENDBLK
  5
2201
330
21F6
100
AcDbEntity
  8
0
100
AcDbBlockEnd
  0
BLOCK
  5
2241
330
2240
100
AcDbEntity
  8
0
100
AcDbBlockBegin
  2
*D24
 70
     1
 10
0.0
 20
0.0
 30
0.0
  3
*D24
  1
*D46
  0
LINE
  5
2242
330
2240
100
AcDbEntity
  8
KOTY
 62
     0
100
AcDbLine
 10
17.28255916737436
 20
33.89999171277991
 30
0.0
 11
4.912000000000007
 21
33.89999171277991
 31
0.0
  0
LINE
  5
2243
330
2240
100
AcDbEntity
  8
KOTY
 62
     0
100
AcDbLine
 10
14.68255916737436
 20
24.89999171277991
 30
0.0
 11
4.912000000000006
 21
24.89999171277991
 31
0.0
  0
LINE
  5
2244
330
2240
100
AcDbEntity
  8
KOTY
 62
     0
100
AcDbLine
 10
5.092000000000007
 20
37.89999171277991
 30
0.0
 11
5.092000000000007
 21
41.89999171277991
 31
0.0
  0
LINE
  5
2245
330
2240
100
AcDbEntity
  8
KOTY
 62
     0
100
AcDbLine
 10
5.092000000000006
 20
20.89999171277991
 30
0.0
 11
5.092000000000006
 21
16.89999171277991
 31
0.0
  0
SOLID
  5
2246
330
2240
100
AcDbEntity
  8
KOTY
 62
     0
100
AcDbTrace
 10
4.42533333333334
 20
37.89999171277991
 30
0.0
 11
5.758666666666674
 21
37.89999171277991
 31
0.0
 12
5.092000000000007
 22
33.89999171277991
 32
0.0
 13
5.092000000000007
 23
33.89999171277991
 33
0.0
  0
SOLID
  5
2247
330
2240
100
AcDbEntity
  8
KOTY
 62
     0
100
AcDbTrace
 10
5.758666666666673
 20
20.89999171277991
 30
0.0
 11
4.425333333333339
 21
20.89999171277991
 31
0.0
 12
5.092000000000006
 22
24.89999171277991
 32
0.0
 13
5.092000000000006
 23
24.89999171277991
 33
0.0
  0
MTEXT
  5
2248
330
2240
100
AcDbEntity
  8
KOTY
 62
     0
100
AcDbMText
 10
2.050000000000004
 20
29.3889404137535
 30
0.0
 40
4.0
 41
0.0
 46
0.0
 71
     5
 72
     1
  1
\A1;9
 11
9.868649107779169E-17
 21
1.0
 31
0.0
 73
     1
 44
1.0
  0
POINT
  5
2249
330
2240
100
AcDbEntity
  8
DEFPOINTS
 62
     0
100
AcDbPoint
 10
17.34505916737436
 20
33.89999171277991
 30
0.0
  0
POINT
  5
22A1
330
2240
100
AcDbEntity
  8
DEFPOINTS
 62
     0
100
AcDbPoint
 10
14.74505916737436
 20
24.89999171277991
 30
0.0
  0
POINT
  5
22A2
330
2240
100
AcDbEntity
  8
DEFPOINTS
 62
     0
100
AcDbPoint
 10
5.092000000000006
 20
24.89999171277991
 30
0.0
  0
ENDBLK
  5
224A
330
2240
100
AcDbEntity
  8
0
100
AcDbBlockEnd
  0
BLOCK
  5
2284
330
2283
100
AcDbEntity
  8
0
100
AcDbBlockBegin
  2
*D25
 70
     1
 10
0.0
 20
0.0
 30
0.0
  3
*D25
  1
*D48
  0
LINE
  5
2285
330
2283
100
AcDbEntity
  8
KOTY
 62
     0
100
AcDbLine
 10
71.34505916737439
 20
33.96249171277991
 30
0.0
 11
71.34505916737439
 21
44.07999171277989
 31
0.0
  0
LINE
  5
2286
330
2283
100
AcDbEntity
  8
KOTY
 62
     0
100
AcDbLine
 10
86.34505916737439
 20
33.96249171277991
 30
0.0
 11
86.34505916737439
 21
44.07999171277989
 31
0.0
  0
LINE
  5
2287
330
2283
100
AcDbEntity
  8
KOTY
 62
     0
100
AcDbLine
 10
75.34505916737439
 20
43.89999171277989
 30
0.0
 11
82.34505916737439
 21
43.89999171277989
 31
0.0
  0
SOLID
  5
2288
330
2283
100
AcDbEntity
  8
KOTY
 62
     0
100
AcDbTrace
 10
75.34505916737439
 20
44.56665837944656
 30
0.0
 11
75.34505916737439
 21
43.23332504611323
 31
0.0
 12
71.34505916737439
 22
43.89999171277989
 32
0.0
 13
71.34505916737439
 23
43.89999171277989
 33
0.0
  0
SOLID
  5
2289
330
2283
100
AcDbEntity
  8
KOTY
 62
     0
100
AcDbTrace
 10
82.34505916737439
 20
43.23332504611323
 30
0.0
 11
82.34505916737439
 21
44.56665837944656
 31
0.0
 12
86.34505916737439
 22
43.89999171277989
 32
0.0
 13
86.34505916737439
 23
43.89999171277989
 33
0.0
  0
MTEXT
  5
228A
330
2283
100
AcDbEntity
  8
KOTY
 62
     0
100
AcDbMText
 10
78.84505916737439
 20
46.9419917127799
 30
0.0
 40
4.0
 41
0.0
 46
0.0
 71
     5
 72
     1
  1
\A1;15
 73
     1
 44
1.0
  0
POINT
  5
228B
330
2283
100
AcDbEntity
  8
DEFPOINTS
 62
     0
100
AcDbPoint
 10
71.34505916737439
 20
33.89999171277991
 30
0.0
  0
POINT
  5
228C
330
2283
100
AcDbEntity
  8
DEFPOINTS
 62
     0
100
AcDbPoint
 10
86.34505916737439
 20
33.89999171277991
 30
0.0
  0
POINT
  5
228D
330
2283
100
AcDbEntity
  8
DEFPOINTS
 62
     0
100
AcDbPoint
 10
86.34505916737439
 20
43.89999171277989
 30
0.0
  0
ENDBLK
  5
228E
330
2283
100
AcDbEntity
  8
0
100
AcDbBlockEnd
  0
BLOCK
  5
2293
330
2292
100
AcDbEntity
  8
0
100
AcDbBlockBegin
  2
*D26
 70
     1
 10
0.0
 20
0.0
 30
0.0
  3
*D26
  1
*D29
  0
LINE
  5
2294
330
2292
100
AcDbEntity
  8
0
 62
     0
100
AcDbLine
 10
71.78255916737439
 20
18.4999917127799
 30
0.0
 11
59.80077172548125
 21
18.4999917127799
 31
0.0
  0
LINE
  5
2295
330
2292
100
AcDbEntity
  8
0
 62
     0
100
AcDbLine
 10
69.7825384431273
 20
0.0
 30
0.0
 11
59.80077172548125
 21
0.0000000000000006
 31
0.0
  0
LINE
  5
2296
330
2292
100
AcDbEntity
  8
0
 62
     0
100
AcDbLine
 10
59.98077172548125
 20
18.3199917127799
 30
0.0
 11
59.98077172548125
 21
9.431885856389949
 31
0.0
  0
LINE
  5
2297
330
2292
100
AcDbEntity
  8
0
 62
     0
100
AcDbLine
 10
59.98077172548125
 20
0.1800000000000006
 30
0.0
 11
59.98077172548125
 21
9.06810585638995
 31
0.0
  0
SOLID
  5
2298
330
2292
100
AcDbEntity
  8
0
 62
     0
100
AcDbTrace
 10
60.01077172548125
 20
18.3199917127799
 30
0.0
 11
59.95077172548125
 21
18.3199917127799
 31
0.0
 12
59.98077172548125
 22
18.4999917127799
 32
0.0
 13
59.98077172548125
 23
18.4999917127799
 33
0.0
  0
SOLID
  5
2299
330
2292
100
AcDbEntity
  8
0
 62
     0
100
AcDbTrace
 10
59.95077172548125
 20
0.1800000000000006
 30
0.0
 11
60.01077172548125
 21
0.1800000000000006
 31
0.0
 12
59.98077172548125
 22
0.0000000000000006
 32
0.0
 13
59.98077172548125
 23
0.0000000000000006
 33
0.0
  0
MTEXT
  5
229A
330
2292
100
AcDbEntity
  8
0
 62
     0
100
AcDbMText
 10
59.98077172548125
 20
9.249995856389951
 30
0.0
 40
0.18
 41
0.0
 46
0.0
 71
     5
 72
     1
  1
\A1;18.5000
 73
     1
 44
1.0
  0
POINT
  5
229B
330
2292
100
AcDbEntity
  8
DEFPOINTS
 62
     0
100
AcDbPoint
 10
71.84505916737439
 20
18.4999917127799
 30
0.0
  0
POINT
  5
229C
330
2292
100
AcDbEntity
  8
DEFPOINTS
 62
     0
100
AcDbPoint
 10
69.8450384431273
 20
0.0
 30
0.0
  0
POINT
  5
229D
330
2292
100
AcDbEntity
  8
DEFPOINTS
 62
     0
100
AcDbPoint
 10
59.98077172548125
 20
0.0000000000000006
 30
0.0
  0
ENDBLK
  5
229E
330
2292
100
AcDbEntity
  8
0
100
AcDbBlockEnd
  0
BLOCK
  5
22F6
330
22F5
100
AcDbEntity
  8
0
100
AcDbBlockBegin
  2
*D27
 70
     1
 10
0.0
 20
0.0
 30
0.0
  3
*D27
  1
*D30
  0
LINE
  5
22F8
330
22F5
100
AcDbEntity
  8
KOTY
 62
     0
100
AcDbLine
 10
395.9975303023578
 20
269.7132118910405
 30
0.0
 11
383.6269711349834
 21
269.7132118910405
 31
0.0
  0
LINE
  5
22F9
330
22F5
100
AcDbEntity
  8
KOTY
 62
     0
100
AcDbLine
 10
393.3975303023578
 20
260.7132118910405
 30
0.0
 11
383.6269711349834
 21
260.7132118910405
 31
0.0
  0
SOLID
  5
22FA
330
22F5
100
AcDbEntity
  8
KOTY
 62
     0
100
AcDbTrace
 10
384.4736378016501
 20
265.7132118910405
 30
0.0
 11
383.1403044683167
 21
265.7132118910405
 31
0.0
 12
383.8069711349834
 22
269.7132118910405
 32
0.0
 13
383.8069711349834
 23
269.7132118910405
 33
0.0
  0
SOLID
  5
22FB
330
22F5
100
AcDbEntity
  8
KOTY
 62
     0
100
AcDbTrace
 10
383.1403044683167
 20
264.7132118910405
 30
0.0
 11
384.4736378016501
 21
264.7132118910405
 31
0.0
 12
383.8069711349834
 22
260.7132118910405
 32
0.0
 13
383.8069711349834
 23
260.7132118910405
 33
0.0
  0
MTEXT
  5
22FC
330
22F5
100
AcDbEntity
  8
KOTY
 62
     0
100
AcDbMText
 10
380.7649711349835
 20
265.2021605920141
 30
0.0
 40
4.0
 41
0.0
 46
0.0
 71
     5
 72
     1
  1
\A1;9
 11
0.0
 21
1.0
 31
0.0
 73
     1
 44
1.0
  0
POINT
  5
22FD
330
22F5
100
AcDbEntity
  8
DEFPOINTS
 62
     0
100
AcDbPoint
 10
396.0600303023578
 20
269.7132118910405
 30
0.0
  0
POINT
  5
22FE
330
22F5
100
AcDbEntity
  8
DEFPOINTS
 62
     0
100
AcDbPoint
 10
393.4600303023578
 20
260.7132118910405
 30
0.0
  0
POINT
  5
22FF
330
22F5
100
AcDbEntity
  8
DEFPOINTS
 62
     0
100
AcDbPoint
 10
383.8069711349834
 20
260.7132118910405
 30
0.0
  0
ENDBLK
  5
22F7
330
22F5
100
AcDbEntity
  8
0
100
AcDbBlockEnd
  0
BLOCK
  5
2303
330
2302
100
AcDbEntity
  8
0
100
AcDbBlockBegin
  2
*D28
 70
     1
 10
0.0
 20
0.0
 30
0.0
  3
*D28
  1
*D31
  0
LINE
  5
2305
330
2302
100
AcDbEntity
  8
KOTY
 62
     0
100
AcDbLine
 10
439.0426303023578
 20
269.7757118910405
 30
0.0
 11
439.0426303023578
 21
279.8932118910405
 31
0.0
  0
LINE
  5
2306
330
2302
100
AcDbEntity
  8
KOTY
 62
     0
100
AcDbLine
 10
454.0426303023578
 20
269.7757118910405
 30
0.0
 11
454.0426303023578
 21
279.8932118910405
 31
0.0
  0
LINE
  5
2307
330
2302
100
AcDbEntity
  8
KOTY
 62
     0
100
AcDbLine
 10
443.0426303023578
 20
279.7132118910405
 30
0.0
 11
450.0426303023578
 21
279.7132118910405
 31
0.0
  0
SOLID
  5
2308
330
2302
100
AcDbEntity
  8
KOTY
 62
     0
100
AcDbTrace
 10
443.0426303023578
 20
280.3798785577072
 30
0.0
 11
443.0426303023578
 21
279.0465452243738
 31
0.0
 12
439.0426303023578
 22
279.7132118910405
 32
0.0
 13
439.0426303023578
 23
279.7132118910405
 33
0.0
  0
SOLID
  5
2309
330
2302
100
AcDbEntity
  8
KOTY
 62
     0
100
AcDbTrace
 10
450.0426303023578
 20
279.0465452243738
 30
0.0
 11
450.0426303023578
 21
280.3798785577072
 31
0.0
 12
454.0426303023578
 22
279.7132118910405
 32
0.0
 13
454.0426303023578
 23
279.7132118910405
 33
0.0
  0
MTEXT
  5
230A
330
2302
100
AcDbEntity
  8
KOTY
 62
     0
100
AcDbMText
 10
446.5426303023578
 20
282.7552118910405
 30
0.0
 40
4.0
 41
0.0
 46
0.0
 71
     5
 72
     1
  1
\A1;15
 73
     1
 44
1.0
  0
POINT
  5
230B
330
2302
100
AcDbEntity
  8
DEFPOINTS
 62
     0
100
AcDbPoint
 10
439.0426303023578
 20
269.7132118910405
 30
0.0
  0
POINT
  5
230C
330
2302
100
AcDbEntity
  8
DEFPOINTS
 62
     0
100
AcDbPoint
 10
454.0426303023578
 20
269.7132118910405
 30
0.0
  0
POINT
  5
230D
330
2302
100
AcDbEntity
  8
DEFPOINTS
 62
     0
100
AcDbPoint
 10
454.0426303023578
 20
279.7132118910405
 30
0.0
  0
ENDBLK
  5
2304
330
2302
100
AcDbEntity
  8
0
100
AcDbBlockEnd
  0
BLOCK
  5
230F
330
230E
100
AcDbEntity
  8
0
100
AcDbBlockBegin
  2
*D29
 70
     1
 10
0.0
 20
0.0
 30
0.0
  3
*D29
  1
*D32
  0
LINE
  5
2311
330
230E
100
AcDbEntity
  8
0
 62
     0
100
AcDbLine
 10
439.4801303023578
 20
254.3132118910405
 30
0.0
 11
427.4983428604647
 21
254.3132118910405
 31
0.0
  0
LINE
  5
2312
330
230E
100
AcDbEntity
  8
0
 62
     0
100
AcDbLine
 10
437.4801095781107
 20
235.8132201782606
 30
0.0
 11
427.4983428604647
 21
235.8132201782606
 31
0.0
  0
LINE
  5
2313
330
230E
100
AcDbEntity
  8
0
 62
     0
100
AcDbLine
 10
427.6783428604647
 20
254.1332118910405
 30
0.0
 11
427.6783428604647
 21
245.2451060346505
 31
0.0
  0
LINE
  5
2314
330
230E
100
AcDbEntity
  8
0
 62
     0
100
AcDbLine
 10
427.6783428604647
 20
235.9932201782606
 30
0.0
 11
427.6783428604647
 21
244.8813260346505
 31
0.0
  0
SOLID
  5
2315
330
230E
100
AcDbEntity
  8
0
 62
     0
100
AcDbTrace
 10
427.7083428604647
 20
254.1332118910405
 30
0.0
 11
427.6483428604647
 21
254.1332118910405
 31
0.0
 12
427.6783428604647
 22
254.3132118910405
 32
0.0
 13
427.6783428604647
 23
254.3132118910405
 33
0.0
  0
SOLID
  5
2316
330
230E
100
AcDbEntity
  8
0
 62
     0
100
AcDbTrace
 10
427.6483428604647
 20
235.9932201782606
 30
0.0
 11
427.7083428604647
 21
235.9932201782606
 31
0.0
 12
427.6783428604647
 22
235.8132201782606
 32
0.0
 13
427.6783428604647
 23
235.8132201782606
 33
0.0
  0
MTEXT
  5
2317
330
230E
100
AcDbEntity
  8
0
 62
     0
100
AcDbMText
 10
427.6783428604647
 20
245.0632160346505
 30
0.0
 40
0.18
 41
0.0
 46
0.0
 71
     5
 72
     1
  1
\A1;18.5000
 73
     1
 44
1.0
  0
POINT
  5
2318
330
230E
100
AcDbEntity
  8
DEFPOINTS
 62
     0
100
AcDbPoint
 10
439.5426303023578
 20
254.3132118910405
 30
0.0
  0
POINT
  5
2319
330
230E
100
AcDbEntity
  8
DEFPOINTS
 62
     0
100
AcDbPoint
 10
437.5426095781107
 20
235.8132201782606
 30
0.0
  0
POINT
  5
231A
330
230E
100
AcDbEntity
  8
DEFPOINTS
 62
     0
100
AcDbPoint
 10
427.6783428604647
 20
235.8132201782606
 30
0.0
  0
ENDBLK
  5
2310
330
230E
100
AcDbEntity
  8
0
100
AcDbBlockEnd
  0
BLOCK
  5
231F
330
231E
100
AcDbEntity
  8
0
100
AcDbBlockBegin
  2
*D30
 70
     1
 10
0.0
 20
0.0
 30
0.0
  3
*D30
  1
*D33
  0
LINE
  5
2321
330
231E
100
AcDbEntity
  8
KOTY
 62
     0
100
AcDbLine
 10
403.0600303023578
 20
261.3507118910405
 30
0.0
 11
403.0600303023578
 21
252.7672918236928
 31
0.0
  0
LINE
  5
2322
330
231E
100
AcDbEntity
  8
KOTY
 62
     0
100
AcDbLine
 10
415.0774189177886
 20
224.8826939706726
 30
0.0
 11
415.0774189177886
 21
253.1272918236928
 31
0.0
  0
LINE
  5
2323
330
231E
100
AcDbEntity
  8
KOTY
 62
     0
100
AcDbLine
 10
403.2400303023578
 20
252.9472918236928
 30
0.0
 11
408.5444746100732
 21
252.9472918236928
 31
0.0
  0
LINE
  5
2324
330
231E
100
AcDbEntity
  8
KOTY
 62
     0
100
AcDbLine
 10
414.8974189177886
 20
252.9472918236928
 30
0.0
 11
409.5929746100732
 21
252.9472918236928
 31
0.0
  0
SOLID
  5
2325
330
231E
100
AcDbEntity
  8
KOTY
 62
     0
100
AcDbTrace
 10
403.2400303023578
 20
252.9772918236928
 30
0.0
 11
403.2400303023578
 21
252.9172918236928
 31
0.0
 12
403.0600303023578
 22
252.9472918236928
 32
0.0
 13
403.0600303023578
 23
252.9472918236928
 33
0.0
  0
SOLID
  5
2326
330
231E
100
AcDbEntity
  8
KOTY
 62
     0
100
AcDbTrace
 10
414.8974189177886
 20
252.9172918236928
 30
0.0
 11
414.8974189177886
 21
252.9772918236928
 31
0.0
 12
415.0774189177886
 22
252.9472918236928
 32
0.0
 13
415.0774189177886
 23
252.9472918236928
 33
0.0
  0
MTEXT
  5
2327
330
231E
100
AcDbEntity
  8
KOTY
 62
     0
100
AcDbMText
 10
409.0687246100732
 20
252.9472918236928
 30
0.0
 40
0.18
 41
0.0
 46
0.0
 71
     5
 72
     1
  1
\A1;12.0174
 73
     1
 44
1.0
  0
POINT
  5
2328
330
231E
100
AcDbEntity
  8
DEFPOINTS
 62
     0
100
AcDbPoint
 10
403.0600303023578
 20
261.4132118910405
 30
0.0
  0
POINT
  5
2329
330
231E
100
AcDbEntity
  8
DEFPOINTS
 62
     0
100
AcDbPoint
 10
415.0774189177886
 20
224.8201939706726
 30
0.0
  0
POINT
  5
232A
330
231E
100
AcDbEntity
  8
DEFPOINTS
 62
     0
100
AcDbPoint
 10
415.0774189177886
 20
252.9472918236928
 30
0.0
  0
ENDBLK
  5
2320
330
231E
100
AcDbEntity
  8
0
100
AcDbBlockEnd
  0
ENDSEC
  0
SECTION
  2
ENTITIES
  0
LINE
  5
2E4
330
1F
100
AcDbEntity
  8
OBRYS
  6
Continuous
100
AcDbLine
 10
355.0314049177886
 20
149.7049199706726
 30
0.0
 11
354.9303099177886
 21
149.7632869706726
 31
0.0
  0
LINE
  5
2EA
330
1F
100
AcDbEntity
  8
OBRYS
  6
Continuous
100
AcDbLine
 10
400.8104482467792
 20
145.9493173339249
 30
0.0
 11
400.8100179177886
 21
142.5614299706726
 31
0.0
  0
LINE
  5
2F2
330
1F
100
AcDbEntity
  8
OBRYS
  6
Continuous
100
AcDbLine
 10
398.0600179177886
 20
142.5614299706726
 30
0.0
 11
398.0604483635999
 21
145.9498841291911
 31
0.0
  0
LINE
  5
312
330
1F
100
AcDbEntity
  8
OBRYS
  6
Continuous
100
AcDbLine
 10
354.1600189177885
 20
232.3156639706726
 30
0.0
 11
354.7963379177885
 21
232.6830429706726
 31
0.0
  0
LINE
  5
316
330
1F
100
AcDbEntity
  8
OBRYS
  6
Continuous
100
AcDbLine
 10
354.6636739177886
 20
149.8025649706726
 30
0.0
 11
355.1629769177886
 21
150.6673819706726
 31
0.0
  0
LINE
  5
319
330
1F
100
AcDbEntity
  8
OBRYS
  6
Continuous
100
AcDbLine
 10
354.0600189177886
 20
149.5729289706726
 30
0.0
 11
354.0600189177886
 21
168.3576939706726
 31
0.0
  0
LINE
  5
31C
330
1F
100
AcDbEntity
  8
OBRYS
  6
Continuous
100
AcDbLine
 10
354.0600189177886
 20
213.3576939706726
 30
0.0
 11
354.0600189177886
 21
232.1424589706726
 31
0.0
  0
LINE
  5
31D
330
1F
100
AcDbEntity
  8
OBRYS
  6
Continuous
100
AcDbLine
 10
360.1683479177885
 20
235.7576939706726
 30
0.0
 11
401.9364469177885
 21
235.7576939706726
 31
0.0
  0
LINE
  5
31E
330
1F
100
AcDbEntity
  8
OBRYS
  6
Continuous
100
AcDbLine
 10
403.0598279177885
 20
151.3533359706726
 30
0.0
 11
403.0600219177886
 21
172.2576959706726
 31
0.0
  0
LINE
  5
322
330
1F
100
AcDbEntity
  8
OBRYS
  6
Continuous
100
AcDbLine
 10
403.3600189177886
 20
206.6076939706726
 30
0.0
 11
400.4435869177886
 21
206.6076939706726
 31
0.0
  0
LINE
  5
328
330
1F
100
AcDbEntity
  8
OBRYS
  6
Continuous
100
AcDbLine
 10
354.7963379177885
 20
149.0323449706726
 30
0.0
 11
354.1600189177885
 21
149.3997239706726
 31
0.0
  0
LINE
  5
329
330
1F
100
AcDbEntity
  8
OBRYS
  6
Continuous
100
AcDbLine
 10
331.9600189177886
 20
213.3576939706726
 30
0.0
 11
354.0600189177886
 21
213.3576939706726
 31
0.0
  0
LINE
  5
32C
330
1F
100
AcDbEntity
  8
OBRYS
  6
Continuous
100
AcDbLine
 10
403.5600189177886
 20
224.7576939706726
 30
0.0
 11
403.5600189177886
 21
206.8076939706726
 31
0.0
  0
LINE
  5
335
330
1F
100
AcDbEntity
  8
OBRYS
  6
Continuous
100
AcDbLine
 10
355.0966869177886
 20
149.5525649706726
 30
0.0
 11
354.6636739177886
 21
149.8025649706726
 31
0.0
  0
LINE
  5
338
330
1F
100
AcDbEntity
  8
OBRYS
  6
Continuous
100
AcDbLine
 10
360.0683479177886
 20
145.9844889706726
 30
0.0
 11
359.3854719177885
 21
146.3787479706726
 31
0.0
  0
LINE
  5
339
330
1F
100
AcDbEntity
  8
OBRYS
  6
Continuous
100
AcDbLine
 10
398.0600189177886
 20
172.4576959706726
 30
0.0
 11
402.8600219177886
 21
172.4576959706726
 31
0.0
  0
LINE
  5
342
330
1F
100
AcDbEntity
  8
OBRYS
  6
Continuous
100
AcDbLine
 10
355.1629769177886
 20
150.6673819706726
 30
0.0
 11
356.8077369177886
 21
149.7177789706726
 31
0.0
  0
LINE
  5
346
330
1F
100
AcDbEntity
  8
OBRYS
  6
Continuous
100
AcDbLine
 10
402.63240814749
 20
145.9489418145463
 30
0.0
 11
360.1683479177885
 21
145.9576939706726
 31
0.0
  0
LINE
  5
349
330
1F
100
AcDbEntity
  8
OBRYS
  6
Continuous
100
AcDbLine
 10
360.6181352347754
 20
147.5137837876596
 30
0.0
 11
360.1188329177886
 21
146.6489669706726
 31
0.0
  0
LINE
  5
34C
330
1F
100
AcDbEntity
  8
OBRYS
  6
Continuous
100
AcDbLine
 10
360.1188329177886
 20
146.6489669706726
 30
0.0
 11
359.6858199177885
 21
146.8989669706726
 31
0.0
  0
LINE
  5
34F
330
1F
100
AcDbEntity
  8
OBRYS
  6
Continuous
100
AcDbLine
 10
359.8521629177886
 20
146.9216539706726
 30
0.0
 11
359.9532569177886
 21
146.8632869706726
 31
0.0
  0
LINE
  5
351
330
1F
100
AcDbEntity
  8
OBRYS
  6
Continuous
100
AcDbLine
 10
355.9425219177886
 20
150.1026469706726
 30
0.0
 11
355.3303099177886
 21
150.4561069706726
 31
0.0
  0
LINE
  5
355
330
1F
100
AcDbEntity
  8
OBRYS
  6
Continuous
100
AcDbLine
 10
359.3531499177886
 20
235.1880999706726
 30
0.0
 11
359.5883329177885
 21
234.8522239706726
 31
0.0
  0
LINE
  5
356
330
1F
100
AcDbEntity
  8
OBRYS
  6
Continuous
100
AcDbLine
 10
356.8077359177886
 20
231.9976089706726
 30
0.0
 11
355.1629769177886
 21
231.0480059706726
 31
0.0
  0
LINE
  5
35D
330
1F
100
AcDbEntity
  8
OBRYS
  6
Continuous
100
AcDbLine
 10
354.6636739177886
 20
231.9128229706726
 30
0.0
 11
355.0966869177886
 21
232.1628229706726
 31
0.0
  0
LINE
  5
35F
330
1F
100
AcDbEntity
  8
OBRYS
  6
Continuous
100
AcDbLine
 10
359.6858199177885
 20
146.8989669706726
 30
0.0
 11
359.3854719177885
 21
146.3787479706726
 31
0.0
  0
LINE
  5
360
330
1F
100
AcDbEntity
  8
OBRYS
  6
Continuous
100
AcDbLine
 10
354.0600189177886
 20
220.4141699706726
 30
0.0
 11
354.0600189177886
 21
220.4141809706726
 31
0.0
  0
LINE
  5
361
330
1F
100
AcDbEntity
  8
OBRYS
  6
Continuous
100
AcDbLine
 10
358.9733749177886
 20
148.4633869706726
 30
0.0
 11
360.6181352347741
 21
147.5137837876604
 31
0.0
  0
LINE
  5
362
330
1F
100
AcDbEntity
  8
OBRYS
  6
Continuous
100
AcDbLine
 10
355.9467529177886
 20
149.2996129706726
 30
0.0
 11
356.0923699177886
 21
149.5623129706726
 31
0.0
  0
LINE
  5
366
330
1F
100
AcDbEntity
  8
OBRYS
  6
Continuous
100
AcDbLine
 10
354.9393809177886
 20
232.6398089706726
 30
0.0
 11
355.1126659177886
 21
232.2681969706726
 31
0.0
  0
LINE
  5
368
330
1F
100
AcDbEntity
  8
OBRYS
  6
Continuous
100
AcDbLine
 10
355.9425219177886
 20
231.6127419706726
 30
0.0
 11
355.3303099177886
 21
231.2592809706726
 31
0.0
  0
LINE
  5
369
330
1F
100
AcDbEntity
  8
OBRYS
  6
Continuous
100
AcDbLine
 10
354.7963379177885
 20
149.0323449706726
 30
0.0
 11
355.0966869177886
 21
149.5525649706726
 31
0.0
  0
LINE
  5
36A
330
1F
100
AcDbEntity
  8
OBRYS
  6
Continuous
100
AcDbLine
 10
360.1188329177886
 20
235.0664209706726
 30
0.0
 11
360.6181346546731
 21
234.2016038187628
 31
0.0
  0
LINE
  5
36C
330
1F
100
AcDbEntity
  8
OBRYS
  6
Continuous
100
AcDbLine
 10
359.6858199177885
 20
234.8164209706726
 30
0.0
 11
360.1188329177886
 21
235.0664209706726
 31
0.0
  0
LINE
  5
36D
330
1F
100
AcDbEntity
  8
OBRYS
  6
Continuous
100
AcDbLine
 10
354.0600189177886
 20
230.3512079706726
 30
0.0
 11
354.0600189177886
 21
230.3512179706726
 31
0.0
  0
LINE
  5
372
330
1F
100
AcDbEntity
  8
OBRYS
  6
Continuous
100
AcDbLine
 10
355.9467529177886
 20
232.4157749706726
 30
0.0
 11
356.0923699177886
 21
232.1530759706726
 31
0.0
  0
LINE
  5
375
330
1F
100
AcDbEntity
  8
OBRYS
  6
Continuous
100
AcDbLine
 10
355.0966869177886
 20
232.1628229706726
 30
0.0
 11
354.7963379177885
 21
232.6830429706726
 31
0.0
  0
LINE
  5
377
330
1F
100
AcDbEntity
  8
OBRYS
  6
Continuous
100
AcDbLine
 10
359.3854719177885
 20
235.3366399706726
 30
0.0
 11
359.6858199177885
 21
234.8164209706726
 31
0.0
  0
LINE
  5
378
330
1F
100
AcDbEntity
  8
OBRYS
  6
Continuous
100
AcDbLine
 10
360.6181349177886
 20
234.2016039706726
 30
0.0
 11
358.9733739177885
 21
233.2520009706726
 31
0.0
  0
LINE
  5
37D
330
1F
100
AcDbEntity
  8
OBRYS
  6
Continuous
100
AcDbLine
 10
359.0434829177885
 20
147.5117149706726
 30
0.0
 11
359.1981789177886
 21
147.7691729706726
 31
0.0
  0
LINE
  5
37F
330
1F
100
AcDbEntity
  8
OBRYS
  6
Continuous
100
AcDbLine
 10
354.9393809177886
 20
149.0755789706726
 30
0.0
 11
355.1126659177886
 21
149.4471909706726
 31
0.0
  0
LINE
  5
381
330
1F
100
AcDbEntity
  8
OBRYS
  6
Continuous
100
AcDbLine
 10
359.8521629177886
 20
234.7937339706726
 30
0.0
 11
359.9532569177886
 21
234.8521009706726
 31
0.0
  0
LINE
  5
385
330
1F
100
AcDbEntity
  8
OBRYS
  6
Continuous
100
AcDbLine
 10
359.3531499177886
 20
146.5272889706726
 30
0.0
 11
359.5883329177885
 21
146.8631639706726
 31
0.0
  0
LINE
  5
388
330
1F
100
AcDbEntity
  8
OBRYS
  6
Continuous
100
AcDbLine
 10
355.0314049177886
 20
232.0104679706726
 30
0.0
 11
354.9303099177886
 21
231.9521009706726
 31
0.0
  0
LINE
  5
38B
330
1F
100
AcDbEntity
  8
OBRYS
  6
Continuous
100
AcDbLine
 10
359.0434829177885
 20
234.2036729706726
 30
0.0
 11
359.1981789177886
 21
233.9462149706726
 31
0.0
  0
LINE
  5
38F
330
1F
100
AcDbEntity
  8
OBRYS
  6
Continuous
100
AcDbLine
 10
359.7410459177886
 20
233.8058199706726
 30
0.0
 11
360.3532569177886
 21
234.1592809706726
 31
0.0
  0
LINE
  5
390
330
1F
100
AcDbEntity
  8
OBRYS
  6
Continuous
100
AcDbLine
 10
355.1629769177886
 20
231.0480069706726
 30
0.0
 11
354.6636749659613
 21
231.912823575835
 31
0.0
  0
LINE
  5
398
330
1F
100
AcDbEntity
  8
OBRYS
  6
Continuous
100
AcDbLine
 10
400.2703819177885
 20
206.7076939706726
 30
0.0
 11
399.2600189177886
 21
208.4576939706726
 31
0.0
  0
LINE
  5
399
330
1F
100
AcDbEntity
  8
OBRYS
  6
Continuous
100
AcDbLine
 10
399.2600189177886
 20
208.4576939706726
 30
0.0
 11
398.0600189177886
 21
208.4576939706726
 31
0.0
  0
LINE
  5
3A5
330
1F
100
AcDbEntity
  8
OBRYS
  6
Continuous
100
AcDbLine
 10
398.0600189177886
 20
208.4576939706726
 30
0.0
 11
398.0600189177886
 21
172.4576959706726
 31
0.0
  0
LINE
  5
3AD
330
1F
100
AcDbEntity
  8
OBRYS
  6
Continuous
100
AcDbLine
 10
402.1347359177886
 20
235.5837989706726
 30
0.0
 11
403.5600189177886
 21
224.7576939706726
 31
0.0
  0
LINE
  5
3AF
330
1F
100
AcDbEntity
  8
OBRYS
  6
Continuous
100
AcDbLine
 10
331.7600189177886
 20
168.5576939706726
 30
0.0
 11
331.7600189177886
 21
213.1576939706726
 31
0.0
  0
LINE
  5
3B0
330
1F
100
AcDbEntity
  8
OBRYS
  6
Continuous
100
AcDbLine
 10
354.0600189177886
 20
168.3576939706726
 30
0.0
 11
331.9600189177886
 21
168.3576939706726
 31
0.0
  0
LINE
  5
3B1
330
1F
100
AcDbEntity
  8
OBRYS
  6
Continuous
100
AcDbLine
 10
359.3854717960643
 20
235.3366401815056
 30
0.0
 11
360.0683479177886
 21
235.7308989706726
 31
0.0
  0
LINE
  5
3B5
330
1F
100
AcDbEntity
  8
OBRYS
  6
Continuous
100
AcDbLine
 10
359.7410459177886
 20
147.9095679706726
 30
0.0
 11
360.3532569177886
 21
147.5561069706726
 31
0.0
  0
LINE
  5
3B9
330
1F
100
AcDbEntity
  8
OBRYS
  6
Continuous
100
AcDbLine
 10
403.0598279177885
 20
151.3533359706726
 30
0.0
 11
402.6755839177886
 21
142.5527059706726
 31
0.0
  0
LINE
  5
3BF
330
1F
100
AcDbEntity
  8
OBRYS
  6
Continuous
100
AcDbLine
 10
402.4757739177886
 20
142.3614289706726
 30
0.0
 11
398.2600179177886
 21
142.3614299706726
 31
0.0
  0
ARC
  5
3F1
330
1F
100
AcDbEntity
  8
OBRYS
  6
Continuous
100
AcDbCircle
 10
-356.1216769177886
 20
232.5127369706726
 30
0.0
 40
0.2
210
0.0
220
0.0
230
-1.0
100
AcDbArc
 50
331.0000000000053
 51
52.06319899999484
  0
ARC
  5
3F2
330
1F
100
AcDbEntity
  8
OBRYS
  6
Continuous
100
AcDbCircle
 10
359.5410459177886
 20
147.5631579706726
 30
0.0
 40
0.4
100
AcDbArc
 50
59.99999999999422
 51
148.9999999999991
  0
CIRCLE
  5
3F3
330
1F
100
AcDbEntity
  8
OBRYS
  6
Continuous
100
AcDbCircle
 10
394.5600189177886
 20
165.8576939706726
 30
0.0
 40
2.0
  0
ARC
  5
3F4
330
1F
100
AcDbEntity
  8
OBRYS
  6
Continuous
100
AcDbCircle
 10
355.7425219177886
 20
149.7562369706726
 30
0.0
 40
0.4
100
AcDbArc
 50
330.9999999999942
 51
59.99999999999925
  0
ARC
  5
3F5
330
1F
100
AcDbEntity
  8
OBRYS
  6
Continuous
100
AcDbCircle
 10
-358.8720489177886
 20
147.6147229706726
 30
0.0
 40
0.2
210
0.0
220
0.0
230
-1.0
100
AcDbArc
 50
210.9999999999925
 51
292.0631989999935
  0
ARC
  5
3F6
330
1F
100
AcDbEntity
  8
OBRYS
  6
Continuous
100
AcDbCircle
 10
-356.1216769177886
 20
149.2026509706726
 30
0.0
 40
0.2
210
0.0
220
0.0
230
-1.0
100
AcDbArc
 50
307.9368010000052
 51
28.99999999999473
  0
ARC
  5
3F7
330
1F
100
AcDbEntity
  8
OBRYS
  6
Continuous
100
AcDbCircle
 10
-354.9314049177885
 20
149.5317149706726
 30
0.0
 40
0.2
210
0.0
220
0.0
230
-1.0
100
AcDbArc
 50
120.0000000000038
 51
204.9999999999952
  0
ARC
  5
3F8
330
1F
100
AcDbEntity
  8
OBRYS
  6
Continuous
100
AcDbCircle
 10
400.6100179177886
 20
142.5614299706726
 30
0.0
 40
0.2
100
AcDbArc
 50
270.0
 51
0.0
  0
ARC
  5
3F9
330
1F
100
AcDbEntity
  8
OBRYS
  6
Continuous
100
AcDbCircle
 10
355.1206419177886
 20
148.9910559706726
 30
0.0
 40
0.2
100
AcDbArc
 50
155.0000000000048
 51
228.9900279999968
  0
ARC
  5
3FA
330
1F
100
AcDbEntity
  8
OBRYS
  6
Continuous
100
AcDbCircle
 10
400.4435869177886
 20
206.8076939706726
 30
0.0
 40
0.2
100
AcDbArc
 50
209.9999999999855
 51
270.0
  0
CIRCLE
  5
3FB
330
1F
100
AcDbEntity
  8
OBRYS
  6
Continuous
100
AcDbCircle
 10
-394.5600189177886
 20
215.8576939706726
 30
0.0
 40
0.7749999999999984
210
0.0
220
0.0
230
-1.0
  0
CIRCLE
  5
3FC
330
1F
100
AcDbEntity
  8
OBRYS
  6
Continuous
100
AcDbCircle
 10
-359.0600189177886
 20
217.3576939706726
 30
0.0
 40
0.7749999999999984
210
0.0
220
0.0
230
-1.0
  0
ARC
  5
3FD
330
1F
100
AcDbEntity
  8
OBRYS
  6
Continuous
100
AcDbCircle
 10
355.1303099177886
 20
150.1096969706726
 30
0.0
 40
0.4
100
AcDbArc
 50
60.00000000000129
 51
98.783576548096
  0
CIRCLE
  5
3FE
330
1F
100
AcDbEntity
  8
OBRYS
  6
Continuous
100
AcDbCircle
 10
-359.0600189177886
 20
164.3576939706726
 30
0.0
 40
0.7749999999999984
210
0.0
220
0.0
230
-1.0
  0
ARC
  5
3FF
330
1F
100
AcDbEntity
  8
OBRYS
  6
Continuous
100
AcDbCircle
 10
-358.8720489177886
 20
234.1006649706726
 30
0.0
 40
0.2
210
0.0
220
0.0
230
-1.0
100
AcDbArc
 50
67.93680100000643
 51
149.0000000000075
  0
ARC
  5
400
330
1F
100
AcDbEntity
  8
OBRYS
  6
Continuous
100
AcDbCircle
 10
-363.1917839177886
 20
158.2725789706726
 30
0.0
 40
11.7
210
0.0
220
0.0
230
-1.0
100
AcDbArc
 50
292.063199
 51
307.9368009999999
  0
ARC
  5
401
330
1F
100
AcDbEntity
  8
OBRYS
  6
Continuous
100
AcDbCircle
 10
355.1206419177886
 20
232.7243319706726
 30
0.0
 40
0.2
100
AcDbArc
 50
131.0099720000032
 51
204.9999999999952
  0
ARC
  5
402
330
1F
100
AcDbEntity
  8
OBRYS
  6
Continuous
100
AcDbCircle
 10
-359.7521629177886
 20
234.9669399706726
 30
0.0
 40
0.2
210
0.0
220
0.0
230
-1.0
100
AcDbArc
 50
239.9999999999922
 51
325.0000000000006
  0
ARC
  5
403
330
1F
100
AcDbEntity
  8
OBRYS
  6
Continuous
100
AcDbCircle
 10
402.63240814749
 20
146.1489418145463
 30
0.0
 40
0.2
100
AcDbArc
 50
270.0
 51
357.4999929999992
  0
ARC
  5
404
330
1F
100
AcDbEntity
  8
OBRYS
  6
Continuous
100
AcDbCircle
 10
360.1532569177887
 20
234.5056909706725
 30
0.0
 40
0.3999999999998904
100
AcDbArc
 50
299.9999999999978
 51
338.783632531472
  0
ARC
  5
405
330
1F
100
AcDbEntity
  8
OBRYS
  6
Continuous
100
AcDbCircle
 10
359.1893199177886
 20
235.0733839706726
 30
0.0
 40
0.2
100
AcDbArc
 50
34.99999999999923
 51
108.9900280000045
  0
ARC
  5
406
330
1F
100
AcDbEntity
  8
OBRYS
  6
Continuous
100
AcDbCircle
 10
359.1893199177886
 20
146.6420039706726
 30
0.0
 40
0.2
100
AcDbArc
 50
251.0099719999955
 51
325.0000000000006
  0
ARC
  5
407
330
1F
100
AcDbEntity
  8
OBRYS
  6
Continuous
100
AcDbCircle
 10
355.1303099177883
 20
231.6056909706728
 30
0.0
 40
0.3999999999997067
100
AcDbArc
 50
119.9999999999848
 51
158.7834454599002
  0
ARC
  5
408
330
1F
100
AcDbEntity
  8
OBRYS
  6
Continuous
100
AcDbCircle
 10
-354.9314049177885
 20
232.1836729706726
 30
0.0
 40
0.2
210
0.0
220
0.0
230
-1.0
100
AcDbArc
 50
155.0000000000048
 51
239.9999999999963
  0
ARC
  5
409
330
1F
100
AcDbEntity
  8
OBRYS
  6
Continuous
100
AcDbCircle
 10
-359.7521629177886
 20
146.7484489706726
 30
0.0
 40
0.2
210
0.0
220
0.0
230
-1.0
100
AcDbArc
 50
34.99999999999923
 51
120.0000000000078
  0
ARC
  5
40A
330
1F
100
AcDbEntity
  8
OBRYS
  6
Continuous
100
AcDbCircle
 10
363.1917839177886
 20
158.2725789706726
 30
0.0
 40
12.5
100
AcDbArc
 50
228.990028
 51
251.0099719999999
  0
CIRCLE
  5
40B
330
1F
100
AcDbEntity
  8
OBRYS
  6
Continuous
100
AcDbCircle
 10
359.0600189177886
 20
164.3576939706726
 30
0.0
 40
1.999999999999945
  0
ARC
  5
40C
330
1F
100
AcDbEntity
  8
OBRYS
  6
Continuous
100
AcDbCircle
 10
-363.1917839177886
 20
223.4428089706726
 30
0.0
 40
11.7
210
0.0
220
0.0
230
-1.0
100
AcDbArc
 50
52.06319899999987
 51
67.93680100000003
  0
CIRCLE
  5
40D
330
1F
100
AcDbEntity
  8
OBRYS
  6
Continuous
100
AcDbCircle
 10
-394.5600189177886
 20
165.8576939706726
 30
0.0
 40
0.7749999999999984
210
0.0
220
0.0
230
-1.0
  0
ARC
  5
40E
330
1F
100
AcDbEntity
  8
OBRYS
  6
Continuous
100
AcDbCircle
 10
363.1917839177886
 20
223.4428089706726
 30
0.0
 40
12.5
100
AcDbArc
 50
108.9900280000002
 51
131.0099720000001
  0
ARC
  5
410
330
1F
100
AcDbEntity
  8
OBRYS
  6
Continuous
100
AcDbCircle
 10
359.5410459177886
 20
234.1522309706726
 30
0.0
 40
0.4
100
AcDbArc
 50
211.0000000000009
 51
300.0000000000078
  0
ARC
  5
411
330
1F
100
AcDbEntity
  8
OBRYS
  6
Continuous
100
AcDbCircle
 10
-360.1683479177885
 20
146.1576939706726
 30
0.0
 40
0.2
210
0.0
220
0.0
230
-1.0
100
AcDbArc
 50
270.0
 51
299.9999999999896
  0
ARC
  5
412
330
1F
100
AcDbEntity
  8
OBRYS
  6
Continuous
100
AcDbCircle
 10
355.7425219177886
 20
231.9591519706726
 30
0.0
 40
0.4
100
AcDbArc
 50
300.0000000000008
 51
29.00000000000581
  0
ARC
  5
413
330
1F
100
AcDbEntity
  8
OBRYS
  6
Continuous
100
AcDbCircle
 10
-402.8600219177886
 20
172.2576959706726
 30
0.0
 40
0.2
210
0.0
220
0.0
230
-1.0
100
AcDbArc
 50
90.00000300000094
 51
180.0000069999968
  0
CIRCLE
  5
414
330
1F
100
AcDbEntity
  8
OBRYS
  6
Continuous
100
AcDbCircle
 10
359.0600189177886
 20
217.3576939706726
 30
0.0
 40
2.000000000000085
  0
ARC
  5
415
330
1F
100
AcDbEntity
  8
OBRYS
  6
Continuous
100
AcDbCircle
 10
-401.9364469177885
 20
235.5576939706726
 30
0.0
 40
0.2
210
0.0
220
0.0
230
-1.0
100
AcDbArc
 50
90.0
 51
172.4999999999986
  0
ARC
  5
416
330
1F
100
AcDbEntity
  8
OBRYS
  6
Continuous
100
AcDbCircle
 10
-398.2600179177886
 20
142.5614299706726
 30
0.0
 40
0.2
210
0.0
220
0.0
230
-1.0
100
AcDbArc
 50
270.0
 51
0.0
  0
CIRCLE
  5
417
330
1F
100
AcDbEntity
  8
OBRYS
  6
Continuous
100
AcDbCircle
 10
-394.5600189177886
 20
215.8576939706726
 30
0.0
 40
2.2
210
0.0
220
0.0
230
-1.0
  0
ARC
  5
418
330
1F
100
AcDbEntity
  8
OBRYS
  6
Continuous
100
AcDbCircle
 10
-354.2600189177886
 20
232.1424589706726
 30
0.0
 40
0.2
210
0.0
220
0.0
230
-1.0
100
AcDbArc
 50
0.0
 51
60.00000000001037
  0
ARC
  5
419
330
1F
100
AcDbEntity
  8
OBRYS
  6
Continuous
100
AcDbCircle
 10
402.4757739177886
 20
142.5614289706726
 30
0.0
 40
0.2
100
AcDbArc
 50
270.0
 51
357.4999999999987
  0
ARC
  5
41A
330
1F
100
AcDbEntity
  8
OBRYS
  6
Continuous
100
AcDbCircle
 10
331.9600189177886
 20
213.1576939706726
 30
0.0
 40
0.2
100
AcDbArc
 50
90.0
 51
180.0
  0
ARC
  5
41B
330
1F
100
AcDbEntity
  8
OBRYS
  6
Continuous
100
AcDbCircle
 10
403.3600189177886
 20
206.8076939706726
 30
0.0
 40
0.2
100
AcDbArc
 50
270.0
 51
0.0
  0
CIRCLE
  5
41D
330
1F
100
AcDbEntity
  8
OBRYS
  6
Continuous
100
AcDbCircle
 10
-359.0600189177886
 20
217.3576939706726
 30
0.0
 40
2.200000000000085
210
0.0
220
0.0
230
-1.0
  0
ARC
  5
41E
330
1F
100
AcDbEntity
  8
OBRYS
  6
Continuous
100
AcDbCircle
 10
354.2600189177886
 20
149.5729289706726
 30
0.0
 40
0.2
100
AcDbArc
 50
180.0
 51
240.0000000000063
  0
ARC
  5
41F
330
1F
100
AcDbEntity
  8
OBRYS
  6
Continuous
100
AcDbCircle
 10
-331.9600189177886
 20
168.5576939706726
 30
0.0
 40
0.2
210
0.0
220
0.0
230
-1.0
100
AcDbArc
 50
270.0
 51
0.0
  0
CIRCLE
  5
420
330
1F
100
AcDbEntity
  8
OBRYS
  6
Continuous
100
AcDbCircle
 10
-359.0600189177886
 20
164.3576939706726
 30
0.0
 40
2.199999999999945
210
0.0
220
0.0
230
-1.0
  0
CIRCLE
  5
421
330
1F
100
AcDbEntity
  8
OBRYS
  6
Continuous
100
AcDbCircle
 10
394.5600189177886
 20
215.8576939706726
 30
0.0
 40
2.0
  0
CIRCLE
  5
422
330
1F
100
AcDbEntity
  8
OBRYS
  6
Continuous
100
AcDbCircle
 10
-394.5600189177886
 20
165.8576939706726
 30
0.0
 40
2.2
210
0.0
220
0.0
230
-1.0
  0
ARC
  5
423
330
1F
100
AcDbEntity
  8
OBRYS
  6
Continuous
100
AcDbCircle
 10
-360.1683479177885
 20
235.5576939706726
 30
0.0
 40
0.2
210
0.0
220
0.0
230
-1.0
100
AcDbArc
 50
60.00000000001037
 51
90.0
  0
ARC
  5
424
330
1F
100
AcDbEntity
  8
OBRYS
  6
Continuous
100
AcDbCircle
 10
360.1532569177886
 20
147.2096969706725
 30
0.0
 40
0.3999999999999435
100
AcDbArc
 50
239.9999999999972
 51
278.7837235102699
  0
ARC
  5
1285
330
1F
100
AcDbEntity
  8
OBRYS
  6
Continuous
100
AcDbCircle
 10
355.1452900921807
 20
150.1270279937481
 30
0.0
 40
0.4225211530185476
100
AcDbArc
 50
202.9013451573865
 51
239.4158462699124
  0
ARC
  5
1286
330
1F
100
AcDbEntity
  8
OBRYS
  6
Continuous
100
AcDbCircle
 10
360.1532569177885
 20
147.2096969706725
 30
0.0
 40
0.4000000000000968
100
AcDbArc
 50
21.21626705880043
 51
59.99999999998921
  0
ARC
  5
1287
330
1F
100
AcDbEntity
  8
OBRYS
100
AcDbCircle
 10
358.3942296848468
 20
149.960143474439
 30
0.0
 40
1.604898704782981
100
AcDbArc
 50
188.6857780788603
 51
291.1532309743595
  0
ARC
  5
1288
330
1F
100
AcDbEntity
  8
OBRYS
  6
Continuous
100
AcDbCircle
 10
355.1303099177886
 20
231.6056909706726
 30
0.0
 40
0.4
100
AcDbArc
 50
261.2157102266676
 51
300.0000000000008
  0
ARC
  5
1289
330
1F
100
AcDbEntity
  8
OBRYS
100
AcDbCircle
 10
358.3942255953215
 20
231.7552455810674
 30
0.0
 40
1.604895471901022
100
AcDbArc
 50
68.84675922006521
 51
171.3142578848525
  0
ARC
  5
128A
330
1F
100
AcDbEntity
  8
OBRYS
  6
Continuous
100
AcDbCircle
 10
360.1532569177886
 20
234.5056909706726
 30
0.0
 40
0.4
100
AcDbArc
 50
81.21630003364423
 51
119.9999999999967
  0
DIMENSION
  5
1330
330
1F
100
AcDbEntity
  8
KOTY
100
AcDbDimension
280
     0
  2
*D7
 10
403.5600189177886
 20
245.8694714153149
 30
0.0
 11
367.6600189177885
 21
248.3754714153149
 31
0.0
 70
    32
 71
     5
 42
-1.0
 73
     0
 74
     0
 75
     0
  3
STANDARD
100
AcDbAlignedDimension
 13
331.7600189177886
 23
213.1576939706726
 33
0.0
 14
403.5600189177886
 24
224.7576939706726
 34
0.0
100
AcDbRotatedDimension
1001
ACAD
1000
DSTYLE
1002
{
1070
   271
1070
     0
1070
   278
1070
    44
1070
   140
1040
3.0
1070
    73
1070
     0
1070
    77
1070
     1
1070
   147
1040
1.0
1070
    41
1040
3.0
1002
}
  0
DIMENSION
  5
1340
330
1F
100
AcDbEntity
  8
KOTY
100
AcDbDimension
280
     0
  2
*D8
 10
320.473941592266
 20
213.3576939706726
 30
0.0
 11
317.948441592266
 21
190.8576939706726
 31
0.0
 70
    32
 71
     5
 42
-1.0
 73
     0
 74
     0
 75
     0
  3
STANDARD
100
AcDbAlignedDimension
 13
331.9600189177886
 23
168.3576939706726
 33
0.0
 14
331.9600189177886
 24
213.3576939706726
 34
0.0
 50
90.0
100
AcDbRotatedDimension
1001
ACAD
1000
DSTYLE
1002
{
1070
   271
1070
     0
1070
   278
1070
    44
1070
   140
1040
3.0
1070
    73
1070
     0
1070
    77
1070
     1
1070
   147
1040
1.0
1070
    41
1040
3.0
1002
}
  0
DIMENSION
  5
1350
330
1F
100
AcDbEntity
  8
KOTY
100
AcDbDimension
280
     0
  2
*D9
 10
310.5266136542384
 20
235.7576939706726
 30
0.0
 11
307.9951136542384
 21
190.8576939706726
 31
0.0
 70
    32
 71
     5
 42
-1.0
 73
     0
 74
     0
 75
     0
  3
STANDARD
100
AcDbAlignedDimension
 13
360.1683479177885
 23
145.9576939706726
 33
0.0
 14
360.1683479177885
 24
235.7576939706726
 34
0.0
 50
90.0
100
AcDbRotatedDimension
1001
ACAD
1000
DSTYLE
1002
{
1070
   271
1070
     0
1070
   278
1070
    44
1070
   140
1040
3.0
1070
    73
1070
     0
1070
    77
1070
     1
1070
   147
1040
1.0
1070
    41
1040
3.0
1002
}
  0
DIMENSION
  5
1360
330
1F
100
AcDbEntity
  8
KOTY
100
AcDbDimension
280
     0
  2
*D10
 10
398.0600189177886
 20
122.6358462391053
 30
0.0
 11
364.9100189177885
 21
125.1673462391053
 31
0.0
 70
    32
 71
     5
 42
-1.0
 73
     0
 74
     0
 75
     0
  3
STANDARD
100
AcDbAlignedDimension
 13
331.7600189177886
 23
168.5576939706726
 33
0.0
 14
398.0600189177886
 24
172.4576959706726
 34
0.0
100
AcDbRotatedDimension
1001
ACAD
1000
DSTYLE
1002
{
1070
   271
1070
     0
1070
   278
1070
    44
1070
   140
1040
3.0
1070
    73
1070
     0
1070
    77
1070
     1
1070
   147
1040
1.0
1070
    41
1040
3.0
1002
}
  0
DIMENSION
  5
1370
330
1F
100
AcDbEntity
  8
KOTY
100
AcDbDimension
280
     0
  2
*D11
 10
398.0600189177886
 20
134.1506929986001
 30
0.0
 11
376.0600189177886
 21
136.6506929986001
 31
0.0
 70
    32
 71
     5
 42
-1.0
 73
     0
 74
     0
 75
     0
  3
STANDARD
100
AcDbAlignedDimension
 13
354.0600189177886
 23
149.5729289706726
 33
0.0
 14
398.0600189177886
 24
172.4576959706726
 34
0.0
100
AcDbRotatedDimension
1001
ACAD
1000
DSTYLE
1002
{
1070
   271
1070
     0
1070
   278
1070
    44
1070
   140
1040
3.0
1070
    73
1070
     0
1070
    77
1070
     1
1070
   147
1040
1.0
1070
    41
1040
3.0
1002
}
  0
DIMENSION
  5
1380
330
1F
100
AcDbEntity
  8
KOTY
100
AcDbDimension
280
     0
  2
*D12
 10
412.7427093336444
 20
142.361432319528
 30
0.0
 11
410.2112093336444
 21
189.0595631451003
 31
0.0
 70
    32
  1
94
 71
     5
 42
-1.0
 73
     0
 74
     0
 75
     0
  3
STANDARD
100
AcDbAlignedDimension
 13
401.9364469177885
 23
235.7576939706726
 33
0.0
 14
402.4769312988689
 24
142.361432319528
 34
0.0
 50
90.0
100
AcDbRotatedDimension
1001
ACAD
1000
DSTYLE
1002
{
1070
   271
1070
     3
1070
   278
1070
    44
1070
   140
1040
3.0
1070
    73
1070
     0
1070
    77
1070
     1
1070
   147
1040
1.0
1070
    41
1040
3.0
1002
}
  0
LINE
  5
19B1
330
1F
100
AcDbEntity
  8
OBRYS
  6
Continuous
100
AcDbLine
 10
464.9426095781108
 20
159.2717001782606
 30
0.0
 11
464.9426095781108
 21
157.6382201782606
 31
0.0
  0
LINE
  5
19BD
330
1F
100
AcDbEntity
  8
OBRYS
  6
Continuous
100
AcDbLine
 10
465.6676095781108
 20
156.9132201782606
 30
0.0
 11
466.5447125781107
 21
156.9132201782606
 31
0.0
  0
LINE
  5
19C0
330
1F
100
AcDbEntity
  8
OBRYS
  6
Continuous
100
AcDbLine
 10
458.4426095781108
 20
188.0847931782606
 30
0.0
 11
458.4426095781108
 21
168.4132201782607
 31
0.0
  0
LINE
  5
19C2
330
1F
100
AcDbEntity
  8
OBRYS
  6
Continuous
100
AcDbLine
 10
460.8861125781107
 20
191.3981441782606
 30
0.0
 11
459.0576855781108
 21
189.5697171782606
 31
0.0
  0
LINE
  5
19C3
330
1F
100
AcDbEntity
  8
OBRYS
  6
Continuous
100
AcDbLine
 10
445.3205155781107
 20
155.9058801782606
 30
0.0
 11
445.3205155781107
 21
156.9205601782606
 31
0.0
  0
LINE
  5
19D1
330
1F
100
AcDbEntity
  8
OBRYS
  6
Continuous
100
AcDbLine
 10
461.4426095781108
 20
213.4132201782607
 30
0.0
 11
461.4426095781108
 21
192.7416471782606
 31
0.0
  0
LINE
  5
19D9
330
1F
100
AcDbEntity
  8
OBRYS
  6
Continuous
100
AcDbLine
 10
460.4426095781108
 20
192.7416471782606
 30
0.0
 11
460.4426095781108
 21
213.4132201782607
 31
0.0
  0
LINE
  5
19DC
330
1F
100
AcDbEntity
  8
OBRYS
  6
Continuous
100
AcDbLine
 10
445.7302615781107
 20
155.7008731782606
 30
0.0
 11
445.3023705781108
 21
155.2729811782606
 31
0.0
  0
LINE
  5
19DD
330
1F
100
AcDbEntity
  8
OBRYS
  6
Continuous
100
AcDbLine
 10
447.1549575781108
 20
157.1255681782606
 30
0.0
 11
447.5828485781107
 21
157.5534591782607
 31
0.0
  0
LINE
  5
19DF
330
1F
100
AcDbEntity
  8
OBRYS
  6
Continuous
100
AcDbLine
 10
458.3505785781107
 20
190.2768241782606
 30
0.0
 11
460.1790055781108
 21
192.1052511782606
 31
0.0
  0
LINE
  5
19E2
330
1F
100
AcDbEntity
  8
OBRYS
  6
Continuous
100
AcDbLine
 10
445.9352695781108
 20
157.5353151782606
 30
0.0
 11
446.9499495781108
 21
157.5353151782606
 31
0.0
  0
LINE
  5
19E3
330
1F
100
AcDbEntity
  8
OBRYS
  6
Continuous
100
AcDbLine
 10
447.5647035781107
 20
156.9205601782606
 30
0.0
 11
447.5647035781107
 21
155.9058801782606
 31
0.0
  0
LINE
  5
19E6
330
1F
100
AcDbEntity
  8
OBRYS
  6
Continuous
100
AcDbLine
 10
445.9426095781108
 20
154.8292461782606
 30
0.0
 11
446.9426095781108
 21
154.8292461782606
 31
0.0
  0
LINE
  5
19E8
330
1F
100
AcDbEntity
  8
OBRYS
  6
Continuous
100
AcDbLine
 10
446.9499495781108
 20
155.2911261782606
 30
0.0
 11
445.9352695781108
 21
155.2911261782606
 31
0.0
  0
LINE
  5
19E9
330
1F
100
AcDbEntity
  8
OBRYS
  6
Continuous
100
AcDbLine
 10
451.0426125781108
 20
196.5132201782606
 30
0.0
 11
447.6426095781108
 21
196.5132201782606
 31
0.0
  0
LINE
  5
19ED
330
1F
100
AcDbEntity
  8
OBRYS
  6
Continuous
100
AcDbLine
 10
445.7302615781107
 20
157.1255681782606
 30
0.0
 11
445.3023705781108
 21
157.5534591782607
 31
0.0
  0
LINE
  5
19F0
330
1F
100
AcDbEntity
  8
OBRYS
  6
Continuous
100
AcDbLine
 10
457.4426095781108
 20
168.4132201782607
 30
0.0
 11
457.4426095781108
 21
188.0847931782606
 31
0.0
  0
LINE
  5
19F2
330
1F
100
AcDbEntity
  8
OBRYS
  6
Continuous
100
AcDbLine
 10
446.9426095781108
 20
157.9971951782607
 30
0.0
 11
445.9426095781108
 21
157.9971951782607
 31
0.0
  0
LINE
  5
19F8
330
1F
100
AcDbEntity
  8
OBRYS
  6
Continuous
100
AcDbLine
 10
451.8426095781107
 20
198.9132201782606
 30
0.0
 11
451.8426095781107
 21
197.3132201782606
 31
0.0
  0
LINE
  5
19FA
330
1F
100
AcDbEntity
  8
OBRYS
  6
Continuous
100
AcDbLine
 10
447.1549575781108
 20
155.7008731782606
 30
0.0
 11
447.5828485781107
 21
155.2729811782606
 31
0.0
  0
LINE
  5
19FC
330
1F
100
AcDbEntity
  8
OBRYS
  6
Continuous
100
AcDbLine
 10
447.6426095781108
 20
199.7132201782606
 30
0.0
 11
451.0426095781108
 21
199.7132201782606
 31
0.0
  0
LINE
  5
19FF
330
1F
100
AcDbEntity
  8
OBRYS
  6
Continuous
100
AcDbLine
 10
446.8426095781107
 20
197.3132201782606
 30
0.0
 11
446.8426095781107
 21
198.9132231782606
 31
0.0
  0
LINE
  5
1A1A
330
1F
100
AcDbEntity
  8
OBRYS
  6
Continuous
100
AcDbLine
 10
451.3499495781107
 20
224.3411261782606
 30
0.0
 11
450.3352695781107
 21
224.3411261782606
 31
0.0
  0
LINE
  5
1A1C
330
1F
100
AcDbEntity
  8
OBRYS
  6
Continuous
100
AcDbLine
 10
472.4479265781108
 20
228.7432201782606
 30
0.0
 11
472.4479265781108
 21
222.0832201782606
 31
0.0
  0
LINE
  5
1A21
330
1F
100
AcDbEntity
  8
OBRYS
  6
Continuous
100
AcDbLine
 10
450.3352695781107
 20
226.5853151782606
 30
0.0
 11
451.3499495781107
 21
226.5853151782606
 31
0.0
  0
LINE
  5
1A2D
330
1F
100
AcDbEntity
  8
OBRYS
  6
Continuous
100
AcDbLine
 10
451.9647035781108
 20
225.9705601782606
 30
0.0
 11
451.9647035781108
 21
224.9558801782606
 31
0.0
  0
LINE
  5
1A37
330
1F
100
AcDbEntity
  8
OBRYS
  6
Continuous
100
AcDbLine
 10
451.5549575781108
 20
226.1755681782606
 30
0.0
 11
451.9828485781108
 21
226.6034591782606
 31
0.0
  0
LINE
  5
1A3A
330
1F
100
AcDbEntity
  8
OBRYS
  6
Continuous
100
AcDbLine
 10
451.5549575781108
 20
224.7508731782606
 30
0.0
 11
451.9828485781108
 21
224.3229811782606
 31
0.0
  0
LINE
  5
1A3D
330
1F
100
AcDbEntity
  8
OBRYS
  6
Continuous
100
AcDbLine
 10
456.4372915781108
 20
222.0832201782606
 30
0.0
 11
456.4372915781108
 21
228.7432201782606
 31
0.0
  0
LINE
  5
1A3E
330
1F
100
AcDbEntity
  8
OBRYS
  6
Continuous
100
AcDbLine
 10
451.3426095781107
 20
227.0471951782606
 30
0.0
 11
450.3426095781107
 21
227.0471951782606
 31
0.0
  0
LINE
  5
1A49
330
1F
100
AcDbEntity
  8
OBRYS
  6
Continuous
100
AcDbLine
 10
449.7205155781108
 20
224.9558801782606
 30
0.0
 11
449.7205155781108
 21
225.9705601782606
 31
0.0
  0
LINE
  5
1A4A
330
1F
100
AcDbEntity
  8
OBRYS
  6
Continuous
100
AcDbLine
 10
471.1926095781108
 20
220.8285271782606
 30
0.0
 11
457.6926095781108
 21
220.8285271782606
 31
0.0
  0
LINE
  5
1A4B
330
1F
100
AcDbEntity
  8
OBRYS
  6
Continuous
100
AcDbLine
 10
450.1302615781107
 20
224.7508731782606
 30
0.0
 11
449.7023705781108
 21
224.3229811782606
 31
0.0
  0
LINE
  5
1A50
330
1F
100
AcDbEntity
  8
OBRYS
  6
Continuous
100
AcDbLine
 10
450.3426095781107
 20
223.8792461782606
 30
0.0
 11
451.3426095781107
 21
223.8792461782606
 31
0.0
  0
LINE
  5
1A52
330
1F
100
AcDbEntity
  8
OBRYS
  6
Continuous
100
AcDbLine
 10
450.1302615781107
 20
226.1755681782606
 30
0.0
 11
449.7023705781108
 21
226.6034591782606
 31
0.0
  0
LINE
  5
1A54
330
1F
100
AcDbEntity
  8
OBRYS
  6
Continuous
100
AcDbLine
 10
457.6926095781108
 20
229.9979141782606
 30
0.0
 11
471.1926095781108
 21
229.9979141782606
 31
0.0
  0
LINE
  5
1A55
330
1F
100
AcDbEntity
  8
OBRYS
  6
Continuous
100
AcDbLine
 10
460.5426095781108
 20
224.2382201782606
 30
0.0
 11
460.5426095781108
 21
222.5566691782606
 31
0.0
  0
LINE
  5
1A59
330
1F
100
AcDbEntity
  8
OBRYS
  6
Continuous
100
AcDbLine
 10
442.5426095781108
 20
224.2382201782606
 30
0.0
 11
442.5426095781108
 21
222.5566691782606
 31
0.0
  0
LINE
  5
1A5C
330
1F
100
AcDbEntity
  8
OBRYS
  6
Continuous
100
AcDbLine
 10
443.2676095781108
 20
225.9632201782606
 30
0.0
 11
444.1447125781107
 21
225.9632201782606
 31
0.0
  0
LINE
  5
1A60
330
1F
100
AcDbEntity
  8
OBRYS
  6
Continuous
100
AcDbLine
 10
441.5426095781108
 20
222.5547541782606
 30
0.0
 11
441.5426095781108
 21
224.2382201782606
 31
0.0
  0
LINE
  5
1A63
330
1F
100
AcDbEntity
  8
OBRYS
  6
Continuous
100
AcDbLine
 10
439.9405065781107
 20
225.9632201782606
 30
0.0
 11
440.8176095781108
 21
225.9632201782606
 31
0.0
  0
LINE
  5
1A65
330
1F
100
AcDbEntity
  8
OBRYS
  6
Continuous
100
AcDbLine
 10
444.1447125781107
 20
224.9632201782606
 30
0.0
 11
443.2676095781108
 21
224.9632201782606
 31
0.0
  0
LINE
  5
1A66
330
1F
100
AcDbEntity
  8
OBRYS
  6
Continuous
100
AcDbLine
 10
441.5426095781108
 20
226.6882201782606
 30
0.0
 11
441.5426095781108
 21
228.2717111782606
 31
0.0
  0
LINE
  5
1A67
330
1F
100
AcDbEntity
  8
OBRYS
  6
Continuous
100
AcDbLine
 10
461.2676095781108
 20
225.9632201782606
 30
0.0
 11
462.1447125781107
 21
225.9632201782606
 31
0.0
  0
LINE
  5
1A69
330
1F
100
AcDbEntity
  8
OBRYS
  6
Continuous
100
AcDbLine
 10
440.8176095781108
 20
224.9632201782606
 30
0.0
 11
439.9405065781107
 21
224.9632201782606
 31
0.0
  0
LINE
  5
1A6A
330
1F
100
AcDbEntity
  8
OBRYS
  6
Continuous
100
AcDbLine
 10
442.5426095781108
 20
228.2697761782606
 30
0.0
 11
442.5426095781108
 21
226.6882201782606
 31
0.0
  0
LINE
  5
1A6C
330
1F
100
AcDbEntity
  8
OBRYS
  6
Continuous
100
AcDbLine
 10
462.1447125781107
 20
224.9632201782606
 30
0.0
 11
461.2676095781108
 21
224.9632201782606
 31
0.0
  0
LINE
  5
1A6F
330
1F
100
AcDbEntity
  8
OBRYS
  6
Continuous
100
AcDbLine
 10
453.1926095781108
 20
220.8285271782606
 30
0.0
 11
439.6926095781108
 21
220.8285271782606
 31
0.0
  0
LINE
  5
1A70
330
1F
100
AcDbEntity
  8
OBRYS
  6
Continuous
100
AcDbLine
 10
463.7302615781107
 20
157.1255681782606
 30
0.0
 11
463.3023705781108
 21
157.5534591782607
 31
0.0
  0
LINE
  5
1A72
330
1F
100
AcDbEntity
  8
OBRYS
  6
Continuous
100
AcDbLine
 10
468.1302615781107
 20
226.1755681782606
 30
0.0
 11
467.7023705781108
 21
226.6034591782606
 31
0.0
  0
LINE
  5
1A74
330
1F
100
AcDbEntity
  8
OBRYS
  6
Continuous
100
AcDbLine
 10
439.6926095781108
 20
229.9979141782606
 30
0.0
 11
453.1926095781108
 21
229.9979141782606
 31
0.0
  0
LINE
  5
1A7C
330
1F
100
AcDbEntity
  8
OBRYS
  6
Continuous
100
AcDbLine
 10
469.3426095781107
 20
227.0471951782606
 30
0.0
 11
468.3426095781107
 21
227.0471951782606
 31
0.0
  0
LINE
  5
1A82
330
1F
100
AcDbEntity
  8
OBRYS
  6
Continuous
100
AcDbLine
 10
469.9647035781108
 20
225.9705601782606
 30
0.0
 11
469.9647035781108
 21
224.9558801782606
 31
0.0
  0
LINE
  5
1A89
330
1F
100
AcDbEntity
  8
OBRYS
  6
Continuous
100
AcDbLine
 10
467.7205155781108
 20
224.9558801782606
 30
0.0
 11
467.7205155781108
 21
225.9705601782606
 31
0.0
  0
LINE
  5
1A8A
330
1F
100
AcDbEntity
  8
OBRYS
  6
Continuous
100
AcDbLine
 10
469.5549575781108
 20
224.7508731782606
 30
0.0
 11
469.9828485781108
 21
224.3229811782606
 31
0.0
  0
LINE
  5
1A8B
330
1F
100
AcDbEntity
  8
OBRYS
  6
Continuous
100
AcDbLine
 10
437.7426095781107
 20
235.8132201782606
 30
0.0
 11
473.1426095781108
 21
235.8132201782606
 31
0.0
  0
LINE
  5
1A91
330
1F
100
AcDbEntity
  8
OBRYS
  6
Continuous
100
AcDbLine
 10
438.4372915781108
 20
222.0832201782606
 30
0.0
 11
438.4372915781108
 21
228.7432201782606
 31
0.0
  0
LINE
  5
1A94
330
1F
100
AcDbEntity
  8
OBRYS
  6
Continuous
100
AcDbLine
 10
459.5426095781108
 20
223.8792461782606
 30
0.0
 11
460.5426095781108
 21
223.8792461782606
 31
0.0
  0
LINE
  5
1A96
330
1F
100
AcDbEntity
  8
OBRYS
  6
Continuous
100
AcDbLine
 10
439.3926095781108
 20
220.7632201782606
 30
0.0
 11
439.3925885781107
 21
220.7620151782606
 31
0.0
  0
LINE
  5
1A97
330
1F
100
AcDbEntity
  8
OBRYS
  6
Continuous
100
AcDbLine
 10
468.3426095781107
 20
223.8792461782606
 30
0.0
 11
469.3426095781107
 21
223.8792461782606
 31
0.0
  0
LINE
  5
1A99
330
1F
100
AcDbEntity
  8
OBRYS
  6
Continuous
100
AcDbLine
 10
465.1549575781108
 20
155.7008731782606
 30
0.0
 11
465.5828485781107
 21
155.2729811782606
 31
0.0
  0
LINE
  5
1A9A
330
1F
100
AcDbEntity
  8
OBRYS
  6
Continuous
100
AcDbLine
 10
468.1302615781107
 20
224.7508731782606
 30
0.0
 11
467.7023705781108
 21
224.3229811782606
 31
0.0
  0
LINE
  5
1A9C
330
1F
100
AcDbEntity
  8
OBRYS
  6
Continuous
100
AcDbLine
 10
463.7302615781107
 20
155.7008731782606
 30
0.0
 11
463.3023705781108
 21
155.2729811782606
 31
0.0
  0
LINE
  5
1A9D
330
1F
100
AcDbEntity
  8
OBRYS
  6
Continuous
100
AcDbLine
 10
469.3499495781107
 20
224.3411261782606
 30
0.0
 11
468.3352695781107
 21
224.3411261782606
 31
0.0
  0
LINE
  5
1AAA
330
1F
100
AcDbEntity
  8
OBRYS
  6
Continuous
100
AcDbLine
 10
469.5549575781108
 20
226.1755681782606
 30
0.0
 11
469.9828485781108
 21
226.6034591782606
 31
0.0
  0
LINE
  5
1AAC
330
1F
100
AcDbEntity
  8
OBRYS
  6
Continuous
100
AcDbLine
 10
454.4479265781108
 20
228.7432201782606
 30
0.0
 11
454.4479265781108
 21
222.0832201782606
 31
0.0
  0
LINE
  5
1AB0
330
1F
100
AcDbEntity
  8
OBRYS
  6
Continuous
100
AcDbLine
 10
467.5840305781108
 20
168.4132201782607
 30
0.0
 11
467.5840305781108
 21
188.0847931782606
 31
0.0
  0
LINE
  5
1AB7
330
1F
100
AcDbEntity
  8
OBRYS
  6
Continuous
100
AcDbLine
 10
446.4426095781108
 20
235.3289111782606
 30
0.0
 11
446.4426095781108
 21
235.8132201782606
 31
0.0
  0
LINE
  5
1AC0
330
1F
100
AcDbEntity
  8
OBRYS
  6
Continuous
100
AcDbLine
 10
446.4426095781108
 20
146.0132201782606
 30
0.0
 11
446.4426095781108
 21
146.4975291782606
 31
0.0
  0
LINE
  5
1AC9
330
1F
100
AcDbEntity
  8
OBRYS
  6
Continuous
100
AcDbLine
 10
468.0991065781107
 20
189.3282961782606
 30
0.0
 11
469.9275335781107
 21
191.1567231782606
 31
0.0
  0
LINE
  5
1ACB
330
1F
100
AcDbEntity
  8
OBRYS
  6
Continuous
100
AcDbLine
 10
453.1926095781108
 20
151.8285551782606
 30
0.0
 11
439.6925545781108
 21
151.8285551782606
 31
0.0
  0
LINE
  5
1AD9
330
1F
100
AcDbEntity
  8
OBRYS
  6
Continuous
100
AcDbLine
 10
439.6926095781108
 20
160.9978851782606
 30
0.0
 11
453.1926645781107
 21
160.9978851782606
 31
0.0
  0
LINE
  5
1ADB
330
1F
100
AcDbEntity
  8
OBRYS
  6
Continuous
100
AcDbLine
 10
438.4372915781108
 20
153.0831931782606
 30
0.0
 11
438.4372915781108
 21
159.7432471782606
 31
0.0
  0
LINE
  5
1AE3
330
1F
100
AcDbEntity
  8
OBRYS
  6
Continuous
100
AcDbLine
 10
470.5840305781108
 20
192.7416471782606
 30
0.0
 11
470.5840305781108
 21
213.4132201782607
 31
0.0
  0
LINE
  5
1AE5
330
1F
100
AcDbEntity
  8
OBRYS
  6
Continuous
100
AcDbLine
 10
454.4479265781108
 20
159.7432471782606
 30
0.0
 11
454.4479265781108
 21
153.0831931782606
 31
0.0
  0
LINE
  5
1AEA
330
1F
100
AcDbEntity
  8
OBRYS
  6
Continuous
100
AcDbLine
 10
469.7982445781108
 20
191.2860121782606
 30
0.0
 11
467.9698175781107
 21
189.4575851782606
 31
0.0
  0
LINE
  5
1AF4
330
1F
100
AcDbEntity
  8
OBRYS
  6
Continuous
100
AcDbLine
 10
464.4433400696378
 20
230.1438116403413
 30
0.0
 11
464.4427204210049
 21
232.7329960463578
 31
0.0
  0
LINE
  5
1AF8
330
1F
100
AcDbEntity
  8
OBRYS
  6
Continuous
100
AcDbLine
 10
470.4011885781107
 20
213.4132201782607
 30
0.0
 11
470.4011885781107
 21
192.7416471782606
 31
0.0
  0
LINE
  5
1B00
330
1F
100
AcDbEntity
  8
OBRYS
  6
Continuous
100
AcDbLine
 10
469.9426095781108
 20
198.9132201782606
 30
0.0
 11
469.9426095781108
 21
197.3132201782606
 31
0.0
  0
LINE
  5
1B0B
330
1F
100
AcDbEntity
  8
OBRYS
  6
Continuous
100
AcDbLine
 10
464.442378833721
 20
161.093838648883
 30
0.0
 11
464.4426095781108
 21
168.4132201782606
 31
0.0
  0
LINE
  5
1B0D
330
1F
100
AcDbEntity
  8
OBRYS
  6
Continuous
100
AcDbLine
 10
467.4011885781107
 20
188.0847931782606
 30
0.0
 11
467.4011885781107
 21
168.4132201782607
 31
0.0
  0
LINE
  5
1B0F
330
1F
100
AcDbEntity
  8
OBRYS
  6
Continuous
100
AcDbLine
 10
465.7426065781107
 20
199.7132201782606
 30
0.0
 11
469.1426095781108
 21
199.7132201782606
 31
0.0
  0
LINE
  5
1B10
330
1F
100
AcDbEntity
  8
OBRYS
  6
Continuous
100
AcDbLine
 10
464.4427204357936
 20
149.0934450615663
 30
0.0
 11
464.4423788345533
 21
151.7209127076389
 31
0.0
  0
LINE
  5
1B19
330
1F
100
AcDbEntity
  8
OBRYS
  6
Continuous
100
AcDbLine
 10
469.1426095781108
 20
196.5132201782606
 30
0.0
 11
465.7426095781107
 21
196.5132201782606
 31
0.0
  0
LINE
  5
1B1A
330
1F
100
AcDbEntity
  8
OBRYS
  6
Continuous
100
AcDbLine
 10
464.9426095781108
 20
197.3132201782606
 30
0.0
 11
464.9426095781108
 21
198.9132231782606
 31
0.0
  0
LINE
  5
1B2A
330
1F
100
AcDbEntity
  8
OBRYS
  6
Continuous
100
AcDbLine
 10
472.4926095781107
 20
153.0265311782607
 30
0.0
 11
472.4926095781107
 21
159.7882201782606
 31
0.0
  0
LINE
  5
1B2E
330
1F
100
AcDbEntity
  8
OBRYS
  6
Continuous
100
AcDbLine
 10
464.4426095781108
 20
213.4132201782606
 30
0.0
 11
464.442378833721
 21
220.7326017076383
 31
0.0
  0
LINE
  5
1B3C
330
1F
100
AcDbEntity
  8
OBRYS
  6
Continuous
100
AcDbLine
 10
456.3926095781108
 20
159.7995161782606
 30
0.0
 11
456.3926095781108
 21
153.0152361782606
 31
0.0
  0
LINE
  5
1B47
330
1F
100
AcDbEntity
  8
OBRYS
  6
Continuous
100
AcDbLine
 10
454.4926095781107
 20
153.0152361782606
 30
0.0
 11
454.4926095781107
 21
159.7995161782606
 31
0.0
  0
LINE
  5
1B4B
330
1F
100
AcDbEntity
  8
OBRYS
  6
Continuous
100
AcDbLine
 10
446.4426095781108
 20
213.4132201782606
 30
0.0
 11
446.4426095781108
 21
220.3868611782606
 31
0.0
  0
LINE
  5
1B51
330
1F
100
AcDbEntity
  8
OBRYS
  6
Continuous
100
AcDbLine
 10
454.4926095781107
 20
222.0269251782606
 30
0.0
 11
454.4926095781107
 21
228.8495161782606
 31
0.0
  0
LINE
  5
1B65
330
1F
100
AcDbEntity
  8
OBRYS
  6
Continuous
100
AcDbLine
 10
457.6812645781108
 20
220.7269741782606
 30
0.0
 11
471.1926095781108
 21
220.7382201782606
 31
0.0
  0
LINE
  5
1B74
330
1F
100
AcDbEntity
  8
OBRYS
  6
Continuous
100
AcDbLine
 10
457.6812645781108
 20
151.7152851782606
 30
0.0
 11
471.1926095781108
 21
151.7265311782607
 31
0.0
  0
LINE
  5
1B8B
330
1F
100
AcDbEntity
  8
OBRYS
  6
Continuous
100
AcDbLine
 10
471.1926095781108
 20
161.0882201782607
 30
0.0
 11
457.6812645781108
 21
161.0994661782606
 31
0.0
  0
LINE
  5
1B96
330
1F
100
AcDbEntity
  8
OBRYS
  6
Continuous
100
AcDbLine
 10
456.3926095781108
 20
228.8495161782606
 30
0.0
 11
456.3926095781108
 21
222.0269251782606
 31
0.0
  0
LINE
  5
1B9A
330
1F
100
AcDbEntity
  8
OBRYS
  6
Continuous
100
AcDbLine
 10
471.2054155611648
 20
230.138157102422
 30
0.0
 11
457.6812645781108
 21
230.1494661782606
 31
0.0
  0
LINE
  5
1B9F
330
1F
100
AcDbEntity
  8
OBRYS
  6
Continuous
100
AcDbLine
 10
446.4427212086167
 20
149.089715341056
 30
0.0
 11
446.4426095655347
 21
151.7152854282689
 31
0.0
  0
LINE
  5
1BA0
330
1F
100
AcDbEntity
  8
OBRYS
  6
Continuous
100
AcDbLine
 10
453.2039535781108
 20
230.1494661782606
 30
0.0
 11
439.6812650819629
 21
230.1494666782441
 31
0.0
  0
LINE
  5
1BB3
330
1F
100
AcDbEntity
  8
OBRYS
  6
Continuous
100
AcDbLine
 10
439.6812650819629
 20
220.7269746782772
 30
0.0
 11
453.2039535781108
 21
220.7269741782606
 31
0.0
  0
LINE
  5
1BB7
330
1F
100
AcDbEntity
  8
OBRYS
  6
Continuous
100
AcDbLine
 10
446.442609590686
 20
161.0994664282524
 30
0.0
 11
446.4426095781108
 21
168.4132201782606
 31
0.0
  0
LINE
  5
1BB8
330
1F
100
AcDbEntity
  8
OBRYS
  6
Continuous
100
AcDbLine
 10
446.4426095655355
 20
230.1494664282523
 30
0.0
 11
446.4427211936196
 21
232.7367252640748
 31
0.0
  0
LINE
  5
1BB9
330
1F
100
AcDbEntity
  8
OBRYS
  6
Continuous
100
AcDbLine
 10
459.5352695781108
 20
226.5853151782606
 30
0.0
 11
460.5499495781108
 21
226.5853151782606
 31
0.0
  0
LINE
  5
1BBE
330
1F
100
AcDbEntity
  8
OBRYS
  6
Continuous
100
AcDbLine
 10
460.7549575781108
 20
224.7508731782606
 30
0.0
 11
461.1828485781107
 21
224.3229811782606
 31
0.0
  0
LINE
  5
1BC0
330
1F
100
AcDbEntity
  8
OBRYS
  6
Continuous
100
AcDbLine
 10
460.5426095781108
 20
227.0471951782606
 30
0.0
 11
459.5426095781108
 21
227.0471951782606
 31
0.0
  0
LINE
  5
1BC4
330
1F
100
AcDbEntity
  8
OBRYS
  6
Continuous
100
AcDbLine
 10
468.3352695781107
 20
226.5853151782606
 30
0.0
 11
469.3499495781107
 21
226.5853151782606
 31
0.0
  0
LINE
  5
1BC5
330
1F
100
AcDbEntity
  8
OBRYS
  6
Continuous
100
AcDbLine
 10
473.1426095781108
 20
146.0132201782606
 30
0.0
 11
437.7426095781107
 21
146.0132201782606
 31
0.0
  0
LINE
  5
1BC6
330
1F
100
AcDbEntity
  8
OBRYS
  6
Continuous
100
AcDbLine
 10
464.4426095781108
 20
235.3289131782606
 30
0.0
 11
464.4426095781108
 21
235.8132201782606
 31
0.0
  0
LINE
  5
1BC9
330
1F
100
AcDbEntity
  8
OBRYS
  6
Continuous
100
AcDbLine
 10
441.5426095781108
 20
223.8792461782606
 30
0.0
 11
442.5426095781108
 21
223.8792461782606
 31
0.0
  0
LINE
  5
1BCA
330
1F
100
AcDbEntity
  8
OBRYS
  6
Continuous
100
AcDbLine
 10
460.7549575781108
 20
226.1755681782606
 30
0.0
 11
461.1828485781107
 21
226.6034591782606
 31
0.0
  0
LINE
  5
1BCB
330
1F
100
AcDbEntity
  8
OBRYS
  6
Continuous
100
AcDbLine
 10
437.5426095781108
 20
146.4975301782606
 30
0.0
 11
473.3426095781107
 21
146.4975301782606
 31
0.0
  0
LINE
  5
1BCE
330
1F
100
AcDbEntity
  8
OBRYS
  6
Continuous
100
AcDbLine
 10
459.3302615781108
 20
226.1755681782606
 30
0.0
 11
458.9023705781107
 21
226.6034591782606
 31
0.0
  0
LINE
  5
1BCF
330
1F
100
AcDbEntity
  8
OBRYS
  6
Continuous
100
AcDbLine
 10
441.5352695781108
 20
226.5853151782606
 30
0.0
 11
442.5499495781108
 21
226.5853151782606
 31
0.0
  0
LINE
  5
1BD2
330
1F
100
AcDbEntity
  8
OBRYS
  6
Continuous
100
AcDbLine
 10
472.4926095781107
 20
222.0382201782606
 30
0.0
 11
472.4926095781107
 21
228.8382201782606
 31
0.0
  0
LINE
  5
1BD4
330
1F
100
AcDbEntity
  8
OBRYS
  6
Continuous
100
AcDbLine
 10
441.3302615781108
 20
224.7508731782606
 30
0.0
 11
440.9023705781107
 21
224.3229811782606
 31
0.0
  0
LINE
  5
1BD5
330
1F
100
AcDbEntity
  8
OBRYS
  6
Continuous
100
AcDbLine
 10
460.5499495781108
 20
224.3411261782606
 30
0.0
 11
459.5352695781108
 21
224.3411261782606
 31
0.0
  0
LINE
  5
1BD8
330
1F
100
AcDbEntity
  8
OBRYS
  6
Continuous
100
AcDbLine
 10
443.1647035781107
 20
225.9705601782606
 30
0.0
 11
443.1647035781107
 21
224.9558801782606
 31
0.0
  0
LINE
  5
1BDA
330
1F
100
AcDbEntity
  8
OBRYS
  6
Continuous
100
AcDbLine
 10
442.5499495781108
 20
224.3411261782606
 30
0.0
 11
441.5352695781108
 21
224.3411261782606
 31
0.0
  0
LINE
  5
1BDB
330
1F
100
AcDbEntity
  8
OBRYS
  6
Continuous
100
AcDbLine
 10
442.7549575781108
 20
226.1755681782606
 30
0.0
 11
443.1828485781107
 21
226.6034591782606
 31
0.0
  0
LINE
  5
1BE1
330
1F
100
AcDbEntity
  8
OBRYS
  6
Continuous
100
AcDbLine
 10
458.9205155781107
 20
224.9558801782606
 30
0.0
 11
458.9205155781107
 21
225.9705601782606
 31
0.0
  0
LINE
  5
1BE2
330
1F
100
AcDbEntity
  8
OBRYS
  6
Continuous
100
AcDbLine
 10
461.1647035781107
 20
225.9705601782606
 30
0.0
 11
461.1647035781107
 21
224.9558801782606
 31
0.0
  0
LINE
  5
1BE3
330
1F
100
AcDbEntity
  8
OBRYS
  6
Continuous
100
AcDbLine
 10
463.9426095781108
 20
154.8292461782606
 30
0.0
 11
464.9426095781108
 21
154.8292461782606
 31
0.0
  0
LINE
  5
1BE4
330
1F
100
AcDbEntity
  8
OBRYS
  6
Continuous
100
AcDbLine
 10
440.9205155781107
 20
224.9558801782606
 30
0.0
 11
440.9205155781107
 21
225.9705601782606
 31
0.0
  0
LINE
  5
1BE7
330
1F
100
AcDbEntity
  8
OBRYS
  6
Continuous
100
AcDbLine
 10
441.3302615781108
 20
226.1755681782606
 30
0.0
 11
440.9023705781107
 21
226.6034591782606
 31
0.0
  0
LINE
  5
1BE8
330
1F
100
AcDbEntity
  8
OBRYS
  6
Continuous
100
AcDbLine
 10
442.5426095781108
 20
227.0471951782606
 30
0.0
 11
441.5426095781108
 21
227.0471951782606
 31
0.0
  0
LINE
  5
1BE9
330
1F
100
AcDbEntity
  8
OBRYS
  6
Continuous
100
AcDbLine
 10
442.7549575781108
 20
224.7508731782606
 30
0.0
 11
443.1828485781107
 21
224.3229811782606
 31
0.0
  0
LINE
  5
1BEF
330
1F
100
AcDbEntity
  8
OBRYS
  6
Continuous
100
AcDbLine
 10
464.4426095781108
 20
146.0132201782606
 30
0.0
 11
464.4426095781108
 21
146.4975281782606
 31
0.0
  0
LINE
  5
1BF0
330
1F
100
AcDbEntity
  8
OBRYS
  6
Continuous
100
AcDbLine
 10
459.3302615781108
 20
224.7508731782606
 30
0.0
 11
458.9023705781107
 21
224.3229811782606
 31
0.0
  0
LINE
  5
1BF1
330
1F
100
AcDbEntity
  8
OBRYS
  6
Continuous
100
AcDbLine
 10
473.3426095781107
 20
235.6132201782606
 30
0.0
 11
473.3426095781108
 21
146.2132201782607
 31
0.0
  0
LINE
  5
1BF8
330
1F
100
AcDbEntity
  8
OBRYS
  6
Continuous
100
AcDbLine
 10
462.3405065781107
 20
156.9132201782606
 30
0.0
 11
463.2176095781107
 21
156.9132201782606
 31
0.0
  0
LINE
  5
1BF9
330
1F
100
AcDbEntity
  8
OBRYS
  6
Continuous
100
AcDbLine
 10
463.2176095781107
 20
155.9132201782606
 30
0.0
 11
462.3405065781107
 21
155.9132201782606
 31
0.0
  0
LINE
  5
1BFA
330
1F
100
AcDbEntity
  8
OBRYS
  6
Continuous
100
AcDbLine
 10
458.8176095781108
 20
224.9632201782606
 30
0.0
 11
457.9405065781107
 21
224.9632201782606
 31
0.0
  0
LINE
  5
1BFB
330
1F
100
AcDbEntity
  8
OBRYS
  6
Continuous
100
AcDbLine
 10
468.3426095781107
 20
226.6882201782606
 30
0.0
 11
468.3426095781107
 21
228.2697761782606
 31
0.0
  0
LINE
  5
1BFC
330
1F
100
AcDbEntity
  8
OBRYS
  6
Continuous
100
AcDbLine
 10
464.9426095781108
 20
155.1882201782606
 30
0.0
 11
464.9426095781108
 21
153.5547401782606
 31
0.0
  0
LINE
  5
1BFD
330
1F
100
AcDbEntity
  8
OBRYS
  6
Continuous
100
AcDbLine
 10
460.5426095781108
 20
228.2697761782606
 30
0.0
 11
460.5426095781108
 21
226.6882201782606
 31
0.0
  0
LINE
  5
1BFE
330
1F
100
AcDbEntity
  8
OBRYS
  6
Continuous
100
AcDbLine
 10
463.9426095781108
 20
153.5566661782606
 30
0.0
 11
463.9426095781108
 21
155.1882201782606
 31
0.0
  0
LINE
  5
1BFF
330
1F
100
AcDbEntity
  8
OBRYS
  6
Continuous
100
AcDbLine
 10
466.5447125781107
 20
155.9132201782606
 30
0.0
 11
465.6676095781108
 21
155.9132201782606
 31
0.0
  0
LINE
  5
1C00
330
1F
100
AcDbEntity
  8
OBRYS
  6
Continuous
100
AcDbLine
 10
469.3426095781107
 20
224.2382201782606
 30
0.0
 11
469.3426095781107
 21
222.5547541782606
 31
0.0
  0
LINE
  5
1C01
330
1F
100
AcDbEntity
  8
OBRYS
  6
Continuous
100
AcDbLine
 10
470.9447125781108
 20
224.9632201782606
 30
0.0
 11
470.0676095781108
 21
224.9632201782606
 31
0.0
  0
LINE
  5
1C02
330
1F
100
AcDbEntity
  8
OBRYS
  6
Continuous
100
AcDbLine
 10
468.3426095781107
 20
222.5566691782606
 30
0.0
 11
468.3426095781107
 21
224.2382201782606
 31
0.0
  0
LINE
  5
1C03
330
1F
100
AcDbEntity
  8
OBRYS
  6
Continuous
100
AcDbLine
 10
463.9426095781108
 20
157.6382201782606
 30
0.0
 11
463.9426095781108
 21
159.2697741782606
 31
0.0
  0
LINE
  5
1C04
330
1F
100
AcDbEntity
  8
OBRYS
  6
Continuous
100
AcDbLine
 10
457.9405065781107
 20
225.9632201782606
 30
0.0
 11
458.8176095781108
 21
225.9632201782606
 31
0.0
  0
LINE
  5
1C05
330
1F
100
AcDbEntity
  8
OBRYS
  6
Continuous
100
AcDbLine
 10
466.7405065781108
 20
225.9632201782606
 30
0.0
 11
467.6176095781107
 21
225.9632201782606
 31
0.0
  0
LINE
  5
1C06
330
1F
100
AcDbEntity
  8
OBRYS
  6
Continuous
100
AcDbLine
 10
470.0676095781108
 20
225.9632201782606
 30
0.0
 11
470.9447125781108
 21
225.9632201782606
 31
0.0
  0
LINE
  5
1C07
330
1F
100
AcDbEntity
  8
OBRYS
  6
Continuous
100
AcDbLine
 10
459.5426095781108
 20
226.6882201782606
 30
0.0
 11
459.5426095781108
 21
228.2717111782606
 31
0.0
  0
LINE
  5
1C08
330
1F
100
AcDbEntity
  8
OBRYS
  6
Continuous
100
AcDbLine
 10
467.6176095781107
 20
224.9632201782606
 30
0.0
 11
466.7405065781108
 21
224.9632201782606
 31
0.0
  0
LINE
  5
1C09
330
1F
100
AcDbEntity
  8
OBRYS
  6
Continuous
100
AcDbLine
 10
469.3426095781107
 20
228.2717111782606
 30
0.0
 11
469.3426095781107
 21
226.6882201782606
 31
0.0
  0
LINE
  5
1C0A
330
1F
100
AcDbEntity
  8
OBRYS
  6
Continuous
100
AcDbLine
 10
459.5426095781108
 20
222.5547541782606
 30
0.0
 11
459.5426095781108
 21
224.2382201782606
 31
0.0
  0
LINE
  5
1C0B
330
1F
100
AcDbEntity
  8
OBRYS
  6
Continuous
100
AcDbLine
 10
450.3426095781107
 20
226.6882201782606
 30
0.0
 11
450.3426095781107
 21
228.2697761782606
 31
0.0
  0
LINE
  5
1C0C
330
1F
100
AcDbEntity
  8
OBRYS
  6
Continuous
100
AcDbLine
 10
449.6176095781107
 20
224.9632201782606
 30
0.0
 11
448.7405065781108
 21
224.9632201782606
 31
0.0
  0
LINE
  5
1C0D
330
1F
100
AcDbEntity
  8
OBRYS
  6
Continuous
100
AcDbLine
 10
452.0676095781108
 20
225.9632201782606
 30
0.0
 11
452.9447125781108
 21
225.9632201782606
 31
0.0
  0
LINE
  5
1C0E
330
1F
100
AcDbEntity
  8
OBRYS
  6
Continuous
100
AcDbLine
 10
450.3426095781107
 20
222.5566691782606
 30
0.0
 11
450.3426095781107
 21
224.2382201782606
 31
0.0
  0
LINE
  5
1C0F
330
1F
100
AcDbEntity
  8
OBRYS
  6
Continuous
100
AcDbLine
 10
452.9447125781108
 20
224.9632201782606
 30
0.0
 11
452.0676095781108
 21
224.9632201782606
 31
0.0
  0
LINE
  5
1C10
330
1F
100
AcDbEntity
  8
OBRYS
  6
Continuous
100
AcDbLine
 10
451.3426095781107
 20
228.2717111782606
 30
0.0
 11
451.3426095781107
 21
226.6882201782606
 31
0.0
  0
LINE
  5
1C12
330
1F
100
AcDbEntity
  8
OBRYS
  6
Continuous
100
AcDbLine
 10
451.3426095781107
 20
224.2382201782606
 30
0.0
 11
451.3426095781107
 21
222.5547541782606
 31
0.0
  0
LINE
  5
1C16
330
1F
100
AcDbEntity
  8
OBRYS
  6
Continuous
100
AcDbLine
 10
448.7405065781108
 20
225.9632201782606
 30
0.0
 11
449.6176095781107
 21
225.9632201782606
 31
0.0
  0
LINE
  5
1C2E
330
1F
100
AcDbEntity
  8
OBRYS
  6
Continuous
100
AcDbLine
 10
473.3426095781107
 20
235.3289101782606
 30
0.0
 11
437.5426095781108
 21
235.3289101782606
 31
0.0
  0
LINE
  5
1C2F
330
1F
100
AcDbEntity
  8
OBRYS
  6
Continuous
100
AcDbLine
 10
456.4372915781108
 20
153.0831931782606
 30
0.0
 11
456.4372915781108
 21
159.7432471782606
 31
0.0
  0
LINE
  5
1C45
330
1F
100
AcDbEntity
  8
OBRYS
  6
Continuous
100
AcDbLine
 10
471.1926095781108
 20
151.8285551782606
 30
0.0
 11
457.6925545781108
 21
151.8285551782606
 31
0.0
  0
LINE
  5
1C53
330
1F
100
AcDbEntity
  8
OBRYS
  6
Continuous
100
AcDbLine
 10
457.6926095781108
 20
160.9978851782606
 30
0.0
 11
471.1926645781107
 21
160.9978851782606
 31
0.0
  0
LINE
  5
1C5D
330
1F
100
AcDbEntity
  8
OBRYS
  6
Continuous
100
AcDbLine
 10
472.4479265781108
 20
159.7432471782606
 30
0.0
 11
472.4479265781108
 21
153.0831931782606
 31
0.0
  0
LINE
  5
1C60
330
1F
100
AcDbEntity
  8
OBRYS
  6
Continuous
100
AcDbLine
 10
445.9426095781108
 20
153.5566661782606
 30
0.0
 11
445.9426095781108
 21
155.1882201782606
 31
0.0
  0
LINE
  5
1C62
330
1F
100
AcDbEntity
  8
OBRYS
  6
Continuous
100
AcDbLine
 10
445.9426095781108
 20
157.6382201782606
 30
0.0
 11
445.9426095781108
 21
159.2697741782606
 31
0.0
  0
LINE
  5
1C64
330
1F
100
AcDbEntity
  8
OBRYS
  6
Continuous
100
AcDbLine
 10
446.9426095781108
 20
155.1882201782606
 30
0.0
 11
446.9426095781108
 21
153.5547401782606
 31
0.0
  0
LINE
  5
1C68
330
1F
100
AcDbEntity
  8
OBRYS
  6
Continuous
100
AcDbLine
 10
445.2176095781107
 20
155.9132201782606
 30
0.0
 11
444.3405065781107
 21
155.9132201782606
 31
0.0
  0
LINE
  5
1C6B
330
1F
100
AcDbEntity
  8
OBRYS
  6
Continuous
100
AcDbLine
 10
447.6676095781108
 20
156.9132201782606
 30
0.0
 11
448.5447125781107
 21
156.9132201782606
 31
0.0
  0
LINE
  5
1C6D
330
1F
100
AcDbEntity
  8
OBRYS
  6
Continuous
100
AcDbLine
 10
444.3405065781107
 20
156.9132201782606
 30
0.0
 11
445.2176095781107
 21
156.9132201782606
 31
0.0
  0
LINE
  5
1C6E
330
1F
100
AcDbEntity
  8
OBRYS
  6
Continuous
100
AcDbLine
 10
448.5447125781107
 20
155.9132201782606
 30
0.0
 11
447.6676095781108
 21
155.9132201782606
 31
0.0
  0
LINE
  5
1C70
330
1F
100
AcDbEntity
  8
OBRYS
  6
Continuous
100
AcDbLine
 10
446.9426095781108
 20
159.2717001782606
 30
0.0
 11
446.9426095781108
 21
157.6382201782606
 31
0.0
  0
LINE
  5
1C91
330
1F
100
AcDbEntity
  8
OBRYS
  6
Continuous
100
AcDbLine
 10
464.4426095781108
 20
219.4233271782606
 30
0.0
 11
464.4426095781108
 21
219.4134611782606
 31
0.0
  0
LINE
  5
1CAF
330
1F
100
AcDbEntity
  8
OBRYS
  6
Continuous
100
AcDbLine
 10
464.9426095781108
 20
157.9971951782607
 30
0.0
 11
463.9426095781108
 21
157.9971951782607
 31
0.0
  0
LINE
  5
1CB4
330
1F
100
AcDbEntity
  8
OBRYS
  6
Continuous
100
AcDbLine
 10
465.5647035781107
 20
156.9205601782606
 30
0.0
 11
465.5647035781107
 21
155.9058801782606
 31
0.0
  0
LINE
  5
1CBB
330
1F
100
AcDbEntity
  8
OBRYS
  6
Continuous
100
AcDbLine
 10
442.8861125781107
 20
191.3981441782606
 30
0.0
 11
441.0576855781108
 21
189.5697171782606
 31
0.0
  0
LINE
  5
1CBE
330
1F
100
AcDbEntity
  8
OBRYS
  6
Continuous
100
AcDbLine
 10
464.9499495781108
 20
155.2911261782606
 30
0.0
 11
463.9352695781108
 21
155.2911261782606
 31
0.0
  0
LINE
  5
1CC6
330
1F
100
AcDbEntity
  8
OBRYS
  6
Continuous
100
AcDbLine
 10
440.3505785781107
 20
190.2768241782606
 30
0.0
 11
442.1790055781108
 21
192.1052511782606
 31
0.0
  0
LINE
  5
1CC8
330
1F
100
AcDbEntity
  8
OBRYS
  6
Continuous
100
AcDbLine
 10
443.4426095781108
 20
213.4132201782606
 30
0.0
 11
443.4426095781108
 21
192.7416471782606
 31
0.0
  0
LINE
  5
1CCC
330
1F
100
AcDbEntity
  8
OBRYS
  6
Continuous
100
AcDbLine
 10
465.1549575781108
 20
157.1255681782606
 30
0.0
 11
465.5828485781107
 21
157.5534591782607
 31
0.0
  0
LINE
  5
1CD2
330
1F
100
AcDbEntity
  8
OBRYS
  6
Continuous
100
AcDbLine
 10
439.4426095781108
 20
168.4132201782606
 30
0.0
 11
439.4426095781108
 21
188.0847931782606
 31
0.0
  0
LINE
  5
1CD4
330
1F
100
AcDbEntity
  8
OBRYS
  6
Continuous
100
AcDbLine
 10
473.3426095781108
 20
168.4132201782607
 30
0.0
 11
437.5426095781107
 21
168.4132201782606
 31
0.0
  0
LINE
  5
1CD9
330
1F
100
AcDbEntity
  8
OBRYS
  6
Continuous
100
AcDbLine
 10
439.6812645781108
 20
151.7152851782606
 30
0.0
 11
453.2039540742587
 21
151.7152856782772
 31
0.0
  0
LINE
  5
1CDB
330
1F
100
AcDbEntity
  8
OBRYS
  6
Continuous
100
AcDbLine
 10
440.4426095781108
 20
188.0847931782606
 30
0.0
 11
440.4426095781108
 21
168.4132201782606
 31
0.0
  0
LINE
  5
1CE0
330
1F
100
AcDbEntity
  8
OBRYS
  6
Continuous
100
AcDbLine
 10
437.5426095781107
 20
213.4132201782606
 30
0.0
 11
473.3426095781107
 21
213.4132201782607
 31
0.0
  0
LINE
  5
1CE1
330
1F
100
AcDbEntity
  8
OBRYS
  6
Continuous
100
AcDbLine
 10
463.3205155781107
 20
155.9058801782606
 30
0.0
 11
463.3205155781107
 21
156.9205601782606
 31
0.0
  0
LINE
  5
1CE2
330
1F
100
AcDbEntity
  8
OBRYS
  6
Continuous
100
AcDbLine
 10
438.3926095781108
 20
159.7995161782606
 30
0.0
 11
438.3926095781108
 21
153.0152361782606
 31
0.0
  0
LINE
  5
1CEA
330
1F
100
AcDbEntity
  8
OBRYS
  6
Continuous
100
AcDbLine
 10
463.9352695781108
 20
157.5353151782606
 30
0.0
 11
464.9499495781108
 21
157.5353151782606
 31
0.0
  0
LINE
  5
1CEE
330
1F
100
AcDbEntity
  8
OBRYS
  6
Continuous
100
AcDbLine
 10
442.4426095781108
 20
192.7416471782606
 30
0.0
 11
442.4426095781108
 21
213.4132201782606
 31
0.0
  0
LINE
  5
1CFC
330
1F
100
AcDbEntity
  8
OBRYS
  6
Continuous
100
AcDbLine
 10
446.4426093300368
 20
220.7269744282689
 30
0.0
 11
446.4426095781108
 21
213.5155851782606
 31
0.0
  0
LINE
  5
1D0A
330
1F
100
AcDbEntity
  8
OBRYS
  6
Continuous
100
AcDbLine
 10
473.3426095781108
 20
149.4552501782607
 30
0.0
 11
437.5426095781107
 21
149.4552501782606
 31
0.0
  0
LINE
  5
1D0D
330
1F
100
AcDbEntity
  8
OBRYS
  6
Continuous
100
AcDbLine
 10
453.2039540742587
 20
161.0994666782441
 30
0.0
 11
439.6812645781108
 21
161.0994661782606
 31
0.0
  0
LINE
  5
1D0E
330
1F
100
AcDbEntity
  8
OBRYS
  6
Continuous
100
AcDbLine
 10
437.5426095781107
 20
149.0878711782606
 30
0.0
 11
473.3426095781108
 21
149.0952891782607
 31
0.0
  0
LINE
  5
1D0F
330
1F
100
AcDbEntity
  8
OBRYS
  6
Continuous
100
AcDbLine
 10
437.5426095781107
 20
232.3711901782606
 30
0.0
 11
473.3426095781107
 21
232.3711901782607
 31
0.0
  0
LINE
  5
1D15
330
1F
100
AcDbEntity
  8
OBRYS
  6
Continuous
100
AcDbLine
 10
438.3926095781108
 20
228.8495161782606
 30
0.0
 11
438.3926095781108
 21
222.0269251782606
 31
0.0
  0
LINE
  5
1D29
330
1F
100
AcDbEntity
  8
OBRYS
  6
Continuous
100
AcDbLine
 10
437.5426095781107
 20
232.7385691782606
 30
0.0
 11
473.3426095781107
 21
232.7311521782607
 31
0.0
  0
ARC
  5
1D63
330
1F
100
AcDbEntity
  8
OBRYS
  6
Continuous
100
AcDbCircle
 10
439.6926095781108
 20
159.7995161782606
 30
0.0
 40
1.3
100
AcDbArc
 50
90.50000000000055
 51
180.0
  0
ARC
  5
1D65
330
1F
100
AcDbEntity
  8
OBRYS
  6
Continuous
100
AcDbCircle
 10
-442.5426095781108
 20
188.0847931782606
 30
0.0
 40
3.1
210
0.0
220
0.0
230
-1.0
100
AcDbArc
 50
0.0
 51
45.0
  0
ARC
  5
1D66
330
1F
100
AcDbEntity
  8
OBRYS
  6
Continuous
100
AcDbCircle
 10
442.5426095781108
 20
188.0847931782606
 30
0.0
 40
2.1
100
AcDbArc
 50
135.0
 51
180.0
  0
ARC
  5
1D68
330
1F
100
AcDbEntity
  8
OBRYS
  6
Continuous
100
AcDbCircle
 10
439.6926095781108
 20
222.0269251782606
 30
0.0
 40
1.3
100
AcDbArc
 50
180.0
 51
269.4999999999994
  0
ARC
  5
1D6A
330
1F
100
AcDbEntity
  8
OBRYS
  6
Continuous
100
AcDbCircle
 10
-441.5426095781108
 20
192.7416471782606
 30
0.0
 40
1.9
210
0.0
220
0.0
230
-1.0
100
AcDbArc
 50
180.0
 51
224.9999999999987
  0
ARC
  5
1D6B
330
1F
100
AcDbEntity
  8
OBRYS
  6
Continuous
100
AcDbCircle
 10
439.6926095781108
 20
228.8495161782606
 30
0.0
 40
1.3
100
AcDbArc
 50
90.50000000000055
 51
180.0
  0
ARC
  5
1D6F
330
1F
100
AcDbEntity
  8
OBRYS
  6
Continuous
100
AcDbCircle
 10
-437.7426095781107
 20
146.2132201782606
 30
0.0
 40
0.2
210
0.0
220
0.0
230
-1.0
100
AcDbArc
 50
270.0
 51
0.0
  0
ARC
  5
1D70
330
1F
100
AcDbEntity
  8
OBRYS
  6
Continuous
100
AcDbCircle
 10
441.5426095781108
 20
192.7416471782606
 30
0.0
 40
0.8999999999999869
100
AcDbArc
 50
315.0000000000026
 51
0.0
  0
ARC
  5
1D72
330
1F
100
AcDbEntity
  8
OBRYS
  6
Continuous
100
AcDbCircle
 10
437.7426095781107
 20
235.6132201782606
 30
0.0
 40
0.2
100
AcDbArc
 50
90.0
 51
180.0
  0
ARC
  5
1D74
330
1F
100
AcDbEntity
  8
OBRYS
  6
Continuous
100
AcDbCircle
 10
439.6926095781108
 20
153.0152361782606
 30
0.0
 40
1.3
100
AcDbArc
 50
180.0
 51
269.4999999999994
  0
CIRCLE
  5
1D76
330
1F
100
AcDbEntity
  8
OBRYS
  6
Continuous
100
AcDbCircle
 10
446.4426095781108
 20
156.4132201782606
 30
0.0
 40
2.992125035431825
  0
ARC
  5
1D79
330
1F
100
AcDbEntity
  8
OBRYS
  6
Continuous
100
AcDbCircle
 10
453.1926095781108
 20
222.0269251782606
 30
0.0
 40
1.3
100
AcDbArc
 50
270.5000000000006
 51
0.0
  0
ARC
  5
1D7F
330
1F
100
AcDbEntity
  8
OBRYS
  6
Continuous
100
AcDbCircle
 10
457.6926095781108
 20
228.8495161782606
 30
0.0
 40
1.3
100
AcDbArc
 50
90.50000000000055
 51
180.0
  0
ARC
  5
1D80
330
1F
100
AcDbEntity
  8
OBRYS
  6
Continuous
100
AcDbCircle
 10
457.6926095781108
 20
153.0152361782606
 30
0.0
 40
1.3
100
AcDbArc
 50
180.0
 51
269.4999999999994
  0
ARC
  5
1D89
330
1F
100
AcDbEntity
  8
OBRYS
  6
Continuous
100
AcDbCircle
 10
453.1926095781108
 20
159.7995161782606
 30
0.0
 40
1.3
100
AcDbArc
 50
0.0
 51
89.49999999999942
  0
ARC
  5
1D8C
330
1F
100
AcDbEntity
  8
OBRYS
  6
Continuous
100
AcDbCircle
 10
453.1926095781108
 20
228.8495161782606
 30
0.0
 40
1.3
100
AcDbArc
 50
0.0
 51
89.49999999999942
  0
ARC
  5
1D8F
330
1F
100
AcDbEntity
  8
OBRYS
  6
Continuous
100
AcDbCircle
 10
459.5426095781108
 20
192.7416471782606
 30
0.0
 40
0.9
100
AcDbArc
 50
315.0000000000013
 51
0.0
  0
ARC
  5
1D92
330
1F
100
AcDbEntity
  8
OBRYS
  6
Continuous
100
AcDbCircle
 10
453.1926095781108
 20
153.0152361782606
 30
0.0
 40
1.3
100
AcDbArc
 50
270.5000000000006
 51
0.0
  0
ARC
  5
1D99
330
1F
100
AcDbEntity
  8
OBRYS
  6
Continuous
100
AcDbCircle
 10
-459.5426095781108
 20
192.7416471782606
 30
0.0
 40
1.9
210
0.0
220
0.0
230
-1.0
100
AcDbArc
 50
180.0
 51
224.9999999999987
  0
ARC
  5
1D9C
330
1F
100
AcDbEntity
  8
OBRYS
  6
Continuous
100
AcDbCircle
 10
457.6926095781108
 20
222.0269251782606
 30
0.0
 40
1.3
100
AcDbArc
 50
180.0
 51
269.4999999999994
  0
ARC
  5
1D9E
330
1F
100
AcDbEntity
  8
OBRYS
  6
Continuous
100
AcDbCircle
 10
457.6926095781108
 20
159.7995161782606
 30
0.0
 40
1.3
100
AcDbArc
 50
90.50000000000055
 51
180.0
  0
ARC
  5
1D9F
330
1F
100
AcDbEntity
  8
OBRYS
  6
Continuous
100
AcDbCircle
 10
-473.1426095781108
 20
146.2132201782606
 30
0.0
 40
0.2
210
0.0
220
0.0
230
-1.0
100
AcDbArc
 50
180.0
 51
270.0
  0
ARC
  5
1DA0
330
1F
100
AcDbEntity
  8
OBRYS
  6
Continuous
100
AcDbCircle
 10
471.1926095781108
 20
222.0382201782606
 30
0.0
 40
1.300000000000011
100
AcDbArc
 50
270.0
 51
0.0
  0
ARC
  5
1DA1
330
1F
100
AcDbEntity
  8
OBRYS
  6
Continuous
100
AcDbCircle
 10
473.1426095781108
 20
235.6132201782606
 30
0.0
 40
0.2
100
AcDbArc
 50
0.0
 51
90.0
  0
ARC
  5
1DA2
330
1F
100
AcDbEntity
  8
OBRYS
  6
Continuous
100
AcDbCircle
 10
471.1926095781108
 20
159.7882201782606
 30
0.0
 40
1.300000000000001
100
AcDbArc
 50
0.0
 51
90.0
  0
CIRCLE
  5
1DAA
330
1F
100
AcDbEntity
  8
OBRYS
  6
Continuous
100
AcDbCircle
 10
442.0426095781108
 20
225.4132201782606
 30
0.0
 40
2.98964178702984
  0
CIRCLE
  5
1DAD
330
1F
100
AcDbEntity
  8
OBRYS
  6
Continuous
100
AcDbCircle
 10
450.8426095781107
 20
225.4132201782606
 30
0.0
 40
2.989641787029825
  0
CIRCLE
  5
1DC3
330
1F
100
AcDbEntity
  8
OBRYS
  6
Continuous
100
AcDbCircle
 10
468.8426095781107
 20
225.4132201782606
 30
0.0
 40
2.989641787029825
  0
CIRCLE
  5
1DC7
330
1F
100
AcDbEntity
  8
OBRYS
  6
Continuous
100
AcDbCircle
 10
460.0426095781108
 20
225.4132201782606
 30
0.0
 40
2.98964178702984
  0
ARC
  5
1DD0
330
1F
100
AcDbEntity
  8
OBRYS
  6
Continuous
100
AcDbCircle
 10
-451.0426095781108
 20
198.9132201782606
 30
0.0
 40
0.8
210
0.0
220
0.0
230
-1.0
100
AcDbArc
 50
90.0
 51
180.0
  0
ARC
  5
1DDB
330
1F
100
AcDbEntity
  8
OBRYS
  6
Continuous
100
AcDbCircle
 10
-460.5426095781108
 20
188.0847931782606
 30
0.0
 40
3.1
210
0.0
220
0.0
230
-1.0
100
AcDbArc
 50
0.0
 51
45.0
  0
ARC
  5
1DE0
330
1F
100
AcDbEntity
  8
OBRYS
  6
Continuous
100
AcDbCircle
 10
-447.6426095781108
 20
197.3132201782606
 30
0.0
 40
0.8
210
0.0
220
0.0
230
-1.0
100
AcDbArc
 50
270.0
 51
0.0
  0
ARC
  5
1DE4
330
1F
100
AcDbEntity
  8
OBRYS
  6
Continuous
100
AcDbCircle
 10
-447.6426095781108
 20
198.9132201782606
 30
0.0
 40
0.8
210
0.0
220
0.0
230
-1.0
100
AcDbArc
 50
0.0002130000005119
 51
90.0
  0
ARC
  5
1DE6
330
1F
100
AcDbEntity
  8
OBRYS
  6
Continuous
100
AcDbCircle
 10
460.5426095781108
 20
188.0847931782606
 30
0.0
 40
2.1
100
AcDbArc
 50
135.0
 51
180.0
  0
CIRCLE
  5
1DE8
330
1F
100
AcDbEntity
  8
OBRYS
  6
Continuous
100
AcDbCircle
 10
464.4426095781108
 20
156.4132201782606
 30
0.0
 40
2.992125035431825
  0
ARC
  5
1DEF
330
1F
100
AcDbEntity
  8
OBRYS
  6
Continuous
100
AcDbCircle
 10
-451.0426095781108
 20
197.3132201782606
 30
0.0
 40
0.8
210
0.0
220
0.0
230
-1.0
100
AcDbArc
 50
180.0
 51
269.9997860000025
  0
ARC
  5
1DF5
330
1F
100
AcDbEntity
  8
OBRYS
  6
Continuous
100
AcDbCircle
 10
469.3426095781107
 20
188.0847931782606
 30
0.0
 40
1.941421356237309
100
AcDbArc
 50
135.0000000000018
 51
180.0
  0
ARC
  5
1DF6
330
1F
100
AcDbEntity
  8
OBRYS
  6
Continuous
100
AcDbCircle
 10
471.1926095781108
 20
228.8382201782606
 30
0.0
 40
1.300000000000001
100
AcDbArc
 50
0.0
 51
90.0
  0
ARC
  5
1DF8
330
1F
100
AcDbEntity
  8
OBRYS
  6
Continuous
100
AcDbCircle
 10
-469.1426095781108
 20
197.3132201782606
 30
0.0
 40
0.7999999999999952
210
0.0
220
0.0
230
-1.0
100
AcDbArc
 50
180.0
 51
270.0
  0
ARC
  5
1DFA
330
1F
100
AcDbEntity
  8
OBRYS
  6
Continuous
100
AcDbCircle
 10
468.3426095781107
 20
192.7416471782606
 30
0.0
 40
2.241421356237308
100
AcDbArc
 50
315.000000000001
 51
0.0
  0
ARC
  5
1DFC
330
1F
100
AcDbEntity
  8
OBRYS
  6
Continuous
100
AcDbCircle
 10
471.1926095781108
 20
153.0265311782607
 30
0.0
 40
1.299999999999983
100
AcDbArc
 50
270.0
 51
0.0
  0
ARC
  5
1DFE
330
1F
100
AcDbEntity
  8
OBRYS
  6
Continuous
100
AcDbCircle
 10
-469.1426095781108
 20
198.9132201782606
 30
0.0
 40
0.7999999999999952
210
0.0
220
0.0
230
-1.0
100
AcDbArc
 50
90.0
 51
180.0
  0
ARC
  5
1E04
330
1F
100
AcDbEntity
  8
OBRYS
  6
Continuous
100
AcDbCircle
 10
-465.7426095781107
 20
198.9132201782606
 30
0.0
 40
0.7999999999999952
210
0.0
220
0.0
230
-1.0
100
AcDbArc
 50
0.0002139999994727
 51
89.99978600000257
  0
ARC
  5
1E07
330
1F
100
AcDbEntity
  8
OBRYS
  6
Continuous
100
AcDbCircle
 10
-465.7426095781107
 20
197.3132201782606
 30
0.0
 40
0.7999999999999958
210
0.0
220
0.0
230
-1.0
100
AcDbArc
 50
270.0
 51
0.0
  0
ARC
  5
1E09
330
1F
100
AcDbEntity
  8
OBRYS
  6
Continuous
100
AcDbCircle
 10
-469.3426095781107
 20
188.0847931782606
 30
0.0
 40
1.758578643762689
210
0.0
220
0.0
230
-1.0
100
AcDbArc
 50
0.0
 51
45.0
  0
ARC
  5
1E0B
330
1F
100
AcDbEntity
  8
OBRYS
  6
Continuous
100
AcDbCircle
 10
-468.3426095781107
 20
192.7416471782606
 30
0.0
 40
2.058578643762688
210
0.0
220
0.0
230
-1.0
100
AcDbArc
 50
180.0
 51
225.0000000000011
  0
SPLINE
  5
1ED3
330
1F
100
AcDbEntity
  8
OBRYS
  6
Continuous
100
AcDbSpline
210
0.0
220
0.0
230
1.0
 70
    24
 71
     3
 72
     8
 73
     4
 74
     0
 42
0.000000001
 43
0.0000000001
 40
0.0
 40
0.0
 40
0.0
 40
0.0
 40
1.0
 40
1.0
 40
1.0
 40
1.0
 10
464.4426095311375
 20
162.5148694987802
 30
0.0
 10
464.4426095311375
 20
162.5074428000119
 30
0.0
 10
464.4426095311375
 20
162.500066073727
 30
0.0
 10
464.4426095311375
 20
162.4928084987802
 30
0.0
  0
LINE
  5
1F6B
330
1F
100
AcDbEntity
  8
OBRYS
  6
Continuous
100
AcDbLine
 10
452.1425499313468
 20
144.0131421782606
 30
0.0
 11
452.1425499313468
 21
146.0132101782606
 31
0.0
  0
LINE
  5
1F6C
330
1F
100
AcDbEntity
  8
OBRYS
  6
Continuous
100
AcDbLine
 10
440.7425499313467
 20
144.0131421782606
 30
0.0
 11
452.1425499313468
 21
144.0131421782606
 31
0.0
  0
LINE
  5
1F6D
330
1F
100
AcDbEntity
  8
OBRYS
  6
Continuous
100
AcDbLine
 10
440.7425499313467
 20
146.0132101782606
 30
0.0
 11
440.7425499313467
 21
144.0131421782606
 31
0.0
  0
LINE
  5
1F6E
330
1F
100
AcDbEntity
  8
OBRYS
  6
Continuous
100
AcDbLine
 10
450.2425499313467
 20
142.4168751782606
 30
0.0
 11
450.2425499313467
 21
142.4168761782606
 31
0.0
  0
LINE
  5
1F6F
330
1F
100
AcDbEntity
  8
OBRYS
  6
Continuous
100
AcDbLine
 10
442.6425499313468
 20
142.4168761782606
 30
0.0
 11
442.6425499313468
 21
142.4168751782606
 31
0.0
  0
LINE
  5
1F70
330
1F
100
AcDbEntity
  8
OBRYS
  6
Continuous
100
AcDbLine
 10
448.7249719313467
 20
144.0131421782606
 30
0.0
 11
448.7181839313467
 21
146.0131861782606
 31
0.0
  0
LINE
  5
1F71
330
1F
100
AcDbEntity
  8
OBRYS
  6
Continuous
100
AcDbLine
 10
453.6425499313468
 20
146.0132201782606
 30
0.0
 11
453.6425499313468
 21
143.9168761782606
 31
0.0
  0
LINE
  5
1F72
330
1F
100
AcDbEntity
  8
OBRYS
  6
Continuous
100
AcDbLine
 10
452.1425499313468
 20
142.4168761782606
 30
0.0
 11
440.7425499313467
 21
142.4168761782606
 31
0.0
  0
LINE
  5
1F73
330
1F
100
AcDbEntity
  8
OBRYS
  6
Continuous
100
AcDbLine
 10
442.6425499313468
 20
142.4168751782606
 30
0.0
 11
450.2425499313467
 21
142.4168751782606
 31
0.0
  0
LINE
  5
1F74
330
1F
100
AcDbEntity
  8
OBRYS
  6
Continuous
100
AcDbLine
 10
440.5425499313467
 20
143.8131421782606
 30
0.0
 11
440.5425499313467
 21
146.0132031782606
 31
0.0
  0
LINE
  5
1F75
330
1F
100
AcDbEntity
  8
OBRYS
  6
Continuous
100
AcDbLine
 10
452.3425499313467
 20
146.0132031782606
 30
0.0
 11
452.3425499313467
 21
143.8131421782606
 31
0.0
  0
LINE
  5
1F76
330
1F
100
AcDbEntity
  8
OBRYS
  6
Continuous
100
AcDbLine
 10
439.2425499313467
 20
143.9168761782606
 30
0.0
 11
439.2425499313467
 21
146.0132201782606
 31
0.0
  0
LINE
  5
1F77
330
1F
100
AcDbEntity
  8
OBRYS
  6
Continuous
100
AcDbLine
 10
452.3425499313467
 20
143.8131421782606
 30
0.0
 11
440.5425499313467
 21
143.8131421782606
 31
0.0
  0
LINE
  5
1F78
330
1F
100
AcDbEntity
  8
OBRYS
  6
Continuous
100
AcDbLine
 10
444.1601289313467
 20
144.0131421782606
 30
0.0
 11
444.1669159313468
 21
146.0131861782606
 31
0.0
  0
ARC
  5
1F79
330
1F
100
AcDbEntity
  8
OBRYS
  6
Continuous
100
AcDbCircle
 10
440.7425499313467
 20
143.9168761782606
 30
0.0
 40
1.5
100
AcDbArc
 50
180.0
 51
270.0
  0
ARC
  5
1F7A
330
1F
100
AcDbEntity
  8
OBRYS
  6
Continuous
100
AcDbCircle
 10
-452.1425499313468
 20
143.9168761782606
 30
0.0
 40
1.5
210
0.0
220
0.0
230
-1.0
100
AcDbArc
 50
180.0
 51
270.0
  0
LINE
  5
1F8B
330
1F
100
AcDbEntity
  8
OBRYS
100
AcDbLine
 10
437.5426095781107
 20
235.6132201782606
 30
0.0
 11
437.5426095781107
 21
146.2132201782607
 31
0.0
  0
ARC
  5
1F9D
330
1F
100
AcDbEntity
  8
OBRYS
100
AcDbCircle
 10
439.6926043997124
 20
228.7426012040667
 30
0.0
 40
1.255312974204602
100
AcDbArc
 50
89.99976364430319
 51
179.9717483917508
  0
ARC
  5
1F9F
330
1F
100
AcDbEntity
  8
OBRYS
100
AcDbCircle
 10
439.6926031638648
 20
222.0838389164851
 30
0.0
 40
1.255311738240851
100
AcDbArc
 50
180.0282408657869
 51
270.0002927633114
  0
ARC
  5
1FA0
330
1F
100
AcDbEntity
  8
OBRYS
100
AcDbCircle
 10
453.1926124088566
 20
222.0838474470089
 30
0.0
 40
1.255320268751441
100
AcDbArc
 50
269.9998707980807
 51
359.9999999999987
  0
ARC
  5
1FA1
330
1F
100
AcDbEntity
  8
OBRYS
100
AcDbCircle
 10
453.1926152813564
 20
228.7426027296673
 30
0.0
 40
1.255311448606274
100
AcDbArc
 50
0.0281820100733916
 51
90.00026031141826
  0
ARC
  5
1FA2
330
1F
100
AcDbEntity
  8
OBRYS
100
AcDbCircle
 10
457.6926043997124
 20
228.7426012040667
 30
0.0
 40
1.255312974204602
100
AcDbArc
 50
89.99976364430319
 51
179.9717483917508
  0
ARC
  5
1FA3
330
1F
100
AcDbEntity
  8
OBRYS
100
AcDbCircle
 10
457.6926031638648
 20
222.0838389164851
 30
0.0
 40
1.255311738240872
100
AcDbArc
 50
180.0282408657869
 51
270.0002927633114
  0
ARC
  5
1FA4
330
1F
100
AcDbEntity
  8
OBRYS
100
AcDbCircle
 10
471.192616535905
 20
222.0838373721739
 30
0.0
 40
1.255310193932543
100
AcDbArc
 50
269.9996824273042
 51
359.9718295860525
  0
ARC
  5
1FA5
330
1F
100
AcDbEntity
  8
OBRYS
100
AcDbCircle
 10
471.1926152813565
 20
228.7426027296675
 30
0.0
 40
1.255311448606131
100
AcDbArc
 50
0.0281820100669079
 51
90.00026031142346
  0
ARC
  5
1FA6
330
1F
100
AcDbEntity
  8
OBRYS
100
AcDbCircle
 10
439.6925472476495
 20
153.08381099982
 30
0.0
 40
1.255255821580828
100
AcDbArc
 50
180.0282002828964
 51
270.000334596731
  0
ARC
  5
1FA7
330
1F
100
AcDbEntity
  8
OBRYS
100
AcDbCircle
 10
439.6925467725043
 20
159.7426298336307
 30
0.0
 40
1.255255346201081
100
AcDbArc
 50
89.99713325564338
 51
179.9718214757415
  0
ARC
  5
1FA8
330
1F
100
AcDbEntity
  8
OBRYS
100
AcDbCircle
 10
453.1926729204103
 20
159.7426313695346
 30
0.0
 40
1.255253808753717
100
AcDbArc
 50
0.028108452773573
 51
90.00038078239895
  0
ARC
  5
1FA9
330
1F
100
AcDbEntity
  8
OBRYS
100
AcDbCircle
 10
453.1926724422732
 20
153.0838094638112
 30
0.0
 40
1.255254287124736
100
AcDbArc
 50
269.9971305804477
 51
359.971869793392
  0
ARC
  5
1FAA
330
1F
100
AcDbEntity
  8
OBRYS
100
AcDbCircle
 10
457.6925472476495
 20
153.08381099982
 30
0.0
 40
1.255255821580828
100
AcDbArc
 50
180.0282002828964
 51
270.000334596731
  0
ARC
  5
1FAB
330
1F
100
AcDbEntity
  8
OBRYS
100
AcDbCircle
 10
457.6925467725043
 20
159.7426298336307
 30
0.0
 40
1.255255346201081
100
AcDbArc
 50
89.99713325564338
 51
179.9718214757415
  0
ARC
  5
1FAC
330
1F
100
AcDbEntity
  8
OBRYS
100
AcDbCircle
 10
471.1926729204103
 20
159.7426313695346
 30
0.0
 40
1.255253808753717
100
AcDbArc
 50
0.028108452773573
 51
90.00038078239895
  0
ARC
  5
1FAD
330
1F
100
AcDbEntity
  8
OBRYS
100
AcDbCircle
 10
471.1926724422734
 20
153.0838094638111
 30
0.0
 40
1.255254287124594
100
AcDbArc
 50
269.9971305804399
 51
359.9718697933986
  0
LINE
  5
1FAE
330
1F
100
AcDbEntity
  8
OBRYS
100
AcDbLine
 10
444.3405065781107
 20
156.9132201782606
 30
0.0
 11
444.3405065781107
 21
155.9132201782606
 31
0.0
  0
LINE
  5
1FAF
330
1F
100
AcDbEntity
  8
OBRYS
100
AcDbLine
 10
448.5447125781107
 20
156.9132201782606
 30
0.0
 11
448.5447125781107
 21
155.9132201782606
 31
0.0
  0
CIRCLE
  5
1FB0
330
1F
100
AcDbEntity
  8
OBRYS
100
AcDbCircle
 10
446.4426095781108
 20
156.4132201782606
 30
0.0
 40
2.9
  0
ARC
  5
1FB1
330
1F
100
AcDbEntity
  8
OBRYS
100
AcDbCircle
 10
445.2176098636754
 20
155.1882204638252
 30
0.0
 40
0.7249997144354545
100
AcDbArc
 50
359.9999774322011
 51
90.00002256779891
  0
ARC
  5
1FB2
330
1F
100
AcDbEntity
  8
OBRYS
100
AcDbCircle
 10
445.2176081565646
 20
157.6382215998068
 30
0.0
 40
0.7250014215475754
100
AcDbArc
 50
270.0001123426676
 51
359.999887657328
  0
ARC
  5
1FB3
330
1F
100
AcDbEntity
  8
OBRYS
100
AcDbCircle
 10
447.6676092925462
 20
155.1882204638252
 30
0.0
 40
0.7249997144354545
100
AcDbArc
 50
89.9999774322011
 51
180.0000225677989
  0
ARC
  5
1FB4
330
1F
100
AcDbEntity
  8
OBRYS
100
AcDbCircle
 10
447.6676109996569
 20
157.6382215998068
 30
0.0
 40
0.725001421547547
100
AcDbArc
 50
180.0001123426721
 51
269.9998876573324
  0
LINE
  5
1FB5
330
1F
100
AcDbEntity
  8
OBRYS
100
AcDbLine
 10
445.5911870007268
 20
155.8095615204149
 30
0.0
 11
445.3023728035113
 21
155.2729834036611
 31
0.0
  0
LINE
  5
1FB6
330
1F
100
AcDbEntity
  8
OBRYS
100
AcDbLine
 10
445.3023728035113
 20
155.2729834036611
 30
0.0
 11
445.838950920265
 21
155.5617976008767
 31
0.0
  0
LINE
  5
1FB7
330
1F
100
AcDbEntity
  8
OBRYS
100
AcDbLine
 10
447.0462682359565
 20
155.5617976008767
 30
0.0
 11
447.5828463527104
 21
155.272983403661
 31
0.0
  0
LINE
  5
1FB8
330
1F
100
AcDbEntity
  8
OBRYS
100
AcDbLine
 10
447.5828463527104
 20
155.272983403661
 30
0.0
 11
447.2940321554946
 21
155.8095615204149
 31
0.0
  0
LINE
  5
1FB9
330
1F
100
AcDbEntity
  8
OBRYS
100
AcDbLine
 10
447.0462687937712
 20
157.2646430613026
 30
0.0
 11
447.5828463527101
 21
157.55345695286
 31
0.0
  0
LINE
  5
1FBA
330
1F
100
AcDbEntity
  8
OBRYS
100
AcDbLine
 10
447.5828463527101
 20
157.55345695286
 30
0.0
 11
447.2940324611527
 21
157.016879393921
 31
0.0
  0
LINE
  5
1FBB
330
1F
100
AcDbEntity
  8
OBRYS
100
AcDbLine
 10
445.8389503624504
 20
157.2646430613026
 30
0.0
 11
445.3023728035111
 21
157.5534569528602
 31
0.0
  0
LINE
  5
1FBC
330
1F
100
AcDbEntity
  8
OBRYS
100
AcDbLine
 10
445.3023728035111
 20
157.5534569528602
 30
0.0
 11
445.5911866950688
 21
157.016879393921
 31
0.0
  0
CIRCLE
  5
1FBD
330
1F
100
AcDbEntity
  8
OBRYS
100
AcDbCircle
 10
464.4426095781108
 20
156.4132201782606
 30
0.0
 40
2.9
  0
LINE
  5
1FBE
330
1F
100
AcDbEntity
  8
OBRYS
100
AcDbLine
 10
462.3405065781107
 20
156.9132201782606
 30
0.0
 11
462.3405065781107
 21
155.9132201782606
 31
0.0
  0
LINE
  5
1FBF
330
1F
100
AcDbEntity
  8
OBRYS
100
AcDbLine
 10
466.5447125781107
 20
156.9132201782606
 30
0.0
 11
466.5447125781107
 21
155.9132201782606
 31
0.0
  0
ARC
  5
1FC0
330
1F
100
AcDbEntity
  8
OBRYS
100
AcDbCircle
 10
465.6676092925462
 20
155.1882204638252
 30
0.0
 40
0.7249997144354545
100
AcDbArc
 50
89.9999774322011
 51
180.0000225677989
  0
ARC
  5
1FC1
330
1F
100
AcDbEntity
  8
OBRYS
100
AcDbCircle
 10
465.6676109996569
 20
157.6382215998068
 30
0.0
 40
0.725001421547547
100
AcDbArc
 50
180.0001123426721
 51
269.9998876573324
  0
ARC
  5
1FC2
330
1F
100
AcDbEntity
  8
OBRYS
100
AcDbCircle
 10
463.2176081565646
 20
157.6382215998068
 30
0.0
 40
0.725001421547547
100
AcDbArc
 50
270.0001123426676
 51
359.999887657328
  0
ARC
  5
1FC3
330
1F
100
AcDbEntity
  8
OBRYS
100
AcDbCircle
 10
463.2176098636754
 20
155.1882204638252
 30
0.0
 40
0.7249997144354545
100
AcDbArc
 50
359.9999774322011
 51
90.00002256779891
  0
LINE
  5
1FC4
330
1F
100
AcDbEntity
  8
OBRYS
100
AcDbLine
 10
463.8389509202649
 20
155.5617976008767
 30
0.0
 11
463.3023713459182
 21
155.2729806452277
 31
0.0
  0
LINE
  5
1FC5
330
1F
100
AcDbEntity
  8
OBRYS
100
AcDbLine
 10
463.3023713459182
 20
155.2729806452277
 30
0.0
 11
463.5911870007268
 21
155.8095615204149
 31
0.0
  0
LINE
  5
1FC6
330
1F
100
AcDbEntity
  8
OBRYS
100
AcDbLine
 10
463.5911866950689
 20
157.016879393921
 30
0.0
 11
463.3023713459182
 21
157.5534597112936
 31
0.0
  0
LINE
  5
1FC7
330
1F
100
AcDbEntity
  8
OBRYS
100
AcDbLine
 10
463.3023713459182
 20
157.5534597112936
 30
0.0
 11
463.8389503624504
 21
157.2646430613025
 31
0.0
  0
LINE
  5
1FC8
330
1F
100
AcDbEntity
  8
OBRYS
100
AcDbLine
 10
465.0462687937711
 20
157.2646430613026
 30
0.0
 11
465.5828491111438
 21
157.5534584104532
 31
0.0
  0
LINE
  5
1FC9
330
1F
100
AcDbEntity
  8
OBRYS
100
AcDbLine
 10
465.5828491111438
 20
157.5534584104532
 30
0.0
 11
465.2940324611527
 21
157.016879393921
 31
0.0
  0
LINE
  5
1FCA
330
1F
100
AcDbEntity
  8
OBRYS
100
AcDbLine
 10
465.2940321554947
 20
155.8095615204149
 30
0.0
 11
465.5828463527103
 21
155.2729834036611
 31
0.0
  0
LINE
  5
1FCB
330
1F
100
AcDbEntity
  8
OBRYS
100
AcDbLine
 10
465.5828463527103
 20
155.2729834036611
 30
0.0
 11
465.0462682359565
 21
155.5617976008768
 31
0.0
  0
CIRCLE
  5
1FCC
330
1F
100
AcDbEntity
  8
OBRYS
100
AcDbCircle
 10
442.0426095781108
 20
225.4132201782606
 30
0.0
 40
2.9
  0
LINE
  5
1FCD
330
1F
100
AcDbEntity
  8
OBRYS
100
AcDbLine
 10
439.9405065781107
 20
225.9632201782606
 30
0.0
 11
439.9405065781107
 21
224.9632201782606
 31
0.0
  0
LINE
  5
1FCE
330
1F
100
AcDbEntity
  8
OBRYS
100
AcDbLine
 10
444.1447125781107
 20
225.9632201782606
 30
0.0
 11
444.1447125781107
 21
224.9632201782606
 31
0.0
  0
LINE
  5
1FCF
330
1F
100
AcDbEntity
  8
OBRYS
100
AcDbLine
 10
441.1911860613006
 20
226.0668785617532
 30
0.0
 11
440.9023728035112
 21
226.6034569528602
 31
0.0
  0
LINE
  5
1FD0
330
1F
100
AcDbEntity
  8
OBRYS
100
AcDbLine
 10
440.9023728035112
 20
226.6034569528602
 30
0.0
 11
441.4389508271503
 21
226.3146428066672
 31
0.0
  0
LINE
  5
1FD1
330
1F
100
AcDbEntity
  8
OBRYS
100
AcDbLine
 10
442.6462677764178
 20
226.3146437861208
 30
0.0
 11
443.1828478103034
 21
226.6034597112936
 31
0.0
  0
LINE
  5
1FD2
330
1F
100
AcDbEntity
  8
OBRYS
100
AcDbLine
 10
443.1828478103034
 20
226.6034597112936
 30
0.0
 11
442.8940322065251
 21
226.066878929235
 31
0.0
  0
ARC
  5
1FD3
330
1F
100
AcDbEntity
  8
OBRYS
100
AcDbCircle
 10
440.8176081565646
 20
226.6882215998068
 30
0.0
 40
0.7250014215476038
100
AcDbArc
 50
270.000112342672
 51
359.9998876573257
  0
ARC
  5
1FD4
330
1F
100
AcDbEntity
  8
OBRYS
100
AcDbCircle
 10
443.267610999657
 20
226.6882215998068
 30
0.0
 40
0.7250014215476038
100
AcDbArc
 50
180.0001123426743
 51
269.999887657328
  0
LINE
  5
1FD5
330
1F
100
AcDbEntity
  8
OBRYS
100
AcDbLine
 10
441.191186983738
 20
224.8595614894108
 30
0.0
 11
440.9023728035174
 21
224.3229834036725
 31
0.0
  0
LINE
  5
1FD6
330
1F
100
AcDbEntity
  8
OBRYS
100
AcDbLine
 10
440.9023728035174
 20
224.3229834036725
 30
0.0
 11
441.4389513334272
 21
224.6117967089958
 31
0.0
  0
ARC
  5
1FD7
330
1F
100
AcDbEntity
  8
OBRYS
100
AcDbCircle
 10
440.8176098636754
 20
224.2382204638253
 30
0.0
 40
0.7249997144353977
100
AcDbArc
 50
359.9999774321989
 51
90.00002256780338
  0
ARC
  5
1FD8
330
1F
100
AcDbEntity
  8
OBRYS
100
AcDbCircle
 10
443.2676092925461
 20
224.2382204638253
 30
0.0
 40
0.7249997144353977
100
AcDbArc
 50
89.99997743219662
 51
180.0000225678012
  0
LINE
  5
1FD9
330
1F
100
AcDbEntity
  8
OBRYS
100
AcDbLine
 10
442.8940321724835
 20
224.8595614894108
 30
0.0
 11
443.1828463527212
 21
224.3229834036553
 31
0.0
  0
LINE
  5
1FDA
330
1F
100
AcDbEntity
  8
OBRYS
100
AcDbLine
 10
443.1828463527212
 20
224.3229834036553
 30
0.0
 11
442.6462682669605
 21
224.6117975838879
 31
0.0
  0
CIRCLE
  5
1FDB
330
1F
100
AcDbEntity
  8
OBRYS
100
AcDbCircle
 10
450.8426095781107
 20
225.4132201782606
 30
0.0
 40
2.9
  0
LINE
  5
1FDC
330
1F
100
AcDbEntity
  8
OBRYS
100
AcDbLine
 10
448.7405065781108
 20
225.9632201782606
 30
0.0
 11
448.7405065781108
 21
224.9632201782606
 31
0.0
  0
LINE
  5
1FDD
330
1F
100
AcDbEntity
  8
OBRYS
100
AcDbLine
 10
452.9447125781108
 20
225.9632201782606
 30
0.0
 11
452.9447125781108
 21
224.9632201782606
 31
0.0
  0
ARC
  5
1FDE
330
1F
100
AcDbEntity
  8
OBRYS
100
AcDbCircle
 10
449.6176098636754
 20
224.2382204638253
 30
0.0
 40
0.7249997144353977
100
AcDbArc
 50
359.9999774321989
 51
90.00002256780338
  0
ARC
  5
1FDF
330
1F
100
AcDbEntity
  8
OBRYS
100
AcDbCircle
 10
449.6176081565645
 20
226.6882215998068
 30
0.0
 40
0.7250014215476038
100
AcDbArc
 50
270.000112342672
 51
359.9998876573257
  0
ARC
  5
1FE0
330
1F
100
AcDbEntity
  8
OBRYS
100
AcDbCircle
 10
452.0676109996569
 20
226.6882215998068
 30
0.0
 40
0.7250014215476038
100
AcDbArc
 50
180.0001123426743
 51
269.999887657328
  0
ARC
  5
1FE1
330
1F
100
AcDbEntity
  8
OBRYS
100
AcDbCircle
 10
452.0676092925461
 20
224.2382204638253
 30
0.0
 40
0.7249997144353977
100
AcDbArc
 50
89.99997743219662
 51
180.0000225678012
  0
LINE
  5
1FE2
330
1F
100
AcDbEntity
  8
OBRYS
100
AcDbLine
 10
449.991186983738
 20
224.8595614894108
 30
0.0
 11
449.7023700450778
 21
224.3229819460681
 31
0.0
  0
LINE
  5
1FE3
330
1F
100
AcDbEntity
  8
OBRYS
100
AcDbLine
 10
449.7023700450778
 20
224.3229819460681
 30
0.0
 11
450.238950889261
 21
224.6117975838879
 31
0.0
  0
LINE
  5
1FE4
330
1F
100
AcDbEntity
  8
OBRYS
100
AcDbLine
 10
449.991186983738
 20
226.0668788671104
 30
0.0
 11
449.7023713459182
 21
226.6034597112936
 31
0.0
  0
LINE
  5
1FE5
330
1F
100
AcDbEntity
  8
OBRYS
100
AcDbLine
 10
449.7023713459182
 20
226.6034597112936
 30
0.0
 11
450.238950889261
 21
226.3146427726334
 31
0.0
  0
LINE
  5
1FE6
330
1F
100
AcDbEntity
  8
OBRYS
100
AcDbLine
 10
451.6940324611527
 20
226.066879393921
 30
0.0
 11
451.9828491111438
 21
226.6034584104532
 31
0.0
  0
LINE
  5
1FE7
330
1F
100
AcDbEntity
  8
OBRYS
100
AcDbLine
 10
451.9828491111438
 20
226.6034584104532
 30
0.0
 11
451.4462682669605
 21
226.3146427726334
 31
0.0
  0
LINE
  5
1FE8
330
1F
100
AcDbEntity
  8
OBRYS
100
AcDbLine
 10
451.6940321724835
 20
224.8595614894108
 30
0.0
 11
451.9828491111437
 21
224.3229819460681
 31
0.0
  0
LINE
  5
1FE9
330
1F
100
AcDbEntity
  8
OBRYS
100
AcDbLine
 10
451.9828491111437
 20
224.3229819460681
 30
0.0
 11
451.4462682669605
 21
224.6117975838879
 31
0.0
  0
CIRCLE
  5
1FEA
330
1F
100
AcDbEntity
  8
OBRYS
100
AcDbCircle
 10
460.0426095781108
 20
225.4132201782606
 30
0.0
 40
2.9
  0
LINE
  5
1FEB
330
1F
100
AcDbEntity
  8
OBRYS
100
AcDbLine
 10
457.9405065781107
 20
225.9632201782606
 30
0.0
 11
457.9405065781107
 21
224.9632201782606
 31
0.0
  0
LINE
  5
1FEC
330
1F
100
AcDbEntity
  8
OBRYS
100
AcDbLine
 10
462.1447125781107
 20
225.9632201782606
 30
0.0
 11
462.1447125781107
 21
224.9632201782606
 31
0.0
  0
ARC
  5
1FED
330
1F
100
AcDbEntity
  8
OBRYS
100
AcDbCircle
 10
458.8176098636754
 20
224.2382204638253
 30
0.0
 40
0.7249997144353977
100
AcDbArc
 50
359.9999774321989
 51
90.00002256780338
  0
ARC
  5
1FEE
330
1F
100
AcDbEntity
  8
OBRYS
100
AcDbCircle
 10
458.8176081565646
 20
226.6882215998068
 30
0.0
 40
0.7250014215476038
100
AcDbArc
 50
270.000112342672
 51
359.9998876573257
  0
ARC
  5
1FEF
330
1F
100
AcDbEntity
  8
OBRYS
100
AcDbCircle
 10
461.267610999657
 20
226.6882215998068
 30
0.0
 40
0.7250014215476038
100
AcDbArc
 50
180.0001123426743
 51
269.999887657328
  0
ARC
  5
1FF0
330
1F
100
AcDbEntity
  8
OBRYS
100
AcDbCircle
 10
461.2675395738028
 20
224.2382901825686
 30
0.0
 40
0.724929999072061
100
AcDbArc
 50
89.99446711902296
 51
180.0055328809771
  0
LINE
  5
1FF1
330
1F
100
AcDbEntity
  8
OBRYS
100
AcDbLine
 10
459.191186983738
 20
224.8595614894108
 30
0.0
 11
458.9023713459182
 21
224.3229806452277
 31
0.0
  0
LINE
  5
1FF2
330
1F
100
AcDbEntity
  8
OBRYS
100
AcDbLine
 10
458.9023713459182
 20
224.3229806452277
 30
0.0
 11
459.438950889261
 21
224.6117975838879
 31
0.0
  0
LINE
  5
1FF3
330
1F
100
AcDbEntity
  8
OBRYS
100
AcDbLine
 10
459.1911866950687
 20
226.066879393921
 30
0.0
 11
458.9023713459182
 21
226.6034597112936
 31
0.0
  0
LINE
  5
1FF4
330
1F
100
AcDbEntity
  8
OBRYS
100
AcDbLine
 10
458.9023713459182
 20
226.6034597112936
 30
0.0
 11
459.4389503624504
 21
226.3146430613025
 31
0.0
  0
LINE
  5
1FF5
330
1F
100
AcDbEntity
  8
OBRYS
100
AcDbLine
 10
460.6462682669605
 20
226.3146427726334
 30
0.0
 11
461.1828463527104
 21
226.6034569528604
 31
0.0
  0
LINE
  5
1FF6
330
1F
100
AcDbEntity
  8
OBRYS
100
AcDbLine
 10
461.1828463527104
 20
226.6034569528604
 30
0.0
 11
460.8940321724837
 21
226.0668788671107
 31
0.0
  0
LINE
  5
1FF7
330
1F
100
AcDbEntity
  8
OBRYS
100
AcDbLine
 10
460.6462682669605
 20
224.6117975838879
 30
0.0
 11
461.1828478103034
 21
224.3229806452277
 31
0.0
  0
LINE
  5
1FF8
330
1F
100
AcDbEntity
  8
OBRYS
100
AcDbLine
 10
461.1828478103034
 20
224.3229806452277
 30
0.0
 11
460.8940321724835
 21
224.8595614894108
 31
0.0
  0
CIRCLE
  5
1FF9
330
1F
100
AcDbEntity
  8
OBRYS
100
AcDbCircle
 10
468.8426095781107
 20
225.4132201782606
 30
0.0
 40
2.9
  0
LINE
  5
1FFA
330
1F
100
AcDbEntity
  8
OBRYS
100
AcDbLine
 10
466.7405065781108
 20
225.9632201782606
 30
0.0
 11
466.7405065781108
 21
224.9632201782606
 31
0.0
  0
LINE
  5
1FFB
330
1F
100
AcDbEntity
  8
OBRYS
100
AcDbLine
 10
470.9447125781108
 20
225.9632201782606
 30
0.0
 11
470.9447125781108
 21
224.9632201782606
 31
0.0
  0
ARC
  5
1FFC
330
1F
100
AcDbEntity
  8
OBRYS
100
AcDbCircle
 10
467.6176081565645
 20
226.6882215998068
 30
0.0
 40
0.7250014215476038
100
AcDbArc
 50
270.000112342672
 51
359.9998876573257
  0
ARC
  5
1FFD
330
1F
100
AcDbEntity
  8
OBRYS
100
AcDbCircle
 10
467.6176098636754
 20
224.2382204638253
 30
0.0
 40
0.7249997144353977
100
AcDbArc
 50
359.9999774321989
 51
90.00002256780338
  0
ARC
  5
1FFF
330
1F
100
AcDbEntity
  8
OBRYS
100
AcDbCircle
 10
470.0676092925461
 20
224.2382204638253
 30
0.0
 40
0.7249997144353977
100
AcDbArc
 50
89.99997743219662
 51
180.0000225678012
  0
ARC
  5
2000
330
1F
100
AcDbEntity
  8
OBRYS
100
AcDbCircle
 10
470.0676109996569
 20
226.6882215998068
 30
0.0
 40
0.7250014215476038
100
AcDbArc
 50
180.0001123426743
 51
269.999887657328
  0
LINE
  5
2001
330
1F
100
AcDbEntity
  8
OBRYS
100
AcDbLine
 10
467.991186983738
 20
224.8595614894108
 30
0.0
 11
467.7023700450779
 21
224.3229819460681
 31
0.0
  0
LINE
  5
2002
330
1F
100
AcDbEntity
  8
OBRYS
100
AcDbLine
 10
467.7023700450779
 20
224.3229819460681
 30
0.0
 11
468.238950889261
 21
224.6117975838879
 31
0.0
  0
LINE
  5
2003
330
1F
100
AcDbEntity
  8
OBRYS
100
AcDbLine
 10
467.991186983738
 20
226.0668788671104
 30
0.0
 11
467.7023700450778
 21
226.6034584104532
 31
0.0
  0
LINE
  5
2004
330
1F
100
AcDbEntity
  8
OBRYS
100
AcDbLine
 10
467.7023700450778
 20
226.6034584104532
 30
0.0
 11
468.2389503624503
 21
226.3146430613026
 31
0.0
  0
LINE
  5
2005
330
1F
100
AcDbEntity
  8
OBRYS
100
AcDbLine
 10
469.4462682669606
 20
226.3146427726334
 30
0.0
 11
469.9828463527101
 21
226.60345695286
 31
0.0
  0
LINE
  5
2006
330
1F
100
AcDbEntity
  8
OBRYS
100
AcDbLine
 10
469.9828463527101
 20
226.60345695286
 30
0.0
 11
469.6940321724836
 21
226.0668788671107
 31
0.0
  0
LINE
  5
2007
330
1F
100
AcDbEntity
  8
OBRYS
100
AcDbLine
 10
469.6940321724835
 20
224.8595614894108
 30
0.0
 11
469.9828463527102
 21
224.3229834036612
 31
0.0
  0
LINE
  5
2008
330
1F
100
AcDbEntity
  8
OBRYS
100
AcDbLine
 10
469.9828463527102
 20
224.3229834036612
 30
0.0
 11
469.4462682669605
 21
224.6117975838879
 31
0.0
  0
DIMENSION
  5
202A
330
1F
100
AcDbEntity
  8
KOTY
100
AcDbDimension
280
     0
  2
*D17
 10
473.3426095781108
 20
122.6358462391053
 30
0.0
 11
455.4426095781108
 21
125.1673462391053
 31
0.0
 70
    32
 71
     5
 42
-1.0
 73
     0
 74
     0
 75
     0
  3
STANDARD
100
AcDbAlignedDimension
 13
437.5426095781107
 23
146.2132201782607
 33
0.0
 14
473.3426095781108
 24
146.2132201782607
 34
0.0
100
AcDbRotatedDimension
1001
ACAD
1000
DSTYLE
1002
{
1070
   271
1070
     0
1070
   278
1070
    44
1070
   140
1040
3.0
1070
    73
1070
     0
1070
    77
1070
     1
1070
   147
1040
1.0
1070
    41
1040
3.0
1070
   279
1070
     2
1002
}
  0
LINE
  5
22A4
330
1F
100
AcDbEntity
  8
OBRYS
 62
     5
100
AcDbLine
 10
394.0600303023578
 20
260.7132118910405
 30
0.0
 11
394.0600303023578
 21
254.3132118910405
 31
0.0
  0
LINE
  5
22A5
330
1F
100
AcDbEntity
  8
OBRYS
 62
     5
100
AcDbLine
 10
394.0600303023578
 20
254.3132118910405
 30
0.0
 11
398.0600303023578
 21
254.3132118910405
 31
0.0
  0
LINE
  5
22A6
330
1F
100
AcDbEntity
  8
OBRYS
 62
     5
100
AcDbLine
 10
398.0600303023578
 20
254.3132118910405
 30
0.0
 11
398.0600303023578
 21
260.7132118910405
 31
0.0
  0
LINE
  5
22A7
330
1F
100
AcDbEntity
  8
OBRYS
 62
     5
100
AcDbLine
 10
393.4600303023578
 20
260.7132118910405
 30
0.0
 11
401.8600303023578
 21
260.7132118910405
 31
0.0
  0
LINE
  5
22A8
330
1F
100
AcDbEntity
  8
OBRYS
 62
     5
100
AcDbLine
 10
397.3600303023578
 20
254.3132118910405
 30
0.0
 11
397.3600303023578
 21
260.7132118910405
 31
0.0
  0
LINE
  5
22A9
330
1F
100
AcDbEntity
  8
OBRYS
 62
     5
100
AcDbLine
 10
394.0600303023578
 20
254.3132118910405
 30
0.0
 11
393.0600303023578
 21
254.3132118910405
 31
0.0
  0
LINE
  5
22AA
330
1F
100
AcDbEntity
  8
OBRYS
 62
     5
100
AcDbLine
 10
393.0600303023578
 20
254.3132118910405
 30
0.0
 11
393.0600303023578
 21
256.7132118910405
 31
0.0
  0
LINE
  5
22AB
330
1F
100
AcDbEntity
  8
OBRYS
 62
     5
100
AcDbLine
 10
393.0600303023578
 20
256.7132118910405
 30
0.0
 11
394.0600303023578
 21
256.7132118910405
 31
0.0
  0
LINE
  5
22AC
330
1F
100
AcDbEntity
  8
OBRYS
 62
     5
100
AcDbLine
 10
393.4600303023578
 20
260.7132118910405
 30
0.0
 11
393.4600303023578
 21
261.4132118910405
 31
0.0
  0
LINE
  5
22AD
330
1F
100
AcDbEntity
  8
OBRYS
 62
     5
100
AcDbLine
 10
393.4600303023578
 20
261.4132118910405
 30
0.0
 11
391.5600303023578
 21
261.4132118910405
 31
0.0
  0
LINE
  5
22AE
330
1F
100
AcDbEntity
  8
OBRYS
 62
     5
100
AcDbLine
 10
391.5600303023578
 20
261.4132118910405
 30
0.0
 11
391.5600303023578
 21
268.0132118910406
 31
0.0
  0
LINE
  5
22AF
330
1F
100
AcDbEntity
  8
OBRYS
 62
     5
100
AcDbLine
 10
391.5600303023578
 20
268.0132118910406
 30
0.0
 11
392.2600303023578
 21
268.0132118910406
 31
0.0
  0
LINE
  5
22B0
330
1F
100
AcDbEntity
  8
OBRYS
 62
     5
100
AcDbLine
 10
401.8600303023578
 20
260.7132118910405
 30
0.0
 11
401.8600303023578
 21
261.4132118910405
 31
0.0
  0
LINE
  5
22B1
330
1F
100
AcDbEntity
  8
OBRYS
 62
     5
100
AcDbLine
 10
401.8600303023578
 20
261.4132118910405
 30
0.0
 11
402.5600303023578
 21
261.4132118910405
 31
0.0
  0
LINE
  5
22B2
330
1F
100
AcDbEntity
  8
OBRYS
 62
     5
100
AcDbLine
 10
402.5600303023578
 20
261.4132118910405
 30
0.0
 11
402.5600303023578
 21
269.7132118910405
 31
0.0
  0
LINE
  5
22B3
330
1F
100
AcDbEntity
  8
OBRYS
 62
     5
100
AcDbLine
 10
402.5600303023578
 20
269.7132118910405
 30
0.0
 11
396.0600303023578
 21
269.7132118910405
 31
0.0
  0
LINE
  5
22B4
330
1F
100
AcDbEntity
  8
OBRYS
 62
     5
100
AcDbLine
 10
396.0600303023578
 20
269.7132118910405
 30
0.0
 11
396.0600303023578
 21
269.4132118910405
 31
0.0
  0
LINE
  5
22B5
330
1F
100
AcDbEntity
  8
OBRYS
 62
     5
100
AcDbLine
 10
392.2600303023578
 20
268.0132118910406
 30
0.0
 11
396.0600303023578
 21
269.4132118910405
 31
0.0
  0
LINE
  5
22B6
330
1F
100
AcDbEntity
  8
OBRYS
  6
Continuous
 62
     5
100
AcDbLine
 10
439.0426303023578
 20
260.7132118910405
 30
0.0
 11
439.0426303023578
 21
269.7132118910405
 31
0.0
  0
LINE
  5
22B7
330
1F
100
AcDbEntity
  8
OBRYS
  6
Continuous
 62
     5
100
AcDbLine
 10
439.0426303023578
 20
269.7132118910405
 30
0.0
 11
454.0426303023578
 21
269.7132118910405
 31
0.0
  0
LINE
  5
22B8
330
1F
100
AcDbEntity
  8
OBRYS
  6
Continuous
 62
     5
100
AcDbLine
 10
454.0426303023578
 20
269.7132118910405
 30
0.0
 11
454.0426303023578
 21
260.7132118910405
 31
0.0
  0
DIMENSION
  5
22B9
330
1F
100
AcDbEntity
  8
KOTY
 62
     1
100
AcDbDimension
280
     0
  2
*D27
 10
383.8069711349834
 20
260.7132118910405
 30
0.0
 11
383.8069711349834
 21
265.2021605920141
 31
0.0
 70
   160
 71
     5
 42
-1.0
 73
     0
 74
     0
 75
     0
  3
STANDARD
100
AcDbAlignedDimension
 13
396.0600303023578
 23
269.7132118910405
 33
0.0
 14
393.4600303023578
 24
260.7132118910405
 34
0.0
 50
90.0
100
AcDbRotatedDimension
1001
ACAD
1000
DSTYLE
1002
{
1070
     7
1000

1070
     6
1000

1070
     5
1000

1070
   278
1070
    44
1070
    73
1070
     0
1070
    77
1070
     1
1070
   147
1040
1.0
1070
   173
1070
     1
1070
   271
1070
     0
1070
   140
1040
4.0
1070
    41
1040
4.0
1002
}
  0
LINE
  5
22BA
330
1F
100
AcDbEntity
  8
OBRYS
  6
Continuous
 62
     5
100
AcDbLine
 10
439.0426303023578
 20
260.7132118910405
 30
0.0
 11
440.0426303023578
 21
260.7132118910405
 31
0.0
  0
LINE
  5
22BB
330
1F
100
AcDbEntity
  8
OBRYS
  6
Continuous
 62
     5
100
AcDbLine
 10
454.0426303023578
 20
260.7132118910405
 30
0.0
 11
453.0426303023578
 21
260.7132118910405
 31
0.0
  0
LINE
  5
22BC
330
1F
100
AcDbEntity
  8
OBRYS
  6
Continuous
 62
     5
100
AcDbLine
 10
440.0426303023578
 20
254.3132118910405
 30
0.0
 11
440.0426303023578
 21
261.6132118910405
 31
0.0
  0
LINE
  5
22BD
330
1F
100
AcDbEntity
  8
OBRYS
  6
Continuous
 62
     5
100
AcDbLine
 10
440.0426303023578
 20
254.3132118910405
 30
0.0
 11
442.9426303023578
 21
254.3132118910405
 31
0.0
  0
LINE
  5
22BE
330
1F
100
AcDbEntity
  8
OBRYS
  6
Continuous
 62
     5
100
AcDbLine
 10
442.9426303023578
 20
254.3132118910405
 30
0.0
 11
442.9426303023578
 21
261.6132118910405
 31
0.0
  0
LINE
  5
22BF
330
1F
100
AcDbEntity
  8
OBRYS
  6
Continuous
 62
     5
100
AcDbLine
 10
450.1426303023578
 20
254.3132118910405
 30
0.0
 11
450.1426303023578
 21
261.6132118910405
 31
0.0
  0
LINE
  5
22C0
330
1F
100
AcDbEntity
  8
OBRYS
  6
Continuous
 62
     5
100
AcDbLine
 10
450.1426303023578
 20
254.3132118910405
 30
0.0
 11
453.0426303023578
 21
254.3132118910405
 31
0.0
  0
LINE
  5
22C1
330
1F
100
AcDbEntity
  8
OBRYS
  6
Continuous
 62
     5
100
AcDbLine
 10
453.0426303023578
 20
254.3132118910405
 30
0.0
 11
453.0426303023578
 21
261.6132118910405
 31
0.0
  0
LINE
  5
22C2
330
1F
100
AcDbEntity
  8
OBRYS
  6
Continuous
 62
     5
100
AcDbLine
 10
445.0926303023579
 20
254.3132118910405
 30
0.0
 11
445.0926303023579
 21
261.6132118910405
 31
0.0
  0
LINE
  5
22C3
330
1F
100
AcDbEntity
  8
OBRYS
  6
Continuous
 62
     5
100
AcDbLine
 10
445.0926303023579
 20
254.3132118910405
 30
0.0
 11
447.9926303023578
 21
254.3132118910405
 31
0.0
  0
LINE
  5
22C4
330
1F
100
AcDbEntity
  8
OBRYS
  6
Continuous
 62
     5
100
AcDbLine
 10
447.9926303023578
 20
254.3132118910405
 30
0.0
 11
447.9926303023578
 21
261.6132118910405
 31
0.0
  0
LINE
  5
22C5
102
{ACAD_REACTORS
102
}
330
1F
100
AcDbEntity
  8
OBRYS
  6
Continuous
 62
     5
100
AcDbLine
 10
440.0426303023578
 20
254.3132118910405
 30
0.0
 11
439.5426303023578
 21
254.3132118910405
 31
0.0
  0
LINE
  5
22C6
330
1F
100
AcDbEntity
  8
OBRYS
  6
Continuous
 62
     5
100
AcDbLine
 10
439.5426303023578
 20
254.3132118910405
 30
0.0
 11
439.5426303023578
 21
260.7132118910405
 31
0.0
  0
LINE
  5
22C7
330
1F
100
AcDbEntity
  8
OBRYS
  6
Continuous
 62
     5
100
AcDbLine
 10
453.0426303023578
 20
254.3132118910405
 30
0.0
 11
453.5426303023578
 21
254.3132118910405
 31
0.0
  0
LINE
  5
22C8
330
1F
100
AcDbEntity
  8
OBRYS
  6
Continuous
 62
     5
100
AcDbLine
 10
453.5426303023578
 20
254.3132118910405
 30
0.0
 11
453.5426303023578
 21
260.7132118910405
 31
0.0
  0
LINE
  5
22C9
330
1F
100
AcDbEntity
  8
OBRYS
  6
Continuous
 62
     5
100
AcDbLine
 10
441.1176303023578
 20
254.3132118910405
 30
0.0
 11
441.1176303023578
 21
256.7132118910405
 31
0.0
  0
LINE
  5
22CA
330
1F
100
AcDbEntity
  8
OBRYS
  6
Continuous
 62
     5
100
AcDbLine
 10
441.1176303023578
 20
256.7132118910405
 30
0.0
 11
441.8676303023578
 21
256.7132118910405
 31
0.0
  0
LINE
  5
22CB
330
1F
100
AcDbEntity
  8
OBRYS
  6
Continuous
 62
     5
100
AcDbLine
 10
441.8676303023578
 20
256.7132118910405
 30
0.0
 11
441.8676303023578
 21
254.3132118910405
 31
0.0
  0
LINE
  5
22CC
330
1F
100
AcDbEntity
  8
OBRYS
  6
Continuous
 62
     5
100
AcDbLine
 10
446.9176303023578
 20
256.7132118910405
 30
0.0
 11
446.9176303023578
 21
254.3132118910405
 31
0.0
  0
LINE
  5
22CD
330
1F
100
AcDbEntity
  8
OBRYS
  6
Continuous
 62
     5
100
AcDbLine
 10
446.1676303023578
 20
254.3132118910405
 30
0.0
 11
446.1676303023578
 21
256.7132118910405
 31
0.0
  0
LINE
  5
22CE
330
1F
100
AcDbEntity
  8
OBRYS
  6
Continuous
 62
     5
100
AcDbLine
 10
446.1676303023578
 20
256.7132118910405
 30
0.0
 11
446.9176303023578
 21
256.7132118910405
 31
0.0
  0
LINE
  5
22CF
330
1F
100
AcDbEntity
  8
OBRYS
  6
Continuous
 62
     5
100
AcDbLine
 10
451.9676303023579
 20
256.7132118910405
 30
0.0
 11
451.9676303023579
 21
254.3132118910405
 31
0.0
  0
LINE
  5
22D0
330
1F
100
AcDbEntity
  8
OBRYS
  6
Continuous
 62
     5
100
AcDbLine
 10
451.2176303023579
 20
254.3132118910405
 30
0.0
 11
451.2176303023579
 21
256.7132118910405
 31
0.0
  0
LINE
  5
22D1
330
1F
100
AcDbEntity
  8
OBRYS
  6
Continuous
 62
     5
100
AcDbLine
 10
451.2176303023579
 20
256.7132118910405
 30
0.0
 11
451.9676303023579
 21
256.7132118910405
 31
0.0
  0
LINE
  5
22D2
330
1F
100
AcDbEntity
  8
OBRYS
  6
Continuous
 62
     5
100
AcDbLine
 10
442.9426303023578
 20
260.7132118910405
 30
0.0
 11
445.0926303023579
 21
260.7132118910405
 31
0.0
  0
LINE
  5
22D3
330
1F
100
AcDbEntity
  8
OBRYS
  6
Continuous
 62
     5
100
AcDbLine
 10
447.9926303023578
 20
260.7132118910405
 30
0.0
 11
450.1426303023578
 21
260.7132118910405
 31
0.0
  0
LINE
  5
22D4
330
1F
100
AcDbEntity
  8
OBRYS
  6
Continuous
 62
     5
100
AcDbLine
 10
439.0426303023578
 20
269.4132118910405
 30
0.0
 11
454.0426303023578
 21
269.4132118910405
 31
0.0
  0
LINE
  5
22D5
330
1F
100
AcDbEntity
  8
OBRYS
  6
Continuous
 62
     5
100
AcDbLine
 10
444.4926303023578
 20
261.6132118910405
 30
0.0
 11
448.4926303023578
 21
261.6132118910405
 31
0.0
  0
LINE
  5
22D6
330
1F
100
AcDbEntity
  8
OBRYS
  6
Continuous
 62
     5
100
AcDbLine
 10
443.4926303023578
 20
261.6132118910405
 30
0.0
 11
440.0426303023578
 21
261.6132118910405
 31
0.0
  0
LINE
  5
22D7
330
1F
100
AcDbEntity
  8
OBRYS
  6
Continuous
 62
     5
100
AcDbLine
 10
449.5926303023579
 20
261.6132118910405
 30
0.0
 11
453.0426303023578
 21
261.6132118910405
 31
0.0
  0
LINE
  5
22D8
330
1F
100
AcDbEntity
  8
OBRYS
  6
Continuous
 62
     5
100
AcDbLine
 10
439.0426303023578
 20
268.0132118910406
 30
0.0
 11
454.0426303023578
 21
268.0132118910406
 31
0.0
  0
CIRCLE
  5
22D9
330
1F
100
AcDbEntity
  8
OBRYS
  6
Continuous
 62
     5
100
AcDbCircle
 10
441.4926303023578
 20
264.1132118910405
 30
0.0
 40
1.3
  0
LINE
  5
22DA
330
1F
100
AcDbEntity
  8
OBRYS
  6
Continuous
 62
     5
100
AcDbLine
 10
440.2277192382904
 20
263.8132118910405
 30
0.0
 11
442.7575413664251
 21
263.8132118910405
 31
0.0
  0
LINE
  5
22DB
330
1F
100
AcDbEntity
  8
OBRYS
  6
Continuous
 62
     5
100
AcDbLine
 10
440.2277192382904
 20
264.4132118910405
 30
0.0
 11
442.7575413664251
 21
264.4132118910405
 31
0.0
  0
CIRCLE
  5
22DC
330
1F
100
AcDbEntity
  8
OBRYS
  6
Continuous
 62
     5
100
AcDbCircle
 10
446.5426303023578
 20
264.1132118910405
 30
0.0
 40
1.3
  0
LINE
  5
22DD
330
1F
100
AcDbEntity
  8
OBRYS
  6
Continuous
 62
     5
100
AcDbLine
 10
445.2777192382904
 20
263.8132118910405
 30
0.0
 11
447.8075413664251
 21
263.8132118910405
 31
0.0
  0
LINE
  5
22DE
330
1F
100
AcDbEntity
  8
OBRYS
  6
Continuous
 62
     5
100
AcDbLine
 10
445.2777192382904
 20
264.4132118910405
 30
0.0
 11
447.8075413664251
 21
264.4132118910405
 31
0.0
  0
CIRCLE
  5
22DF
330
1F
100
AcDbEntity
  8
OBRYS
  6
Continuous
 62
     5
100
AcDbCircle
 10
451.5926303023579
 20
264.1132118910405
 30
0.0
 40
1.3
  0
LINE
  5
22E0
330
1F
100
AcDbEntity
  8
OBRYS
  6
Continuous
 62
     5
100
AcDbLine
 10
450.3277192382905
 20
263.8132118910405
 30
0.0
 11
452.8575413664252
 21
263.8132118910405
 31
0.0
  0
LINE
  5
22E1
330
1F
100
AcDbEntity
  8
OBRYS
  6
Continuous
 62
     5
100
AcDbLine
 10
450.3277192382905
 20
264.4132118910405
 30
0.0
 11
452.8575413664252
 21
264.4132118910405
 31
0.0
  0
LINE
  5
22E2
330
1F
100
AcDbEntity
  8
OBRYS
  6
Continuous
 62
     5
100
AcDbLine
 10
439.6426303023578
 20
263.0132118910406
 30
0.0
 11
439.8825060835474
 21
263.0132118910406
 31
0.0
  0
ARC
  5
22E3
330
1F
100
AcDbEntity
  8
OBRYS
  6
Continuous
 62
     5
100
AcDbCircle
 10
441.4926303023578
 20
264.1132118910405
 30
0.0
 40
1.95
100
AcDbArc
 50
214.3399949437026
 51
325.4656264950648
  0
ARC
  5
22E4
330
1F
100
AcDbEntity
  8
OBRYS
  6
Continuous
 62
     5
100
AcDbCircle
 10
446.5426303023578
 20
264.1132118910405
 30
0.0
 40
1.95
100
AcDbArc
 50
214.3399949437037
 51
325.4656264950657
  0
ARC
  5
22E5
330
1F
100
AcDbEntity
  8
OBRYS
  6
Continuous
 62
     5
100
AcDbCircle
 10
451.5926303023579
 20
264.1132118910405
 30
0.0
 40
1.95
100
AcDbArc
 50
214.3399949437026
 51
325.4656264950648
  0
LINE
  5
22E6
330
1F
100
AcDbEntity
  8
OBRYS
  6
Continuous
 62
     5
100
AcDbLine
 10
443.0990134621021
 20
263.0132118910406
 30
0.0
 11
444.9325060835473
 21
263.0132118910406
 31
0.0
  0
LINE
  5
22E7
330
1F
100
AcDbEntity
  8
OBRYS
  6
Continuous
 62
     5
100
AcDbLine
 10
448.1490134621021
 20
263.0132118910406
 30
0.0
 11
449.9825060835473
 21
263.0132118910406
 31
0.0
  0
LINE
  5
22E8
330
1F
100
AcDbEntity
  8
OBRYS
  6
Continuous
 62
     5
100
AcDbLine
 10
453.1990134621021
 20
263.0132118910406
 30
0.0
 11
453.4426303023578
 21
263.0132118910406
 31
0.0
  0
LINE
  5
22E9
330
1F
100
AcDbEntity
  8
OBRYS
  6
Continuous
 62
     5
100
AcDbLine
 10
443.4926303023578
 20
261.6132118910405
 30
0.0
 11
443.4926303023578
 21
263.0132118910406
 31
0.0
  0
LINE
  5
22EA
330
1F
100
AcDbEntity
  8
OBRYS
  6
Continuous
 62
     5
100
AcDbLine
 10
444.4926303023578
 20
261.6132118910405
 30
0.0
 11
444.4926303023578
 21
263.0132118910406
 31
0.0
  0
LINE
  5
22EB
330
1F
100
AcDbEntity
  8
OBRYS
  6
Continuous
 62
     5
100
AcDbLine
 10
448.4926303023578
 20
261.6132118910405
 30
0.0
 11
448.4926303023578
 21
263.0132118910406
 31
0.0
  0
LINE
  5
22EC
330
1F
100
AcDbEntity
  8
OBRYS
  6
Continuous
 62
     5
100
AcDbLine
 10
449.5926303023579
 20
261.6132118910405
 30
0.0
 11
449.5926303023579
 21
263.0132118910406
 31
0.0
  0
LINE
  5
22ED
330
1F
100
AcDbEntity
  8
OBRYS
  6
Continuous
 62
     5
100
AcDbLine
 10
439.0426303023578
 20
261.6132118910405
 30
0.0
 11
439.6426303023578
 21
261.6132118910405
 31
0.0
  0
LINE
  5
22EE
330
1F
100
AcDbEntity
  8
OBRYS
  6
Continuous
 62
     5
100
AcDbLine
 10
439.6426303023578
 20
261.6132118910405
 30
0.0
 11
439.6426303023578
 21
263.0132118910406
 31
0.0
  0
LINE
  5
22EF
330
1F
100
AcDbEntity
  8
OBRYS
  6
Continuous
 62
     5
100
AcDbLine
 10
454.0426303023578
 20
261.6132118910405
 30
0.0
 11
453.4426303023578
 21
261.6132118910405
 31
0.0
  0
LINE
  5
22F0
330
1F
100
AcDbEntity
  8
OBRYS
  6
Continuous
 62
     5
100
AcDbLine
 10
453.4426303023578
 20
261.6132118910405
 30
0.0
 11
453.4426303023578
 21
263.0132118910406
 31
0.0
  0
DIMENSION
  5
22F1
330
1F
100
AcDbEntity
  8
KOTY
 62
     1
100
AcDbDimension
280
     0
  2
*D28
 10
454.0426303023578
 20
279.7132118910405
 30
0.0
 11
446.5426303023578
 21
279.7132118910405
 31
0.0
 70
   160
 71
     5
 42
-1.0
 73
     0
 74
     0
 75
     0
  3
STANDARD
100
AcDbAlignedDimension
 13
439.0426303023578
 23
269.7132118910405
 33
0.0
 14
454.0426303023578
 24
269.7132118910405
 34
0.0
100
AcDbRotatedDimension
1001
ACAD
1000
DSTYLE
1002
{
1070
     7
1000

1070
     6
1000

1070
     5
1000

1070
   278
1070
    44
1070
   147
1040
1.0
1070
    77
1070
     1
1070
   271
1070
     0
1070
   140
1040
4.0
1070
   173
1070
     1
1070
    41
1040
4.0
1002
}
  0
VIEWPORT
  5
232F
330
232B
100
AcDbEntity
 67
     1
  8
0
100
AcDbViewport
 10
0.0
 20
0.0
 30
0.0
 40
10.25828571428572
 41
7.926857142857144
 68
     1
 69
     1
 12
5.850000000000001
 22
4.0
 13
0.0
 23
0.0
 14
0.5
 24
0.5
 15
0.0
 25
0.0
 16
0.0
 26
0.0
 36
1.0
 17
0.0
 27
0.0
 37
0.0
 42
50.0
 43
0.0
 44
0.0
 45
7.926857142857144
 50
0.0
 51
0.0
 72
   100
 90
   557152
  1

281
     0
 71
     1
 74
     0
110
0.0
120
0.0
130
0.0
111
1.0
121
0.0
131
0.0
112
0.0
122
1.0
132
0.0
 79
     0
146
0.0
170
     0
 61
     5
348
235D
292
     1
282
     1
141
0.0
142
0.0
 63
   256
361
2379
  0
VIEWPORT
  5
2330
330
232B
100
AcDbEntity
 67
     1
  8
0
100
AcDbViewport
 10
5.25
 20
4.0
 30
0.0
 40
8.4
 41
6.4
 68
     2
 69
     2
 12
389.9001116161746
 22
203.4705290650729
 13
0.0
 23
0.0
 14
0.5
 24
0.5
 15
0.0
 25
0.0
 16
0.0
 26
0.0
 36
1.0
 17
0.0
 27
0.0
 37
0.0
 42
50.0
 43
0.0
 44
0.0
 45
165.9227529649738
 50
0.0
 51
0.0
 72
   100
 90
   557152
  1

281
     0
 71
     1
 74
     0
110
0.0
120
0.0
130
0.0
111
1.0
121
0.0
131
0.0
112
0.0
122
1.0
132
0.0
 79
     0
146
0.0
170
     0
 61
     5
348
235D
292
     1
282
     1
141
0.0
142
0.0
 63
   256
  0
ENDSEC
  0
SECTION
  2
OBJECTS
  0
DICTIONARY
  5
C
330
0
100
AcDbDictionary
281
     1
  3
ACAD_DETAILVIEWSTYLE
350
122
  3
ACAD_GROUP
350
D
  3
ACAD_IMAGE_VARS
350
DC
  3
ACAD_LAYOUT
350
2355
  3
ACAD_MATERIAL
350
2371
  3
ACAD_MLEADERSTYLE
350
2377
  3
ACAD_MLINESTYLE
350
17
  3
ACAD_SCALELIST
350
2333
  3
ACAD_SECTIONVIEWSTYLE
350
123
  3
ACAD_TABLESTYLE
350
2375
  3
ACAD_VISUALSTYLE
350
2358
  3
ACDB_RECOMPOSE_DATA
350
237E
  3
ACDBVARIABLEDICTIONARY
350
66
  3
APPDATA
350
E1
  0
SUN
  5
237A
330
94
100
AcDbSun
 90
        1
290
     0
 63
     7
421
 16777215
 40
1.0
291
     1
 91
  2455826
 92
 54000000
292
     0
 70
     2
 71
   256
280
     1
  0
DICTIONARY
  5
1326
330
2
100
AcDbDictionary
280
     1
281
     1
  3
ACAD_LAYERSTATES
360
1329
  3
ACLYDICTIONARY
360
132E
  0
SUN
  5
2379
330
232F
100
AcDbSun
 90
        1
290
     0
 63
     7
421
 16777215
 40
1.0
291
     1
 91
  2455826
 92
 54000000
292
     0
 70
     2
 71
   256
280
     1
  0
DICTIONARY
  5
122
102
{ACAD_REACTORS
330
C
102
}
330
C
100
AcDbDictionary
281
     1
  0
DICTIONARY
  5
D
102
{ACAD_REACTORS
330
C
102
}
330
C
100
AcDbDictionary
281
     1
  0
RASTERVARIABLES
  5
DC
102
{ACAD_REACTORS
330
C
102
}
330
C
100
AcDbRasterVariables
 90
        0
 70
     1
 71
     1
 72
     5
  0
DICTIONARY
  5
2355
102
{ACAD_REACTORS
330
C
102
}
330
C
100
AcDbDictionary
281
     1
  3
List 1
350
2357
  3
Model
350
2356
  0
DICTIONARY
  5
2371
102
{ACAD_REACTORS
330
C
102
}
330
C
100
AcDbDictionary
281
     1
  3
ByBlock
350
2373
  3
ByLayer
350
2372
  3
Global
350
2374
  0
DICTIONARY
  5
2377
102
{ACAD_REACTORS
330
C
102
}
330
C
100
AcDbDictionary
281
     1
  3
Standard
350
2378
  0
DICTIONARY
  5
17
102
{ACAD_REACTORS
330
C
102
}
330
C
100
AcDbDictionary
281
     1
  3
STANDARD
350
18
  0
DICTIONARY
  5
2333
102
{ACAD_REACTORS
330
C
102
}
330
C
100
AcDbDictionary
281
     1
  3
A0
350
2334
  3
A1
350
2335
  3
A2
350
2336
  3
A3
350
2337
  3
A4
350
2338
  3
A5
350
2339
  3
A6
350
233A
  3
A7
350
233B
  3
A8
350
233C
  3
A9
350
233D
  3
B0
350
233E
  3
B1
350
233F
  3
B2
350
2340
  3
B3
350
2341
  3
B4
350
2342
  3
B5
350
2343
  3
B6
350
2344
  3
B7
350
2345
  3
B8
350
2346
  3
B9
350
2347
  3
C0
350
2348
  3
C1
350
2349
  3
C2
350
234A
  3
C3
350
234B
  3
C4
350
234C
  3
C5
350
234D
  3
C6
350
234E
  3
C7
350
234F
  3
C8
350
2350
  3
C9
350
2351
  3
D0
350
2352
  3
D1
350
2353
  3
D2
350
2354
  0
DICTIONARY
  5
123
102
{ACAD_REACTORS
330
C
102
}
330
C
100
AcDbDictionary
281
     1
  0
DICTIONARY
  5
2375
102
{ACAD_REACTORS
330
C
102
}
330
C
100
AcDbDictionary
281
     1
  3
Standard
350
2376
  0
DICTIONARY
  5
2358
102
{ACAD_REACTORS
330
C
102
}
330
C
100
AcDbDictionary
281
     1
  3
2dWireframe
350
235D
  3
Basic
350
2360
  3
Brighten
350
2364
  3
ColorChange
350
2368
  3
Conceptual
350
2362
  3
Dim
350
2363
  3
EdgeColorOff
350
236B
  3
Facepattern
350
2367
  3
Flat
350
2359
  3
FlatWithEdges
350
235A
  3
Gouraud
350
235B
  3
GouraudWithEdges
350
235C
  3
Hidden
350
235F
  3
JitterOff
350
2369
  3
Linepattern
350
2366
  3
OverhangOff
350
236A
  3
Realistic
350
2361
  3
Shaded
350
2370
  3
Shaded with edges
350
236F
  3
Shades of Gray
350
236C
  3
Sketchy
350
236D
  3
Thicken
350
2365
  3
Wireframe
350
235E
  3
X-Ray
350
236E
  0
XRECORD
  5
237E
102
{ACAD_REACTORS
330
C
102
}
330
C
100
AcDbXrecord
280
     1
 90
        1
330
2376
  0
DICTIONARY
  5
66
102
{ACAD_REACTORS
330
C
102
}
330
C
100
AcDbDictionary
281
     1
  3
CANNOSCALE
350
237B
  3
CMLEADERSTYLE
350
2380
  3
CTABLESTYLE
350
237F
  3
DIMASSOC
350
67
  3
HIDETEXT
350
6B
  3
MSLTSCALE
350
2381
  0
DICTIONARY
  5
E1
102
{ACAD_REACTORS
330
C
102
}
330
C
100
AcDbDictionary
281
     1
  0
DICTIONARY
  5
1329
102
{ACAD_REACTORS
330
1326
102
}
330
1326
100
AcDbDictionary
281
     1
  0
DICTIONARY
  5
132E
102
{ACAD_REACTORS
330
1326
102
}
330
1326
100
AcDbDictionary
281
     1
1001
ACAD
1000
<All
  0
LAYOUT
  5
2357
102
{ACAD_REACTORS
330
2355
102
}
330
2355
100
AcDbPlotSettings
  1

  2
none_device
  4
ANSI_A_(11.00_x_8.50_Inches)
  6

 40
6.35
 41
19.05
 42
6.35
 43
19.05
 44
279.4
 45
215.9
 46
0.0
 47
0.0
 48
0.0
 49
0.0
140
0.0
141
0.0
142
1.0
143
0.9142857142857145
 70
   688
 72
     0
 73
     0
 74
     1
  7

 75
     0
 76
     0
 77
     2
 78
   300
147
1.09375
148
-26.66999999999999
149
-20.31999999999999
100
AcDbLayout
  1
List 1
 70
     1
 71
     1
 10
0.8214285714285712
 20
0.1142857142857141
 11
10.87857142857143
 21
7.885714285714286
 12
0.0
 22
0.0
 32
0.0
 14
1.05
 24
0.7999999999999998
 34
0.0
 15
9.45
 25
7.2
 35
0.0
146
0.0
 13
0.0
 23
0.0
 33
0.0
 16
1.0
 26
0.0
 36
0.0
 17
0.0
 27
1.0
 37
0.0
 76
     0
330
232B
331
232F
  0
LAYOUT
  5
2356
102
{ACAD_REACTORS
330
2355
102
}
330
2355
100
AcDbPlotSettings
  1

  2
none_device
  4
Letter_(8.50_x_11.00_Inches)
  6

 40
6.35
 41
6.35
 42
6.35
 43
6.35
 44
215.9
 45
279.4
 46
0.0
 47
0.0
 48
0.0
 49
0.0
140
0.0
141
0.0
142
1.0
143
24.71984444260727
 70
  1712
 72
     0
 73
     0
 74
     0
  7

 75
     0
 76
     0
 77
     2
 78
   300
147
0.0404533289973457
148
-8218.43577908413
149
-3469.540335044014
100
AcDbLayout
  1
Model
 70
     1
 71
     0
 10
0.0
 20
0.0
 11
12.0
 21
9.0
 12
0.0
 22
0.0
 32
0.0
 14
306.4576136542384
 24
122.1358462391053
 34
0.0
 15
473.3426095781108
 25
284.8052118910404
 35
0.0
146
0.0
 13
0.0
 23
0.0
 33
0.0
 16
1.0
 26
0.0
 36
0.0
 17
0.0
 27
1.0
 37
0.0
 76
     0
330
1F
331
94
  0
MATERIAL
  5
2373
102
{ACAD_REACTORS
330
2371
102
}
330
2371
100
AcDbMaterial
  1
ByBlock
 72
     1
 94
      127
  0
MATERIAL
  5
2372
102
{ACAD_REACTORS
330
2371
102
}
330
2371
100
AcDbMaterial
  1
ByLayer
 72
     1
 94
      127
  0
MATERIAL
  5
2374
102
{ACAD_REACTORS
330
2371
102
}
330
2371
100
AcDbMaterial
  1
Global
 72
     1
 94
      127
  0
MLEADERSTYLE
  5
2378
102
{ACAD_REACTORS
330
2377
102
}
330
2377
100
AcDbMLeaderStyle
179
     2
170
     2
171
     1
172
     0
 90
        2
 40
0.0
 41
0.0
173
     1
 91
-1056964608
340
14
 92
       -2
290
     1
 42
0.09
291
     1
 43
0.36
  3
Standard
341
0
 44
0.18
300

342
11
174
     1
178
     6
175
     1
176
     0
 93
-1056964608
 45
0.18
292
     0
297
     0
 46
0.18
343
0
 94
-1056964608
 47
1.0
 49
1.0
140
1.0
293
     1
141
0.0
294
     1
177
     0
142
1.0
295
     0
296
     0
143
0.125
271
     0
272
     9
273
     9
298
     0
  0
MLINESTYLE
  5
18
102
{ACAD_REACTORS
330
17
102
}
330
17
100
AcDbMlineStyle
  2
STANDARD
 70
     0
  3

 62
   256
 51
90.0
 52
90.0
 71
     2
 49
0.5
 62
   256
  6
BYLAYER
 49
-0.5
 62
   256
  6
BYLAYER
  0
SCALE
  5
2334
102
{ACAD_REACTORS
330
2333
102
}
330
2333
100
AcDbScale
 70
     0
300
1:1
140
1.0
141
1.0
290
     1
  0
SCALE
  5
2335
102
{ACAD_REACTORS
330
2333
102
}
330
2333
100
AcDbScale
 70
     0
300
1:2
140
1.0
141
2.0
290
     0
  0
SCALE
  5
2336
102
{ACAD_REACTORS
330
2333
102
}
330
2333
100
AcDbScale
 70
     0
300
1:4
140
1.0
141
4.0
290
     0
  0
SCALE
  5
2337
102
{ACAD_REACTORS
330
2333
102
}
330
2333
100
AcDbScale
 70
     0
300
1:5
140
1.0
141
5.0
290
     0
  0
SCALE
  5
2338
102
{ACAD_REACTORS
330
2333
102
}
330
2333
100
AcDbScale
 70
     0
300
1:8
140
1.0
141
8.0
290
     0
  0
SCALE
  5
2339
102
{ACAD_REACTORS
330
2333
102
}
330
2333
100
AcDbScale
 70
     0
300
1:10
140
1.0
141
10.0
290
     0
  0
SCALE
  5
233A
102
{ACAD_REACTORS
330
2333
102
}
330
2333
100
AcDbScale
 70
     0
300
1:16
140
1.0
141
16.0
290
     0
  0
SCALE
  5
233B
102
{ACAD_REACTORS
330
2333
102
}
330
2333
100
AcDbScale
 70
     0
300
1:20
140
1.0
141
20.0
290
     0
  0
SCALE
  5
233C
102
{ACAD_REACTORS
330
2333
102
}
330
2333
100
AcDbScale
 70
     0
300
1:30
140
1.0
141
30.0
290
     0
  0
SCALE
  5
233D
102
{ACAD_REACTORS
330
2333
102
}
330
2333
100
AcDbScale
 70
     0
300
1:40
140
1.0
141
40.0
290
     0
  0
SCALE
  5
233E
102
{ACAD_REACTORS
330
2333
102
}
330
2333
100
AcDbScale
 70
     0
300
1:50
140
1.0
141
50.0
290
     0
  0
SCALE
  5
233F
102
{ACAD_REACTORS
330
2333
102
}
330
2333
100
AcDbScale
 70
     0
300
1:100
140
1.0
141
100.0
290
     0
  0
SCALE
  5
2340
102
{ACAD_REACTORS
330
2333
102
}
330
2333
100
AcDbScale
 70
     0
300
2:1
140
2.0
141
1.0
290
     0
  0
SCALE
  5
2341
102
{ACAD_REACTORS
330
2333
102
}
330
2333
100
AcDbScale
 70
     0
300
4:1
140
4.0
141
1.0
290
     0
  0
SCALE
  5
2342
102
{ACAD_REACTORS
330
2333
102
}
330
2333
100
AcDbScale
 70
     0
300
8:1
140
8.0
141
1.0
290
     0
  0
SCALE
  5
2343
102
{ACAD_REACTORS
330
2333
102
}
330
2333
100
AcDbScale
 70
     0
300
10:1
140
10.0
141
1.0
290
     0
  0
SCALE
  5
2344
102
{ACAD_REACTORS
330
2333
102
}
330
2333
100
AcDbScale
 70
     0
300
100:1
140
100.0
141
1.0
290
     0
  0
SCALE
  5
2345
102
{ACAD_REACTORS
330
2333
102
}
330
2333
100
AcDbScale
 70
     0
300
1/128" = 1'-0"
140
0.0078125
141
12.0
290
     0
  0
SCALE
  5
2346
102
{ACAD_REACTORS
330
2333
102
}
330
2333
100
AcDbScale
 70
     0
300
1/64" = 1'-0"
140
0.015625
141
12.0
290
     0
  0
SCALE
  5
2347
102
{ACAD_REACTORS
330
2333
102
}
330
2333
100
AcDbScale
 70
     0
300
1/32" = 1'-0"
140
0.03125
141
12.0
290
     0
  0
SCALE
  5
2348
102
{ACAD_REACTORS
330
2333
102
}
330
2333
100
AcDbScale
 70
     0
300
1/16" = 1'-0"
140
0.0625
141
12.0
290
     0
  0
SCALE
  5
2349
102
{ACAD_REACTORS
330
2333
102
}
330
2333
100
AcDbScale
 70
     0
300
3/32" = 1'-0"
140
0.09375
141
12.0
290
     0
  0
SCALE
  5
234A
102
{ACAD_REACTORS
330
2333
102
}
330
2333
100
AcDbScale
 70
     0
300
1/8" = 1'-0"
140
0.125
141
12.0
290
     0
  0
SCALE
  5
234B
102
{ACAD_REACTORS
330
2333
102
}
330
2333
100
AcDbScale
 70
     0
300
3/16" = 1'-0"
140
0.1875
141
12.0
290
     0
  0
SCALE
  5
234C
102
{ACAD_REACTORS
330
2333
102
}
330
2333
100
AcDbScale
 70
     0
300
1/4" = 1'-0"
140
0.25
141
12.0
290
     0
  0
SCALE
  5
234D
102
{ACAD_REACTORS
330
2333
102
}
330
2333
100
AcDbScale
 70
     0
300
3/8" = 1'-0"
140
0.375
141
12.0
290
     0
  0
SCALE
  5
234E
102
{ACAD_REACTORS
330
2333
102
}
330
2333
100
AcDbScale
 70
     0
300
1/2" = 1'-0"
140
0.5
141
12.0
290
     0
  0
SCALE
  5
234F
102
{ACAD_REACTORS
330
2333
102
}
330
2333
100
AcDbScale
 70
     0
300
3/4" = 1'-0"
140
0.75
141
12.0
290
     0
  0
SCALE
  5
2350
102
{ACAD_REACTORS
330
2333
102
}
330
2333
100
AcDbScale
 70
     0
300
1" = 1'-0"
140
1.0
141
12.0
290
     0
  0
SCALE
  5
2351
102
{ACAD_REACTORS
330
2333
102
}
330
2333
100
AcDbScale
 70
     0
300
1-1/2" = 1'-0"
140
1.5
141
12.0
290
     0
  0
SCALE
  5
2352
102
{ACAD_REACTORS
330
2333
102
}
330
2333
100
AcDbScale
 70
     0
300
3" = 1'-0"
140
3.0
141
12.0
290
     0
  0
SCALE
  5
2353
102
{ACAD_REACTORS
330
2333
102
}
330
2333
100
AcDbScale
 70
     0
300
6" = 1'-0"
140
6.0
141
12.0
290
     0
  0
SCALE
  5
2354
102
{ACAD_REACTORS
330
2333
102
}
330
2333
100
AcDbScale
 70
     0
300
1'-0" = 1'-0"
140
12.0
141
12.0
290
     0
  0
TABLESTYLE
  5
2376
102
{ACAD_REACTORS
330
2375
102
}
102
{ACAD_XDICTIONARY
360
237C
102
}
330
2375
100
AcDbTableStyle
  3
Standard
 70
     0
 71
     0
 40
0.06
 41
0.06
280
     0
281
     0
  7
STANDARD
140
0.18
170
     2
 62
     0
 63
   257
283
     0
 90
        4
 91
        0
  1

274
    -2
284
     1
 64
     0
275
    -2
285
     1
 65
     0
276
    -2
286
     1
 66
     0
277
    -2
287
     1
 67
     0
278
    -2
288
     1
 68
     0
279
    -2
289
     1
 69
     0
  7
STANDARD
140
0.25
170
     5
 62
     0
 63
   257
283
     0
 90
        4
 91
        0
  1

274
    -2
284
     1
 64
     0
275
    -2
285
     1
 65
     0
276
    -2
286
     1
 66
     0
277
    -2
287
     1
 67
     0
278
    -2
288
     1
 68
     0
279
    -2
289
     1
 69
     0
  7
STANDARD
140
0.18
170
     5
 62
     0
 63
   257
283
     0
 90
        4
 91
        0
  1

274
    -2
284
     1
 64
     0
275
    -2
285
     1
 65
     0
276
    -2
286
     1
 66
     0
277
    -2
287
     1
 67
     0
278
    -2
288
     1
 68
     0
279
    -2
289
     1
 69
     0
  0
VISUALSTYLE
  5
235D
102
{ACAD_REACTORS
330
2358
102
}
330
2358
100
AcDbVisualStyle
  2
2dWireframe
 70
     4
177
     3
291
     0
 70
    58
 90
        0
176
     1
 90
        2
176
     1
 90
        0
176
     1
 90
        0
176
     1
 40
0.6
176
     1
 40
30.0
176
     1
 62
     7
420
 16777215
176
     1
 90
        1
176
     1
 90
        4
176
     1
 62
     7
176
     1
 62
   257
176
     1
 90
        1
176
     1
 90
        1
176
     1
 40
1.0
176
     1
 90
        0
176
     1
 62
   257
176
     1
 40
1.0
176
     1
 90
        1
176
     1
 90
        6
176
     1
 90
        2
176
     1
 62
     7
176
     1
 90
        5
176
     1
 90
        0
176
     1
 90
        0
176
     1
290
     0
176
     1
 90
        1
176
     1
 40
0.0
176
     1
 90
        0
176
     1
290
     1
176
     1
290
     1
176
     1
290
     0
176
     1
290
     0
176
     1
290
     0
176
     1
290
     0
176
     1
290
     0
176
     1
290
     0
176
     1
290
     0
176
     1
 90
       50
176
     1
 40
0.0
176
     1
 40
1.0
176
     1
 90
        0
176
     1
 62
    18
420
        0
176
     1
 90
       50
176
     1
 90
        3
176
     1
 62
     5
420
      255
176
     1
290
     0
176
     1
 90
       50
176
     1
 90
       50
176
     1
 90
       50
176
     1
290
     0
176
     1
 90
       50
176
     1
 62
   256
176
     0
 40
1.0
176
     0
 90
        2
176
     1
  1
strokes_ogs.tif
176
     1
290
     0
176
     1
 40
1.0
176
     1
 40
1.0
176
     1
  0
VISUALSTYLE
  5
2360
102
{ACAD_REACTORS
330
2358
102
}
330
2358
100
AcDbVisualStyle
  2
Basic
 70
     7
177
     3
291
     1
 70
    58
 90
        1
176
     1
 90
        0
176
     1
 90
        1
176
     1
 90
        0
176
     1
 40
0.6
176
     1
 40
30.0
176
     1
 62
     7
420
 16777215
176
     1
 90
        0
176
     1
 90
        4
176
     1
 62
     7
176
     1
 62
   257
176
     1
 90
        1
176
     1
 90
        1
176
     1
 40
1.0
176
     1
 90
        8
176
     1
 62
     7
176
     1
 40
1.0
176
     1
 90
        1
176
     1
 90
        6
176
     1
 90
        2
176
     1
 62
     7
176
     1
 90
        5
176
     1
 90
        0
176
     1
 90
        0
176
     1
290
     0
176
     1
 90
        1
176
     1
 40
0.0
176
     1
 90
        0
176
     1
290
     0
176
     1
290
     1
176
     1
290
     1
176
     1
290
     0
176
     1
290
     0
176
     1
290
     0
176
     1
290
     0
176
     1
290
     0
176
     1
290
     0
176
     1
 90
       50
176
     1
 40
0.0
176
     1
 40
1.0
176
     1
 90
        0
176
     1
 62
    18
420
        0
176
     1
 90
       50
176
     1
 90
        3
176
     1
 62
     5
420
      255
176
     1
290
     0
176
     1
 90
       50
176
     1
 90
       50
176
     1
 90
       50
176
     1
290
     0
176
     1
 90
       50
176
     1
 62
   256
176
     0
 40
1.0
176
     0
 90
        2
176
     1
  1
strokes_ogs.tif
176
     1
290
     0
176
     1
 40
1.0
176
     1
 40
1.0
176
     1
  0
VISUALSTYLE
  5
2364
102
{ACAD_REACTORS
330
2358
102
}
330
2358
100
AcDbVisualStyle
  2
Brighten
 70
    12
177
     3
291
     1
 70
    58
 90
        2
176
     1
 90
        2
176
     1
 90
        0
176
     1
 90
        0
176
     1
 40
0.6
176
     1
 40
30.0
176
     1
 62
     7
420
 16777215
176
     1
 90
        1
176
     1
 90
        4
176
     1
 62
     7
176
     1
 62
   257
176
     1
 90
        1
176
     1
 90
        1
176
     1
 40
1.0
176
     1
 90
        8
176
     1
 62
     7
176
     1
 40
1.0
176
     1
 90
        1
176
     1
 90
        6
176
     1
 90
        2
176
     1
 62
     7
176
     1
 90
        5
176
     1
 90
        0
176
     1
 90
        0
176
     1
290
     0
176
     1
 90
        1
176
     1
 40
50.0
176
     1
 90
        0
176
     1
290
     0
176
     1
290
     1
176
     1
290
     1
176
     1
290
     0
176
     1
290
     0
176
     1
290
     0
176
     1
290
     0
176
     1
290
     0
176
     1
290
     0
176
     1
 90
       50
176
     1
 40
0.0
176
     1
 40
1.0
176
     1
 90
        0
176
     1
 62
    18
420
        0
176
     1
 90
       50
176
     1
 90
        3
176
     1
 62
     5
420
      255
176
     1
290
     0
176
     1
 90
       50
176
     1
 90
       50
176
     1
 90
       50
176
     1
290
     0
176
     1
 90
       50
176
     1
 62
   256
176
     0
 40
1.0
176
     0
 90
        2
176
     1
  1
strokes_ogs.tif
176
     1
290
     0
176
     1
 40
1.0
176
     1
 40
1.0
176
     1
  0
VISUALSTYLE
  5
2368
102
{ACAD_REACTORS
330
2358
102
}
330
2358
100
AcDbVisualStyle
  2
ColorChange
 70
    16
177
     3
291
     1
 70
    58
 90
        2
176
     1
 90
        2
176
     1
 90
        3
176
     1
 90
        0
176
     1
 40
0.6
176
     1
 40
30.0
176
     1
 62
     8
420
  8421504
176
     1
 90
        1
176
     1
 90
        4
176
     1
 62
     7
176
     1
 62
   257
176
     1
 90
        1
176
     1
 90
        1
176
     1
 40
1.0
176
     1
 90
        8
176
     1
 62
     8
420
  8421504
176
     1
 40
1.0
176
     1
 90
        1
176
     1
 90
        6
176
     1
 90
        2
176
     1
 62
     7
176
     1
 90
        5
176
     1
 90
        0
176
     1
 90
        0
176
     1
290
     0
176
     1
 90
        1
176
     1
 40
0.0
176
     1
 90
        0
176
     1
290
     0
176
     1
290
     1
176
     1
290
     1
176
     1
290
     0
176
     1
290
     0
176
     1
290
     0
176
     1
290
     0
176
     1
290
     0
176
     1
290
     0
176
     1
 90
       50
176
     1
 40
0.0
176
     1
 40
1.0
176
     1
 90
        0
176
     1
 62
    18
420
        0
176
     1
 90
       50
176
     1
 90
        3
176
     1
 62
     5
420
      255
176
     1
290
     0
176
     1
 90
       50
176
     1
 90
       50
176
     1
 90
       50
176
     1
290
     0
176
     1
 90
       50
176
     1
 62
   256
176
     0
 40
1.0
176
     0
 90
        2
176
     1
  1
strokes_ogs.tif
176
     1
290
     0
176
     1
 40
1.0
176
     1
 40
1.0
176
     1
  0
VISUALSTYLE
  5
2362
102
{ACAD_REACTORS
330
2358
102
}
330
2358
100
AcDbVisualStyle
  2
Conceptual
 70
     9
177
     3
291
     0
 70
    58
 90
        3
176
     1
 90
        2
176
     1
 90
        0
176
     1
 90
        0
176
     1
 40
0.6
176
     1
 40
30.0
176
     1
 62
     7
420
 16777215
176
     1
 90
        2
176
     1
 90
        2
176
     1
 62
     7
176
     1
 62
   257
176
     1
 90
        1
176
     1
 90
        1
176
     1
 40
179.0
176
     1
 90
        8
176
     1
 62
     7
176
     1
 40
1.0
176
     1
 90
        1
176
     1
 90
        6
176
     1
 90
        2
176
     1
 62
     7
176
     1
 90
        3
176
     1
 90
        0
176
     1
 90
        0
176
     1
290
     0
176
     1
 90
        1
176
     1
 40
0.0
176
     1
 90
        0
176
     1
290
     0
176
     1
290
     1
176
     1
290
     1
176
     1
290
     0
176
     1
290
     0
176
     1
290
     0
176
     1
290
     0
176
     1
290
     0
176
     1
290
     0
176
     1
 90
       50
176
     1
 40
0.0
176
     1
 40
1.0
176
     1
 90
        0
176
     1
 62
    18
420
        0
176
     1
 90
       50
176
     1
 90
        3
176
     1
 62
     5
420
      255
176
     1
290
     0
176
     1
 90
       50
176
     1
 90
       50
176
     1
 90
       50
176
     1
290
     0
176
     1
 90
       50
176
     1
 62
   256
176
     0
 40
1.0
176
     0
 90
        2
176
     1
  1
strokes_ogs.tif
176
     1
290
     0
176
     1
 40
1.0
176
     1
 40
1.0
176
     1
  0
VISUALSTYLE
  5
2363
102
{ACAD_REACTORS
330
2358
102
}
330
2358
100
AcDbVisualStyle
  2
Dim
 70
    11
177
     3
291
     1
 70
    58
 90
        2
176
     1
 90
        2
176
     1
 90
        0
176
     1
 90
        0
176
     1
 40
0.6
176
     1
 40
30.0
176
     1
 62
     7
420
 16777215
176
     1
 90
        1
176
     1
 90
        4
176
     1
 62
     7
176
     1
 62
   257
176
     1
 90
        1
176
     1
 90
        1
176
     1
 40
1.0
176
     1
 90
        8
176
     1
 62
     7
176
     1
 40
1.0
176
     1
 90
        1
176
     1
 90
        6
176
     1
 90
        2
176
     1
 62
     7
176
     1
 90
        5
176
     1
 90
        0
176
     1
 90
        0
176
     1
290
     0
176
     1
 90
        1
176
     1
 40
-50.0
176
     1
 90
        0
176
     1
290
     0
176
     1
290
     1
176
     1
290
     1
176
     1
290
     0
176
     1
290
     0
176
     1
290
     0
176
     1
290
     0
176
     1
290
     0
176
     1
290
     0
176
     1
 90
       50
176
     1
 40
0.0
176
     1
 40
1.0
176
     1
 90
        0
176
     1
 62
    18
420
        0
176
     1
 90
       50
176
     1
 90
        3
176
     1
 62
     5
420
      255
176
     1
290
     0
176
     1
 90
       50
176
     1
 90
       50
176
     1
 90
       50
176
     1
290
     0
176
     1
 90
       50
176
     1
 62
   256
176
     0
 40
1.0
176
     0
 90
        2
176
     1
  1
strokes_ogs.tif
176
     1
290
     0
176
     1
 40
1.0
176
     1
 40
1.0
176
     1
  0
VISUALSTYLE
  5
236B
102
{ACAD_REACTORS
330
2358
102
}
330
2358
100
AcDbVisualStyle
  2
EdgeColorOff
 70
    22
177
     3
291
     1
 70
    58
 90
        2
176
     0
 90
        2
176
     0
 90
        0
176
     0
 90
        0
176
     0
 40
0.6
176
     0
 40
30.0
176
     0
 62
     7
420
 16777215
176
     0
 90
        1
176
     0
 90
        4
176
     0
 62
     7
176
     0
 62
   257
176
     0
 90
        1
176
     0
 90
        1
176
     0
 40
1.0
176
     0
 90
        8
176
     2
 62
     7
176
     0
 40
1.0
176
     0
 90
        1
176
     0
 90
        6
176
     0
 90
        2
176
     0
 62
     7
176
     0
 90
        5
176
     0
 90
        0
176
     0
 90
        0
176
     0
290
     0
176
     0
 90
        1
176
     0
 40
0.0
176
     0
 90
        0
176
     0
290
     0
176
     0
290
     1
176
     0
290
     1
176
     0
290
     0
176
     0
290
     0
176
     0
290
     0
176
     0
290
     0
176
     0
290
     0
176
     0
290
     0
176
     0
 90
       50
176
     0
 40
0.0
176
     0
 40
1.0
176
     0
 90
        0
176
     0
 62
    18
420
        0
176
     0
 90
       50
176
     0
 90
        3
176
     0
 62
     5
420
      255
176
     0
290
     0
176
     0
 90
       50
176
     0
 90
       50
176
     0
 90
       50
176
     0
290
     0
176
     0
 90
       50
176
     0
 62
   256
176
     0
 40
1.0
176
     0
 90
        2
176
     0
  1
strokes_ogs.tif
176
     0
290
     0
176
     0
 40
1.0
176
     0
 40
1.0
176
     0
  0
VISUALSTYLE
  5
2367
102
{ACAD_REACTORS
330
2358
102
}
330
2358
100
AcDbVisualStyle
  2
Facepattern
 70
    15
177
     3
291
     1
 70
    58
 90
        2
176
     1
 90
        2
176
     1
 90
        0
176
     1
 90
        0
176
     1
 40
0.6
176
     1
 40
30.0
176
     1
 62
     7
420
 16777215
176
     1
 90
        1
176
     1
 90
        4
176
     1
 62
     7
176
     1
 62
   257
176
     1
 90
        1
176
     1
 90
        1
176
     1
 40
1.0
176
     1
 90
        8
176
     1
 62
     7
176
     1
 40
1.0
176
     1
 90
        1
176
     1
 90
        6
176
     1
 90
        2
176
     1
 62
     7
176
     1
 90
        5
176
     1
 90
        0
176
     1
 90
        0
176
     1
290
     0
176
     1
 90
        1
176
     1
 40
0.0
176
     1
 90
        0
176
     1
290
     0
176
     1
290
     1
176
     1
290
     1
176
     1
290
     0
176
     1
290
     0
176
     1
290
     0
176
     1
290
     0
176
     1
290
     0
176
     1
290
     0
176
     1
 90
       50
176
     1
 40
0.0
176
     1
 40
1.0
176
     1
 90
        0
176
     1
 62
    18
420
        0
176
     1
 90
       50
176
     1
 90
        3
176
     1
 62
     5
420
      255
176
     1
290
     0
176
     1
 90
       50
176
     1
 90
       50
176
     1
 90
       50
176
     1
290
     0
176
     1
 90
       50
176
     1
 62
   256
176
     0
 40
1.0
176
     0
 90
        2
176
     1
  1
strokes_ogs.tif
176
     1
290
     0
176
     1
 40
1.0
176
     1
 40
1.0
176
     1
  0
VISUALSTYLE
  5
2359
102
{ACAD_REACTORS
330
2358
102
}
330
2358
100
AcDbVisualStyle
  2
Flat
 70
     0
177
     3
291
     1
 70
    58
 90
        2
176
     1
 90
        1
176
     1
 90
        1
176
     1
 90
        2
176
     1
 40
0.6
176
     1
 40
30.0
176
     1
 62
     7
420
 16777215
176
     1
 90
        0
176
     1
 90
        0
176
     1
 62
     7
176
     1
 62
   257
176
     1
 90
        1
176
     1
 90
        1
176
     1
 40
1.0
176
     1
 90
        8
176
     1
 62
     7
176
     1
 40
1.0
176
     1
 90
        1
176
     1
 90
        6
176
     1
 90
        2
176
     1
 62
     7
176
     1
 90
        5
176
     1
 90
        0
176
     1
 90
        0
176
     1
290
     0
176
     1
 90
       13
176
     1
 40
0.0
176
     1
 90
        0
176
     1
290
     0
176
     1
290
     1
176
     1
290
     1
176
     1
290
     0
176
     1
290
     0
176
     1
290
     0
176
     1
290
     0
176
     1
290
     0
176
     1
290
     0
176
     1
 90
       50
176
     1
 40
0.0
176
     1
 40
1.0
176
     1
 90
        0
176
     1
 62
    18
420
        0
176
     1
 90
       50
176
     1
 90
        3
176
     1
 62
     5
420
      255
176
     1
290
     0
176
     1
 90
       50
176
     1
 90
       50
176
     1
 90
       50
176
     1
290
     0
176
     1
 90
       50
176
     1
 62
   256
176
     0
 40
1.0
176
     0
 90
        2
176
     1
  1
strokes_ogs.tif
176
     1
290
     0
176
     1
 40
1.0
176
     1
 40
1.0
176
     1
  0
VISUALSTYLE
  5
235A
102
{ACAD_REACTORS
330
2358
102
}
330
2358
100
AcDbVisualStyle
  2
FlatWithEdges
 70
     1
177
     3
291
     1
 70
    58
 90
        2
176
     1
 90
        1
176
     1
 90
        1
176
     1
 90
        2
176
     1
 40
0.6
176
     1
 40
30.0
176
     1
 62
     7
420
 16777215
176
     1
 90
        1
176
     1
 90
        0
176
     1
 62
     7
176
     1
 62
   257
176
     1
 90
        1
176
     1
 90
        1
176
     1
 40
1.0
176
     1
 90
        0
176
     1
 62
   257
176
     1
 40
1.0
176
     1
 90
        1
176
     1
 90
        6
176
     1
 90
        2
176
     1
 62
     7
176
     1
 90
        5
176
     1
 90
        0
176
     1
 90
        0
176
     1
290
     0
176
     1
 90
       13
176
     1
 40
0.0
176
     1
 90
        0
176
     1
290
     0
176
     1
290
     1
176
     1
290
     1
176
     1
290
     0
176
     1
290
     0
176
     1
290
     0
176
     1
290
     0
176
     1
290
     0
176
     1
290
     0
176
     1
 90
       50
176
     1
 40
0.0
176
     1
 40
1.0
176
     1
 90
        0
176
     1
 62
    18
420
        0
176
     1
 90
       50
176
     1
 90
        3
176
     1
 62
     5
420
      255
176
     1
290
     0
176
     1
 90
       50
176
     1
 90
       50
176
     1
 90
       50
176
     1
290
     0
176
     1
 90
       50
176
     1
 62
   256
176
     0
 40
1.0
176
     0
 90
        2
176
     1
  1
strokes_ogs.tif
176
     1
290
     0
176
     1
 40
1.0
176
     1
 40
1.0
176
     1
  0
VISUALSTYLE
  5
235B
102
{ACAD_REACTORS
330
2358
102
}
330
2358
100
AcDbVisualStyle
  2
Gouraud
 70
     2
177
     3
291
     1
 70
    58
 90
        2
176
     1
 90
        2
176
     1
 90
        1
176
     1
 90
        2
176
     1
 40
0.6
176
     1
 40
30.0
176
     1
 62
     7
420
 16777215
176
     1
 90
        0
176
     1
 90
        0
176
     1
 62
     7
176
     1
 62
   257
176
     1
 90
        1
176
     1
 90
        1
176
     1
 40
1.0
176
     1
 90
        0
176
     1
 62
     7
176
     1
 40
1.0
176
     1
 90
        1
176
     1
 90
        6
176
     1
 90
        2
176
     1
 62
     7
176
     1
 90
        5
176
     1
 90
        0
176
     1
 90
        0
176
     1
290
     0
176
     1
 90
       13
176
     1
 40
0.0
176
     1
 90
        0
176
     1
290
     0
176
     1
290
     1
176
     1
290
     1
176
     1
290
     0
176
     1
290
     0
176
     1
290
     0
176
     1
290
     0
176
     1
290
     0
176
     1
290
     0
176
     1
 90
       50
176
     1
 40
0.0
176
     1
 40
1.0
176
     1
 90
        0
176
     1
 62
    18
420
        0
176
     1
 90
       50
176
     1
 90
        3
176
     1
 62
     5
420
      255
176
     1
290
     0
176
     1
 90
       50
176
     1
 90
       50
176
     1
 90
       50
176
     1
290
     0
176
     1
 90
       50
176
     1
 62
   256
176
     0
 40
1.0
176
     0
 90
        2
176
     1
  1
strokes_ogs.tif
176
     1
290
     0
176
     1
 40
1.0
176
     1
 40
1.0
176
     1
  0
VISUALSTYLE
  5
235C
102
{ACAD_REACTORS
330
2358
102
}
330
2358
100
AcDbVisualStyle
  2
GouraudWithEdges
 70
     3
177
     3
291
     1
 70
    58
 90
        2
176
     1
 90
        2
176
     1
 90
        1
176
     1
 90
        2
176
     1
 40
0.6
176
     1
 40
30.0
176
     1
 62
     7
420
 16777215
176
     1
 90
        1
176
     1
 90
        0
176
     1
 62
     7
176
     1
 62
   257
176
     1
 90
        1
176
     1
 90
        1
176
     1
 40
1.0
176
     1
 90
        0
176
     1
 62
   257
176
     1
 40
1.0
176
     1
 90
        1
176
     1
 90
        6
176
     1
 90
        2
176
     1
 62
     7
176
     1
 90
        5
176
     1
 90
        0
176
     1
 90
        0
176
     1
290
     0
176
     1
 90
       13
176
     1
 40
0.0
176
     1
 90
        0
176
     1
290
     0
176
     1
290
     1
176
     1
290
     1
176
     1
290
     0
176
     1
290
     0
176
     1
290
     0
176
     1
290
     0
176
     1
290
     0
176
     1
290
     0
176
     1
 90
       50
176
     1
 40
0.0
176
     1
 40
1.0
176
     1
 90
        0
176
     1
 62
    18
420
        0
176
     1
 90
       50
176
     1
 90
        3
176
     1
 62
     5
420
      255
176
     1
290
     0
176
     1
 90
       50
176
     1
 90
       50
176
     1
 90
       50
176
     1
290
     0
176
     1
 90
       50
176
     1
 62
   256
176
     0
 40
1.0
176
     0
 90
        2
176
     1
  1
strokes_ogs.tif
176
     1
290
     0
176
     1
 40
1.0
176
     1
 40
1.0
176
     1
  0
VISUALSTYLE
  5
235F
102
{ACAD_REACTORS
330
2358
102
}
330
2358
100
AcDbVisualStyle
  2
Hidden
 70
     6
177
     3
291
     0
 70
    58
 90
        1
176
     1
 90
        2
176
     1
 90
        2
176
     1
 90
        0
176
     1
 40
0.6
176
     1
 40
30.0
176
     1
 62
     7
420
 16777215
176
     1
 90
        2
176
     1
 90
        2
176
     1
 62
     7
176
     1
 62
   257
176
     1
 90
        2
176
     1
 90
        1
176
     1
 40
40.0
176
     1
 90
        0
176
     1
 62
   257
176
     1
 40
1.0
176
     1
 90
        1
176
     1
 90
        6
176
     1
 90
        2
176
     1
 62
     7
176
     1
 90
        3
176
     1
 90
        0
176
     1
 90
        0
176
     1
290
     0
176
     1
 90
        1
176
     1
 40
0.0
176
     1
 90
        0
176
     1
290
     0
176
     1
290
     1
176
     1
290
     1
176
     1
290
     0
176
     1
290
     0
176
     1
290
     0
176
     1
290
     0
176
     1
290
     0
176
     1
290
     0
176
     1
 90
       50
176
     1
 40
0.0
176
     1
 40
1.0
176
     1
 90
        0
176
     1
 62
    18
420
        0
176
     1
 90
       50
176
     1
 90
        3
176
     1
 62
     5
420
      255
176
     1
290
     0
176
     1
 90
       50
176
     1
 90
       50
176
     1
 90
       50
176
     1
290
     0
176
     1
 90
       50
176
     1
 62
   256
176
     0
 40
1.0
176
     0
 90
        2
176
     1
  1
strokes_ogs.tif
176
     1
290
     0
176
     1
 40
1.0
176
     1
 40
1.0
176
     1
  0
VISUALSTYLE
  5
2369
102
{ACAD_REACTORS
330
2358
102
}
330
2358
100
AcDbVisualStyle
  2
JitterOff
 70
    20
177
     3
291
     1
 70
    58
 90
        2
176
     0
 90
        2
176
     0
 90
        0
176
     0
 90
        0
176
     0
 40
0.6
176
     0
 40
30.0
176
     0
 62
     7
420
 16777215
176
     0
 90
        1
176
     0
 90
        4
176
     0
 62
     7
176
     0
 62
   257
176
     0
 90
        1
176
     0
 90
        1
176
     0
 40
1.0
176
     0
 90
       10
176
     2
 62
     7
176
     0
 40
1.0
176
     0
 90
        1
176
     0
 90
        6
176
     0
 90
        2
176
     0
 62
     7
176
     0
 90
        5
176
     0
 90
        0
176
     0
 90
        0
176
     0
290
     0
176
     0
 90
        1
176
     0
 40
0.0
176
     0
 90
        0
176
     0
290
     0
176
     0
290
     1
176
     0
290
     1
176
     0
290
     0
176
     0
290
     0
176
     0
290
     0
176
     0
290
     0
176
     0
290
     0
176
     0
290
     0
176
     0
 90
       50
176
     0
 40
0.0
176
     0
 40
1.0
176
     0
 90
        0
176
     0
 62
    18
420
        0
176
     0
 90
       50
176
     0
 90
        3
176
     0
 62
     5
420
      255
176
     0
290
     0
176
     0
 90
       50
176
     0
 90
       50
176
     0
 90
       50
176
     0
290
     0
176
     0
 90
       50
176
     0
 62
   256
176
     0
 40
1.0
176
     0
 90
        2
176
     0
  1
strokes_ogs.tif
176
     0
290
     0
176
     0
 40
1.0
176
     0
 40
1.0
176
     0
  0
VISUALSTYLE
  5
2366
102
{ACAD_REACTORS
330
2358
102
}
330
2358
100
AcDbVisualStyle
  2
Linepattern
 70
    14
177
     3
291
     1
 70
    58
 90
        2
176
     1
 90
        2
176
     1
 90
        0
176
     1
 90
        0
176
     1
 40
0.6
176
     1
 40
30.0
176
     1
 62
     7
420
 16777215
176
     1
 90
        1
176
     1
 90
        4
176
     1
 62
     7
176
     1
 62
   257
176
     1
 90
        7
176
     1
 90
        7
176
     1
 40
1.0
176
     1
 90
        8
176
     1
 62
     7
176
     1
 40
1.0
176
     1
 90
        1
176
     1
 90
        6
176
     1
 90
        2
176
     1
 62
     7
176
     1
 90
        5
176
     1
 90
        0
176
     1
 90
        0
176
     1
290
     0
176
     1
 90
        1
176
     1
 40
0.0
176
     1
 90
        0
176
     1
290
     0
176
     1
290
     1
176
     1
290
     1
176
     1
290
     0
176
     1
290
     0
176
     1
290
     0
176
     1
290
     0
176
     1
290
     0
176
     1
290
     0
176
     1
 90
       50
176
     1
 40
0.0
176
     1
 40
1.0
176
     1
 90
        0
176
     1
 62
    18
420
        0
176
     1
 90
       50
176
     1
 90
        3
176
     1
 62
     5
420
      255
176
     1
290
     0
176
     1
 90
       50
176
     1
 90
       50
176
     1
 90
       50
176
     1
290
     0
176
     1
 90
       50
176
     1
 62
   256
176
     0
 40
1.0
176
     0
 90
        2
176
     1
  1
strokes_ogs.tif
176
     1
290
     0
176
     1
 40
1.0
176
     1
 40
1.0
176
     1
  0
VISUALSTYLE
  5
236A
102
{ACAD_REACTORS
330
2358
102
}
330
2358
100
AcDbVisualStyle
  2
OverhangOff
 70
    21
177
     3
291
     1
 70
    58
 90
        2
176
     0
 90
        2
176
     0
 90
        0
176
     0
 90
        0
176
     0
 40
0.6
176
     0
 40
30.0
176
     0
 62
     7
420
 16777215
176
     0
 90
        1
176
     0
 90
        4
176
     0
 62
     7
176
     0
 62
   257
176
     0
 90
        1
176
     0
 90
        1
176
     0
 40
1.0
176
     0
 90
        9
176
     2
 62
     7
176
     0
 40
1.0
176
     0
 90
        1
176
     0
 90
        6
176
     0
 90
        2
176
     0
 62
     7
176
     0
 90
        5
176
     0
 90
        0
176
     0
 90
        0
176
     0
290
     0
176
     0
 90
        1
176
     0
 40
0.0
176
     0
 90
        0
176
     0
290
     0
176
     0
290
     1
176
     0
290
     1
176
     0
290
     0
176
     0
290
     0
176
     0
290
     0
176
     0
290
     0
176
     0
290
     0
176
     0
290
     0
176
     0
 90
       50
176
     0
 40
0.0
176
     0
 40
1.0
176
     0
 90
        0
176
     0
 62
    18
420
        0
176
     0
 90
       50
176
     0
 90
        3
176
     0
 62
     5
420
      255
176
     0
290
     0
176
     0
 90
       50
176
     0
 90
       50
176
     0
 90
       50
176
     0
290
     0
176
     0
 90
       50
176
     0
 62
   256
176
     0
 40
1.0
176
     0
 90
        2
176
     0
  1
strokes_ogs.tif
176
     0
290
     0
176
     0
 40
1.0
176
     0
 40
1.0
176
     0
  0
VISUALSTYLE
  5
2361
102
{ACAD_REACTORS
330
2358
102
}
330
2358
100
AcDbVisualStyle
  2
Realistic
 70
     8
177
     3
291
     0
 70
    58
 90
        2
176
     1
 90
        3
176
     1
 90
        0
176
     1
 90
        2
176
     1
 40
0.6
176
     1
 40
30.0
176
     1
 62
     7
420
 16777215
176
     1
 90
        0
176
     1
 90
        0
176
     1
 62
     7
176
     1
 62
   257
176
     1
 90
        1
176
     1
 90
        1
176
     1
 40
1.0
176
     1
 90
        8
176
     1
 62
   257
176
     1
 40
1.0
176
     1
 90
        1
176
     1
 90
        6
176
     1
 90
        2
176
     1
 62
     7
176
     1
 90
        3
176
     1
 90
        0
176
     1
 90
        0
176
     1
290
     0
176
     1
 90
       13
176
     1
 40
0.0
176
     1
 90
        0
176
     1
290
     0
176
     1
290
     1
176
     1
290
     1
176
     1
290
     0
176
     1
290
     0
176
     1
290
     0
176
     1
290
     0
176
     1
290
     0
176
     1
290
     0
176
     1
 90
       50
176
     1
 40
0.0
176
     1
 40
1.0
176
     1
 90
        0
176
     1
 62
    18
420
        0
176
     1
 90
       50
176
     1
 90
        3
176
     1
 62
     5
420
      255
176
     1
290
     0
176
     1
 90
       50
176
     1
 90
       50
176
     1
 90
       50
176
     1
290
     0
176
     1
 90
       50
176
     1
 62
   256
176
     0
 40
1.0
176
     0
 90
        2
176
     1
  1
strokes_ogs.tif
176
     1
290
     0
176
     1
 40
1.0
176
     1
 40
1.0
176
     1
  0
VISUALSTYLE
  5
2370
102
{ACAD_REACTORS
330
2358
102
}
330
2358
100
AcDbVisualStyle
  2
Shaded
 70
    27
177
     3
291
     0
 70
    58
 90
        2
176
     1
 90
        2
176
     1
 90
        1
176
     1
 90
        2
176
     1
 40
0.6
176
     1
 40
30.0
176
     1
 62
     7
420
 16777215
176
     1
 90
        0
176
     1
 90
        4
176
     1
 62
     7
176
     1
 62
   257
176
     1
 90
        1
176
     1
 90
        1
176
     1
 40
1.0
176
     1
 90
        8
176
     1
 62
   257
176
     1
 40
1.0
176
     1
 90
        1
176
     1
 90
        6
176
     1
 90
        2
176
     1
 62
     8
420
  7895160
176
     1
 90
        3
176
     1
 90
        0
176
     1
 90
        0
176
     1
290
     0
176
     1
 90
        5
176
     1
 40
0.0
176
     1
 90
        0
176
     1
290
     0
176
     1
290
     1
176
     1
290
     1
176
     1
290
     0
176
     1
290
     0
176
     1
290
     0
176
     1
290
     0
176
     1
290
     0
176
     1
290
     0
176
     1
 90
       50
176
     1
 40
0.0
176
     1
 40
1.0
176
     1
 90
        0
176
     1
 62
    18
420
        0
176
     1
 90
       50
176
     1
 90
        3
176
     1
 62
     5
420
      255
176
     1
290
     0
176
     1
 90
       50
176
     1
 90
       50
176
     1
 90
       50
176
     1
290
     0
176
     1
 90
       50
176
     1
 62
   256
176
     0
 40
1.0
176
     0
 90
        2
176
     1
  1
strokes_ogs.tif
176
     1
290
     0
176
     1
 40
1.0
176
     1
 40
1.0
176
     1
  0
VISUALSTYLE
  5
236F
102
{ACAD_REACTORS
330
2358
102
}
330
2358
100
AcDbVisualStyle
  2
Shaded with edges
 70
    26
177
     3
291
     0
 70
    58
 90
        2
176
     1
 90
        2
176
     1
 90
        1
176
     1
 90
        2
176
     1
 40
0.6
176
     1
 40
30.0
176
     1
 62
     7
420
 16777215
176
     1
 90
        1
176
     1
 90
       10
176
     1
 62
     7
176
     1
 62
   257
176
     1
 90
        2
176
     1
 90
        1
176
     1
 40
1.0
176
     1
 90
        8
176
     1
 62
   257
176
     1
 40
1.0
176
     1
 90
        1
176
     1
 90
        6
176
     1
 90
        2
176
     1
 62
     7
176
     1
 90
        3
176
     1
 90
        0
176
     1
 90
        0
176
     1
290
     0
176
     1
 90
        5
176
     1
 40
0.0
176
     1
 90
        0
176
     1
290
     0
176
     1
290
     1
176
     1
290
     1
176
     1
290
     0
176
     1
290
     0
176
     1
290
     0
176
     1
290
     0
176
     1
290
     0
176
     1
290
     0
176
     1
 90
       50
176
     1
 40
0.0
176
     1
 40
1.0
176
     1
 90
        0
176
     1
 62
    18
420
        0
176
     1
 90
       50
176
     1
 90
        3
176
     1
 62
     5
420
      255
176
     1
290
     0
176
     1
 90
       50
176
     1
 90
       50
176
     1
 90
       50
176
     1
290
     0
176
     1
 90
       50
176
     1
 62
   256
176
     0
 40
1.0
176
     0
 90
        2
176
     1
  1
strokes_ogs.tif
176
     1
290
     0
176
     1
 40
1.0
176
     1
 40
1.0
176
     1
  0
VISUALSTYLE
  5
236C
102
{ACAD_REACTORS
330
2358
102
}
330
2358
100
AcDbVisualStyle
  2
Shades of Gray
 70
    23
177
     3
291
     0
 70
    58
 90
        2
176
     1
 90
        2
176
     1
 90
        3
176
     1
 90
        0
176
     1
 40
0.6
176
     1
 40
30.0
176
     1
 62
     7
420
 16777215
176
     1
 90
        2
176
     1
 90
        2
176
     1
 62
     7
176
     1
 62
     7
176
     1
 90
        1
176
     1
 90
        1
176
     1
 40
40.0
176
     1
 90
        8
176
     1
 62
     7
176
     1
 40
1.0
176
     1
 90
        1
176
     1
 90
        6
176
     1
 90
        2
176
     1
 62
     7
176
     1
 90
        3
176
     1
 90
        0
176
     1
 90
        0
176
     1
290
     0
176
     1
 90
        1
176
     1
 40
0.0
176
     1
 90
        0
176
     1
290
     0
176
     1
290
     1
176
     1
290
     1
176
     1
290
     0
176
     1
290
     0
176
     1
290
     0
176
     1
290
     0
176
     1
290
     0
176
     1
290
     0
176
     1
 90
       50
176
     1
 40
0.0
176
     1
 40
1.0
176
     1
 90
        0
176
     1
 62
    18
420
        0
176
     1
 90
       50
176
     1
 90
        3
176
     1
 62
     5
420
      255
176
     1
290
     0
176
     1
 90
       50
176
     1
 90
       50
176
     1
 90
       50
176
     1
290
     0
176
     1
 90
       50
176
     1
 62
   256
176
     0
 40
1.0
176
     0
 90
        2
176
     1
  1
strokes_ogs.tif
176
     1
290
     0
176
     1
 40
1.0
176
     1
 40
1.0
176
     1
  0
VISUALSTYLE
  5
236D
102
{ACAD_REACTORS
330
2358
102
}
330
2358
100
AcDbVisualStyle
  2
Sketchy
 70
    24
177
     3
291
     0
 70
    58
 90
        1
176
     1
 90
        2
176
     1
 90
        2
176
     1
 90
        0
176
     1
 40
0.6
176
     1
 40
30.0
176
     1
 62
     7
420
 16777215
176
     1
 90
        2
176
     1
 90
        2
176
     1
 62
     7
176
     1
 62
     7
176
     1
 90
        1
176
     1
 90
        1
176
     1
 40
40.0
176
     1
 90
       11
176
     1
 62
     7
176
     1
 40
1.0
176
     1
 90
        1
176
     1
 90
        6
176
     1
 90
        2
176
     1
 62
     7
176
     1
 90
        6
176
     1
 90
        0
176
     1
 90
        0
176
     1
290
     0
176
     1
 90
        1
176
     1
 40
0.0
176
     1
 90
        0
176
     1
290
     0
176
     1
290
     1
176
     1
290
     1
176
     1
290
     0
176
     1
290
     0
176
     1
290
     0
176
     1
290
     0
176
     1
290
     0
176
     1
290
     0
176
     1
 90
       50
176
     1
 40
0.0
176
     1
 40
1.0
176
     1
 90
        0
176
     1
 62
    18
420
        0
176
     1
 90
       50
176
     1
 90
        3
176
     1
 62
     5
420
      255
176
     1
290
     0
176
     1
 90
       50
176
     1
 90
       50
176
     1
 90
       50
176
     1
290
     0
176
     1
 90
       50
176
     1
 62
   256
176
     0
 40
1.0
176
     0
 90
        2
176
     1
  1
strokes_ogs.tif
176
     1
290
     0
176
     1
 40
1.0
176
     1
 40
1.0
176
     1
  0
VISUALSTYLE
  5
2365
102
{ACAD_REACTORS
330
2358
102
}
330
2358
100
AcDbVisualStyle
  2
Thicken
 70
    13
177
     3
291
     1
 70
    58
 90
        2
176
     1
 90
        2
176
     1
 90
        0
176
     1
 90
        0
176
     1
 40
0.6
176
     1
 40
30.0
176
     1
 62
     7
420
 16777215
176
     1
 90
        1
176
     1
 90
        4
176
     1
 62
     7
176
     1
 62
   257
176
     1
 90
        1
176
     1
 90
        1
176
     1
 40
1.0
176
     1
 90
       12
176
     1
 62
     7
176
     1
 40
1.0
176
     1
 90
        1
176
     1
 90
        6
176
     1
 90
        2
176
     1
 62
     7
176
     1
 90
        5
176
     1
 90
        0
176
     1
 90
        0
176
     1
290
     0
176
     1
 90
        1
176
     1
 40
0.0
176
     1
 90
        0
176
     1
290
     0
176
     1
290
     1
176
     1
290
     1
176
     1
290
     0
176
     1
290
     0
176
     1
290
     0
176
     1
290
     0
176
     1
290
     0
176
     1
290
     0
176
     1
 90
       50
176
     1
 40
0.0
176
     1
 40
1.0
176
     1
 90
        0
176
     1
 62
    18
420
        0
176
     1
 90
       50
176
     1
 90
        3
176
     1
 62
     5
420
      255
176
     1
290
     0
176
     1
 90
       50
176
     1
 90
       50
176
     1
 90
       50
176
     1
290
     0
176
     1
 90
       50
176
     1
 62
   256
176
     0
 40
1.0
176
     0
 90
        2
176
     1
  1
strokes_ogs.tif
176
     1
290
     0
176
     1
 40
1.0
176
     1
 40
1.0
176
     1
  0
VISUALSTYLE
  5
235E
102
{ACAD_REACTORS
330
2358
102
}
330
2358
100
AcDbVisualStyle
  2
Wireframe
 70
     5
177
     3
291
     0
 70
    58
 90
        0
176
     1
 90
        2
176
     1
 90
        0
176
     1
 90
        0
176
     1
 40
0.6
176
     1
 40
30.0
176
     1
 62
     7
420
 16777215
176
     1
 90
        1
176
     1
 90
        4
176
     1
 62
     7
176
     1
 62
   257
176
     1
 90
        1
176
     1
 90
        1
176
     1
 40
1.0
176
     1
 90
        0
176
     1
 62
   257
176
     1
 40
1.0
176
     1
 90
        1
176
     1
 90
        6
176
     1
 90
        2
176
     1
 62
     7
176
     1
 90
        3
176
     1
 90
        0
176
     1
 90
        0
176
     1
290
     0
176
     1
 90
        1
176
     1
 40
0.0
176
     1
 90
        0
176
     1
290
     0
176
     1
290
     1
176
     1
290
     1
176
     1
290
     0
176
     1
290
     0
176
     1
290
     0
176
     1
290
     0
176
     1
290
     0
176
     1
290
     0
176
     1
 90
       50
176
     1
 40
0.0
176
     1
 40
1.0
176
     1
 90
        0
176
     1
 62
    18
420
        0
176
     1
 90
       50
176
     1
 90
        3
176
     1
 62
     5
420
      255
176
     1
290
     0
176
     1
 90
       50
176
     1
 90
       50
176
     1
 90
       50
176
     1
290
     0
176
     1
 90
       50
176
     1
 62
   256
176
     0
 40
1.0
176
     0
 90
        2
176
     1
  1
strokes_ogs.tif
176
     1
290
     0
176
     1
 40
1.0
176
     1
 40
1.0
176
     1
  0
VISUALSTYLE
  5
236E
102
{ACAD_REACTORS
330
2358
102
}
330
2358
100
AcDbVisualStyle
  2
X-Ray
 70
    25
177
     3
291
     0
 70
    58
 90
        2
176
     1
 90
        2
176
     1
 90
        1
176
     1
 90
        1
176
     1
 40
0.5
176
     1
 40
30.0
176
     1
 62
     7
420
 16777215
176
     1
 90
        1
176
     1
 90
        0
176
     1
 62
     7
176
     1
 62
   257
176
     1
 90
        1
176
     1
 90
        1
176
     1
 40
1.0
176
     1
 90
        8
176
     1
 62
     7
176
     1
 40
1.0
176
     1
 90
        1
176
     1
 90
        6
176
     1
 90
        2
176
     1
 62
     7
176
     1
 90
        3
176
     1
 90
        0
176
     1
 90
        0
176
     1
290
     0
176
     1
 90
       13
176
     1
 40
0.0
176
     1
 90
        0
176
     1
290
     0
176
     1
290
     1
176
     1
290
     1
176
     1
290
     0
176
     1
290
     0
176
     1
290
     0
176
     1
290
     0
176
     1
290
     0
176
     1
290
     0
176
     1
 90
       50
176
     1
 40
0.0
176
     1
 40
1.0
176
     1
 90
        0
176
     1
 62
    18
420
        0
176
     1
 90
       50
176
     1
 90
        3
176
     1
 62
     5
420
      255
176
     1
290
     0
176
     1
 90
       50
176
     1
 90
       50
176
     1
 90
       50
176
     1
290
     0
176
     1
 90
       50
176
     1
 62
   256
176
     0
 40
1.0
176
     0
 90
        2
176
     1
  1
strokes_ogs.tif
176
     1
290
     0
176
     1
 40
1.0
176
     1
 40
1.0
176
     1
  0
DICTIONARYVAR
  5
237B
102
{ACAD_REACTORS
330
66
102
}
330
66
100
DictionaryVariables
280
     0
  1
1:1
  0
DICTIONARYVAR
  5
2380
102
{ACAD_REACTORS
330
66
102
}
330
66
100
DictionaryVariables
280
     0
  1
Standard
  0
DICTIONARYVAR
  5
237F
102
{ACAD_REACTORS
330
66
102
}
330
66
100
DictionaryVariables
280
     0
  1
Standard
  0
DICTIONARYVAR
  5
67
102
{ACAD_REACTORS
330
66
102
}
330
66
100
DictionaryVariables
280
     0
  1
2
  0
DICTIONARYVAR
  5
6B
102
{ACAD_REACTORS
330
66
102
}
330
66
100
DictionaryVariables
280
     0
  1
1
  0
DICTIONARYVAR
  5
2381
102
{ACAD_REACTORS
330
66
102
}
330
66
100
DictionaryVariables
280
     0
  1
0
  0
DICTIONARY
  5
237C
330
2376
100
AcDbDictionary
280
     1
281
     1
  3
ACAD_ROUNDTRIP_2008_TABLESTYLE_CELLSTYLEMAP
360
237D
  0
CELLSTYLEMAP
  5
237D
102
{ACAD_REACTORS
330
237C
102
}
330
237C
100
AcDbCellStyleMap
 90
        3
300
CELLSTYLE
  1
TABLEFORMAT_BEGIN
 90
        5
170
     1
 91
        0
 92
    32768
 62
   257
 93
        1
300
CONTENTFORMAT
  1
CONTENTFORMAT_BEGIN
 90
        0
 91
        0
 92
        4
 93
        0
300

 40
0.0
140
1.0
 94
        5
 62
     0
340
11
144
0.25
309
CONTENTFORMAT_END
171
     1
301
MARGIN
  1
CELLMARGIN_BEGIN
 40
0.06
 40
0.06
 40
0.06
 40
0.06
 40
0.06
 40
0.06
309
CELLMARGIN_END
 94
        6
 95
        1
302
GRIDFORMAT
  1
GRIDFORMAT_BEGIN
 90
        0
 91
        1
 62
     0
 92
       -2
340
14
 93
        0
 40
0.045
309
GRIDFORMAT_END
 95
        2
302
GRIDFORMAT
  1
GRIDFORMAT_BEGIN
 90
        0
 91
        1
 62
     0
 92
       -2
340
14
 93
        0
 40
0.045
309
GRIDFORMAT_END
 95
        4
302
GRIDFORMAT
  1
GRIDFORMAT_BEGIN
 90
        0
 91
        1
 62
     0
 92
       -2
340
14
 93
        0
 40
0.045
309
GRIDFORMAT_END
 95
        8
302
GRIDFORMAT
  1
GRIDFORMAT_BEGIN
 90
        0
 91
        1
 62
     0
 92
       -2
340
14
 93
        0
 40
0.045
309
GRIDFORMAT_END
 95
       16
302
GRIDFORMAT
  1
GRIDFORMAT_BEGIN
 90
        0
 91
        1
 62
     0
 92
       -2
340
14
 93
        0
 40
0.045
309
GRIDFORMAT_END
 95
       32
302
GRIDFORMAT
  1
GRIDFORMAT_BEGIN
 90
        0
 91
        1
 62
     0
 92
       -2
340
14
 93
        0
 40
0.045
309
GRIDFORMAT_END
309
TABLEFORMAT_END
  1
CELLSTYLE_BEGIN
 90
        1
 91
        1
300
_TITLE
309
CELLSTYLE_END
300
CELLSTYLE
  1
TABLEFORMAT_BEGIN
 90
        5
170
     1
 91
        0
 92
        0
 62
   257
 93
        1
300
CONTENTFORMAT
  1
CONTENTFORMAT_BEGIN
 90
        0
 91
        0
 92
        4
 93
        0
300

 40
0.0
140
1.0
 94
        5
 62
     0
340
11
144
0.18
309
CONTENTFORMAT_END
171
     1
301
MARGIN
  1
CELLMARGIN_BEGIN
 40
0.06
 40
0.06
 40
0.06
 40
0.06
 40
0.06
 40
0.06
309
CELLMARGIN_END
 94
        6
 95
        1
302
GRIDFORMAT
  1
GRIDFORMAT_BEGIN
 90
        0
 91
        1
 62
     0
 92
       -2
340
14
 93
        0
 40
0.045
309
GRIDFORMAT_END
 95
        2
302
GRIDFORMAT
  1
GRIDFORMAT_BEGIN
 90
        0
 91
        1
 62
     0
 92
       -2
340
14
 93
        0
 40
0.045
309
GRIDFORMAT_END
 95
        4
302
GRIDFORMAT
  1
GRIDFORMAT_BEGIN
 90
        0
 91
        1
 62
     0
 92
       -2
340
14
 93
        0
 40
0.045
309
GRIDFORMAT_END
 95
        8
302
GRIDFORMAT
  1
GRIDFORMAT_BEGIN
 90
        0
 91
        1
 62
     0
 92
       -2
340
14
 93
        0
 40
0.045
309
GRIDFORMAT_END
 95
       16
302
GRIDFORMAT
  1
GRIDFORMAT_BEGIN
 90
        0
 91
        1
 62
     0
 92
       -2
340
14
 93
        0
 40
0.045
309
GRIDFORMAT_END
 95
       32
302
GRIDFORMAT
  1
GRIDFORMAT_BEGIN
 90
        0
 91
        1
 62
     0
 92
       -2
340
14
 93
        0
 40
0.045
309
GRIDFORMAT_END
309
TABLEFORMAT_END
  1
CELLSTYLE_BEGIN
 90
        2
 91
        1
300
_HEADER
309
CELLSTYLE_END
300
CELLSTYLE
  1
TABLEFORMAT_BEGIN
 90
        5
170
     1
 91
        0
 92
        0
 62
   257
 93
        1
300
CONTENTFORMAT
  1
CONTENTFORMAT_BEGIN
 90
        0
 91
        0
 92
        4
 93
        0
300

 40
0.0
140
1.0
 94
        2
 62
     0
340
11
144
0.18
309
CONTENTFORMAT_END
171
     1
301
MARGIN
  1
CELLMARGIN_BEGIN
 40
0.06
 40
0.06
 40
0.06
 40
0.06
 40
0.06
 40
0.06
309
CELLMARGIN_END
 94
        6
 95
        1
302
GRIDFORMAT
  1
GRIDFORMAT_BEGIN
 90
        0
 91
        1
 62
     0
 92
       -2
340
14
 93
        0
 40
0.045
309
GRIDFORMAT_END
 95
        2
302
GRIDFORMAT
  1
GRIDFORMAT_BEGIN
 90
        0
 91
        1
 62
     0
 92
       -2
340
14
 93
        0
 40
0.045
309
GRIDFORMAT_END
 95
        4
302
GRIDFORMAT
  1
GRIDFORMAT_BEGIN
 90
        0
 91
        1
 62
     0
 92
       -2
340
14
 93
        0
 40
0.045
309
GRIDFORMAT_END
 95
        8
302
GRIDFORMAT
  1
GRIDFORMAT_BEGIN
 90
        0
 91
        1
 62
     0
 92
       -2
340
14
 93
        0
 40
0.045
309
GRIDFORMAT_END
 95
       16
302
GRIDFORMAT
  1
GRIDFORMAT_BEGIN
 90
        0
 91
        1
 62
     0
 92
       -2
340
14
 93
        0
 40
0.045
309
GRIDFORMAT_END
 95
       32
302
GRIDFORMAT
  1
GRIDFORMAT_BEGIN
 90
        0
 91
        1
 62
     0
 92
       -2
340
14
 93
        0
 40
0.045
309
GRIDFORMAT_END
309
TABLEFORMAT_END
  1
CELLSTYLE_BEGIN
 90
        3
 91
        2
300
_DATA
309
CELLSTYLE_END
  0
ENDSEC
  0
EOF
