  0
SECTION
  2
HEADER
  9
$ACADVER
  1
AC1014
  9
$ACADMAINTVER
 70
     9
  9
$DWGCODEPAGE
  3
ANSI_1250
  9
$INSBASE
 10
0.0
 20
0.0
 30
0.0
  9
$EXTMIN
 10
306.4576136542384
 20
122.1358462391053
 30
0.0
  9
$EXTMAX
 10
497.7090849480259
 20
249.8874714153149
 30
0.0
  9
$LIMMIN
 10
0.0
 20
0.0
  9
$LIMMAX
 10
12.0
 20
9.0
  9
$ORTHOMODE
 70
     0
  9
$REGENMODE
 70
     1
  9
$FILLMODE
 70
     1
  9
$QTEXTMODE
 70
     0
  9
$MIRRTEXT
 70
     0
  9
$DRAGMODE
 70
     2
  9
$LTSCALE
 40
1.0
  9
$OSMODE
 70
 15359
  9
$ATTMODE
 70
     1
  9
$TEXTSIZE
 40
0.2
  9
$TRACEWID
 40
0.05
  9
$TEXTSTYLE
  7
STANDARD
  9
$CLAYER
  8
KOTY
  9
$CELTYPE
  6
BYLAYER
  9
$CECOLOR
 62
   256
  9
$CELTSCALE
 40
1.0
  9
$DELOBJ
 70
     1
  9
$DISPSILH
 70
     0
  9
$DIMSCALE
 40
1.0
  9
$DIMASZ
 40
0.18
  9
$DIMEXO
 40
0.0625
  9
$DIMDLI
 40
0.38
  9
$DIMRND
 40
0.0
  9
$DIMDLE
 40
0.0
  9
$DIMEXE
 40
0.18
  9
$DIMTP
 40
0.0
  9
$DIMTM
 40
0.0
  9
$DIMTXT
 40
0.18
  9
$DIMCEN
 40
0.09
  9
$DIMTSZ
 40
0.0
  9
$DIMTOL
 70
     0
  9
$DIMLIM
 70
     0
  9
$DIMTIH
 70
     1
  9
$DIMTOH
 70
     1
  9
$DIMSE1
 70
     0
  9
$DIMSE2
 70
     0
  9
$DIMTAD
 70
     0
  9
$DIMZIN
 70
     0
  9
$DIMBLK
  1

  9
$DIMASO
 70
     1
  9
$DIMSHO
 70
     1
  9
$DIMPOST
  1

  9
$DIMAPOST
  1

  9
$DIMALT
 70
     0
  9
$DIMALTD
 70
     2
  9
$DIMALTF
 40
25.4
  9
$DIMLFAC
 40
1.0
  9
$DIMTOFL
 70
     0
  9
$DIMTVP
 40
0.0
  9
$DIMTIX
 70
     0
  9
$DIMSOXD
 70
     0
  9
$DIMSAH
 70
     0
  9
$DIMBLK1
  1

  9
$DIMBLK2
  1

  9
$DIMSTYLE
  2
STANDARD
  9
$DIMCLRD
 70
     0
  9
$DIMCLRE
 70
     0
  9
$DIMCLRT
 70
     0
  9
$DIMTFAC
 40
1.0
  9
$DIMGAP
 40
0.09
  9
$DIMJUST
 70
     0
  9
$DIMSD1
 70
     0
  9
$DIMSD2
 70
     0
  9
$DIMTOLJ
 70
     1
  9
$DIMTZIN
 70
     0
  9
$DIMALTZ
 70
     0
  9
$DIMALTTZ
 70
     0
  9
$DIMFIT
 70
     3
  9
$DIMUPT
 70
     0
  9
$DIMUNIT
 70
     2
  9
$DIMDEC
 70
     4
  9
$DIMTDEC
 70
     4
  9
$DIMALTU
 70
     2
  9
$DIMALTTD
 70
     2
  9
$DIMTXSTY
  7
STANDARD
  9
$DIMAUNIT
 70
     0
  9
$LUNITS
 70
     2
  9
$LUPREC
 70
     4
  9
$SKETCHINC
 40
0.1
  9
$FILLETRAD
 40
0.0
  9
$AUNITS
 70
     0
  9
$AUPREC
 70
     0
  9
$MENU
  1
.
  9
$ELEVATION
 40
0.0
  9
$PELEVATION
 40
0.0
  9
$THICKNESS
 40
0.0
  9
$LIMCHECK
 70
     0
  9
$CHAMFERA
 40
0.0
  9
$CHAMFERB
 40
0.0
  9
$CHAMFERC
 40
0.0
  9
$CHAMFERD
 40
0.0
  9
$SKPOLY
 70
     0
  9
$TDCREATE
 40
2452643.105050937
  9
$TDUPDATE
 40
2457091.464530324
  9
$TDINDWG
 40
0.3516770255
  9
$TDUSRTIMER
 40
2457091.286358797
  9
$USRTIMER
 70
     1
  9
$ANGBASE
 50
0.0
  9
$ANGDIR
 70
     0
  9
$PDMODE
 70
     0
  9
$PDSIZE
 40
0.0
  9
$PLINEWID
 40
0.0
  9
$COORDS
 70
     2
  9
$SPLFRAME
 70
     0
  9
$SPLINETYPE
 70
     6
  9
$SPLINESEGS
 70
     8
  9
$ATTDIA
 70
     0
  9
$ATTREQ
 70
     1
  9
$HANDLING
 70
     1
  9
$HANDSEED
  5
13AB
  9
$SURFTAB1
 70
     6
  9
$SURFTAB2
 70
     6
  9
$SURFTYPE
 70
     6
  9
$SURFU
 70
     6
  9
$SURFV
 70
     6
  9
$UCSNAME
  2

  9
$UCSORG
 10
0.0
 20
0.0
 30
0.0
  9
$UCSXDIR
 10
1.0
 20
0.0
 30
0.0
  9
$UCSYDIR
 10
0.0
 20
1.0
 30
0.0
  9
$PUCSNAME
  2

  9
$PUCSORG
 10
0.0
 20
0.0
 30
0.0
  9
$PUCSXDIR
 10
1.0
 20
0.0
 30
0.0
  9
$PUCSYDIR
 10
0.0
 20
1.0
 30
0.0
  9
$USERI1
 70
     0
  9
$USERI2
 70
     0
  9
$USERI3
 70
     0
  9
$USERI4
 70
     0
  9
$USERI5
 70
     0
  9
$USERR1
 40
0.0
  9
$USERR2
 40
0.0
  9
$USERR3
 40
0.0
  9
$USERR4
 40
0.0
  9
$USERR5
 40
0.0
  9
$WORLDVIEW
 70
     1
  9
$SHADEDGE
 70
     3
  9
$SHADEDIF
 70
    70
  9
$TILEMODE
 70
     0
  9
$MAXACTVP
 70
    64
  9
$PINSBASE
 10
0.0
 20
0.0
 30
0.0
  9
$PLIMCHECK
 70
     0
  9
$PEXTMIN
 10
0.0
 20
0.0
 30
0.0
  9
$PEXTMAX
 10
0.0
 20
0.0
 30
0.0
  9
$PLIMMIN
 10
-0.25
 20
-0.25
  9
$PLIMMAX
 10
10.75
 20
8.25
  9
$UNITMODE
 70
     0
  9
$VISRETAIN
 70
     1
  9
$PLINEGEN
 70
     0
  9
$PSLTSCALE
 70
     1
  9
$TREEDEPTH
 70
  3020
  9
$PICKSTYLE
 70
     0
  9
$CMLSTYLE
  2
STANDARD
  9
$CMLJUST
 70
     0
  9
$CMLSCALE
 40
1.0
  9
$PROXYGRAPHICS
 70
     1
  9
$MEASUREMENT
 70
     0
  0
ENDSEC
  0
SECTION
  2
CLASSES
  0
CLASS
  1
ACDBDICTIONARYWDFLT
  2
AcDbDictionaryWithDefault
  3
ObjectDBX Classes
 90
        0
280
     0
281
     0
  0
CLASS
  1
ACDBPLACEHOLDER
  2
AcDbPlaceHolder
  3
ObjectDBX Classes
 90
        0
280
     0
281
     0
  0
CLASS
  1
LAYOUT
  2
AcDbLayout
  3
ObjectDBX Classes
 90
        0
280
     0
281
     0
  0
CLASS
  1
DICTIONARYVAR
  2
AcDbDictionaryVar
  3
ObjectDBX Classes
 90
        0
280
     0
281
     0
  0
CLASS
  1
TABLESTYLE
  2
AcDbTableStyle
  3
ObjectDBX Classes
 90
     4095
280
     0
281
     0
  0
CLASS
  1
MATERIAL
  2
AcDbMaterial
  3
ObjectDBX Classes
 90
     1153
280
     0
281
     0
  0
CLASS
  1
VISUALSTYLE
  2
AcDbVisualStyle
  3
ObjectDBX Classes
 90
     4095
280
     0
281
     0
  0
CLASS
  1
SCALE
  2
AcDbScale
  3
ObjectDBX Classes
 90
     1153
280
     0
281
     0
  0
CLASS
  1
CELLSTYLEMAP
  2
AcDbCellStyleMap
  3
ObjectDBX Classes
 90
     1152
280
     0
281
     0
  0
CLASS
  1
RASTERVARIABLES
  2
AcDbRasterVariables
  3
ISM
 90
        0
280
     0
281
     0
  0
CLASS
  1
SUN
  2
AcDbSun
  3
SCENEOE
 90
     1153
280
     0
281
     0
  0
CLASS
  1
DIMASSOC
  2
AcDbDimAssoc
  3
"AcDbDimAssoc|Product Desc:     AcDim ARX App For Dimension|Company:          Autodesk, Inc.|WEB Address:      www.autodesk.com"
 90
        0
280
     0
281
     0
  0
CLASS
  1
XRECORD
  2
AcDbXrecord
  3
ObjectDBX Classes
 90
        0
280
     0
281
     0
  0
CLASS
  1
LWPOLYLINE
  2
AcDbPolyline
  3
ObjectDBX Classes
 90
        0
280
     0
281
     1
  0
CLASS
  1
HATCH
  2
AcDbHatch
  3
ObjectDBX Classes
 90
        0
280
     0
281
     1
  0
ENDSEC
  0
SECTION
  2
TABLES
  0
TABLE
  2
VPORT
  5
8
330
0
100
AcDbSymbolTable
 70
     1
  0
VPORT
  5
94
330
8
100
AcDbSymbolTableRecord
100
AcDbViewportTableRecord
  2
*ACTIVE
 70
     0
 10
0.0
 20
0.0
 11
1.0
 21
1.0
 12
434.1788742268882
 22
214.5233614507981
 13
0.0
 23
0.0
 14
0.5
 24
0.5
 15
0.5
 25
0.5
 16
0.0
 26
0.0
 36
1.0
 17
-27.66959356598267
 27
-19.53870295786209
 37
0.0
 40
200.1927766416739
 41
1.164400494437577
 42
50.0
 43
0.0
 44
0.0
 50
0.0
 51
0.0
 71
    16
 72
  1000
 73
     1
 74
     3
 75
     0
 76
     0
 77
     0
 78
     0
  0
ENDTAB
  0
TABLE
  2
LTYPE
  5
5
330
0
100
AcDbSymbolTable
 70
     1
  0
LTYPE
  5
14
330
5
100
AcDbSymbolTableRecord
100
AcDbLinetypeTableRecord
  2
BYBLOCK
 70
     0
  3

 72
    65
 73
     0
 40
0.0
  0
LTYPE
  5
15
330
5
100
AcDbSymbolTableRecord
100
AcDbLinetypeTableRecord
  2
BYLAYER
 70
     0
  3

 72
    65
 73
     0
 40
0.0
  0
LTYPE
  5
16
330
5
100
AcDbSymbolTableRecord
100
AcDbLinetypeTableRecord
  2
CONTINUOUS
 70
     0
  3
Solid line
 72
    65
 73
     0
 40
0.0
  0
ENDTAB
  0
TABLE
  2
LAYER
  5
2
102
{ACAD_XDICTIONARY
360
1326
102
}
330
0
100
AcDbSymbolTable
 70
     5
  0
LAYER
  5
10
330
2
100
AcDbSymbolTableRecord
100
AcDbLayerTableRecord
  2
0
 70
     0
 62
     7
  6
CONTINUOUS
  0
LAYER
  5
125
330
2
100
AcDbSymbolTableRecord
100
AcDbLayerTableRecord
  2
1
 70
     0
 62
     7
  6
CONTINUOUS
  0
LAYER
  5
2D3
330
2
100
AcDbSymbolTableRecord
100
AcDbLayerTableRecord
  2
DEFPOINTS
 70
     0
 62
     7
  6
CONTINUOUS
  0
LAYER
  5
132B
330
2
100
AcDbSymbolTableRecord
100
AcDbLayerTableRecord
  2
OBRYS
 70
     0
 62
     5
  6
CONTINUOUS
1001
ACAECLAYERSTANDARD
1000

1000

  0
LAYER
  5
132D
330
2
100
AcDbSymbolTableRecord
100
AcDbLayerTableRecord
  2
KOTY
 70
     0
 62
     1
  6
CONTINUOUS
1001
ACAECLAYERSTANDARD
1000

1000

  0
ENDTAB
  0
TABLE
  2
STYLE
  5
3
330
0
100
AcDbSymbolTable
 70
     2
  0
STYLE
  5
11
330
3
100
AcDbSymbolTableRecord
100
AcDbTextStyleTableRecord
  2
STANDARD
 70
     0
 40
0.0
 41
1.0
 50
0.0
 71
     0
 42
0.2
  3
arial.ttf
  4

1001
ACAD
1000
Arial
1071
        0
  0
STYLE
  5
129
330
3
100
AcDbSymbolTableRecord
100
AcDbTextStyleTableRecord
  2
ARIAL
 70
     0
 40
0.0
 41
1.0
 50
0.0
 71
     0
 42
0.2
  3
Arial
  4

1001
ACAD
1000
Arial
1071
        0
  0
ENDTAB
  0
TABLE
  2
VIEW
  5
6
330
0
100
AcDbSymbolTable
 70
     0
  0
ENDTAB
  0
TABLE
  2
UCS
  5
7
330
0
100
AcDbSymbolTable
 70
     0
  0
ENDTAB
  0
TABLE
  2
APPID
  5
9
330
0
100
AcDbSymbolTable
 70
     2
  0
APPID
  5
12
330
9
100
AcDbSymbolTableRecord
100
AcDbRegAppTableRecord
  2
ACAD
 70
     0
  0
APPID
  5
132C
330
9
100
AcDbSymbolTableRecord
100
AcDbRegAppTableRecord
  2
ACAECLAYERSTANDARD
 70
     0
  0
ENDTAB
  0
TABLE
  2
DIMSTYLE
  5
A
330
0
100
AcDbSymbolTable
 70
     1
  0
DIMSTYLE
105
27
102
{ACAD_REACTORS
330
1330
330
1340
330
1350
330
1360
330
1370
330
1380
330
1390
102
}
330
A
100
AcDbSymbolTableRecord
100
AcDbDimStyleTableRecord
  2
STANDARD
 70
     0
  3

  4

  5

  6

  7

 40
1.0
 41
0.18
 42
0.0625
 43
0.38
 44
0.18
 45
0.0
 46
0.0
 47
0.0
 48
0.0
140
0.18
141
0.09
142
0.0
143
25.4
144
1.0
145
0.0
146
1.0
147
0.09
 71
     0
 72
     0
 73
     1
 74
     1
 75
     0
 76
     0
 77
     0
 78
     0
170
     0
171
     2
172
     0
173
     0
174
     0
175
     0
176
     0
177
     0
178
     0
270
     2
271
     4
272
     4
273
     2
274
     2
340
11
275
     0
280
     0
281
     0
282
     0
283
     1
284
     0
285
     0
286
     0
287
     3
288
     0
  0
ENDTAB
  0
TABLE
  2
BLOCK_RECORD
  5
1
330
0
100
AcDbSymbolTable
 70
    25
  0
BLOCK_RECORD
  5
1F
330
1
100
AcDbSymbolTableRecord
100
AcDbBlockTableRecord
  2
*MODEL_SPACE
  0
BLOCK_RECORD
  5
13A3
330
1
100
AcDbSymbolTableRecord
100
AcDbBlockTableRecord
  2
*PAPER_SPACE
  0
BLOCK_RECORD
  5
296
330
1
100
AcDbSymbolTableRecord
100
AcDbBlockTableRecord
  2
DIMNDRAFT3D1
  0
BLOCK_RECORD
  5
2A0
330
1
100
AcDbSymbolTableRecord
100
AcDbBlockTableRecord
  2
DIMNDRAFT3D2
  0
BLOCK_RECORD
  5
2AA
330
1
100
AcDbSymbolTableRecord
100
AcDbBlockTableRecord
  2
DIMNDRAFT3D3
  0
BLOCK_RECORD
  5
2B4
330
1
100
AcDbSymbolTableRecord
100
AcDbBlockTableRecord
  2
DIMNDRAFT3D55
  0
BLOCK_RECORD
  5
2BE
330
1
100
AcDbSymbolTableRecord
100
AcDbBlockTableRecord
  2
DIMNDRAFT3D11
  0
BLOCK_RECORD
  5
2C8
330
1
100
AcDbSymbolTableRecord
100
AcDbBlockTableRecord
  2
DIMNDRAFT3D12
  0
BLOCK_RECORD
  5
B7F
330
1
100
AcDbSymbolTableRecord
100
AcDbBlockTableRecord
  2
DIMNDRAFT3D16
  0
BLOCK_RECORD
  5
1333
330
1
100
AcDbSymbolTableRecord
100
AcDbBlockTableRecord
  2
*D17
  0
BLOCK_RECORD
  5
1343
330
1
100
AcDbSymbolTableRecord
100
AcDbBlockTableRecord
  2
*D18
  0
BLOCK_RECORD
  5
1353
330
1
100
AcDbSymbolTableRecord
100
AcDbBlockTableRecord
  2
*D19
  0
BLOCK_RECORD
  5
1363
330
1
100
AcDbSymbolTableRecord
100
AcDbBlockTableRecord
  2
*D20
  0
BLOCK_RECORD
  5
1373
330
1
100
AcDbSymbolTableRecord
100
AcDbBlockTableRecord
  2
*D21
  0
BLOCK_RECORD
  5
1383
330
1
100
AcDbSymbolTableRecord
100
AcDbBlockTableRecord
  2
*D22
  0
BLOCK_RECORD
  5
1393
330
1
100
AcDbSymbolTableRecord
100
AcDbBlockTableRecord
  2
*D23
  0
ENDTAB
  0
ENDSEC
  0
SECTION
  2
BLOCKS
  0
BLOCK
  5
20
330
1F
100
AcDbEntity
  8
0
100
AcDbBlockBegin
  2
*MODEL_SPACE
 70
     0
 10
0.0
 20
0.0
 30
0.0
  3
*MODEL_SPACE
  1

  0
ENDBLK
  5
21
330
1F
100
AcDbEntity
  8
0
100
AcDbBlockEnd
  0
BLOCK
  5
13A5
330
13A3
100
AcDbEntity
 67
     1
  8
0
100
AcDbBlockBegin
  2
*PAPER_SPACE
 70
     0
 10
0.0
 20
0.0
 30
0.0
  3
*PAPER_SPACE
  1

  0
ENDBLK
  5
13A6
330
13A3
100
AcDbEntity
 67
     1
  8
0
100
AcDbBlockEnd
  0
BLOCK
  5
297
330
296
100
AcDbEntity
  8
0
100
AcDbBlockBegin
  2
DIMNDRAFT3D1
 70
     0
 10
0.0
 20
0.0
 30
0.0
  3
DIMNDRAFT3D1
  1
DimnDraft3D1
  0
LINE
  5
298
330
296
100
AcDbEntity
  8
1
  6
CONTINUOUS
 62
    18
100
AcDbLine
 10
32.49685266666667
 20
53.453898
 30
0.0
 11
32.49685266666667
 21
0.0
 31
0.0
  0
LINE
  5
299
330
296
100
AcDbEntity
  8
1
  6
CONTINUOUS
 62
    18
100
AcDbLine
 10
98.79685266666667
 20
57.3539
 30
0.0
 11
98.79685266666667
 21
0.0
 31
0.0
  0
LINE
  5
29A
330
296
100
AcDbEntity
  8
1
  6
CONTINUOUS
 62
    18
100
AcDbLine
 10
35.99685266666667
 20
1.0
 30
0.0
 11
95.29685266666667
 21
1.0
 31
0.0
  0
SOLID
  5
29B
330
296
100
AcDbEntity
  8
1
 62
    18
100
AcDbTrace
 10
35.99685266666667
 20
1.583333333333333
 30
0.0
 11
35.99685266666667
 21
0.4166666666666666
 31
0.0
 12
32.49685266666667
 22
1.0
 32
0.0
 13
32.49685266666667
 23
1.0
 33
0.0
  0
SOLID
  5
29C
330
296
100
AcDbEntity
  8
1
 62
    18
100
AcDbTrace
 10
95.29685266666667
 20
0.4166666666666666
 30
0.0
 11
95.29685266666667
 21
1.583333333333333
 31
0.0
 12
98.79685266666667
 22
1.0
 32
0.0
 13
98.79685266666667
 23
1.0
 33
0.0
  0
MTEXT
  5
29D
330
296
100
AcDbEntity
  8
1
 62
    18
100
AcDbMText
 10
65.64685266666666
 20
6.0525
 30
0.0
 40
5.0
 41
0.0
 71
     5
 72
     1
  1
\A1;\C18;66
  7
ARIAL
  0
POINT
  5
2D4
330
296
100
AcDbEntity
  8
DEFPOINTS
 62
     0
100
AcDbPoint
 10
32.49685266666667
 20
53.453898
 30
0.0
  0
POINT
  5
2D5
330
296
100
AcDbEntity
  8
DEFPOINTS
 62
     0
100
AcDbPoint
 10
98.79685266666667
 20
57.3539
 30
0.0
  0
POINT
  5
2D6
330
296
100
AcDbEntity
  8
DEFPOINTS
 62
     0
100
AcDbPoint
 10
98.79685266666667
 20
1.0
 30
0.0
  0
ENDBLK
  5
29E
330
296
100
AcDbEntity
  8
0
100
AcDbBlockEnd
  0
BLOCK
  5
2A1
330
2A0
100
AcDbEntity
  8
0
100
AcDbBlockBegin
  2
DIMNDRAFT3D2
 70
     0
 10
0.0
 20
0.0
 30
0.0
  3
DIMNDRAFT3D2
  1
DimnDraft3D2
  0
LINE
  5
2A2
330
2A0
100
AcDbEntity
  8
1
  6
CONTINUOUS
 62
    18
100
AcDbLine
 10
60.90518166666666
 20
120.653898
 30
0.0
 11
6.706473666666674
 21
120.653898
 31
0.0
  0
LINE
  5
2A3
330
2A0
100
AcDbEntity
  8
1
  6
CONTINUOUS
 62
    18
100
AcDbLine
 10
60.90518166666666
 20
30.853898
 30
0.0
 11
6.706473666666668
 21
30.853898
 31
0.0
  0
LINE
  5
2A4
330
2A0
100
AcDbEntity
  8
1
  6
CONTINUOUS
 62
    18
100
AcDbLine
 10
7.706473666666674
 20
117.153898
 30
0.0
 11
7.706473666666668
 21
34.353898
 31
0.0
  0
SOLID
  5
2A5
330
2A0
100
AcDbEntity
  8
1
 62
    18
100
AcDbTrace
 10
8.289807000000007
 20
117.153898
 30
0.0
 11
7.123140333333341
 21
117.153898
 31
0.0
 12
7.706473666666674
 22
120.653898
 32
0.0
 13
7.706473666666674
 23
120.653898
 33
0.0
  0
SOLID
  5
2A6
330
2A0
100
AcDbEntity
  8
1
 62
    18
100
AcDbTrace
 10
7.123140333333335
 20
34.353898
 30
0.0
 11
8.289807000000001
 21
34.353898
 31
0.0
 12
7.706473666666668
 22
30.853898
 32
0.0
 13
7.706473666666668
 23
30.853898
 33
0.0
  0
MTEXT
  5
2A7
330
2A0
100
AcDbEntity
  8
1
 62
    18
100
AcDbMText
 10
2.653973666666676
 20
75.753898
 30
0.0
 40
5.0
 41
0.0
 71
     5
 72
     1
  1
\A1;\C18;90
  7
ARIAL
 11
5.934376969043154E-17
 21
1.0
 31
0.0
  0
POINT
  5
2D7
330
2A0
100
AcDbEntity
  8
DEFPOINTS
 62
     0
100
AcDbPoint
 10
60.90518166666666
 20
120.653898
 30
0.0
  0
POINT
  5
2D8
330
2A0
100
AcDbEntity
  8
DEFPOINTS
 62
     0
100
AcDbPoint
 10
60.90518166666666
 20
30.853898
 30
0.0
  0
POINT
  5
2D9
330
2A0
100
AcDbEntity
  8
DEFPOINTS
 62
     0
100
AcDbPoint
 10
7.706473666666671
 20
30.853898
 30
0.0
  0
ENDBLK
  5
2A8
330
2A0
100
AcDbEntity
  8
0
100
AcDbBlockEnd
  0
BLOCK
  5
2AB
330
2AA
100
AcDbEntity
  8
0
100
AcDbBlockBegin
  2
DIMNDRAFT3D3
 70
     0
 10
0.0
 20
0.0
 30
0.0
  3
DIMNDRAFT3D3
  1
DimnDraft3D3
  0
LINE
  5
2AC
330
2AA
100
AcDbEntity
  8
1
  6
CONTINUOUS
 62
    18
100
AcDbLine
 10
32.69685266666667
 20
98.253898
 30
0.0
 11
18.32787566666667
 21
98.253898
 31
0.0
  0
LINE
  5
2AD
330
2AA
100
AcDbEntity
  8
1
  6
CONTINUOUS
 62
    18
100
AcDbLine
 10
32.69685266666667
 20
53.25389800000001
 30
0.0
 11
18.32787566666666
 21
53.25389800000001
 31
0.0
  0
LINE
  5
2AE
330
2AA
100
AcDbEntity
  8
1
  6
CONTINUOUS
 62
    18
100
AcDbLine
 10
19.32787566666667
 20
94.753898
 30
0.0
 11
19.32787566666666
 21
56.75389800000001
 31
0.0
  0
SOLID
  5
2AF
330
2AA
100
AcDbEntity
  8
1
 62
    18
100
AcDbTrace
 10
19.911209
 20
94.753898
 30
0.0
 11
18.74454233333334
 21
94.753898
 31
0.0
 12
19.32787566666667
 22
98.253898
 32
0.0
 13
19.32787566666667
 23
98.253898
 33
0.0
  0
SOLID
  5
2B0
330
2AA
100
AcDbEntity
  8
1
 62
    18
100
AcDbTrace
 10
18.74454233333333
 20
56.75389800000001
 30
0.0
 11
19.911209
 21
56.75389800000001
 31
0.0
 12
19.32787566666666
 22
53.25389800000001
 32
0.0
 13
19.32787566666666
 23
53.25389800000001
 33
0.0
  0
MTEXT
  5
2B1
330
2AA
100
AcDbEntity
  8
1
 62
    18
100
AcDbMText
 10
14.28537566666666
 20
75.753898
 30
0.0
 40
5.0
 41
0.0
 71
     5
 72
     1
  1
\A1;\C18;45
  7
ARIAL
 11
7.894919286223336E-17
 21
1.0
 31
0.0
  0
POINT
  5
2DA
330
2AA
100
AcDbEntity
  8
DEFPOINTS
 62
     0
100
AcDbPoint
 10
32.69685266666667
 20
98.253898
 30
0.0
  0
POINT
  5
2DB
330
2AA
100
AcDbEntity
  8
DEFPOINTS
 62
     0
100
AcDbPoint
 10
32.69685266666667
 20
53.25389800000001
 30
0.0
  0
POINT
  5
2DC
330
2AA
100
AcDbEntity
  8
DEFPOINTS
 62
     0
100
AcDbPoint
 10
19.32787566666667
 20
53.25389800000001
 30
0.0
  0
ENDBLK
  5
2B2
330
2AA
100
AcDbEntity
  8
0
100
AcDbBlockEnd
  0
BLOCK
  5
2B5
330
2B4
100
AcDbEntity
  8
0
100
AcDbBlockBegin
  2
DIMNDRAFT3D55
 70
     0
 10
0.0
 20
0.0
 30
0.0
  3
DIMNDRAFT3D55
  1
DimnDraft3D55
  0
LINE
  5
2B6
330
2B4
100
AcDbEntity
  8
1
  6
CONTINUOUS
 62
    18
100
AcDbLine
 10
119.777952
 20
103.078986
 30
0.0
 11
138.244735
 21
103.078986
 31
0.0
  0
LINE
  5
2B7
330
2B4
100
AcDbEntity
  8
1
  6
CONTINUOUS
 62
    18
100
AcDbLine
 10
121.104381
 20
196.47525
 30
0.0
 11
138.244735
 21
196.47525
 31
0.0
  0
LINE
  5
2B8
330
2B4
100
AcDbEntity
  8
1
  6
CONTINUOUS
 62
    18
100
AcDbLine
 10
137.244735
 20
103.078986
 30
0.0
 11
137.244735
 21
196.47525
 31
0.0
  0
SOLID
  5
2B9
330
2B4
100
AcDbEntity
  8
1
  6
CONTINUOUS
 62
    18
100
AcDbTrace
 10
137.244735
 20
103.078986
 30
0.0
 11
136.306912
 21
106.578982
 31
0.0
 12
138.182557
 22
106.578989
 32
0.0
 13
137.244735
 23
103.078986
 33
0.0
  0
SOLID
  5
2BA
330
2B4
100
AcDbEntity
  8
1
  6
CONTINUOUS
 62
    18
100
AcDbTrace
 10
137.244735
 20
196.47525
 30
0.0
 11
138.182557
 21
192.975254
 31
0.0
 12
136.306912
 22
192.975247
 32
0.0
 13
137.244735
 23
196.47525
 33
0.0
  0
MTEXT
  5
2BB
330
2B4
100
AcDbEntity
  8
1
  6
CONTINUOUS
 62
    18
100
AcDbMText
 10
136.224928
 20
147.392398
 30
0.0
 40
5.0
 41
0.0
 71
     7
 72
     5
  1
\W1.0000;94
  7
ARIAL
 11
6.123233995736766E-17
 21
1.0
 31
0.0
1001
ACAD
1000
MTEXTBEGIN
1070
    73
1070
     2
1070
    44
1040
1.047437
1000
MTEXTEND
  0
ENDBLK
  5
2BC
330
2B4
100
AcDbEntity
  8
0
100
AcDbBlockEnd
  0
BLOCK
  5
2BF
330
2BE
100
AcDbEntity
  8
0
100
AcDbBlockBegin
  2
DIMNDRAFT3D11
 70
     0
 10
0.0
 20
0.0
 30
0.0
  3
DIMNDRAFT3D11
  1
DimnDraft3D11
  0
LINE
  5
2C0
330
2BE
100
AcDbEntity
  8
1
  6
CONTINUOUS
 62
    18
100
AcDbLine
 10
98.79685266666667
 20
57.3539
 30
0.0
 11
98.79685266666667
 21
11.670469
 31
0.0
  0
LINE
  5
2C1
330
2BE
100
AcDbEntity
  8
1
  6
CONTINUOUS
 62
    18
100
AcDbLine
 10
54.79685266666667
 20
34.469133
 30
0.0
 11
54.79685266666667
 21
11.670469
 31
0.0
  0
LINE
  5
2C2
330
2BE
100
AcDbEntity
  8
1
  6
CONTINUOUS
 62
    18
100
AcDbLine
 10
95.29685266666667
 20
12.670469
 30
0.0
 11
58.29685266666667
 21
12.670469
 31
0.0
  0
SOLID
  5
2C3
330
2BE
100
AcDbEntity
  8
1
 62
    18
100
AcDbTrace
 10
95.29685266666667
 20
12.08713566666666
 30
0.0
 11
95.29685266666667
 21
13.25380233333333
 31
0.0
 12
98.79685266666667
 22
12.670469
 32
0.0
 13
98.79685266666667
 23
12.670469
 33
0.0
  0
SOLID
  5
2C4
330
2BE
100
AcDbEntity
  8
1
 62
    18
100
AcDbTrace
 10
58.29685266666667
 20
13.25380233333333
 30
0.0
 11
58.29685266666667
 21
12.08713566666666
 31
0.0
 12
54.79685266666667
 22
12.670469
 32
0.0
 13
54.79685266666667
 23
12.670469
 33
0.0
  0
MTEXT
  5
2C5
330
2BE
100
AcDbEntity
  8
1
 62
    18
100
AcDbMText
 10
76.79685266666667
 20
17.670469
 30
0.0
 40
5.0
 41
0.0
 71
     5
 72
     1
  1
\A1;\C18;44
  7
ARIAL
  0
POINT
  5
2DD
330
2BE
100
AcDbEntity
  8
DEFPOINTS
 62
     0
100
AcDbPoint
 10
98.79685266666667
 20
57.3539
 30
0.0
  0
POINT
  5
2DE
330
2BE
100
AcDbEntity
  8
DEFPOINTS
 62
     0
100
AcDbPoint
 10
54.79685266666667
 20
34.469133
 30
0.0
  0
POINT
  5
2DF
330
2BE
100
AcDbEntity
  8
DEFPOINTS
 62
     0
100
AcDbPoint
 10
54.79685266666667
 20
12.670469
 30
0.0
  0
ENDBLK
  5
2C6
330
2BE
100
AcDbEntity
  8
0
100
AcDbBlockEnd
  0
BLOCK
  5
2C9
330
2C8
100
AcDbEntity
  8
0
100
AcDbBlockBegin
  2
DIMNDRAFT3D12
 70
     0
 10
0.0
 20
0.0
 30
0.0
  3
DIMNDRAFT3D12
  1
DimnDraft3D12
  0
LINE
  5
2CA
330
2C8
100
AcDbEntity
  8
1
  6
CONTINUOUS
 62
    18
100
AcDbLine
 10
104.2968526666667
 20
109.653898
 30
0.0
 11
104.2968526666667
 21
135.067356
 31
0.0
  0
LINE
  5
2CB
330
2C8
100
AcDbEntity
  8
1
  6
CONTINUOUS
 62
    18
100
AcDbLine
 10
32.49685266666667
 20
98.05389799999999
 30
0.0
 11
32.49685266666667
 21
135.067356
 31
0.0
  0
LINE
  5
2CC
330
2C8
100
AcDbEntity
  8
1
  6
CONTINUOUS
 62
    18
100
AcDbLine
 10
100.7968526666667
 20
134.067356
 30
0.0
 11
35.99685266666667
 21
134.067356
 31
0.0
  0
SOLID
  5
2CD
330
2C8
100
AcDbEntity
  8
1
 62
    18
100
AcDbTrace
 10
100.7968526666667
 20
133.4840226666667
 30
0.0
 11
100.7968526666667
 21
134.6506893333334
 31
0.0
 12
104.2968526666667
 22
134.067356
 32
0.0
 13
104.2968526666667
 23
134.067356
 33
0.0
  0
SOLID
  5
2CE
330
2C8
100
AcDbEntity
  8
1
 62
    18
100
AcDbTrace
 10
35.99685266666667
 20
134.6506893333334
 30
0.0
 11
35.99685266666667
 21
133.4840226666667
 31
0.0
 12
32.49685266666667
 22
134.067356
 32
0.0
 13
32.49685266666667
 23
134.067356
 33
0.0
  0
MTEXT
  5
2CF
330
2C8
100
AcDbEntity
  8
1
 62
    18
100
AcDbMText
 10
68.39685266666666
 20
139.077356
 30
0.0
 40
5.0
 41
0.0
 71
     5
 72
     1
  1
\A1;\C18;72
  7
ARIAL
  0
POINT
  5
2E0
330
2C8
100
AcDbEntity
  8
DEFPOINTS
 62
     0
100
AcDbPoint
 10
104.2968526666667
 20
109.653898
 30
0.0
  0
POINT
  5
2E1
330
2C8
100
AcDbEntity
  8
DEFPOINTS
 62
     0
100
AcDbPoint
 10
32.49685266666667
 20
98.05389799999999
 30
0.0
  0
POINT
  5
2E2
330
2C8
100
AcDbEntity
  8
DEFPOINTS
 62
     0
100
AcDbPoint
 10
32.49685266666667
 20
134.067356
 30
0.0
  0
ENDBLK
  5
2D0
330
2C8
100
AcDbEntity
  8
0
100
AcDbBlockEnd
  0
BLOCK
  5
B80
330
B7F
100
AcDbEntity
  8
0
100
AcDbBlockBegin
  2
DIMNDRAFT3D16
 70
     0
 10
0.0
 20
0.0
 30
0.0
  3
DIMNDRAFT3D16
  1
DimnDraft3D16
  0
LINE
  5
B81
330
B7F
100
AcDbEntity
  8
1
  6
CONTINUOUS
 62
    18
100
AcDbLine
 10
0.0000000525732275
 20
34.469133
 30
0.0
 11
0.0000000525732275
 21
0.0
 31
0.0
  0
LINE
  5
B82
330
B7F
100
AcDbEntity
  8
1
  6
CONTINUOUS
 62
    18
100
AcDbLine
 10
53.80000005257318
 20
34.469133
 30
0.0
 11
53.80000005257318
 21
0.0
 31
0.0
  0
LINE
  5
B83
330
B7F
100
AcDbEntity
  8
1
  6
CONTINUOUS
 62
    18
100
AcDbLine
 10
3.500000052573228
 20
1.0
 30
0.0
 11
50.30000005257318
 21
1.0
 31
0.0
  0
SOLID
  5
B84
330
B7F
100
AcDbEntity
  8
1
 62
    18
100
AcDbTrace
 10
3.500000052573228
 20
1.583333333333333
 30
0.0
 11
3.500000052573228
 21
0.4166666666666666
 31
0.0
 12
0.0000000525732275
 22
1.0
 32
0.0
 13
0.0000000525732275
 23
1.0
 33
0.0
  0
SOLID
  5
B85
330
B7F
100
AcDbEntity
  8
1
 62
    18
100
AcDbTrace
 10
50.30000005257318
 20
0.4166666666666666
 30
0.0
 11
50.30000005257318
 21
1.583333333333333
 31
0.0
 12
53.80000005257318
 22
1.0
 32
0.0
 13
53.80000005257318
 23
1.0
 33
0.0
  0
MTEXT
  5
B86
330
B7F
100
AcDbEntity
  8
1
 62
    18
100
AcDbMText
 10
31.49089805257324
 20
6.0425
 30
0.0
 40
5.0
 41
0.0
 71
     5
 72
     1
  1
\A1;\C18;54
  7
ARIAL
  0
POINT
  5
B8A
330
B7F
100
AcDbEntity
  8
DEFPOINTS
 62
     0
100
AcDbPoint
 10
0.0000000525732275
 20
34.469133
 30
0.0
  0
POINT
  5
B8B
330
B7F
100
AcDbEntity
  8
DEFPOINTS
 62
     0
100
AcDbPoint
 10
53.80000005257318
 20
34.469133
 30
0.0
  0
POINT
  5
B8C
330
B7F
100
AcDbEntity
  8
DEFPOINTS
 62
     0
100
AcDbPoint
 10
53.80000005257318
 20
1.0
 30
0.0
  0
ENDBLK
  5
B87
330
B7F
100
AcDbEntity
  8
0
100
AcDbBlockEnd
  0
BLOCK
  5
1334
330
1333
100
AcDbEntity
  8
0
100
AcDbBlockBegin
  2
*D17
 70
     1
 10
0.0
 20
0.0
 30
0.0
  3
*D17
  1
*D17
  0
LINE
  5
1336
330
1333
100
AcDbEntity
  8
KOTY
 62
     0
100
AcDbLine
 10
331.7600189177886
 20
213.2201939706726
 30
0.0
 11
331.7600189177886
 21
246.0494714153149
 31
0.0
  0
LINE
  5
1337
330
1333
100
AcDbEntity
  8
KOTY
 62
     0
100
AcDbLine
 10
403.5600189177886
 20
224.8201939706726
 30
0.0
 11
403.5600189177886
 21
246.0494714153149
 31
0.0
  0
LINE
  5
1338
330
1333
100
AcDbEntity
  8
KOTY
 62
     0
100
AcDbLine
 10
334.7600189177886
 20
245.8694714153149
 30
0.0
 11
400.5600189177886
 21
245.8694714153149
 31
0.0
  0
SOLID
  5
1339
330
1333
100
AcDbEntity
  8
KOTY
 62
     0
100
AcDbTrace
 10
334.7600189177886
 20
246.3694714153149
 30
0.0
 11
334.7600189177886
 21
245.3694714153149
 31
0.0
 12
331.7600189177886
 22
245.8694714153149
 32
0.0
 13
331.7600189177886
 23
245.8694714153149
 33
0.0
  0
SOLID
  5
133A
330
1333
100
AcDbEntity
  8
KOTY
 62
     0
100
AcDbTrace
 10
400.5600189177886
 20
245.3694714153149
 30
0.0
 11
400.5600189177886
 21
246.3694714153149
 31
0.0
 12
403.5600189177886
 22
245.8694714153149
 32
0.0
 13
403.5600189177886
 23
245.8694714153149
 33
0.0
  0
MTEXT
  5
133B
330
1333
100
AcDbEntity
  8
KOTY
 62
     0
100
AcDbMText
 10
367.6600189177885
 20
248.3754714153149
 30
0.0
 40
3.0
 41
0.0
 71
     5
 72
     1
  1
\A1;72
  0
POINT
  5
133C
330
1333
100
AcDbEntity
  8
DEFPOINTS
 62
     0
100
AcDbPoint
 10
331.7600189177886
 20
213.1576939706726
 30
0.0
  0
POINT
  5
133D
330
1333
100
AcDbEntity
  8
DEFPOINTS
 62
     0
100
AcDbPoint
 10
403.5600189177886
 20
224.7576939706726
 30
0.0
  0
POINT
  5
133E
330
1333
100
AcDbEntity
  8
DEFPOINTS
 62
     0
100
AcDbPoint
 10
403.5600189177886
 20
245.8694714153149
 30
0.0
  0
ENDBLK
  5
1335
330
1333
100
AcDbEntity
  8
0
100
AcDbBlockEnd
  0
BLOCK
  5
1344
330
1343
100
AcDbEntity
  8
0
100
AcDbBlockBegin
  2
*D18
 70
     1
 10
0.0
 20
0.0
 30
0.0
  3
*D18
  1
*D18
  0
LINE
  5
1346
330
1343
100
AcDbEntity
  8
KOTY
 62
     0
100
AcDbLine
 10
331.8975189177886
 20
168.3576939706726
 30
0.0
 11
320.293941592266
 21
168.3576939706726
 31
0.0
  0
LINE
  5
1347
330
1343
100
AcDbEntity
  8
KOTY
 62
     0
100
AcDbLine
 10
331.8975189177886
 20
213.3576939706726
 30
0.0
 11
320.293941592266
 21
213.3576939706726
 31
0.0
  0
LINE
  5
1348
330
1343
100
AcDbEntity
  8
KOTY
 62
     0
100
AcDbLine
 10
320.473941592266
 20
171.3576939706726
 30
0.0
 11
320.473941592266
 21
210.3576939706726
 31
0.0
  0
SOLID
  5
1349
330
1343
100
AcDbEntity
  8
KOTY
 62
     0
100
AcDbTrace
 10
319.973941592266
 20
171.3576939706726
 30
0.0
 11
320.973941592266
 21
171.3576939706726
 31
0.0
 12
320.473941592266
 22
168.3576939706726
 32
0.0
 13
320.473941592266
 23
168.3576939706726
 33
0.0
  0
SOLID
  5
134A
330
1343
100
AcDbEntity
  8
KOTY
 62
     0
100
AcDbTrace
 10
320.973941592266
 20
210.3576939706726
 30
0.0
 11
319.973941592266
 21
210.3576939706726
 31
0.0
 12
320.473941592266
 22
213.3576939706726
 32
0.0
 13
320.473941592266
 23
213.3576939706726
 33
0.0
  0
MTEXT
  5
134B
330
1343
100
AcDbEntity
  8
KOTY
 62
     0
100
AcDbMText
 10
317.948441592266
 20
190.8576939706726
 30
0.0
 40
3.0
 41
0.0
 71
     5
 72
     1
  1
\A1;45
 11
0.0
 21
1.0
 31
0.0
  0
POINT
  5
134C
330
1343
100
AcDbEntity
  8
DEFPOINTS
 62
     0
100
AcDbPoint
 10
331.9600189177886
 20
168.3576939706726
 30
0.0
  0
POINT
  5
134D
330
1343
100
AcDbEntity
  8
DEFPOINTS
 62
     0
100
AcDbPoint
 10
331.9600189177886
 20
213.3576939706726
 30
0.0
  0
POINT
  5
134E
330
1343
100
AcDbEntity
  8
DEFPOINTS
 62
     0
100
AcDbPoint
 10
320.473941592266
 20
213.3576939706726
 30
0.0
  0
ENDBLK
  5
1345
330
1343
100
AcDbEntity
  8
0
100
AcDbBlockEnd
  0
BLOCK
  5
1354
330
1353
100
AcDbEntity
  8
0
100
AcDbBlockBegin
  2
*D19
 70
     1
 10
0.0
 20
0.0
 30
0.0
  3
*D19
  1
*D19
  0
LINE
  5
1356
330
1353
100
AcDbEntity
  8
KOTY
 62
     0
100
AcDbLine
 10
360.1058479177885
 20
145.9576939706726
 30
0.0
 11
310.3466136542384
 21
145.9576939706726
 31
0.0
  0
LINE
  5
1357
330
1353
100
AcDbEntity
  8
KOTY
 62
     0
100
AcDbLine
 10
360.1058479177885
 20
235.7576939706726
 30
0.0
 11
310.3466136542384
 21
235.7576939706726
 31
0.0
  0
LINE
  5
1358
330
1353
100
AcDbEntity
  8
KOTY
 62
     0
100
AcDbLine
 10
310.5266136542384
 20
148.9576939706726
 30
0.0
 11
310.5266136542384
 21
232.7576939706726
 31
0.0
  0
SOLID
  5
1359
330
1353
100
AcDbEntity
  8
KOTY
 62
     0
100
AcDbTrace
 10
310.0266136542384
 20
148.9576939706726
 30
0.0
 11
311.0266136542384
 21
148.9576939706726
 31
0.0
 12
310.5266136542384
 22
145.9576939706726
 32
0.0
 13
310.5266136542384
 23
145.9576939706726
 33
0.0
  0
SOLID
  5
135A
330
1353
100
AcDbEntity
  8
KOTY
 62
     0
100
AcDbTrace
 10
311.0266136542384
 20
232.7576939706726
 30
0.0
 11
310.0266136542384
 21
232.7576939706726
 31
0.0
 12
310.5266136542384
 22
235.7576939706726
 32
0.0
 13
310.5266136542384
 23
235.7576939706726
 33
0.0
  0
MTEXT
  5
135B
330
1353
100
AcDbEntity
  8
KOTY
 62
     0
100
AcDbMText
 10
307.9951136542384
 20
190.8576939706726
 30
0.0
 40
3.0
 41
0.0
 71
     5
 72
     1
  1
\A1;90
 11
0.0
 21
1.0
 31
0.0
  0
POINT
  5
135C
330
1353
100
AcDbEntity
  8
DEFPOINTS
 62
     0
100
AcDbPoint
 10
360.1683479177885
 20
145.9576939706726
 30
0.0
  0
POINT
  5
135D
330
1353
100
AcDbEntity
  8
DEFPOINTS
 62
     0
100
AcDbPoint
 10
360.1683479177885
 20
235.7576939706726
 30
0.0
  0
POINT
  5
135E
330
1353
100
AcDbEntity
  8
DEFPOINTS
 62
     0
100
AcDbPoint
 10
310.5266136542384
 20
235.7576939706726
 30
0.0
  0
ENDBLK
  5
1355
330
1353
100
AcDbEntity
  8
0
100
AcDbBlockEnd
  0
BLOCK
  5
1364
330
1363
100
AcDbEntity
  8
0
100
AcDbBlockBegin
  2
*D20
 70
     1
 10
0.0
 20
0.0
 30
0.0
  3
*D20
  1
*D20
  0
LINE
  5
1366
330
1363
100
AcDbEntity
  8
KOTY
 62
     0
100
AcDbLine
 10
331.7600189177886
 20
168.4951939706726
 30
0.0
 11
331.7600189177886
 21
122.4558462391053
 31
0.0
  0
LINE
  5
1367
330
1363
100
AcDbEntity
  8
KOTY
 62
     0
100
AcDbLine
 10
398.0600189177886
 20
172.3951959706726
 30
0.0
 11
398.0600189177886
 21
122.4558462391053
 31
0.0
  0
LINE
  5
1368
330
1363
100
AcDbEntity
  8
KOTY
 62
     0
100
AcDbLine
 10
334.7600189177886
 20
122.6358462391053
 30
0.0
 11
395.0600189177886
 21
122.6358462391053
 31
0.0
  0
SOLID
  5
1369
330
1363
100
AcDbEntity
  8
KOTY
 62
     0
100
AcDbTrace
 10
334.7600189177886
 20
123.1358462391053
 30
0.0
 11
334.7600189177886
 21
122.1358462391053
 31
0.0
 12
331.7600189177886
 22
122.6358462391053
 32
0.0
 13
331.7600189177886
 23
122.6358462391053
 33
0.0
  0
SOLID
  5
136A
330
1363
100
AcDbEntity
  8
KOTY
 62
     0
100
AcDbTrace
 10
395.0600189177886
 20
122.1358462391053
 30
0.0
 11
395.0600189177886
 21
123.1358462391053
 31
0.0
 12
398.0600189177886
 22
122.6358462391053
 32
0.0
 13
398.0600189177886
 23
122.6358462391053
 33
0.0
  0
MTEXT
  5
136B
330
1363
100
AcDbEntity
  8
KOTY
 62
     0
100
AcDbMText
 10
364.9100189177885
 20
125.1673462391053
 30
0.0
 40
3.0
 41
0.0
 71
     5
 72
     1
  1
\A1;66
  0
POINT
  5
136C
330
1363
100
AcDbEntity
  8
DEFPOINTS
 62
     0
100
AcDbPoint
 10
331.7600189177886
 20
168.5576939706726
 30
0.0
  0
POINT
  5
136D
330
1363
100
AcDbEntity
  8
DEFPOINTS
 62
     0
100
AcDbPoint
 10
398.0600189177886
 20
172.4576959706726
 30
0.0
  0
POINT
  5
136E
330
1363
100
AcDbEntity
  8
DEFPOINTS
 62
     0
100
AcDbPoint
 10
398.0600189177886
 20
122.6358462391053
 30
0.0
  0
ENDBLK
  5
1365
330
1363
100
AcDbEntity
  8
0
100
AcDbBlockEnd
  0
BLOCK
  5
1374
330
1373
100
AcDbEntity
  8
0
100
AcDbBlockBegin
  2
*D21
 70
     1
 10
0.0
 20
0.0
 30
0.0
  3
*D21
  1
*D21
  0
LINE
  5
1376
330
1373
100
AcDbEntity
  8
KOTY
 62
     0
100
AcDbLine
 10
354.0600189177886
 20
149.5104289706726
 30
0.0
 11
354.0600189177886
 21
133.9706929986001
 31
0.0
  0
LINE
  5
1377
330
1373
100
AcDbEntity
  8
KOTY
 62
     0
100
AcDbLine
 10
398.0600189177886
 20
172.3951959706726
 30
0.0
 11
398.0600189177886
 21
133.9706929986001
 31
0.0
  0
LINE
  5
1378
330
1373
100
AcDbEntity
  8
KOTY
 62
     0
100
AcDbLine
 10
357.0600189177886
 20
134.1506929986001
 30
0.0
 11
395.0600189177886
 21
134.1506929986001
 31
0.0
  0
SOLID
  5
1379
330
1373
100
AcDbEntity
  8
KOTY
 62
     0
100
AcDbTrace
 10
357.0600189177886
 20
134.6506929986001
 30
0.0
 11
357.0600189177886
 21
133.6506929986001
 31
0.0
 12
354.0600189177886
 22
134.1506929986001
 32
0.0
 13
354.0600189177886
 23
134.1506929986001
 33
0.0
  0
SOLID
  5
137A
330
1373
100
AcDbEntity
  8
KOTY
 62
     0
100
AcDbTrace
 10
395.0600189177886
 20
133.6506929986001
 30
0.0
 11
395.0600189177886
 21
134.6506929986001
 31
0.0
 12
398.0600189177886
 22
134.1506929986001
 32
0.0
 13
398.0600189177886
 23
134.1506929986001
 33
0.0
  0
MTEXT
  5
137B
330
1373
100
AcDbEntity
  8
KOTY
 62
     0
100
AcDbMText
 10
376.0600189177886
 20
136.6506929986001
 30
0.0
 40
3.0
 41
0.0
 71
     5
 72
     1
  1
\A1;44
  0
POINT
  5
137C
330
1373
100
AcDbEntity
  8
DEFPOINTS
 62
     0
100
AcDbPoint
 10
354.0600189177886
 20
149.5729289706726
 30
0.0
  0
POINT
  5
137D
330
1373
100
AcDbEntity
  8
DEFPOINTS
 62
     0
100
AcDbPoint
 10
398.0600189177886
 20
172.4576959706726
 30
0.0
  0
POINT
  5
137E
330
1373
100
AcDbEntity
  8
DEFPOINTS
 62
     0
100
AcDbPoint
 10
398.0600189177886
 20
134.1506929986001
 30
0.0
  0
ENDBLK
  5
1375
330
1373
100
AcDbEntity
  8
0
100
AcDbBlockEnd
  0
BLOCK
  5
1384
330
1383
100
AcDbEntity
  8
0
100
AcDbBlockBegin
  2
*D22
 70
     1
 10
0.0
 20
0.0
 30
0.0
  3
*D22
  1
*D22
  0
LINE
  5
1386
330
1383
100
AcDbEntity
  8
KOTY
 62
     0
100
AcDbLine
 10
401.9989469177885
 20
235.7576939706726
 30
0.0
 11
412.9227093336444
 21
235.7576939706726
 31
0.0
  0
LINE
  5
1387
330
1383
100
AcDbEntity
  8
KOTY
 62
     0
100
AcDbLine
 10
402.5394312988689
 20
142.361432319528
 30
0.0
 11
412.9227093336444
 21
142.361432319528
 31
0.0
  0
LINE
  5
1388
330
1383
100
AcDbEntity
  8
KOTY
 62
     0
100
AcDbLine
 10
412.7427093336444
 20
232.7576939706726
 30
0.0
 11
412.7427093336444
 21
145.361432319528
 31
0.0
  0
SOLID
  5
1389
330
1383
100
AcDbEntity
  8
KOTY
 62
     0
100
AcDbTrace
 10
413.2427093336444
 20
232.7576939706726
 30
0.0
 11
412.2427093336444
 21
232.7576939706726
 31
0.0
 12
412.7427093336444
 22
235.7576939706726
 32
0.0
 13
412.7427093336444
 23
235.7576939706726
 33
0.0
  0
SOLID
  5
138A
330
1383
100
AcDbEntity
  8
KOTY
 62
     0
100
AcDbTrace
 10
412.2427093336444
 20
145.361432319528
 30
0.0
 11
413.2427093336444
 21
145.361432319528
 31
0.0
 12
412.7427093336444
 22
142.361432319528
 32
0.0
 13
412.7427093336444
 23
142.361432319528
 33
0.0
  0
MTEXT
  5
138B
330
1383
100
AcDbEntity
  8
KOTY
 62
     0
100
AcDbMText
 10
410.2112093336444
 20
189.0595631451003
 30
0.0
 40
3.0
 41
0.0
 71
     5
 72
     1
  1
\A1;94
 11
0.0
 21
1.0
 31
0.0
  0
POINT
  5
138C
330
1383
100
AcDbEntity
  8
DEFPOINTS
 62
     0
100
AcDbPoint
 10
401.9364469177885
 20
235.7576939706726
 30
0.0
  0
POINT
  5
138D
330
1383
100
AcDbEntity
  8
DEFPOINTS
 62
     0
100
AcDbPoint
 10
402.4769312988689
 20
142.361432319528
 30
0.0
  0
POINT
  5
138E
330
1383
100
AcDbEntity
  8
DEFPOINTS
 62
     0
100
AcDbPoint
 10
412.7427093336444
 20
142.361432319528
 30
0.0
  0
ENDBLK
  5
1385
330
1383
100
AcDbEntity
  8
0
100
AcDbBlockEnd
  0
BLOCK
  5
1394
330
1393
100
AcDbEntity
  8
0
100
AcDbBlockBegin
  2
*D23
 70
     1
 10
0.0
 20
0.0
 30
0.0
  3
*D23
  1
*D23
  0
LINE
  5
1396
330
1393
100
AcDbEntity
  8
KOTY
 62
     0
100
AcDbLine
 10
443.9090849480258
 20
146.0951939706726
 30
0.0
 11
443.9090849480258
 21
133.9706929986001
 31
0.0
  0
LINE
  5
1397
330
1393
100
AcDbEntity
  8
KOTY
 62
     0
100
AcDbLine
 10
497.7090849480259
 20
146.0951939706726
 30
0.0
 11
497.7090849480259
 21
133.9706929986001
 31
0.0
  0
LINE
  5
1398
330
1393
100
AcDbEntity
  8
KOTY
 62
     0
100
AcDbLine
 10
446.9090849480258
 20
134.1506929986001
 30
0.0
 11
494.7090849480259
 21
134.1506929986001
 31
0.0
  0
SOLID
  5
1399
330
1393
100
AcDbEntity
  8
KOTY
 62
     0
100
AcDbTrace
 10
446.9090849480258
 20
134.6506929986001
 30
0.0
 11
446.9090849480258
 21
133.6506929986001
 31
0.0
 12
443.9090849480258
 22
134.1506929986001
 32
0.0
 13
443.9090849480258
 23
134.1506929986001
 33
0.0
  0
SOLID
  5
139A
330
1393
100
AcDbEntity
  8
KOTY
 62
     0
100
AcDbTrace
 10
494.7090849480259
 20
133.6506929986001
 30
0.0
 11
494.7090849480259
 21
134.6506929986001
 31
0.0
 12
497.7090849480259
 22
134.1506929986001
 32
0.0
 13
497.7090849480259
 23
134.1506929986001
 33
0.0
  0
MTEXT
  5
139B
330
1393
100
AcDbEntity
  8
KOTY
 62
     0
100
AcDbMText
 10
470.8090849480258
 20
136.6761929986001
 30
0.0
 40
3.0
 41
0.0
 71
     5
 72
     1
  1
\A1;54
  0
POINT
  5
139C
330
1393
100
AcDbEntity
  8
DEFPOINTS
 62
     0
100
AcDbPoint
 10
443.9090849480258
 20
146.1576939706726
 30
0.0
  0
POINT
  5
139D
330
1393
100
AcDbEntity
  8
DEFPOINTS
 62
     0
100
AcDbPoint
 10
497.7090849480259
 20
146.1576939706726
 30
0.0
  0
POINT
  5
139E
330
1393
100
AcDbEntity
  8
DEFPOINTS
 62
     0
100
AcDbPoint
 10
497.7090849480259
 20
134.1506929986001
 30
0.0
  0
ENDBLK
  5
1395
330
1393
100
AcDbEntity
  8
0
100
AcDbBlockEnd
  0
ENDSEC
  0
SECTION
  2
ENTITIES
  0
LINE
  5
2E4
330
1F
100
AcDbEntity
  8
OBRYS
  6
CONTINUOUS
100
AcDbLine
 10
355.0314049177886
 20
149.7049199706726
 30
0.0
 11
354.9303099177886
 21
149.7632869706726
 31
0.0
  0
LINE
  5
2EA
330
1F
100
AcDbEntity
  8
OBRYS
  6
CONTINUOUS
100
AcDbLine
 10
400.8104482467792
 20
145.9493173339249
 30
0.0
 11
400.8100179177886
 21
142.5614299706726
 31
0.0
  0
LINE
  5
2F2
330
1F
100
AcDbEntity
  8
OBRYS
  6
CONTINUOUS
100
AcDbLine
 10
398.0600179177886
 20
142.5614299706726
 30
0.0
 11
398.0604483635999
 21
145.9498841291911
 31
0.0
  0
LINE
  5
312
330
1F
100
AcDbEntity
  8
OBRYS
  6
CONTINUOUS
100
AcDbLine
 10
354.1600189177885
 20
232.3156639706726
 30
0.0
 11
354.7963379177885
 21
232.6830429706726
 31
0.0
  0
LINE
  5
316
330
1F
100
AcDbEntity
  8
OBRYS
  6
CONTINUOUS
100
AcDbLine
 10
354.6636739177886
 20
149.8025649706726
 30
0.0
 11
355.1629769177886
 21
150.6673819706726
 31
0.0
  0
LINE
  5
319
102
{ACAD_REACTORS
102
}
330
1F
100
AcDbEntity
  8
OBRYS
  6
CONTINUOUS
100
AcDbLine
 10
354.0600189177886
 20
149.5729289706726
 30
0.0
 11
354.0600189177886
 21
168.3576939706726
 31
0.0
  0
LINE
  5
31C
330
1F
100
AcDbEntity
  8
OBRYS
  6
CONTINUOUS
100
AcDbLine
 10
354.0600189177886
 20
213.3576939706726
 30
0.0
 11
354.0600189177886
 21
232.1424589706726
 31
0.0
  0
LINE
  5
31D
102
{ACAD_REACTORS
102
}
330
1F
100
AcDbEntity
  8
OBRYS
  6
CONTINUOUS
100
AcDbLine
 10
360.1683479177885
 20
235.7576939706726
 30
0.0
 11
401.9364469177885
 21
235.7576939706726
 31
0.0
  0
LINE
  5
31E
330
1F
100
AcDbEntity
  8
OBRYS
  6
CONTINUOUS
100
AcDbLine
 10
403.0598279177885
 20
151.3533359706726
 30
0.0
 11
403.0600219177886
 21
172.2576959706726
 31
0.0
  0
LINE
  5
322
330
1F
100
AcDbEntity
  8
OBRYS
  6
CONTINUOUS
100
AcDbLine
 10
403.3600189177886
 20
206.6076939706726
 30
0.0
 11
400.4435869177886
 21
206.6076939706726
 31
0.0
  0
LINE
  5
328
330
1F
100
AcDbEntity
  8
OBRYS
  6
CONTINUOUS
100
AcDbLine
 10
354.7963379177885
 20
149.0323449706726
 30
0.0
 11
354.1600189177885
 21
149.3997239706726
 31
0.0
  0
LINE
  5
329
102
{ACAD_REACTORS
102
}
330
1F
100
AcDbEntity
  8
OBRYS
  6
CONTINUOUS
100
AcDbLine
 10
331.9600189177886
 20
213.3576939706726
 30
0.0
 11
354.0600189177886
 21
213.3576939706726
 31
0.0
  0
LINE
  5
32C
102
{ACAD_REACTORS
102
}
330
1F
100
AcDbEntity
  8
OBRYS
  6
CONTINUOUS
100
AcDbLine
 10
403.5600189177886
 20
224.7576939706726
 30
0.0
 11
403.5600189177886
 21
206.8076939706726
 31
0.0
  0
LINE
  5
335
330
1F
100
AcDbEntity
  8
OBRYS
  6
CONTINUOUS
100
AcDbLine
 10
355.0966869177886
 20
149.5525649706726
 30
0.0
 11
354.6636739177886
 21
149.8025649706726
 31
0.0
  0
LINE
  5
338
330
1F
100
AcDbEntity
  8
OBRYS
  6
CONTINUOUS
100
AcDbLine
 10
360.0683479177886
 20
145.9844889706726
 30
0.0
 11
359.3854719177885
 21
146.3787479706726
 31
0.0
  0
LINE
  5
339
102
{ACAD_REACTORS
102
}
330
1F
100
AcDbEntity
  8
OBRYS
  6
CONTINUOUS
100
AcDbLine
 10
398.0600189177886
 20
172.4576959706726
 30
0.0
 11
402.8600219177886
 21
172.4576959706726
 31
0.0
  0
LINE
  5
342
330
1F
100
AcDbEntity
  8
OBRYS
  6
CONTINUOUS
100
AcDbLine
 10
355.1629769177886
 20
150.6673819706726
 30
0.0
 11
356.8077369177886
 21
149.7177789706726
 31
0.0
  0
LINE
  5
346
102
{ACAD_REACTORS
102
}
330
1F
100
AcDbEntity
  8
OBRYS
  6
CONTINUOUS
100
AcDbLine
 10
402.63240814749
 20
145.9489418145463
 30
0.0
 11
360.1683479177885
 21
145.9576939706726
 31
0.0
  0
LINE
  5
349
330
1F
100
AcDbEntity
  8
OBRYS
  6
CONTINUOUS
100
AcDbLine
 10
360.6181352347754
 20
147.5137837876596
 30
0.0
 11
360.1188329177886
 21
146.6489669706726
 31
0.0
  0
LINE
  5
34C
330
1F
100
AcDbEntity
  8
OBRYS
  6
CONTINUOUS
100
AcDbLine
 10
360.1188329177886
 20
146.6489669706726
 30
0.0
 11
359.6858199177885
 21
146.8989669706726
 31
0.0
  0
LINE
  5
34F
330
1F
100
AcDbEntity
  8
OBRYS
  6
CONTINUOUS
100
AcDbLine
 10
359.8521629177886
 20
146.9216539706726
 30
0.0
 11
359.9532569177886
 21
146.8632869706726
 31
0.0
  0
LINE
  5
351
330
1F
100
AcDbEntity
  8
OBRYS
  6
CONTINUOUS
100
AcDbLine
 10
355.9425219177886
 20
150.1026469706726
 30
0.0
 11
355.3303099177886
 21
150.4561069706726
 31
0.0
  0
LINE
  5
355
330
1F
100
AcDbEntity
  8
OBRYS
  6
CONTINUOUS
100
AcDbLine
 10
359.3531499177886
 20
235.1880999706726
 30
0.0
 11
359.5883329177885
 21
234.8522239706726
 31
0.0
  0
LINE
  5
356
330
1F
100
AcDbEntity
  8
OBRYS
  6
CONTINUOUS
100
AcDbLine
 10
356.8077359177886
 20
231.9976089706726
 30
0.0
 11
355.1629769177886
 21
231.0480059706726
 31
0.0
  0
LINE
  5
35D
330
1F
100
AcDbEntity
  8
OBRYS
  6
CONTINUOUS
100
AcDbLine
 10
354.6636739177886
 20
231.9128229706726
 30
0.0
 11
355.0966869177886
 21
232.1628229706726
 31
0.0
  0
LINE
  5
35F
330
1F
100
AcDbEntity
  8
OBRYS
  6
CONTINUOUS
100
AcDbLine
 10
359.6858199177885
 20
146.8989669706726
 30
0.0
 11
359.3854719177885
 21
146.3787479706726
 31
0.0
  0
LINE
  5
360
330
1F
100
AcDbEntity
  8
OBRYS
  6
CONTINUOUS
100
AcDbLine
 10
354.0600189177886
 20
220.4141699706726
 30
0.0
 11
354.0600189177886
 21
220.4141809706726
 31
0.0
  0
LINE
  5
361
330
1F
100
AcDbEntity
  8
OBRYS
  6
CONTINUOUS
100
AcDbLine
 10
358.9733749177886
 20
148.4633869706726
 30
0.0
 11
360.6181352347741
 21
147.5137837876604
 31
0.0
  0
LINE
  5
362
330
1F
100
AcDbEntity
  8
OBRYS
  6
CONTINUOUS
100
AcDbLine
 10
355.9467529177886
 20
149.2996129706726
 30
0.0
 11
356.0923699177886
 21
149.5623129706726
 31
0.0
  0
LINE
  5
366
330
1F
100
AcDbEntity
  8
OBRYS
  6
CONTINUOUS
100
AcDbLine
 10
354.9393809177886
 20
232.6398089706726
 30
0.0
 11
355.1126659177886
 21
232.2681969706726
 31
0.0
  0
LINE
  5
368
330
1F
100
AcDbEntity
  8
OBRYS
  6
CONTINUOUS
100
AcDbLine
 10
355.9425219177886
 20
231.6127419706726
 30
0.0
 11
355.3303099177886
 21
231.2592809706726
 31
0.0
  0
LINE
  5
369
330
1F
100
AcDbEntity
  8
OBRYS
  6
CONTINUOUS
100
AcDbLine
 10
354.7963379177885
 20
149.0323449706726
 30
0.0
 11
355.0966869177886
 21
149.5525649706726
 31
0.0
  0
LINE
  5
36A
330
1F
100
AcDbEntity
  8
OBRYS
  6
CONTINUOUS
100
AcDbLine
 10
360.1188329177886
 20
235.0664209706726
 30
0.0
 11
360.6181346546731
 21
234.2016038187628
 31
0.0
  0
LINE
  5
36C
330
1F
100
AcDbEntity
  8
OBRYS
  6
CONTINUOUS
100
AcDbLine
 10
359.6858199177885
 20
234.8164209706726
 30
0.0
 11
360.1188329177886
 21
235.0664209706726
 31
0.0
  0
LINE
  5
36D
330
1F
100
AcDbEntity
  8
OBRYS
  6
CONTINUOUS
100
AcDbLine
 10
354.0600189177886
 20
230.3512079706726
 30
0.0
 11
354.0600189177886
 21
230.3512179706726
 31
0.0
  0
LINE
  5
372
330
1F
100
AcDbEntity
  8
OBRYS
  6
CONTINUOUS
100
AcDbLine
 10
355.9467529177886
 20
232.4157749706726
 30
0.0
 11
356.0923699177886
 21
232.1530759706726
 31
0.0
  0
LINE
  5
375
330
1F
100
AcDbEntity
  8
OBRYS
  6
CONTINUOUS
100
AcDbLine
 10
355.0966869177886
 20
232.1628229706726
 30
0.0
 11
354.7963379177885
 21
232.6830429706726
 31
0.0
  0
LINE
  5
377
330
1F
100
AcDbEntity
  8
OBRYS
  6
CONTINUOUS
100
AcDbLine
 10
359.3854719177885
 20
235.3366399706726
 30
0.0
 11
359.6858199177885
 21
234.8164209706726
 31
0.0
  0
LINE
  5
378
330
1F
100
AcDbEntity
  8
OBRYS
  6
CONTINUOUS
100
AcDbLine
 10
360.6181349177886
 20
234.2016039706726
 30
0.0
 11
358.9733739177885
 21
233.2520009706726
 31
0.0
  0
LINE
  5
37D
330
1F
100
AcDbEntity
  8
OBRYS
  6
CONTINUOUS
100
AcDbLine
 10
359.0434829177885
 20
147.5117149706726
 30
0.0
 11
359.1981789177886
 21
147.7691729706726
 31
0.0
  0
LINE
  5
37F
330
1F
100
AcDbEntity
  8
OBRYS
  6
CONTINUOUS
100
AcDbLine
 10
354.9393809177886
 20
149.0755789706726
 30
0.0
 11
355.1126659177886
 21
149.4471909706726
 31
0.0
  0
LINE
  5
381
330
1F
100
AcDbEntity
  8
OBRYS
  6
CONTINUOUS
100
AcDbLine
 10
359.8521629177886
 20
234.7937339706726
 30
0.0
 11
359.9532569177886
 21
234.8521009706726
 31
0.0
  0
LINE
  5
385
330
1F
100
AcDbEntity
  8
OBRYS
  6
CONTINUOUS
100
AcDbLine
 10
359.3531499177886
 20
146.5272889706726
 30
0.0
 11
359.5883329177885
 21
146.8631639706726
 31
0.0
  0
LINE
  5
388
330
1F
100
AcDbEntity
  8
OBRYS
  6
CONTINUOUS
100
AcDbLine
 10
355.0314049177886
 20
232.0104679706726
 30
0.0
 11
354.9303099177886
 21
231.9521009706726
 31
0.0
  0
LINE
  5
38B
330
1F
100
AcDbEntity
  8
OBRYS
  6
CONTINUOUS
100
AcDbLine
 10
359.0434829177885
 20
234.2036729706726
 30
0.0
 11
359.1981789177886
 21
233.9462149706726
 31
0.0
  0
LINE
  5
38F
330
1F
100
AcDbEntity
  8
OBRYS
  6
CONTINUOUS
100
AcDbLine
 10
359.7410459177886
 20
233.8058199706726
 30
0.0
 11
360.3532569177886
 21
234.1592809706726
 31
0.0
  0
LINE
  5
390
330
1F
100
AcDbEntity
  8
OBRYS
  6
CONTINUOUS
100
AcDbLine
 10
355.1629769177886
 20
231.0480069706726
 30
0.0
 11
354.6636749659613
 21
231.912823575835
 31
0.0
  0
LINE
  5
398
330
1F
100
AcDbEntity
  8
OBRYS
  6
CONTINUOUS
100
AcDbLine
 10
400.2703819177885
 20
206.7076939706726
 30
0.0
 11
399.2600189177886
 21
208.4576939706726
 31
0.0
  0
LINE
  5
399
330
1F
100
AcDbEntity
  8
OBRYS
  6
CONTINUOUS
100
AcDbLine
 10
399.2600189177886
 20
208.4576939706726
 30
0.0
 11
398.0600189177886
 21
208.4576939706726
 31
0.0
  0
LINE
  5
3A5
330
1F
100
AcDbEntity
  8
OBRYS
  6
CONTINUOUS
100
AcDbLine
 10
398.0600189177886
 20
208.4576939706726
 30
0.0
 11
398.0600189177886
 21
172.4576959706726
 31
0.0
  0
LINE
  5
3AD
330
1F
100
AcDbEntity
  8
OBRYS
  6
CONTINUOUS
100
AcDbLine
 10
402.1347359177886
 20
235.5837989706726
 30
0.0
 11
403.5600189177886
 21
224.7576939706726
 31
0.0
  0
LINE
  5
3AF
102
{ACAD_REACTORS
102
}
330
1F
100
AcDbEntity
  8
OBRYS
  6
CONTINUOUS
100
AcDbLine
 10
331.7600189177886
 20
168.5576939706726
 30
0.0
 11
331.7600189177886
 21
213.1576939706726
 31
0.0
  0
LINE
  5
3B0
102
{ACAD_REACTORS
102
}
330
1F
100
AcDbEntity
  8
OBRYS
  6
CONTINUOUS
100
AcDbLine
 10
354.0600189177886
 20
168.3576939706726
 30
0.0
 11
331.9600189177886
 21
168.3576939706726
 31
0.0
  0
LINE
  5
3B1
330
1F
100
AcDbEntity
  8
OBRYS
  6
CONTINUOUS
100
AcDbLine
 10
359.3854717960643
 20
235.3366401815056
 30
0.0
 11
360.0683479177886
 21
235.7308989706726
 31
0.0
  0
LINE
  5
3B5
330
1F
100
AcDbEntity
  8
OBRYS
  6
CONTINUOUS
100
AcDbLine
 10
359.7410459177886
 20
147.9095679706726
 30
0.0
 11
360.3532569177886
 21
147.5561069706726
 31
0.0
  0
LINE
  5
3B9
330
1F
100
AcDbEntity
  8
OBRYS
  6
CONTINUOUS
100
AcDbLine
 10
403.0598279177885
 20
151.3533359706726
 30
0.0
 11
402.6755839177886
 21
142.5527059706726
 31
0.0
  0
LINE
  5
3BF
330
1F
100
AcDbEntity
  8
OBRYS
  6
CONTINUOUS
100
AcDbLine
 10
402.4757739177886
 20
142.3614289706726
 30
0.0
 11
398.2600179177886
 21
142.3614299706726
 31
0.0
  0
ARC
  5
3F1
330
1F
100
AcDbEntity
  8
OBRYS
  6
CONTINUOUS
100
AcDbCircle
 10
-356.1216769177886
 20
232.5127369706726
 30
0.0
 40
0.2
210
0.0
220
0.0
230
-1.0
100
AcDbArc
 50
331.0000000000053
 51
52.06319899999484
  0
ARC
  5
3F2
330
1F
100
AcDbEntity
  8
OBRYS
  6
CONTINUOUS
100
AcDbCircle
 10
359.5410459177886
 20
147.5631579706726
 30
0.0
 40
0.4
100
AcDbArc
 50
59.99999999999422
 51
148.9999999999991
  0
CIRCLE
  5
3F3
330
1F
100
AcDbEntity
  8
OBRYS
  6
CONTINUOUS
100
AcDbCircle
 10
394.5600189177886
 20
165.8576939706726
 30
0.0
 40
2.0
  0
ARC
  5
3F4
330
1F
100
AcDbEntity
  8
OBRYS
  6
CONTINUOUS
100
AcDbCircle
 10
355.7425219177886
 20
149.7562369706726
 30
0.0
 40
0.4
100
AcDbArc
 50
330.9999999999942
 51
59.99999999999925
  0
ARC
  5
3F5
330
1F
100
AcDbEntity
  8
OBRYS
  6
CONTINUOUS
100
AcDbCircle
 10
-358.8720489177886
 20
147.6147229706726
 30
0.0
 40
0.2
210
0.0
220
0.0
230
-1.0
100
AcDbArc
 50
210.9999999999925
 51
292.0631989999935
  0
ARC
  5
3F6
330
1F
100
AcDbEntity
  8
OBRYS
  6
CONTINUOUS
100
AcDbCircle
 10
-356.1216769177886
 20
149.2026509706726
 30
0.0
 40
0.2
210
0.0
220
0.0
230
-1.0
100
AcDbArc
 50
307.9368010000052
 51
28.99999999999473
  0
ARC
  5
3F7
330
1F
100
AcDbEntity
  8
OBRYS
  6
CONTINUOUS
100
AcDbCircle
 10
-354.9314049177885
 20
149.5317149706726
 30
0.0
 40
0.2
210
0.0
220
0.0
230
-1.0
100
AcDbArc
 50
120.0000000000038
 51
204.9999999999952
  0
ARC
  5
3F8
330
1F
100
AcDbEntity
  8
OBRYS
  6
CONTINUOUS
100
AcDbCircle
 10
400.6100179177886
 20
142.5614299706726
 30
0.0
 40
0.2
100
AcDbArc
 50
270.0
 51
0.0
  0
ARC
  5
3F9
330
1F
100
AcDbEntity
  8
OBRYS
  6
CONTINUOUS
100
AcDbCircle
 10
355.1206419177886
 20
148.9910559706726
 30
0.0
 40
0.2
100
AcDbArc
 50
155.0000000000048
 51
228.9900279999968
  0
ARC
  5
3FA
330
1F
100
AcDbEntity
  8
OBRYS
  6
CONTINUOUS
100
AcDbCircle
 10
400.4435869177886
 20
206.8076939706726
 30
0.0
 40
0.2
100
AcDbArc
 50
209.9999999999855
 51
270.0
  0
CIRCLE
  5
3FB
330
1F
100
AcDbEntity
  8
OBRYS
  6
CONTINUOUS
100
AcDbCircle
 10
-394.5600189177886
 20
215.8576939706726
 30
0.0
 40
0.7749999999999984
210
0.0
220
0.0
230
-1.0
  0
CIRCLE
  5
3FC
330
1F
100
AcDbEntity
  8
OBRYS
  6
CONTINUOUS
100
AcDbCircle
 10
-359.0600189177886
 20
217.3576939706726
 30
0.0
 40
0.7749999999999984
210
0.0
220
0.0
230
-1.0
  0
ARC
  5
3FD
330
1F
100
AcDbEntity
  8
OBRYS
  6
CONTINUOUS
100
AcDbCircle
 10
355.1303099177886
 20
150.1096969706726
 30
0.0
 40
0.4
100
AcDbArc
 50
60.00000000000129
 51
98.78357654809601
  0
CIRCLE
  5
3FE
330
1F
100
AcDbEntity
  8
OBRYS
  6
CONTINUOUS
100
AcDbCircle
 10
-359.0600189177886
 20
164.3576939706726
 30
0.0
 40
0.7749999999999984
210
0.0
220
0.0
230
-1.0
  0
ARC
  5
3FF
330
1F
100
AcDbEntity
  8
OBRYS
  6
CONTINUOUS
100
AcDbCircle
 10
-358.8720489177886
 20
234.1006649706726
 30
0.0
 40
0.2
210
0.0
220
0.0
230
-1.0
100
AcDbArc
 50
67.93680100000643
 51
149.0000000000075
  0
ARC
  5
400
330
1F
100
AcDbEntity
  8
OBRYS
  6
CONTINUOUS
100
AcDbCircle
 10
-363.1917839177886
 20
158.2725789706726
 30
0.0
 40
11.7
210
0.0
220
0.0
230
-1.0
100
AcDbArc
 50
292.063199
 51
307.936801
  0
ARC
  5
401
330
1F
100
AcDbEntity
  8
OBRYS
  6
CONTINUOUS
100
AcDbCircle
 10
355.1206419177886
 20
232.7243319706726
 30
0.0
 40
0.2
100
AcDbArc
 50
131.0099720000032
 51
204.9999999999952
  0
ARC
  5
402
330
1F
100
AcDbEntity
  8
OBRYS
  6
CONTINUOUS
100
AcDbCircle
 10
-359.7521629177886
 20
234.9669399706726
 30
0.0
 40
0.2
210
0.0
220
0.0
230
-1.0
100
AcDbArc
 50
239.9999999999922
 51
325.0000000000007
  0
ARC
  5
403
330
1F
100
AcDbEntity
  8
OBRYS
  6
CONTINUOUS
100
AcDbCircle
 10
402.63240814749
 20
146.1489418145463
 30
0.0
 40
0.2
100
AcDbArc
 50
270.0
 51
357.4999929999992
  0
ARC
  5
404
330
1F
100
AcDbEntity
  8
OBRYS
  6
CONTINUOUS
100
AcDbCircle
 10
360.1532569177887
 20
234.5056909706725
 30
0.0
 40
0.3999999999998904
100
AcDbArc
 50
299.9999999999978
 51
338.783632531472
  0
ARC
  5
405
330
1F
100
AcDbEntity
  8
OBRYS
  6
CONTINUOUS
100
AcDbCircle
 10
359.1893199177886
 20
235.0733839706726
 30
0.0
 40
0.2
100
AcDbArc
 50
34.99999999999923
 51
108.9900280000045
  0
ARC
  5
406
330
1F
100
AcDbEntity
  8
OBRYS
  6
CONTINUOUS
100
AcDbCircle
 10
359.1893199177886
 20
146.6420039706726
 30
0.0
 40
0.2
100
AcDbArc
 50
251.0099719999955
 51
325.0000000000007
  0
ARC
  5
407
330
1F
100
AcDbEntity
  8
OBRYS
  6
CONTINUOUS
100
AcDbCircle
 10
355.1303099177883
 20
231.6056909706728
 30
0.0
 40
0.3999999999997067
100
AcDbArc
 50
119.9999999999848
 51
158.7834454599002
  0
ARC
  5
408
330
1F
100
AcDbEntity
  8
OBRYS
  6
CONTINUOUS
100
AcDbCircle
 10
-354.9314049177885
 20
232.1836729706726
 30
0.0
 40
0.2
210
0.0
220
0.0
230
-1.0
100
AcDbArc
 50
155.0000000000048
 51
239.9999999999963
  0
ARC
  5
409
330
1F
100
AcDbEntity
  8
OBRYS
  6
CONTINUOUS
100
AcDbCircle
 10
-359.7521629177886
 20
146.7484489706726
 30
0.0
 40
0.2
210
0.0
220
0.0
230
-1.0
100
AcDbArc
 50
34.99999999999923
 51
120.0000000000078
  0
ARC
  5
40A
330
1F
100
AcDbEntity
  8
OBRYS
  6
CONTINUOUS
100
AcDbCircle
 10
363.1917839177886
 20
158.2725789706726
 30
0.0
 40
12.5
100
AcDbArc
 50
228.990028
 51
251.0099719999999
  0
CIRCLE
  5
40B
330
1F
100
AcDbEntity
  8
OBRYS
  6
CONTINUOUS
100
AcDbCircle
 10
359.0600189177886
 20
164.3576939706726
 30
0.0
 40
1.999999999999945
  0
ARC
  5
40C
330
1F
100
AcDbEntity
  8
OBRYS
  6
CONTINUOUS
100
AcDbCircle
 10
-363.1917839177886
 20
223.4428089706726
 30
0.0
 40
11.7
210
0.0
220
0.0
230
-1.0
100
AcDbArc
 50
52.06319899999987
 51
67.93680100000003
  0
CIRCLE
  5
40D
330
1F
100
AcDbEntity
  8
OBRYS
  6
CONTINUOUS
100
AcDbCircle
 10
-394.5600189177886
 20
165.8576939706726
 30
0.0
 40
0.7749999999999984
210
0.0
220
0.0
230
-1.0
  0
ARC
  5
40E
330
1F
100
AcDbEntity
  8
OBRYS
  6
CONTINUOUS
100
AcDbCircle
 10
363.1917839177886
 20
223.4428089706726
 30
0.0
 40
12.5
100
AcDbArc
 50
108.9900280000002
 51
131.0099720000001
  0
ARC
  5
410
330
1F
100
AcDbEntity
  8
OBRYS
  6
CONTINUOUS
100
AcDbCircle
 10
359.5410459177886
 20
234.1522309706726
 30
0.0
 40
0.4
100
AcDbArc
 50
211.0000000000009
 51
300.0000000000078
  0
ARC
  5
411
330
1F
100
AcDbEntity
  8
OBRYS
  6
CONTINUOUS
100
AcDbCircle
 10
-360.1683479177885
 20
146.1576939706726
 30
0.0
 40
0.2
210
0.0
220
0.0
230
-1.0
100
AcDbArc
 50
270.0
 51
299.9999999999896
  0
ARC
  5
412
330
1F
100
AcDbEntity
  8
OBRYS
  6
CONTINUOUS
100
AcDbCircle
 10
355.7425219177886
 20
231.9591519706726
 30
0.0
 40
0.4
100
AcDbArc
 50
300.0000000000008
 51
29.00000000000581
  0
ARC
  5
413
330
1F
100
AcDbEntity
  8
OBRYS
  6
CONTINUOUS
100
AcDbCircle
 10
-402.8600219177886
 20
172.2576959706726
 30
0.0
 40
0.2
210
0.0
220
0.0
230
-1.0
100
AcDbArc
 50
90.00000300000094
 51
180.0000069999968
  0
CIRCLE
  5
414
330
1F
100
AcDbEntity
  8
OBRYS
  6
CONTINUOUS
100
AcDbCircle
 10
359.0600189177886
 20
217.3576939706726
 30
0.0
 40
2.000000000000085
  0
ARC
  5
415
330
1F
100
AcDbEntity
  8
OBRYS
  6
CONTINUOUS
100
AcDbCircle
 10
-401.9364469177885
 20
235.5576939706726
 30
0.0
 40
0.2
210
0.0
220
0.0
230
-1.0
100
AcDbArc
 50
90.0
 51
172.4999999999986
  0
ARC
  5
416
330
1F
100
AcDbEntity
  8
OBRYS
  6
CONTINUOUS
100
AcDbCircle
 10
-398.2600179177886
 20
142.5614299706726
 30
0.0
 40
0.2
210
0.0
220
0.0
230
-1.0
100
AcDbArc
 50
270.0
 51
0.0
  0
CIRCLE
  5
417
330
1F
100
AcDbEntity
  8
OBRYS
  6
CONTINUOUS
100
AcDbCircle
 10
-394.5600189177886
 20
215.8576939706726
 30
0.0
 40
2.2
210
0.0
220
0.0
230
-1.0
  0
ARC
  5
418
330
1F
100
AcDbEntity
  8
OBRYS
  6
CONTINUOUS
100
AcDbCircle
 10
-354.2600189177886
 20
232.1424589706726
 30
0.0
 40
0.2
210
0.0
220
0.0
230
-1.0
100
AcDbArc
 50
0.0
 51
60.00000000001037
  0
ARC
  5
419
102
{ACAD_REACTORS
102
}
330
1F
100
AcDbEntity
  8
OBRYS
  6
CONTINUOUS
100
AcDbCircle
 10
402.4757739177886
 20
142.5614289706726
 30
0.0
 40
0.2
100
AcDbArc
 50
270.0
 51
357.4999999999987
  0
ARC
  5
41A
330
1F
100
AcDbEntity
  8
OBRYS
  6
CONTINUOUS
100
AcDbCircle
 10
331.9600189177886
 20
213.1576939706726
 30
0.0
 40
0.2
100
AcDbArc
 50
90.0
 51
180.0
  0
ARC
  5
41B
330
1F
100
AcDbEntity
  8
OBRYS
  6
CONTINUOUS
100
AcDbCircle
 10
403.3600189177886
 20
206.8076939706726
 30
0.0
 40
0.2
100
AcDbArc
 50
270.0
 51
0.0
  0
CIRCLE
  5
41D
330
1F
100
AcDbEntity
  8
OBRYS
  6
CONTINUOUS
100
AcDbCircle
 10
-359.0600189177886
 20
217.3576939706726
 30
0.0
 40
2.200000000000085
210
0.0
220
0.0
230
-1.0
  0
ARC
  5
41E
330
1F
100
AcDbEntity
  8
OBRYS
  6
CONTINUOUS
100
AcDbCircle
 10
354.2600189177886
 20
149.5729289706726
 30
0.0
 40
0.2
100
AcDbArc
 50
180.0
 51
240.0000000000063
  0
ARC
  5
41F
330
1F
100
AcDbEntity
  8
OBRYS
  6
CONTINUOUS
100
AcDbCircle
 10
-331.9600189177886
 20
168.5576939706726
 30
0.0
 40
0.2
210
0.0
220
0.0
230
-1.0
100
AcDbArc
 50
270.0
 51
0.0
  0
CIRCLE
  5
420
330
1F
100
AcDbEntity
  8
OBRYS
  6
CONTINUOUS
100
AcDbCircle
 10
-359.0600189177886
 20
164.3576939706726
 30
0.0
 40
2.199999999999945
210
0.0
220
0.0
230
-1.0
  0
CIRCLE
  5
421
330
1F
100
AcDbEntity
  8
OBRYS
  6
CONTINUOUS
100
AcDbCircle
 10
394.5600189177886
 20
215.8576939706726
 30
0.0
 40
2.0
  0
CIRCLE
  5
422
330
1F
100
AcDbEntity
  8
OBRYS
  6
CONTINUOUS
100
AcDbCircle
 10
-394.5600189177886
 20
165.8576939706726
 30
0.0
 40
2.2
210
0.0
220
0.0
230
-1.0
  0
ARC
  5
423
330
1F
100
AcDbEntity
  8
OBRYS
  6
CONTINUOUS
100
AcDbCircle
 10
-360.1683479177885
 20
235.5576939706726
 30
0.0
 40
0.2
210
0.0
220
0.0
230
-1.0
100
AcDbArc
 50
60.00000000001037
 51
90.0
  0
ARC
  5
424
330
1F
100
AcDbEntity
  8
OBRYS
  6
CONTINUOUS
100
AcDbCircle
 10
360.1532569177886
 20
147.2096969706725
 30
0.0
 40
0.3999999999999435
100
AcDbArc
 50
239.9999999999972
 51
278.7837235102699
  0
LINE
  5
B91
330
1F
100
AcDbEntity
  8
OBRYS
  6
CONTINUOUS
100
AcDbLine
 10
476.5090849480259
 20
143.9576959706726
 30
0.0
 11
476.5090849480259
 21
145.9577639706726
 31
0.0
  0
LINE
  5
B92
330
1F
100
AcDbEntity
  8
OBRYS
  6
CONTINUOUS
100
AcDbLine
 10
465.1090849480258
 20
143.9576959706726
 30
0.0
 11
476.5090849480259
 21
143.9576959706726
 31
0.0
  0
LINE
  5
B93
330
1F
100
AcDbEntity
  8
OBRYS
  6
CONTINUOUS
100
AcDbLine
 10
465.1090849480258
 20
145.9577639706726
 30
0.0
 11
465.1090849480258
 21
143.9576959706726
 31
0.0
  0
LINE
  5
B98
330
1F
100
AcDbEntity
  8
OBRYS
  6
CONTINUOUS
100
AcDbLine
 10
492.4655819480258
 20
189.2727699706726
 30
0.0
 11
494.2940089480258
 21
191.1011969706726
 31
0.0
  0
LINE
  5
B9A
330
1F
100
AcDbEntity
  8
OBRYS
  6
CONTINUOUS
100
AcDbLine
 10
474.6090849480258
 20
142.3614289706726
 30
0.0
 11
474.6090849480258
 21
142.3614299706726
 31
0.0
  0
LINE
  5
B9C
330
1F
100
AcDbEntity
  8
OBRYS
  6
CONTINUOUS
100
AcDbLine
 10
452.8090849480258
 20
145.9576939706726
 30
0.0
 11
452.8090849480258
 21
146.4420029706726
 31
0.0
  0
LINE
  5
BA4
330
1F
100
AcDbEntity
  8
OBRYS
  6
CONTINUOUS
100
AcDbLine
 10
470.8090849480258
 20
146.4419999706726
 30
0.0
 11
470.8090849480258
 21
145.9576939706726
 31
0.0
  0
LINE
  5
BA5
330
1F
100
AcDbEntity
  8
OBRYS
  6
CONTINUOUS
100
AcDbLine
 10
467.0090849480259
 20
142.3614299706726
 30
0.0
 11
467.0090849480259
 21
142.3614289706726
 31
0.0
  0
LINE
  5
BA6
330
1F
100
AcDbEntity
  8
OBRYS
  6
CONTINUOUS
100
AcDbLine
 10
452.8090849480258
 20
235.2733849706726
 30
0.0
 11
452.8090849480258
 21
235.7576939706726
 31
0.0
  0
LINE
  5
BBA
330
1F
100
AcDbEntity
  8
OBRYS
  6
CONTINUOUS
100
AcDbLine
 10
489.3090849480258
 20
197.2576939706726
 30
0.0
 11
489.3090849480258
 21
198.8576969706726
 31
0.0
  0
LINE
  5
BD2
330
1F
100
AcDbEntity
  8
OBRYS
  6
CONTINUOUS
100
AcDbLine
 10
449.1214329480259
 20
224.6953469706726
 30
0.0
 11
449.5493239480258
 21
224.2674549706726
 31
0.0
  0
LINE
  5
BD3
330
1F
100
AcDbEntity
  8
OBRYS
  6
CONTINUOUS
100
AcDbLine
 10
447.6967379480258
 20
224.6953469706726
 30
0.0
 11
447.2688459480258
 21
224.2674549706726
 31
0.0
  0
LINE
  5
BD4
330
1F
100
AcDbEntity
  8
OBRYS
  6
CONTINUOUS
100
AcDbLine
 10
464.0477404518779
 20
220.6714484706891
 30
0.0
 11
477.5704299480258
 21
220.6714479706726
 31
0.0
  0
LINE
  5
BDB
330
1F
100
AcDbEntity
  8
OBRYS
  6
CONTINUOUS
100
AcDbLine
 10
447.9017449480259
 20
226.5297889706726
 30
0.0
 11
448.9164249480258
 21
226.5297889706726
 31
0.0
  0
LINE
  5
BE1
330
1F
100
AcDbEntity
  8
OBRYS
  6
CONTINUOUS
100
AcDbLine
 10
478.8590849480258
 20
152.9597099706726
 30
0.0
 11
478.8590849480258
 21
159.7439899706726
 31
0.0
  0
LINE
  5
BE3
330
1F
100
AcDbEntity
  8
OBRYS
  6
CONTINUOUS
100
AcDbLine
 10
488.8090849480258
 20
235.7576939706726
 30
0.0
 11
488.8090849480258
 21
235.2733889706726
 31
0.0
  0
LINE
  5
BF3
330
1F
100
AcDbEntity
  8
OBRYS
  6
CONTINUOUS
100
AcDbLine
 10
478.8590849480258
 20
221.9713989706726
 30
0.0
 11
478.8590849480258
 21
228.7939899706726
 31
0.0
  0
LINE
  5
BF6
330
1F
100
AcDbEntity
  8
OBRYS
  6
CONTINUOUS
100
AcDbLine
 10
449.1214329480259
 20
226.1200419706726
 30
0.0
 11
449.5493239480258
 21
226.5479329706726
 31
0.0
  0
LINE
  5
BF8
330
1F
100
AcDbEntity
  8
OBRYS
  6
CONTINUOUS
100
AcDbLine
 10
470.8090849480258
 20
149.0326969293378
 30
0.0
 11
470.8090849575386
 21
151.6597592206809
 31
0.0
  0
LINE
  5
BFB
330
1F
100
AcDbEntity
  8
OBRYS
  6
CONTINUOUS
100
AcDbLine
 10
488.8090849480258
 20
146.4419999706726
 30
0.0
 11
488.8090849480258
 21
145.9576939706726
 31
0.0
  0
LINE
  5
C07
330
1F
100
AcDbEntity
  8
OBRYS
  6
CONTINUOUS
100
AcDbLine
 10
464.0477404518779
 20
151.6597594706892
 30
0.0
 11
477.5704299480258
 21
151.6597589706726
 31
0.0
  0
LINE
  5
C0D
330
1F
100
AcDbEntity
  8
OBRYS
  6
CONTINUOUS
100
AcDbLine
 10
447.6967379480258
 20
226.1200419706726
 30
0.0
 11
447.2688459480258
 21
226.5479329706726
 31
0.0
  0
LINE
  5
C17
330
1F
100
AcDbEntity
  8
OBRYS
  6
CONTINUOUS
100
AcDbLine
 10
452.8090849480258
 20
168.3576939706726
 30
0.0
 11
452.8090851999519
 21
161.0439402206643
 31
0.0
  0
LINE
  5
C24
330
1F
100
AcDbEntity
  8
OBRYS
  6
CONTINUOUS
100
AcDbLine
 10
444.7590849480259
 20
228.7939899706726
 30
0.0
 11
444.7590849480259
 21
221.9713989706726
 31
0.0
  0
LINE
  5
C26
330
1F
100
AcDbEntity
  8
OBRYS
  6
CONTINUOUS
100
AcDbLine
 10
444.7590849480259
 20
159.7439899706726
 30
0.0
 11
444.7590849480259
 21
152.9597099706726
 31
0.0
  0
LINE
  5
C4F
330
1F
100
AcDbEntity
  8
OBRYS
  6
CONTINUOUS
100
AcDbLine
 10
470.8090851999519
 20
161.0439402206643
 30
0.0
 11
470.8090849480258
 21
168.3576939706726
 31
0.0
  0
LINE
  5
C58
330
1F
100
AcDbEntity
  8
OBRYS
  6
CONTINUOUS
100
AcDbLine
 10
488.8088661405382
 20
220.6770757595827
 30
0.0
 11
488.8090849480258
 21
213.3576939706726
 31
0.0
  0
LINE
  5
C60
330
1F
100
AcDbEntity
  8
OBRYS
  6
CONTINUOUS
100
AcDbLine
 10
482.7170539480258
 20
190.2212979706726
 30
0.0
 11
484.5454809480258
 21
192.0497249706726
 31
0.0
  0
LINE
  5
C64
330
1F
100
AcDbEntity
  8
OBRYS
  6
CONTINUOUS
100
AcDbLine
 10
482.8090849480258
 20
188.0292669706726
 30
0.0
 11
482.8090849480258
 21
168.3576939706726
 31
0.0
  0
LINE
  5
C67
330
1F
100
AcDbEntity
  8
OBRYS
  6
CONTINUOUS
100
AcDbLine
 10
472.0090849480259
 20
199.6576939706726
 30
0.0
 11
475.4090849480258
 21
199.6576939706726
 31
0.0
  0
LINE
  5
C6D
330
1F
100
AcDbEntity
  8
OBRYS
  6
CONTINUOUS
100
AcDbLine
 10
476.2090849480258
 20
198.8576939706726
 30
0.0
 11
476.2090849480258
 21
197.2576939706726
 31
0.0
  0
LINE
  5
C6E
330
1F
100
AcDbEntity
  8
OBRYS
  6
CONTINUOUS
100
AcDbLine
 10
485.2525879480258
 20
191.3426179706726
 30
0.0
 11
483.4241609480259
 21
189.5141909706726
 31
0.0
  0
LINE
  5
C81
330
1F
100
AcDbEntity
  8
OBRYS
  6
CONTINUOUS
100
AcDbLine
 10
488.8090849480258
 20
230.4340539706726
 30
0.0
 11
488.8090849480258
 21
230.3655369706726
 31
0.0
  0
LINE
  5
C83
330
1F
100
AcDbEntity
  8
OBRYS
  6
CONTINUOUS
100
AcDbLine
 10
480.7590849480259
 20
159.7439899706726
 30
0.0
 11
480.7590849480259
 21
152.9597099706726
 31
0.0
  0
LINE
  5
C8A
330
1F
100
AcDbEntity
  8
OBRYS
  6
CONTINUOUS
100
AcDbLine
 10
480.7590849480259
 20
228.7939899706726
 30
0.0
 11
480.7590849480259
 21
221.9713989706726
 31
0.0
  0
LINE
  5
C8B
330
1F
100
AcDbEntity
  8
OBRYS
  6
CONTINUOUS
100
AcDbLine
 10
489.3090849480258
 20
157.9416689706726
 30
0.0
 11
488.3090849480258
 21
157.9416689706726
 31
0.0
  0
LINE
  5
CA0
330
1F
100
AcDbEntity
  8
OBRYS
  6
CONTINUOUS
100
AcDbLine
 10
446.7170539480258
 20
190.2212979706726
 30
0.0
 11
448.5454809480258
 21
192.0497249706726
 31
0.0
  0
LINE
  5
CB1
330
1F
100
AcDbEntity
  8
OBRYS
  6
CONTINUOUS
100
AcDbLine
 10
449.2525879480258
 20
191.3426179706726
 30
0.0
 11
447.4241609480259
 21
189.5141909706726
 31
0.0
  0
LINE
  5
CBB
330
1F
100
AcDbEntity
  8
OBRYS
  6
CONTINUOUS
100
AcDbLine
 10
477.5148559480259
 20
151.7962589706726
 30
0.0
 11
464.1033139480258
 21
151.7962589706726
 31
0.0
  0
LINE
  5
CC2
330
1F
100
AcDbEntity
  8
OBRYS
  6
CONTINUOUS
100
AcDbLine
 10
445.8102809480259
 20
168.3581729706726
 30
0.0
 11
445.8090849480258
 21
188.0292669706726
 31
0.0
  0
LINE
  5
CCD
330
1F
100
AcDbEntity
  8
OBRYS
  6
CONTINUOUS
100
AcDbLine
 10
462.8037679480258
 20
153.0931499706726
 30
0.0
 11
462.8037679480258
 21
159.6405829706726
 31
0.0
  0
LINE
  5
CCF
330
1F
100
AcDbEntity
  8
OBRYS
  6
CONTINUOUS
100
AcDbLine
 10
497.7090849480258
 20
149.3997239706726
 30
0.0
 11
443.9090849480258
 21
149.3997239706727
 31
0.0
  0
LINE
  5
CDF
330
1F
100
AcDbEntity
  8
OBRYS
  6
CONTINUOUS
100
AcDbLine
 10
497.7090849480258
 20
149.0326939706726
 30
0.0
 11
443.9090849480258
 21
149.0326998880031
 31
0.0
  0
LINE
  5
CE0
330
1F
100
AcDbEntity
  8
OBRYS
  6
CONTINUOUS
100
AcDbLine
 10
495.5590849480258
 20
161.0326939706726
 30
0.0
 11
482.0477404518779
 21
161.043940470656
 31
0.0
  0
LINE
  5
CE7
330
1F
100
AcDbEntity
  8
OBRYS
  6
CONTINUOUS
100
AcDbLine
 10
480.8037679480258
 20
153.0276669706726
 30
0.0
 11
480.8037679480258
 21
159.6877209706726
 31
0.0
  0
LINE
  5
CED
330
1F
100
AcDbEntity
  8
OBRYS
  6
CONTINUOUS
100
AcDbLine
 10
496.8144029480258
 20
159.6877209706726
 30
0.0
 11
496.8144029480258
 21
153.0276669706726
 31
0.0
  0
LINE
  5
CFC
330
1F
100
AcDbEntity
  8
OBRYS
  6
CONTINUOUS
100
AcDbLine
 10
482.0590849480258
 20
160.9423589706726
 30
0.0
 11
495.5591399480258
 21
160.9423589706726
 31
0.0
  0
LINE
  5
D00
102
{ACAD_REACTORS
102
}
330
1F
100
AcDbEntity
  8
OBRYS
  6
CONTINUOUS
100
AcDbLine
 10
497.7090849480258
 20
235.5576939706726
 30
0.0
 11
497.7090849480259
 21
146.1576939706726
 31
0.0
  0
LINE
  5
D08
330
1F
100
AcDbEntity
  8
OBRYS
  6
CONTINUOUS
100
AcDbLine
 10
497.5090849480259
 20
145.9576939706726
 30
0.0
 11
444.1090849480258
 21
145.9576939706726
 31
0.0
  0
LINE
  5
D0B
330
1F
100
AcDbEntity
  8
OBRYS
  6
CONTINUOUS
100
AcDbLine
 10
488.8088661206641
 20
230.0883126813754
 30
0.0
 11
488.8090848954528
 21
232.6826939706726
 31
0.0
  0
LINE
  5
D0E
330
1F
100
AcDbEntity
  8
OBRYS
  6
CONTINUOUS
100
AcDbLine
 10
464.1056599480258
 20
160.9399219706726
 30
0.0
 11
477.5125099480259
 21
160.9399219706726
 31
0.0
  0
LINE
  5
D1C
330
1F
100
AcDbEntity
  8
OBRYS
  6
CONTINUOUS
100
AcDbLine
 10
495.5590849480258
 20
151.7730289706726
 30
0.0
 11
482.0590299480259
 21
151.7730289706726
 31
0.0
  0
LINE
  5
D26
330
1F
100
AcDbEntity
  8
OBRYS
  6
CONTINUOUS
100
AcDbLine
 10
481.8090849480258
 20
168.3576939706726
 30
0.0
 11
481.8090849480258
 21
188.0292669706726
 31
0.0
  0
LINE
  5
D29
330
1F
100
AcDbEntity
  8
OBRYS
  6
CONTINUOUS
100
AcDbLine
 10
485.8090849480258
 20
213.3576939706726
 30
0.0
 11
485.8090849480258
 21
192.6861209706726
 31
0.0
  0
LINE
  5
D2A
330
1F
100
AcDbEntity
  8
OBRYS
  6
CONTINUOUS
100
AcDbLine
 10
497.7090849480258
 20
232.6826939706726
 30
0.0
 11
443.9090849480258
 21
232.6826939706726
 31
0.0
  0
LINE
  5
D2B
330
1F
100
AcDbEntity
  8
OBRYS
  6
CONTINUOUS
100
AcDbLine
 10
449.8090849480258
 20
213.3576939706726
 30
0.0
 11
449.8090849480258
 21
192.6861209706726
 31
0.0
  0
LINE
  5
D35
330
1F
100
AcDbEntity
  8
OBRYS
  6
CONTINUOUS
100
AcDbLine
 10
478.8144029480258
 20
159.6405829706726
 30
0.0
 11
478.8144029480258
 21
153.0931499706726
 31
0.0
  0
LINE
  5
D3F
330
1F
100
AcDbEntity
  8
OBRYS
  6
CONTINUOUS
100
AcDbLine
 10
471.2090849480258
 20
197.2576939706726
 30
0.0
 11
471.2090849480258
 21
198.8576969706726
 31
0.0
  0
LINE
  5
D42
330
1F
100
AcDbEntity
  8
OBRYS
  6
CONTINUOUS
100
AcDbLine
 10
475.4090879480258
 20
196.4576939706726
 30
0.0
 11
472.0090849480259
 21
196.4576939706726
 31
0.0
  0
LINE
  5
D43
330
1F
100
AcDbEntity
  8
OBRYS
  6
CONTINUOUS
100
AcDbLine
 10
446.8090849480258
 20
188.0292669706726
 30
0.0
 11
446.8090849480258
 21
168.3576939706726
 31
0.0
  0
LINE
  5
D46
330
1F
100
AcDbEntity
  8
OBRYS
  6
CONTINUOUS
100
AcDbLine
 10
448.8090849480258
 20
192.6861209706726
 30
0.0
 11
448.8102809480259
 21
213.3572159706726
 31
0.0
  0
LINE
  5
D48
330
1F
100
AcDbEntity
  8
OBRYS
  6
CONTINUOUS
100
AcDbLine
 10
496.8590849480258
 20
152.9710049706726
 30
0.0
 11
496.8590849480258
 21
159.7326939706726
 31
0.0
  0
LINE
  5
D49
330
1F
100
AcDbEntity
  8
OBRYS
  6
CONTINUOUS
100
AcDbLine
 10
452.8090849575383
 20
220.6714482206809
 30
0.0
 11
452.8090849480258
 21
213.3576939706726
 31
0.0
  0
LINE
  5
D4F
330
1F
100
AcDbEntity
  8
OBRYS
  6
CONTINUOUS
100
AcDbLine
 10
497.7090849480258
 20
235.2733839706726
 30
0.0
 11
443.9090849480258
 21
235.2733839706726
 31
0.0
  0
LINE
  5
D51
330
1F
100
AcDbEntity
  8
OBRYS
  6
CONTINUOUS
100
AcDbLine
 10
458.3311789480259
 20
225.9150339706726
 30
0.0
 11
458.3311789480259
 21
224.9003539706726
 31
0.0
  0
LINE
  5
D52
330
1F
100
AcDbEntity
  8
OBRYS
  6
CONTINUOUS
100
AcDbLine
 10
456.4967379480258
 20
224.6953469706726
 30
0.0
 11
456.0688459480259
 21
224.2674549706726
 31
0.0
  0
LINE
  5
D53
330
1F
100
AcDbEntity
  8
OBRYS
  6
CONTINUOUS
100
AcDbLine
 10
456.7017449480258
 20
226.5297889706726
 30
0.0
 11
457.7164249480258
 21
226.5297889706726
 31
0.0
  0
LINE
  5
D54
330
1F
100
AcDbEntity
  8
OBRYS
  6
CONTINUOUS
100
AcDbLine
 10
457.9214329480258
 20
224.6953469706726
 30
0.0
 11
458.3493239480259
 21
224.2674549706726
 31
0.0
  0
LINE
  5
D57
330
1F
100
AcDbEntity
  8
OBRYS
  6
CONTINUOUS
100
AcDbLine
 10
456.0869909480259
 20
224.9003539706726
 30
0.0
 11
456.0869909480259
 21
225.9150339706726
 31
0.0
  0
LINE
  5
D58
330
1F
100
AcDbEntity
  8
OBRYS
  6
CONTINUOUS
100
AcDbLine
 10
448.9164249480258
 20
224.2855999706726
 30
0.0
 11
447.9017449480259
 21
224.2855999706726
 31
0.0
  0
LINE
  5
D59
330
1F
100
AcDbEntity
  8
OBRYS
  6
CONTINUOUS
100
AcDbLine
 10
475.9214329480258
 20
226.1200419706726
 30
0.0
 11
476.3493239480259
 21
226.5479329706726
 31
0.0
  0
LINE
  5
D5A
330
1F
100
AcDbEntity
  8
OBRYS
  6
CONTINUOUS
100
AcDbLine
 10
475.7164249480258
 20
224.2855999706726
 30
0.0
 11
474.7017449480258
 21
224.2855999706726
 31
0.0
  0
LINE
  5
D5B
330
1F
100
AcDbEntity
  8
OBRYS
  6
CONTINUOUS
100
AcDbLine
 10
474.4967379480258
 20
224.6953469706726
 30
0.0
 11
474.0688459480259
 21
224.2674549706726
 31
0.0
  0
LINE
  5
D5E
330
1F
100
AcDbEntity
  8
OBRYS
  6
CONTINUOUS
100
AcDbLine
 10
466.9090849480258
 20
226.9916689706726
 30
0.0
 11
465.9090849480258
 21
226.9916689706726
 31
0.0
  0
LINE
  5
D5F
330
1F
100
AcDbEntity
  8
OBRYS
  6
CONTINUOUS
100
AcDbLine
 10
475.9214329480258
 20
224.6953469706726
 30
0.0
 11
476.3493239480259
 21
224.2674549706726
 31
0.0
  0
LINE
  5
D60
330
1F
100
AcDbEntity
  8
OBRYS
  6
CONTINUOUS
100
AcDbLine
 10
457.9214329480258
 20
226.1200419706726
 30
0.0
 11
458.3493239480259
 21
226.5479329706726
 31
0.0
  0
LINE
  5
D62
330
1F
100
AcDbEntity
  8
OBRYS
  6
CONTINUOUS
100
AcDbLine
 10
453.3164249480258
 20
155.2355999706726
 30
0.0
 11
452.3017449480258
 21
155.2355999706726
 31
0.0
  0
LINE
  5
D65
330
1F
100
AcDbEntity
  8
OBRYS
  6
CONTINUOUS
100
AcDbLine
 10
444.8037679480258
 20
222.0276939706726
 30
0.0
 11
444.8037679480258
 21
228.6876939706726
 31
0.0
  0
LINE
  5
D66
330
1F
100
AcDbEntity
  8
OBRYS
  6
CONTINUOUS
100
AcDbLine
 10
476.3311789480259
 20
225.9150339706726
 30
0.0
 11
476.3311789480259
 21
224.9003539706726
 31
0.0
  0
LINE
  5
D68
330
1F
100
AcDbEntity
  8
OBRYS
  6
CONTINUOUS
100
AcDbLine
 10
453.5214329480258
 20
155.6453469706726
 30
0.0
 11
453.9493239480258
 21
155.2174549706726
 31
0.0
  0
LINE
  5
D6D
330
1F
100
AcDbEntity
  8
OBRYS
  6
CONTINUOUS
100
AcDbLine
 10
474.4967379480258
 20
226.1200419706726
 30
0.0
 11
474.0688459480259
 21
226.5479329706726
 31
0.0
  0
LINE
  5
D6E
330
1F
100
AcDbEntity
  8
OBRYS
  6
CONTINUOUS
100
AcDbLine
 10
453.5214329480258
 20
157.0700419706726
 30
0.0
 11
453.9493239480258
 21
157.4979329706726
 31
0.0
  0
LINE
  5
D6F
330
1F
100
AcDbEntity
  8
OBRYS
  6
CONTINUOUS
100
AcDbLine
 10
452.3017449480258
 20
157.4797889706726
 30
0.0
 11
453.3164249480258
 21
157.4797889706726
 31
0.0
  0
LINE
  5
D75
330
1F
100
AcDbEntity
  8
OBRYS
  6
CONTINUOUS
100
AcDbLine
 10
474.0869909480259
 20
224.9003539706726
 30
0.0
 11
474.0869909480259
 21
225.9150339706726
 31
0.0
  0
LINE
  5
D76
330
1F
100
AcDbEntity
  8
OBRYS
  6
CONTINUOUS
100
AcDbLine
 10
446.0590849480258
 20
160.9423589706726
 30
0.0
 11
459.5591399480258
 21
160.9423589706726
 31
0.0
  0
LINE
  5
D77
330
1F
100
AcDbEntity
  8
OBRYS
  6
CONTINUOUS
100
AcDbLine
 10
452.0967379480258
 20
155.6453469706726
 30
0.0
 11
451.6688459480259
 21
155.2174549706726
 31
0.0
  0
LINE
  5
D79
330
1F
100
AcDbEntity
  8
OBRYS
  6
CONTINUOUS
100
AcDbLine
 10
447.2869909480258
 20
224.9003539706726
 30
0.0
 11
447.2869909480258
 21
225.9150339706726
 31
0.0
  0
LINE
  5
D7B
330
1F
100
AcDbEntity
  8
OBRYS
  6
CONTINUOUS
100
AcDbLine
 10
474.7017449480258
 20
226.5297889706726
 30
0.0
 11
475.7164249480258
 21
226.5297889706726
 31
0.0
  0
LINE
  5
D7D
330
1F
100
AcDbEntity
  8
OBRYS
  6
CONTINUOUS
100
AcDbLine
 10
474.7090849480258
 20
223.8237199706726
 30
0.0
 11
475.7090849480258
 21
223.8237199706726
 31
0.0
  0
LINE
  5
D7E
330
1F
100
AcDbEntity
  8
OBRYS
  6
CONTINUOUS
100
AcDbLine
 10
473.0915069480258
 20
143.9576959706726
 30
0.0
 11
473.0847189480258
 21
145.9577399706726
 31
0.0
  0
LINE
  5
D7F
330
1F
100
AcDbEntity
  8
OBRYS
  6
CONTINUOUS
100
AcDbLine
 10
459.5590849480258
 20
220.7730009706726
 30
0.0
 11
446.0590849480258
 21
220.7730009706726
 31
0.0
  0
LINE
  5
D80
330
1F
100
AcDbEntity
  8
OBRYS
  6
CONTINUOUS
100
AcDbLine
 10
447.9090849480258
 20
223.8237199706726
 30
0.0
 11
448.9090849480258
 21
223.8237199706726
 31
0.0
  0
LINE
  5
D82
330
1F
100
AcDbEntity
  8
OBRYS
  6
CONTINUOUS
100
AcDbLine
 10
452.0967379480258
 20
157.0700419706726
 30
0.0
 11
451.6688459480259
 21
157.4979329706726
 31
0.0
  0
LINE
  5
D83
330
1F
100
AcDbEntity
  8
OBRYS
  6
CONTINUOUS
100
AcDbLine
 10
456.4967379480258
 20
226.1200419706726
 30
0.0
 11
456.0688459480259
 21
226.5479329706726
 31
0.0
  0
LINE
  5
D85
330
1F
100
AcDbEntity
  8
OBRYS
  6
CONTINUOUS
100
AcDbLine
 10
460.8144029480258
 20
228.6876939706726
 30
0.0
 11
460.8144029480258
 21
222.0276939706726
 31
0.0
  0
LINE
  5
D87
330
1F
100
AcDbEntity
  8
OBRYS
  6
CONTINUOUS
100
AcDbLine
 10
449.5311789480258
 20
225.9150339706726
 30
0.0
 11
449.5311789480258
 21
224.9003539706726
 31
0.0
  0
LINE
  5
D88
330
1F
100
AcDbEntity
  8
OBRYS
  6
CONTINUOUS
100
AcDbLine
 10
457.7164249480258
 20
224.2855999706726
 30
0.0
 11
456.7017449480258
 21
224.2855999706726
 31
0.0
  0
LINE
  5
D8B
330
1F
100
AcDbEntity
  8
OBRYS
  6
CONTINUOUS
100
AcDbLine
 10
456.7090849480258
 20
223.8237199706726
 30
0.0
 11
457.7090849480258
 21
223.8237199706726
 31
0.0
  0
LINE
  5
D8E
330
1F
100
AcDbEntity
  8
OBRYS
  6
CONTINUOUS
100
AcDbLine
 10
478.0090849480259
 20
145.9577739706726
 30
0.0
 11
478.0090849480259
 21
143.8614299706726
 31
0.0
  0
LINE
  5
D92
330
1F
100
AcDbEntity
  8
OBRYS
  6
CONTINUOUS
100
AcDbLine
 10
482.0477404518779
 20
220.6714484706891
 30
0.0
 11
495.5590849480258
 21
220.6826939706726
 31
0.0
  0
LINE
  5
D93
330
1F
100
AcDbEntity
  8
OBRYS
  6
CONTINUOUS
100
AcDbLine
 10
476.5090849480259
 20
142.3614299706726
 30
0.0
 11
465.1090849480258
 21
142.3614299706726
 31
0.0
  0
LINE
  5
D94
330
1F
100
AcDbEntity
  8
OBRYS
  6
CONTINUOUS
100
AcDbLine
 10
495.5590849480258
 20
230.0826939706726
 30
0.0
 11
482.0477404518779
 21
230.093940470656
 31
0.0
  0
LINE
  5
D99
330
1F
100
AcDbEntity
  8
OBRYS
  6
CONTINUOUS
100
AcDbLine
 10
494.9505059480259
 20
192.6861209706726
 30
0.0
 11
494.9505059480259
 21
213.3576939706726
 31
0.0
  0
LINE
  5
D9A
330
1F
100
AcDbEntity
  8
OBRYS
  6
CONTINUOUS
100
AcDbLine
 10
470.8090849480258
 20
235.7576939706726
 30
0.0
 11
470.8090849480258
 21
235.2733889706726
 31
0.0
  0
LINE
  5
D9D
330
1F
100
AcDbEntity
  8
OBRYS
  6
CONTINUOUS
100
AcDbLine
 10
467.0090849480259
 20
142.3614289706726
 30
0.0
 11
474.6090849480258
 21
142.3614289706726
 31
0.0
  0
LINE
  5
D9E
330
1F
100
AcDbEntity
  8
OBRYS
  6
CONTINUOUS
100
AcDbLine
 10
494.3090849480258
 20
198.8576939706726
 30
0.0
 11
494.3090849480258
 21
197.2576939706726
 31
0.0
  0
LINE
  5
DA1
330
1F
100
AcDbEntity
  8
OBRYS
  6
CONTINUOUS
100
AcDbLine
 10
494.7676639480258
 20
213.3576939706726
 30
0.0
 11
494.7676639480258
 21
192.6861209706726
 31
0.0
  0
LINE
  5
DA8
330
1F
100
AcDbEntity
  8
OBRYS
  6
CONTINUOUS
100
AcDbLine
 10
464.9090849480258
 20
143.7576959706726
 30
0.0
 11
464.9090849480258
 21
145.9577569706726
 31
0.0
  0
LINE
  5
DAB
330
1F
100
AcDbEntity
  8
OBRYS
  6
CONTINUOUS
100
AcDbLine
 10
494.1647199480258
 20
191.2304859706726
 30
0.0
 11
492.3362929480258
 21
189.4020589706726
 31
0.0
  0
LINE
  5
DAC
330
1F
100
AcDbEntity
  8
OBRYS
  6
CONTINUOUS
100
AcDbLine
 10
490.1090819480258
 20
199.6576939706726
 30
0.0
 11
493.5090849480259
 21
199.6576939706726
 31
0.0
  0
LINE
  5
DB0
330
1F
100
AcDbEntity
  8
OBRYS
  6
CONTINUOUS
100
AcDbLine
 10
443.9090849480258
 20
232.3156639706726
 30
0.0
 11
497.7090849480258
 21
232.3156639706726
 31
0.0
  0
LINE
  5
DB2
330
1F
100
AcDbEntity
  8
OBRYS
  6
CONTINUOUS
100
AcDbLine
 10
476.7090849480258
 20
145.9577569706726
 30
0.0
 11
476.7090849480258
 21
143.7576959706726
 31
0.0
  0
LINE
  5
DB3
330
1F
100
AcDbEntity
  8
OBRYS
  6
CONTINUOUS
100
AcDbLine
 10
488.8088661206643
 20
161.0383126813754
 30
0.0
 11
488.8090849480258
 21
168.3576939706726
 31
0.0
  0
LINE
  5
DB8
330
1F
100
AcDbEntity
  8
OBRYS
  6
CONTINUOUS
100
AcDbLine
 10
493.5090849480259
 20
196.4576939706726
 30
0.0
 11
490.1090849480258
 21
196.4576939706726
 31
0.0
  0
LINE
  5
DBD
330
1F
100
AcDbEntity
  8
OBRYS
  6
CONTINUOUS
100
AcDbLine
 10
491.9505059480259
 20
168.3576939706726
 30
0.0
 11
491.9505059480259
 21
188.0292669706726
 31
0.0
  0
LINE
  5
DBE
330
1F
100
AcDbEntity
  8
OBRYS
  6
CONTINUOUS
100
AcDbLine
 10
463.6090849480258
 20
143.8614299706726
 30
0.0
 11
463.6090849480258
 21
145.9577739706726
 31
0.0
  0
LINE
  5
DC2
330
1F
100
AcDbEntity
  8
OBRYS
  6
CONTINUOUS
100
AcDbLine
 10
491.7676639480258
 20
188.0292669706726
 30
0.0
 11
491.7676639480258
 21
168.3576939706726
 31
0.0
  0
LINE
  5
DC5
330
1F
100
AcDbEntity
  8
OBRYS
  6
CONTINUOUS
100
AcDbLine
 10
476.7090849480258
 20
143.7576959706726
 30
0.0
 11
464.9090849480258
 21
143.7576959706726
 31
0.0
  0
LINE
  5
DC8
330
1F
100
AcDbEntity
  8
OBRYS
  6
CONTINUOUS
100
AcDbLine
 10
482.0477404518779
 20
151.6597594706892
 30
0.0
 11
495.5590849480258
 21
151.6710049706726
 31
0.0
  0
LINE
  5
DCA
330
1F
100
AcDbEntity
  8
OBRYS
  6
CONTINUOUS
100
AcDbLine
 10
496.8590849480258
 20
221.9826939706726
 30
0.0
 11
496.8590849480258
 21
228.7826939706726
 31
0.0
  0
LINE
  5
DD1
330
1F
100
AcDbEntity
  8
OBRYS
  6
CONTINUOUS
100
AcDbLine
 10
457.4090879480258
 20
196.4576939706726
 30
0.0
 11
454.0090849480259
 21
196.4576939706726
 31
0.0
  0
LINE
  5
DDD
330
1F
100
AcDbEntity
  8
OBRYS
  6
CONTINUOUS
100
AcDbLine
 10
459.5704299480258
 20
161.0439399706726
 30
0.0
 11
446.0477404518779
 21
161.043940470656
 31
0.0
  0
LINE
  5
DDE
330
1F
100
AcDbEntity
  8
OBRYS
  6
CONTINUOUS
100
AcDbLine
 10
453.3090849480258
 20
157.9416689706726
 30
0.0
 11
452.3090849480258
 21
157.9416689706726
 31
0.0
  0
LINE
  5
DE0
330
1F
100
AcDbEntity
  8
OBRYS
  6
CONTINUOUS
100
AcDbLine
 10
462.7590849480259
 20
228.7939899706726
 30
0.0
 11
462.7590849480259
 21
221.9713989706726
 31
0.0
  0
LINE
  5
DE4
330
1F
100
AcDbEntity
  8
OBRYS
  6
CONTINUOUS
100
AcDbLine
 10
454.0090849480259
 20
199.6576939706726
 30
0.0
 11
457.4090849480258
 21
199.6576939706726
 31
0.0
  0
LINE
  5
DE6
330
1F
100
AcDbEntity
  8
OBRYS
  6
CONTINUOUS
100
AcDbLine
 10
497.7090849480259
 20
168.3576939706726
 30
0.0
 11
443.9090849480258
 21
168.3576939706726
 31
0.0
  0
LINE
  5
DED
330
1F
100
AcDbEntity
  8
OBRYS
  6
CONTINUOUS
100
AcDbLine
 10
446.0477404518779
 20
220.6714484706891
 30
0.0
 11
459.5704299480258
 21
220.6714479706726
 31
0.0
  0
LINE
  5
DEE
330
1F
100
AcDbEntity
  8
OBRYS
  6
CONTINUOUS
100
AcDbLine
 10
452.3090849480258
 20
154.7737199706726
 30
0.0
 11
453.3090849480258
 21
154.7737199706726
 31
0.0
  0
LINE
  5
DF7
330
1F
100
AcDbEntity
  8
OBRYS
  6
CONTINUOUS
100
AcDbLine
 10
463.8090849480258
 20
168.3576939706726
 30
0.0
 11
463.8090849480258
 21
188.0292669706726
 31
0.0
  0
LINE
  5
DF9
330
1F
100
AcDbEntity
  8
OBRYS
  6
CONTINUOUS
100
AcDbLine
 10
452.8090851999519
 20
230.0939402206643
 30
0.0
 11
452.8090848954528
 21
232.6826939706726
 31
0.0
  0
LINE
  5
E01
330
1F
100
AcDbEntity
  8
OBRYS
  6
CONTINUOUS
100
AcDbLine
 10
443.9090849480258
 20
213.3576939706726
 30
0.0
 11
497.7090849480258
 21
213.3576939706726
 31
0.0
  0
LINE
  5
E08
330
1F
100
AcDbEntity
  8
OBRYS
  6
CONTINUOUS
100
AcDbLine
 10
452.8090849697728
 20
149.0326989091138
 30
0.0
 11
452.8090851999519
 21
151.6597592206809
 31
0.0
  0
LINE
  5
E0A
330
1F
100
AcDbEntity
  8
OBRYS
  6
CONTINUOUS
100
AcDbLine
 10
446.0477404518779
 20
151.6597594706892
 30
0.0
 11
459.5704299480258
 21
151.6597589706726
 31
0.0
  0
LINE
  5
E3F
330
1F
100
AcDbEntity
  8
OBRYS
  6
CONTINUOUS
100
AcDbLine
 10
453.3090849480258
 20
159.2161739706726
 30
0.0
 11
453.3090849480258
 21
157.5826939706726
 31
0.0
  0
LINE
  5
E41
330
1F
100
AcDbEntity
  8
OBRYS
  6
CONTINUOUS
100
AcDbLine
 10
451.5840849480258
 20
155.8576939706726
 30
0.0
 11
450.7069819480258
 21
155.8576939706726
 31
0.0
  0
LINE
  5
E42
330
1F
100
AcDbEntity
  8
OBRYS
  6
CONTINUOUS
100
AcDbLine
 10
452.3090849480258
 20
157.5826939706726
 30
0.0
 11
452.3090849480258
 21
159.2142479706726
 31
0.0
  0
LINE
  5
E44
330
1F
100
AcDbEntity
  8
OBRYS
  6
CONTINUOUS
100
AcDbLine
 10
453.3090849480258
 20
155.1326939706726
 30
0.0
 11
453.3090849480258
 21
153.4992139706726
 31
0.0
  0
LINE
  5
E45
330
1F
100
AcDbEntity
  8
OBRYS
  6
CONTINUOUS
100
AcDbLine
 10
454.0340849480258
 20
156.8576939706726
 30
0.0
 11
454.9111879480259
 21
156.8576939706726
 31
0.0
  0
LINE
  5
E47
330
1F
100
AcDbEntity
  8
OBRYS
  6
CONTINUOUS
100
AcDbLine
 10
452.3090849480258
 20
153.5011399706726
 30
0.0
 11
452.3090849480258
 21
155.1326939706726
 31
0.0
  0
LINE
  5
E4C
330
1F
100
AcDbEntity
  8
OBRYS
  6
CONTINUOUS
100
AcDbLine
 10
454.9111879480259
 20
155.8576939706726
 30
0.0
 11
454.0340849480258
 21
155.8576939706726
 31
0.0
  0
LINE
  5
E50
330
1F
100
AcDbEntity
  8
OBRYS
  6
CONTINUOUS
100
AcDbLine
 10
450.7069819480258
 20
156.8576939706726
 30
0.0
 11
451.5840849480258
 21
156.8576939706726
 31
0.0
  0
LINE
  5
E67
330
1F
100
AcDbEntity
  8
OBRYS
  6
CONTINUOUS
100
AcDbLine
 10
450.5111879480258
 20
224.9076939706726
 30
0.0
 11
449.6340849480259
 21
224.9076939706726
 31
0.0
  0
LINE
  5
E68
330
1F
100
AcDbEntity
  8
OBRYS
  6
CONTINUOUS
100
AcDbLine
 10
448.9090849480258
 20
224.1826939706726
 30
0.0
 11
448.9090849480258
 21
222.5011429706726
 31
0.0
  0
LINE
  5
E69
330
1F
100
AcDbEntity
  8
OBRYS
  6
CONTINUOUS
100
AcDbLine
 10
449.6340849480259
 20
225.9076939706726
 30
0.0
 11
450.5111879480258
 21
225.9076939706726
 31
0.0
  0
LINE
  5
E6A
330
1F
100
AcDbEntity
  8
OBRYS
  6
CONTINUOUS
100
AcDbLine
 10
473.9840849480258
 20
224.9076939706726
 30
0.0
 11
473.1069819480259
 21
224.9076939706726
 31
0.0
  0
LINE
  5
E6B
330
1F
100
AcDbEntity
  8
OBRYS
  6
CONTINUOUS
100
AcDbLine
 10
456.7090849480258
 20
226.6326939706726
 30
0.0
 11
456.7090849480258
 21
228.2142499706726
 31
0.0
  0
LINE
  5
E6C
330
1F
100
AcDbEntity
  8
OBRYS
  6
CONTINUOUS
100
AcDbLine
 10
473.1069819480259
 20
225.9076939706726
 30
0.0
 11
473.9840849480258
 21
225.9076939706726
 31
0.0
  0
LINE
  5
E6D
330
1F
100
AcDbEntity
  8
OBRYS
  6
CONTINUOUS
100
AcDbLine
 10
457.7090849480258
 20
228.2161849706726
 30
0.0
 11
457.7090849480258
 21
226.6326939706726
 31
0.0
  0
LINE
  5
E6F
330
1F
100
AcDbEntity
  8
OBRYS
  6
CONTINUOUS
100
AcDbLine
 10
474.7090849480258
 20
222.5011429706726
 30
0.0
 11
474.7090849480258
 21
224.1826939706726
 31
0.0
  0
LINE
  5
E70
330
1F
100
AcDbEntity
  8
OBRYS
  6
CONTINUOUS
100
AcDbLine
 10
455.1069819480259
 20
225.9076939706726
 30
0.0
 11
455.9840849480258
 21
225.9076939706726
 31
0.0
  0
LINE
  5
E71
330
1F
100
AcDbEntity
  8
OBRYS
  6
CONTINUOUS
100
AcDbLine
 10
446.3069819480258
 20
225.9076939706726
 30
0.0
 11
447.1840849480258
 21
225.9076939706726
 31
0.0
  0
LINE
  5
E72
330
1F
100
AcDbEntity
  8
OBRYS
  6
CONTINUOUS
100
AcDbLine
 10
475.7090849480258
 20
228.2161849706726
 30
0.0
 11
475.7090849480258
 21
226.6326939706726
 31
0.0
  0
LINE
  5
E73
330
1F
100
AcDbEntity
  8
OBRYS
  6
CONTINUOUS
100
AcDbLine
 10
447.1840849480258
 20
224.9076939706726
 30
0.0
 11
446.3069819480258
 21
224.9076939706726
 31
0.0
  0
LINE
  5
E74
330
1F
100
AcDbEntity
  8
OBRYS
  6
CONTINUOUS
100
AcDbLine
 10
476.4340849480258
 20
225.9076939706726
 30
0.0
 11
477.3111879480259
 21
225.9076939706726
 31
0.0
  0
LINE
  5
E75
330
1F
100
AcDbEntity
  8
OBRYS
  6
CONTINUOUS
100
AcDbLine
 10
459.3111879480259
 20
224.9076939706726
 30
0.0
 11
458.4340849480258
 21
224.9076939706726
 31
0.0
  0
LINE
  5
E76
330
1F
100
AcDbEntity
  8
OBRYS
  6
CONTINUOUS
100
AcDbLine
 10
455.9840849480258
 20
224.9076939706726
 30
0.0
 11
455.1069819480259
 21
224.9076939706726
 31
0.0
  0
LINE
  5
E77
330
1F
100
AcDbEntity
  8
OBRYS
  6
CONTINUOUS
100
AcDbLine
 10
475.7090849480258
 20
224.1826939706726
 30
0.0
 11
475.7090849480258
 21
222.4992279706726
 31
0.0
  0
LINE
  5
E78
330
1F
100
AcDbEntity
  8
OBRYS
  6
CONTINUOUS
100
AcDbLine
 10
448.9090849480258
 20
228.2142499706726
 30
0.0
 11
448.9090849480258
 21
226.6326939706726
 31
0.0
  0
LINE
  5
E79
330
1F
100
AcDbEntity
  8
OBRYS
  6
CONTINUOUS
100
AcDbLine
 10
474.7090849480258
 20
226.6326939706726
 30
0.0
 11
474.7090849480258
 21
228.2142499706726
 31
0.0
  0
LINE
  5
E7A
330
1F
100
AcDbEntity
  8
OBRYS
  6
CONTINUOUS
100
AcDbLine
 10
447.9090849480258
 20
226.6326939706726
 30
0.0
 11
447.9090849480258
 21
228.2161849706726
 31
0.0
  0
LINE
  5
E7B
330
1F
100
AcDbEntity
  8
OBRYS
  6
CONTINUOUS
100
AcDbLine
 10
458.4340849480258
 20
225.9076939706726
 30
0.0
 11
459.3111879480259
 21
225.9076939706726
 31
0.0
  0
LINE
  5
E7C
330
1F
100
AcDbEntity
  8
OBRYS
  6
CONTINUOUS
100
AcDbLine
 10
457.7090849480258
 20
224.1826939706726
 30
0.0
 11
457.7090849480258
 21
222.4992279706726
 31
0.0
  0
LINE
  5
E7D
330
1F
100
AcDbEntity
  8
OBRYS
  6
CONTINUOUS
100
AcDbLine
 10
477.3111879480259
 20
224.9076939706726
 30
0.0
 11
476.4340849480258
 21
224.9076939706726
 31
0.0
  0
LINE
  5
E7E
330
1F
100
AcDbEntity
  8
OBRYS
  6
CONTINUOUS
100
AcDbLine
 10
477.5704299480258
 20
230.0939399706726
 30
0.0
 11
464.0477404518779
 21
230.093940470656
 31
0.0
  0
LINE
  5
E7F
330
1F
100
AcDbEntity
  8
OBRYS
  6
CONTINUOUS
100
AcDbLine
 10
477.5704299480258
 20
161.0439399706726
 30
0.0
 11
464.0477404518779
 21
161.043940470656
 31
0.0
  0
LINE
  5
E87
330
1F
100
AcDbEntity
  8
OBRYS
  6
CONTINUOUS
100
AcDbLine
 10
470.8090849385139
 20
230.0939402206643
 30
0.0
 11
470.8090850005991
 21
232.6826939706726
 31
0.0
  0
LINE
  5
E88
330
1F
100
AcDbEntity
  8
OBRYS
  6
CONTINUOUS
100
AcDbLine
 10
470.8090849480258
 20
213.3576939706726
 30
0.0
 11
470.8090849575386
 21
220.6714482206809
 31
0.0
  0
LINE
  5
E8F
330
1F
100
AcDbEntity
  8
OBRYS
  6
CONTINUOUS
100
AcDbLine
 10
488.8088661405382
 20
151.6653867595827
 30
0.0
 11
488.8090849697965
 21
149.0326949495618
 31
0.0
  0
LINE
  5
EA2
330
1F
100
AcDbEntity
  8
OBRYS
  6
CONTINUOUS
100
AcDbLine
 10
484.8090849480258
 20
192.6861209706726
 30
0.0
 11
484.8090849480258
 21
213.3576939706726
 31
0.0
  0
LINE
  5
EA9
330
1F
100
AcDbEntity
  8
OBRYS
  6
CONTINUOUS
100
AcDbLine
 10
489.9311789480258
 20
156.8650339706726
 30
0.0
 11
489.9311789480258
 21
155.8503539706726
 31
0.0
  0
LINE
  5
EAF
330
1F
100
AcDbEntity
  8
OBRYS
  6
CONTINUOUS
100
AcDbLine
 10
467.1214329480259
 20
224.6953469706726
 30
0.0
 11
467.5493239480258
 21
224.2674549706726
 31
0.0
  0
LINE
  5
EB0
330
1F
100
AcDbEntity
  8
OBRYS
  6
CONTINUOUS
100
AcDbLine
 10
464.8090849480258
 20
188.0292669706726
 30
0.0
 11
464.8090849480258
 21
168.3576939706726
 31
0.0
  0
LINE
  5
EB4
330
1F
100
AcDbEntity
  8
OBRYS
  6
CONTINUOUS
100
AcDbLine
 10
443.9090849480258
 20
146.4420039706726
 30
0.0
 11
497.7090849480258
 21
146.4420039706726
 31
0.0
  0
LINE
  5
EB5
330
1F
100
AcDbEntity
  8
OBRYS
  6
CONTINUOUS
100
AcDbLine
 10
458.2090849480258
 20
198.8576939706726
 30
0.0
 11
458.2090849480258
 21
197.2576939706726
 31
0.0
  0
LINE
  5
EB6
330
1F
100
AcDbEntity
  8
OBRYS
  6
CONTINUOUS
100
AcDbLine
 10
466.9164249480258
 20
224.2855999706726
 30
0.0
 11
465.9017449480259
 21
224.2855999706726
 31
0.0
  0
LINE
  5
EB8
330
1F
100
AcDbEntity
  8
OBRYS
  6
CONTINUOUS
100
AcDbLine
 10
453.2090849480258
 20
197.2576939706726
 30
0.0
 11
453.2090849480258
 21
198.8576969706726
 31
0.0
  0
LINE
  5
EC0
330
1F
100
AcDbEntity
  8
OBRYS
  6
CONTINUOUS
100
AcDbLine
 10
465.6967379480258
 20
224.6953469706726
 30
0.0
 11
465.2688459480258
 21
224.2674549706726
 31
0.0
  0
LINE
  5
EC8
330
1F
100
AcDbEntity
  8
OBRYS
  6
CONTINUOUS
100
AcDbLine
 10
467.1214329480259
 20
226.1200419706726
 30
0.0
 11
467.5493239480258
 21
226.5479329706726
 31
0.0
  0
LINE
  5
ECA
330
1F
100
AcDbEntity
  8
OBRYS
  6
CONTINUOUS
100
AcDbLine
 10
467.8090849480258
 20
213.3576939706726
 30
0.0
 11
467.8090849480258
 21
192.6861209706726
 31
0.0
  0
LINE
  5
ECD
330
1F
100
AcDbEntity
  8
OBRYS
  6
CONTINUOUS
100
AcDbLine
 10
466.8090849480258
 20
192.6861209706726
 30
0.0
 11
466.8090849480258
 21
213.3576939706726
 31
0.0
  0
LINE
  5
ED0
330
1F
100
AcDbEntity
  8
OBRYS
  6
CONTINUOUS
100
AcDbLine
 10
488.3090849480258
 20
154.7737199706726
 30
0.0
 11
489.3090849480258
 21
154.7737199706726
 31
0.0
  0
LINE
  5
ED1
330
1F
100
AcDbEntity
  8
OBRYS
  6
CONTINUOUS
100
AcDbLine
 10
465.6967379480258
 20
226.1200419706726
 30
0.0
 11
465.2688459480258
 21
226.5479329706726
 31
0.0
  0
LINE
  5
ED6
330
1F
100
AcDbEntity
  8
OBRYS
  6
CONTINUOUS
100
AcDbLine
 10
487.6869909480259
 20
155.8503539706726
 30
0.0
 11
487.6869909480259
 21
156.8650339706726
 31
0.0
  0
LINE
  5
ED7
330
1F
100
AcDbEntity
  8
OBRYS
  6
CONTINUOUS
100
AcDbLine
 10
468.5266639480258
 20
143.9576959706726
 30
0.0
 11
468.5334509480259
 21
145.9577399706726
 31
0.0
  0
LINE
  5
ED8
330
1F
100
AcDbEntity
  8
OBRYS
  6
CONTINUOUS
100
AcDbLine
 10
467.2525879480258
 20
191.3426179706726
 30
0.0
 11
465.4241609480259
 21
189.5141909706726
 31
0.0
  0
LINE
  5
ED9
330
1F
100
AcDbEntity
  8
OBRYS
  6
CONTINUOUS
100
AcDbLine
 10
467.5311789480258
 20
225.9150339706726
 30
0.0
 11
467.5311789480258
 21
224.9003539706726
 31
0.0
  0
LINE
  5
EDB
330
1F
100
AcDbEntity
  8
OBRYS
  6
CONTINUOUS
100
AcDbLine
 10
465.9017449480259
 20
226.5297889706726
 30
0.0
 11
466.9164249480258
 21
226.5297889706726
 31
0.0
  0
LINE
  5
EDC
330
1F
100
AcDbEntity
  8
OBRYS
  6
CONTINUOUS
100
AcDbLine
 10
488.3017449480258
 20
157.4797889706726
 30
0.0
 11
489.3164249480258
 21
157.4797889706726
 31
0.0
  0
LINE
  5
EE0
330
1F
100
AcDbEntity
  8
OBRYS
  6
CONTINUOUS
100
AcDbLine
 10
489.3164249480258
 20
155.2355999706726
 30
0.0
 11
488.3017449480258
 21
155.2355999706726
 31
0.0
  0
LINE
  5
EE1
330
1F
100
AcDbEntity
  8
OBRYS
  6
CONTINUOUS
100
AcDbLine
 10
465.2869909480258
 20
224.9003539706726
 30
0.0
 11
465.2869909480258
 21
225.9150339706726
 31
0.0
  0
LINE
  5
EE6
330
1F
100
AcDbEntity
  8
OBRYS
  6
CONTINUOUS
100
AcDbLine
 10
464.7170539480258
 20
190.2212979706726
 30
0.0
 11
466.5454809480258
 21
192.0497249706726
 31
0.0
  0
LINE
  5
EE7
330
1F
100
AcDbEntity
  8
OBRYS
  6
CONTINUOUS
100
AcDbLine
 10
465.9090849480258
 20
223.8237199706726
 30
0.0
 11
466.9090849480258
 21
223.8237199706726
 31
0.0
  0
LINE
  5
EEB
330
1F
100
AcDbEntity
  8
OBRYS
  6
CONTINUOUS
100
AcDbLine
 10
478.8144029480258
 20
228.6876939706726
 30
0.0
 11
478.8144029480258
 21
222.0276939706726
 31
0.0
  0
LINE
  5
EFF
330
1F
100
AcDbEntity
  8
OBRYS
  6
CONTINUOUS
100
AcDbLine
 10
464.0590849480258
 20
229.9423879706726
 30
0.0
 11
477.5590849480258
 21
229.9423879706726
 31
0.0
  0
LINE
  5
F01
330
1F
100
AcDbEntity
  8
OBRYS
  6
CONTINUOUS
100
AcDbLine
 10
475.7090849480258
 20
226.9916689706726
 30
0.0
 11
474.7090849480258
 21
226.9916689706726
 31
0.0
  0
LINE
  5
F02
330
1F
100
AcDbEntity
  8
OBRYS
  6
CONTINUOUS
100
AcDbLine
 10
489.5214329480258
 20
155.6453469706726
 30
0.0
 11
489.9493239480258
 21
155.2174549706726
 31
0.0
  0
LINE
  5
F03
330
1F
100
AcDbEntity
  8
OBRYS
  6
CONTINUOUS
100
AcDbLine
 10
489.5214329480258
 20
157.0700419706726
 30
0.0
 11
489.9493239480258
 21
157.4979329706726
 31
0.0
  0
LINE
  5
F0B
330
1F
100
AcDbEntity
  8
OBRYS
  6
CONTINUOUS
100
AcDbLine
 10
488.0967379480258
 20
155.6453469706726
 30
0.0
 11
487.6688459480259
 21
155.2174549706726
 31
0.0
  0
LINE
  5
F0E
330
1F
100
AcDbEntity
  8
OBRYS
  6
CONTINUOUS
100
AcDbLine
 10
488.0967379480258
 20
157.0700419706726
 30
0.0
 11
487.6688459480259
 21
157.4979329706726
 31
0.0
  0
LINE
  5
F0F
330
1F
100
AcDbEntity
  8
OBRYS
  6
CONTINUOUS
100
AcDbLine
 10
462.8037679480258
 20
222.0276939706726
 30
0.0
 11
462.8037679480258
 21
228.6876939706726
 31
0.0
  0
LINE
  5
F19
330
1F
100
AcDbEntity
  8
OBRYS
  6
CONTINUOUS
100
AcDbLine
 10
457.7090849480258
 20
226.9916689706726
 30
0.0
 11
456.7090849480258
 21
226.9916689706726
 31
0.0
  0
LINE
  5
F1A
330
1F
100
AcDbEntity
  8
OBRYS
  6
CONTINUOUS
100
AcDbLine
 10
477.5590849480258
 20
220.7730009706726
 30
0.0
 11
464.0590849480258
 21
220.7730009706726
 31
0.0
  0
LINE
  5
F2E
330
1F
100
AcDbEntity
  8
OBRYS
  6
CONTINUOUS
100
AcDbLine
 10
460.8590849480258
 20
152.9597099706726
 30
0.0
 11
460.8590849480258
 21
159.7439899706726
 31
0.0
  0
LINE
  5
F3B
330
1F
100
AcDbEntity
  8
OBRYS
  6
CONTINUOUS
100
AcDbLine
 10
462.7590849480259
 20
159.7439899706726
 30
0.0
 11
462.7590849480259
 21
152.9597099706726
 31
0.0
  0
LINE
  5
F42
330
1F
100
AcDbEntity
  8
OBRYS
  6
CONTINUOUS
100
AcDbLine
 10
459.5704299480258
 20
230.0939399706726
 30
0.0
 11
446.0477404518779
 21
230.093940470656
 31
0.0
  0
LINE
  5
F52
330
1F
100
AcDbEntity
  8
OBRYS
  6
CONTINUOUS
100
AcDbLine
 10
460.8590849480258
 20
221.9713989706726
 30
0.0
 11
460.8590849480258
 21
228.7939899706726
 31
0.0
  0
LINE
  5
F69
330
1F
100
AcDbEntity
  8
OBRYS
  6
CONTINUOUS
100
AcDbLine
 10
467.6340849480259
 20
225.9076939706726
 30
0.0
 11
468.5111879480258
 21
225.9076939706726
 31
0.0
  0
LINE
  5
F6A
330
1F
100
AcDbEntity
  8
OBRYS
  6
CONTINUOUS
100
AcDbLine
 10
464.3069819480258
 20
225.9076939706726
 30
0.0
 11
465.1840849480258
 21
225.9076939706726
 31
0.0
  0
LINE
  5
F6B
330
1F
100
AcDbEntity
  8
OBRYS
  6
CONTINUOUS
100
AcDbLine
 10
486.7069819480258
 20
156.8576939706726
 30
0.0
 11
487.5840849480258
 21
156.8576939706726
 31
0.0
  0
LINE
  5
F6D
330
1F
100
AcDbEntity
  8
OBRYS
  6
CONTINUOUS
100
AcDbLine
 10
466.9090849480258
 20
228.2142499706726
 30
0.0
 11
466.9090849480258
 21
226.6326939706726
 31
0.0
  0
LINE
  5
F70
330
1F
100
AcDbEntity
  8
OBRYS
  6
CONTINUOUS
100
AcDbLine
 10
466.9090849480258
 20
224.1826939706726
 30
0.0
 11
466.9090849480258
 21
222.5011429706726
 31
0.0
  0
LINE
  5
F71
330
1F
100
AcDbEntity
  8
OBRYS
  6
CONTINUOUS
100
AcDbLine
 10
490.0340849480258
 20
156.8576939706726
 30
0.0
 11
490.9111879480259
 21
156.8576939706726
 31
0.0
  0
LINE
  5
F73
330
1F
100
AcDbEntity
  8
OBRYS
  6
CONTINUOUS
100
AcDbLine
 10
488.3090849480258
 20
157.5826939706726
 30
0.0
 11
488.3090849480258
 21
159.2142479706726
 31
0.0
  0
LINE
  5
F74
330
1F
100
AcDbEntity
  8
OBRYS
  6
CONTINUOUS
100
AcDbLine
 10
465.9090849480258
 20
226.6326939706726
 30
0.0
 11
465.9090849480258
 21
228.2161849706726
 31
0.0
  0
LINE
  5
F75
330
1F
100
AcDbEntity
  8
OBRYS
  6
CONTINUOUS
100
AcDbLine
 10
468.5111879480258
 20
224.9076939706726
 30
0.0
 11
467.6340849480259
 21
224.9076939706726
 31
0.0
  0
LINE
  5
F76
330
1F
100
AcDbEntity
  8
OBRYS
  6
CONTINUOUS
100
AcDbLine
 10
487.5840849480258
 20
155.8576939706726
 30
0.0
 11
486.7069819480258
 21
155.8576939706726
 31
0.0
  0
LINE
  5
F78
330
1F
100
AcDbEntity
  8
OBRYS
  6
CONTINUOUS
100
AcDbLine
 10
490.9111879480259
 20
155.8576939706726
 30
0.0
 11
490.0340849480258
 21
155.8576939706726
 31
0.0
  0
LINE
  5
F7B
330
1F
100
AcDbEntity
  8
OBRYS
  6
CONTINUOUS
100
AcDbLine
 10
489.3090849480258
 20
159.2161739706726
 30
0.0
 11
489.3090849480258
 21
157.5826939706726
 31
0.0
  0
LINE
  5
F7D
330
1F
100
AcDbEntity
  8
OBRYS
  6
CONTINUOUS
100
AcDbLine
 10
489.3090849480258
 20
155.1326939706726
 30
0.0
 11
489.3090849480258
 21
153.4992139706726
 31
0.0
  0
LINE
  5
F7F
330
1F
100
AcDbEntity
  8
OBRYS
  6
CONTINUOUS
100
AcDbLine
 10
465.9090849480258
 20
222.4992279706726
 30
0.0
 11
465.9090849480258
 21
224.1826939706726
 31
0.0
  0
LINE
  5
F81
330
1F
100
AcDbEntity
  8
OBRYS
  6
CONTINUOUS
100
AcDbLine
 10
465.1840849480258
 20
224.9076939706726
 30
0.0
 11
464.3069819480258
 21
224.9076939706726
 31
0.0
  0
LINE
  5
F83
330
1F
100
AcDbEntity
  8
OBRYS
  6
CONTINUOUS
100
AcDbLine
 10
488.3090849480258
 20
153.5011399706726
 30
0.0
 11
488.3090849480258
 21
155.1326939706726
 31
0.0
  0
LINE
  5
F86
330
1F
100
AcDbEntity
  8
OBRYS
  6
CONTINUOUS
100
AcDbLine
 10
482.1033139480258
 20
229.9191289706726
 30
0.0
 11
495.5148559480259
 21
229.9191289706726
 31
0.0
  0
LINE
  5
F9B
330
1F
100
AcDbEntity
  8
OBRYS
  6
CONTINUOUS
100
AcDbLine
 10
496.8144029480258
 20
228.6222389706726
 30
0.0
 11
496.8144029480258
 21
222.0748059706726
 31
0.0
  0
LINE
  5
FA4
330
1F
100
AcDbEntity
  8
OBRYS
  6
CONTINUOUS
100
AcDbLine
 10
451.6869909480259
 20
155.8503539706726
 30
0.0
 11
451.6869909480259
 21
156.8650339706726
 31
0.0
  0
LINE
  5
FA6
330
1F
100
AcDbEntity
  8
OBRYS
  6
CONTINUOUS
100
AcDbLine
 10
495.5125099480259
 20
220.7754659706726
 30
0.0
 11
482.1056599480258
 21
220.7754659706726
 31
0.0
  0
LINE
  5
FAD
330
1F
100
AcDbEntity
  8
OBRYS
  6
CONTINUOUS
100
AcDbLine
 10
480.8037679480258
 20
222.0748059706726
 30
0.0
 11
480.8037679480258
 21
228.6222389706726
 31
0.0
  0
LINE
  5
FC0
330
1F
100
AcDbEntity
  8
OBRYS
  6
CONTINUOUS
100
AcDbLine
 10
456.7090849480258
 20
222.5011429706726
 30
0.0
 11
456.7090849480258
 21
224.1826939706726
 31
0.0
  0
LINE
  5
FC1
330
1F
100
AcDbEntity
  8
OBRYS
  6
CONTINUOUS
100
AcDbLine
 10
447.9090849480258
 20
222.4992279706726
 30
0.0
 11
447.9090849480258
 21
224.1826939706726
 31
0.0
  0
LINE
  5
FC8
330
1F
100
AcDbEntity
  8
OBRYS
  6
CONTINUOUS
100
AcDbLine
 10
444.8037679480258
 20
153.0276669706726
 30
0.0
 11
444.8037679480258
 21
159.6877209706726
 31
0.0
  0
LINE
  5
FCF
330
1F
100
AcDbEntity
  8
OBRYS
  6
CONTINUOUS
100
AcDbLine
 10
459.5590849480258
 20
151.7730289706726
 30
0.0
 11
446.0590299480259
 21
151.7730289706726
 31
0.0
  0
LINE
  5
FD2
330
1F
100
AcDbEntity
  8
OBRYS
  6
CONTINUOUS
100
AcDbLine
 10
460.8144029480258
 20
159.6877209706726
 30
0.0
 11
460.8144029480258
 21
153.0276669706726
 31
0.0
  0
LINE
  5
FE7
330
1F
100
AcDbEntity
  8
OBRYS
  6
CONTINUOUS
100
AcDbLine
 10
453.9311789480258
 20
156.8650339706726
 30
0.0
 11
453.9311789480258
 21
155.8503539706726
 31
0.0
  0
LINE
  5
FED
330
1F
100
AcDbEntity
  8
OBRYS
  6
CONTINUOUS
100
AcDbLine
 10
446.0590849480258
 20
229.9423879706726
 30
0.0
 11
459.5590849480258
 21
229.9423879706726
 31
0.0
  0
LINE
  5
FF3
330
1F
100
AcDbEntity
  8
OBRYS
  6
CONTINUOUS
100
AcDbLine
 10
448.9090849480258
 20
226.9916689706726
 30
0.0
 11
447.9090849480258
 21
226.9916689706726
 31
0.0
  0
LINE
  5
1002
330
1F
100
AcDbEntity
  8
OBRYS
  6
CONTINUOUS
100
AcDbLine
 10
488.8090849480258
 20
219.3678009706726
 30
0.0
 11
488.8090849480258
 21
219.3579349706726
 31
0.0
  0
LINE
  5
1007
330
1F
100
AcDbEntity
  8
OBRYS
  6
CONTINUOUS
100
AcDbLine
 10
448.8090849480258
 20
213.3576939706726
 30
0.0
 11
448.8102809480259
 21
213.3572159706726
 31
0.0
  0
LINE
  5
1008
330
1F
100
AcDbEntity
  8
OBRYS
  6
CONTINUOUS
100
AcDbLine
 10
463.8102809480259
 20
168.3581729706726
 30
0.0
 11
463.8090849480258
 21
168.3576939706726
 31
0.0
  0
LINE
  5
1009
330
1F
100
AcDbEntity
  8
OBRYS
  6
CONTINUOUS
100
AcDbLine
 10
466.8090849480258
 20
213.3576939706726
 30
0.0
 11
466.8102809480259
 21
213.3572159706726
 31
0.0
  0
LINE
  5
1010
330
1F
100
AcDbEntity
  8
OBRYS
  6
CONTINUOUS
100
AcDbLine
 10
445.8102809480259
 20
168.3581729706726
 30
0.0
 11
445.8090849480258
 21
168.3576939706726
 31
0.0
  0
ARC
  5
1017
330
1F
100
AcDbEntity
  8
OBRYS
  6
CONTINUOUS
100
AcDbCircle
 10
-472.0090849480259
 20
197.2576939706726
 30
0.0
 40
0.8
210
0.0
220
0.0
230
-1.0
100
AcDbArc
 50
270.0
 51
0.0
  0
ARC
  5
1018
330
1F
100
AcDbEntity
  8
OBRYS
  6
CONTINUOUS
100
AcDbCircle
 10
477.5590849480258
 20
228.7939899706726
 30
0.0
 40
1.3
100
AcDbArc
 50
0.0
 51
89.49999999999943
  0
ARC
  5
1019
330
1F
100
AcDbEntity
  8
OBRYS
  6
CONTINUOUS
100
AcDbCircle
 10
-475.4090849480258
 20
197.2576939706726
 30
0.0
 40
0.8
210
0.0
220
0.0
230
-1.0
100
AcDbArc
 50
180.0
 51
269.9997860000025
  0
ARC
  5
101D
330
1F
100
AcDbEntity
  8
OBRYS
  6
CONTINUOUS
100
AcDbCircle
 10
444.1090849480258
 20
235.5576939706726
 30
0.0
 40
0.2
100
AcDbArc
 50
90.0
 51
180.0
  0
ARC
  5
101E
330
1F
100
AcDbEntity
  8
OBRYS
  6
CONTINUOUS
100
AcDbCircle
 10
-472.0090849480259
 20
198.8576939706726
 30
0.0
 40
0.8
210
0.0
220
0.0
230
-1.0
100
AcDbArc
 50
0.0002130000025475
 51
90.0
  0
ARC
  5
1020
330
1F
100
AcDbEntity
  8
OBRYS
  6
CONTINUOUS
100
AcDbCircle
 10
-484.9090849480258
 20
188.0292669706726
 30
0.0
 40
3.1
210
0.0
220
0.0
230
-1.0
100
AcDbArc
 50
0.0
 51
45.0
  0
CIRCLE
  5
1022
330
1F
100
AcDbEntity
  8
OBRYS
  6
CONTINUOUS
100
AcDbCircle
 10
452.8090849480258
 20
156.3576939706726
 30
0.0
 40
2.992125035431825
  0
ARC
  5
1025
330
1F
100
AcDbEntity
  8
OBRYS
  6
CONTINUOUS
100
AcDbCircle
 10
465.1090849480258
 20
143.8614299706726
 30
0.0
 40
1.5
100
AcDbArc
 50
180.0
 51
270.0
  0
ARC
  5
1028
330
1F
100
AcDbEntity
  8
OBRYS
  6
CONTINUOUS
100
AcDbCircle
 10
493.7090849480258
 20
188.0292669706726
 30
0.0
 40
1.941421356237309
100
AcDbArc
 50
135.0000000000024
 51
180.0
  0
CIRCLE
  5
102F
330
1F
100
AcDbEntity
  8
OBRYS
  6
CONTINUOUS
100
AcDbCircle
 10
466.4090849480258
 20
225.3576939706726
 30
0.0
 40
2.98964178702984
  0
ARC
  5
1031
330
1F
100
AcDbEntity
  8
OBRYS
  6
CONTINUOUS
100
AcDbCircle
 10
-490.1090849480258
 20
198.8576939706726
 30
0.0
 40
0.7999999999999952
210
0.0
220
0.0
230
-1.0
100
AcDbArc
 50
0.0002140000015082
 51
89.99978600000257
  0
ARC
  5
1034
330
1F
100
AcDbEntity
  8
OBRYS
  6
CONTINUOUS
100
AcDbCircle
 10
-493.5090849480259
 20
198.8576939706726
 30
0.0
 40
0.7999999999999952
210
0.0
220
0.0
230
-1.0
100
AcDbArc
 50
90.0
 51
180.0
  0
ARC
  5
1035
330
1F
100
AcDbEntity
  8
OBRYS
  6
CONTINUOUS
100
AcDbCircle
 10
-490.1090849480258
 20
197.2576939706726
 30
0.0
 40
0.7999999999999958
210
0.0
220
0.0
230
-1.0
100
AcDbArc
 50
270.0
 51
0.0
  0
ARC
  5
1036
330
1F
100
AcDbEntity
  8
OBRYS
  6
CONTINUOUS
100
AcDbCircle
 10
-493.5090849480259
 20
197.2576939706726
 30
0.0
 40
0.7999999999999952
210
0.0
220
0.0
230
-1.0
100
AcDbArc
 50
180.0
 51
270.0
  0
ARC
  5
1037
330
1F
100
AcDbEntity
  8
OBRYS
  6
CONTINUOUS
100
AcDbCircle
 10
495.5590849480258
 20
228.7826939706726
 30
0.0
 40
1.300000000000001
100
AcDbArc
 50
0.0
 51
90.0
  0
ARC
  5
1038
330
1F
100
AcDbEntity
  8
OBRYS
  6
CONTINUOUS
100
AcDbCircle
 10
446.0590849480258
 20
221.9713989706726
 30
0.0
 40
1.3
100
AcDbArc
 50
180.0
 51
269.4999999999994
  0
ARC
  5
103E
330
1F
100
AcDbEntity
  8
OBRYS
  6
CONTINUOUS
100
AcDbCircle
 10
-497.5090849480259
 20
146.1576939706726
 30
0.0
 40
0.2
210
0.0
220
0.0
230
-1.0
100
AcDbArc
 50
180.0
 51
270.0
  0
ARC
  5
1043
330
1F
100
AcDbEntity
  8
OBRYS
  6
CONTINUOUS
100
AcDbCircle
 10
492.7090849480258
 20
192.6861209706726
 30
0.0
 40
2.241421356237308
100
AcDbArc
 50
315.000000000001
 51
0.0
  0
ARC
  5
1049
330
1F
100
AcDbEntity
  8
OBRYS
  6
CONTINUOUS
100
AcDbCircle
 10
-457.4090849480258
 20
198.8576939706726
 30
0.0
 40
0.8
210
0.0
220
0.0
230
-1.0
100
AcDbArc
 50
90.0
 51
180.0
  0
CIRCLE
  5
104E
330
1F
100
AcDbEntity
  8
OBRYS
  6
CONTINUOUS
100
AcDbCircle
 10
457.2090849480258
 20
225.3576939706726
 30
0.0
 40
2.989641787029825
  0
CIRCLE
  5
1054
330
1F
100
AcDbEntity
  8
OBRYS
  6
CONTINUOUS
100
AcDbCircle
 10
488.8090849480258
 20
156.3576939706726
 30
0.0
 40
2.992125035431825
  0
ARC
  5
1055
330
1F
100
AcDbEntity
  8
OBRYS
  6
CONTINUOUS
100
AcDbCircle
 10
465.9090849480258
 20
192.6861209706726
 30
0.0
 40
0.9
100
AcDbArc
 50
315.0000000000026
 51
0.0
  0
CIRCLE
  5
105F
330
1F
100
AcDbEntity
  8
OBRYS
  6
CONTINUOUS
100
AcDbCircle
 10
448.4090849480258
 20
225.3576939706726
 30
0.0
 40
2.98964178702984
  0
ARC
  5
1064
330
1F
100
AcDbEntity
  8
OBRYS
  6
CONTINUOUS
100
AcDbCircle
 10
464.0590849480258
 20
228.7939899706726
 30
0.0
 40
1.3
100
AcDbArc
 50
90.50000000000055
 51
180.0
  0
ARC
  5
1065
330
1F
100
AcDbEntity
  8
OBRYS
  6
CONTINUOUS
100
AcDbCircle
 10
464.0590849480258
 20
159.7439899706726
 30
0.0
 40
1.3
100
AcDbArc
 50
90.50000000000055
 51
180.0
  0
ARC
  5
1066
330
1F
100
AcDbEntity
  8
OBRYS
  6
CONTINUOUS
100
AcDbCircle
 10
497.5090849480259
 20
235.5576939706726
 30
0.0
 40
0.2
100
AcDbArc
 50
0.0
 51
90.0
  0
ARC
  5
1067
330
1F
100
AcDbEntity
  8
OBRYS
  6
CONTINUOUS
100
AcDbCircle
 10
495.5590849480258
 20
152.9710049706726
 30
0.0
 40
1.299999999999983
100
AcDbArc
 50
270.0
 51
0.0
  0
ARC
  5
1068
330
1F
100
AcDbEntity
  8
OBRYS
  6
CONTINUOUS
100
AcDbCircle
 10
495.5590849480258
 20
221.9826939706726
 30
0.0
 40
1.300000000000011
100
AcDbArc
 50
270.0
 51
0.0
  0
ARC
  5
106B
330
1F
100
AcDbEntity
  8
OBRYS
  6
CONTINUOUS
100
AcDbCircle
 10
459.5590849480258
 20
221.9713989706726
 30
0.0
 40
1.3
100
AcDbArc
 50
270.5000000000006
 51
0.0
  0
ARC
  5
106F
330
1F
100
AcDbEntity
  8
OBRYS
  6
CONTINUOUS
100
AcDbCircle
 10
459.5590849480258
 20
228.7939899706726
 30
0.0
 40
1.3
100
AcDbArc
 50
0.0
 51
89.49999999999943
  0
ARC
  5
1073
330
1F
100
AcDbEntity
  8
OBRYS
  6
CONTINUOUS
100
AcDbCircle
 10
-493.7090849480258
 20
188.0292669706726
 30
0.0
 40
1.758578643762689
210
0.0
220
0.0
230
-1.0
100
AcDbArc
 50
0.0
 51
45.0
  0
ARC
  5
1076
330
1F
100
AcDbEntity
  8
OBRYS
  6
CONTINUOUS
100
AcDbCircle
 10
495.5590849480258
 20
159.7326939706726
 30
0.0
 40
1.300000000000001
100
AcDbArc
 50
0.0
 51
90.0
  0
ARC
  5
107A
330
1F
100
AcDbEntity
  8
OBRYS
  6
CONTINUOUS
100
AcDbCircle
 10
-476.5090849480259
 20
143.8614299706726
 30
0.0
 40
1.5
210
0.0
220
0.0
230
-1.0
100
AcDbArc
 50
180.0
 51
270.0
  0
ARC
  5
107C
330
1F
100
AcDbEntity
  8
OBRYS
  6
CONTINUOUS
100
AcDbCircle
 10
464.0590849480258
 20
221.9713989706726
 30
0.0
 40
1.3
100
AcDbArc
 50
180.0
 51
269.4999999999994
  0
ARC
  5
107F
330
1F
100
AcDbEntity
  8
OBRYS
  6
CONTINUOUS
100
AcDbCircle
 10
-492.7090849480258
 20
192.6861209706726
 30
0.0
 40
2.058578643762688
210
0.0
220
0.0
230
-1.0
100
AcDbArc
 50
180.0
 51
225.0000000000011
  0
ARC
  5
1081
330
1F
100
AcDbEntity
  8
OBRYS
  6
CONTINUOUS
100
AcDbCircle
 10
464.0590849480258
 20
152.9597099706726
 30
0.0
 40
1.3
100
AcDbArc
 50
180.0
 51
269.4999999999994
  0
ARC
  5
1082
330
1F
100
AcDbEntity
  8
OBRYS
  6
CONTINUOUS
100
AcDbCircle
 10
459.5590849480258
 20
159.7439899706726
 30
0.0
 40
1.3
100
AcDbArc
 50
0.0
 51
89.49999999999943
  0
ARC
  5
1089
330
1F
100
AcDbEntity
  8
OBRYS
  6
CONTINUOUS
100
AcDbCircle
 10
-454.0090849480259
 20
198.8576939706726
 30
0.0
 40
0.8
210
0.0
220
0.0
230
-1.0
100
AcDbArc
 50
0.0002130000025475
 51
90.0
  0
ARC
  5
108B
330
1F
100
AcDbEntity
  8
OBRYS
  6
CONTINUOUS
100
AcDbCircle
 10
466.9090849480258
 20
188.0292669706726
 30
0.0
 40
2.1
100
AcDbArc
 50
135.0
 51
180.0
  0
ARC
  5
108C
330
1F
100
AcDbEntity
  8
OBRYS
  6
CONTINUOUS
100
AcDbCircle
 10
-466.9090849480258
 20
188.0292669706726
 30
0.0
 40
3.1
210
0.0
220
0.0
230
-1.0
100
AcDbArc
 50
0.0
 51
45.0
  0
ARC
  5
108E
330
1F
100
AcDbEntity
  8
OBRYS
  6
CONTINUOUS
100
AcDbCircle
 10
-465.9090849480258
 20
192.6861209706726
 30
0.0
 40
1.9
210
0.0
220
0.0
230
-1.0
100
AcDbArc
 50
180.0
 51
224.9999999999987
  0
ARC
  5
1090
330
1F
100
AcDbEntity
  8
OBRYS
  6
CONTINUOUS
100
AcDbCircle
 10
-457.4090849480258
 20
197.2576939706726
 30
0.0
 40
0.8
210
0.0
220
0.0
230
-1.0
100
AcDbArc
 50
180.0
 51
269.9997860000025
  0
ARC
  5
1091
330
1F
100
AcDbEntity
  8
OBRYS
  6
CONTINUOUS
100
AcDbCircle
 10
-454.0090849480259
 20
197.2576939706726
 30
0.0
 40
0.8
210
0.0
220
0.0
230
-1.0
100
AcDbArc
 50
270.0
 51
0.0
  0
ARC
  5
1094
330
1F
100
AcDbEntity
  8
OBRYS
  6
CONTINUOUS
100
AcDbCircle
 10
459.5590849480258
 20
152.9597099706726
 30
0.0
 40
1.3
100
AcDbArc
 50
270.5000000000006
 51
0.0
  0
ARC
  5
1097
330
1F
100
AcDbEntity
  8
OBRYS
  6
CONTINUOUS
100
AcDbCircle
 10
482.0590849480258
 20
159.7439899706726
 30
0.0
 40
1.3
100
AcDbArc
 50
90.50000000000055
 51
180.0
  0
ARC
  5
1099
330
1F
100
AcDbEntity
  8
OBRYS
  6
CONTINUOUS
100
AcDbCircle
 10
-483.9090849480258
 20
192.6861209706726
 30
0.0
 40
1.9
210
0.0
220
0.0
230
-1.0
100
AcDbArc
 50
180.0
 51
224.9999999999987
  0
ARC
  5
109B
330
1F
100
AcDbEntity
  8
OBRYS
  6
CONTINUOUS
100
AcDbCircle
 10
446.0590849480258
 20
152.9597099706726
 30
0.0
 40
1.3
100
AcDbArc
 50
180.0
 51
269.4999999999994
  0
ARC
  5
109C
102
{ACAD_REACTORS
102
}
330
1F
100
AcDbEntity
  8
OBRYS
  6
CONTINUOUS
100
AcDbCircle
 10
-444.1090849480258
 20
146.1576939706726
 30
0.0
 40
0.2
210
0.0
220
0.0
230
-1.0
100
AcDbArc
 50
270.0
 51
0.0
  0
ARC
  5
109D
330
1F
100
AcDbEntity
  8
OBRYS
  6
CONTINUOUS
100
AcDbCircle
 10
477.5590849480258
 20
159.7439899706726
 30
0.0
 40
1.3
100
AcDbArc
 50
0.0
 51
89.49999999999943
  0
ARC
  5
109F
330
1F
100
AcDbEntity
  8
OBRYS
  6
CONTINUOUS
100
AcDbCircle
 10
-448.9090849480258
 20
188.0292669706726
 30
0.0
 40
3.1
210
0.0
220
0.0
230
-1.0
100
AcDbArc
 50
0.0
 51
45.0
  0
ARC
  5
10A0
330
1F
100
AcDbEntity
  8
OBRYS
  6
CONTINUOUS
100
AcDbCircle
 10
-475.4090849480258
 20
198.8576939706726
 30
0.0
 40
0.8
210
0.0
220
0.0
230
-1.0
100
AcDbArc
 50
90.0
 51
180.0
  0
ARC
  5
10A2
330
1F
100
AcDbEntity
  8
OBRYS
  6
CONTINUOUS
100
AcDbCircle
 10
446.0590849480258
 20
159.7439899706726
 30
0.0
 40
1.3
100
AcDbArc
 50
90.50000000000055
 51
180.0
  0
ARC
  5
10A6
330
1F
100
AcDbEntity
  8
OBRYS
  6
CONTINUOUS
100
AcDbCircle
 10
-447.9090849480258
 20
192.6861209706726
 30
0.0
 40
1.9
210
0.0
220
0.0
230
-1.0
100
AcDbArc
 50
180.0
 51
224.9999999999987
  0
ARC
  5
10A7
330
1F
100
AcDbEntity
  8
OBRYS
  6
CONTINUOUS
100
AcDbCircle
 10
448.9090849480258
 20
188.0292669706726
 30
0.0
 40
2.1
100
AcDbArc
 50
135.0
 51
180.0
  0
ARC
  5
10A9
330
1F
100
AcDbEntity
  8
OBRYS
  6
CONTINUOUS
100
AcDbCircle
 10
482.0590849480258
 20
221.9713989706726
 30
0.0
 40
1.3
100
AcDbArc
 50
180.0
 51
269.4999999999994
  0
ARC
  5
10AA
330
1F
100
AcDbEntity
  8
OBRYS
  6
CONTINUOUS
100
AcDbCircle
 10
482.0590849480258
 20
152.9597099706726
 30
0.0
 40
1.3
100
AcDbArc
 50
180.0
 51
269.4999999999994
  0
ARC
  5
10AE
330
1F
100
AcDbEntity
  8
OBRYS
  6
CONTINUOUS
100
AcDbCircle
 10
477.5590849480258
 20
152.9597099706726
 30
0.0
 40
1.3
100
AcDbArc
 50
270.5000000000006
 51
0.0
  0
ARC
  5
10AF
330
1F
100
AcDbEntity
  8
OBRYS
  6
CONTINUOUS
100
AcDbCircle
 10
482.0590849480258
 20
228.7939899706726
 30
0.0
 40
1.3
100
AcDbArc
 50
90.50000000000055
 51
180.0
  0
ARC
  5
10B2
330
1F
100
AcDbEntity
  8
OBRYS
  6
CONTINUOUS
100
AcDbCircle
 10
483.9090849480258
 20
192.6861209706726
 30
0.0
 40
0.9
100
AcDbArc
 50
315.0000000000026
 51
0.0
  0
ARC
  5
10B4
330
1F
100
AcDbEntity
  8
OBRYS
  6
CONTINUOUS
100
AcDbCircle
 10
477.5590849480258
 20
221.9713989706726
 30
0.0
 40
1.3
100
AcDbArc
 50
270.5000000000006
 51
0.0
  0
ARC
  5
10B5
330
1F
100
AcDbEntity
  8
OBRYS
  6
CONTINUOUS
100
AcDbCircle
 10
447.9090849480258
 20
192.6861209706726
 30
0.0
 40
0.8999999999999869
100
AcDbArc
 50
315.0000000000026
 51
0.0
  0
ARC
  5
10B6
330
1F
100
AcDbEntity
  8
OBRYS
  6
CONTINUOUS
100
AcDbCircle
 10
446.0590849480258
 20
228.7939899706726
 30
0.0
 40
1.3
100
AcDbArc
 50
90.50000000000055
 51
180.0
  0
ARC
  5
10BA
330
1F
100
AcDbEntity
  8
OBRYS
  6
CONTINUOUS
100
AcDbCircle
 10
484.9090849480258
 20
188.0292669706726
 30
0.0
 40
2.1
100
AcDbArc
 50
135.0
 51
180.0
  0
CIRCLE
  5
10DA
330
1F
100
AcDbEntity
  8
OBRYS
  6
CONTINUOUS
100
AcDbCircle
 10
475.2090849480258
 20
225.3576939706726
 30
0.0
 40
2.989641787029825
  0
SPLINE
  5
1219
330
1F
100
AcDbEntity
  8
OBRYS
  6
CONTINUOUS
100
AcDbSpline
210
0.0
220
0.0
230
1.0
 70
    24
 71
     3
 72
     8
 73
     4
 74
     0
 42
0.000000001
 43
0.0000000001
 40
0.0
 40
0.0
 40
0.0
 40
0.0
 40
1.0
 40
1.0
 40
1.0
 40
1.0
 10
470.8090850357819
 20
219.3678016100787
 30
0.0
 10
470.8090850357817
 20
219.3624796888589
 30
0.0
 10
470.8090850357817
 20
219.356853777373
 30
0.0
 10
470.8090850357817
 20
219.3509766100787
 30
0.0
  0
SPLINE
  5
1222
330
1F
100
AcDbEntity
  8
OBRYS
  6
CONTINUOUS
100
AcDbSpline
210
0.0
220
0.0
230
1.0
 70
    24
 71
     3
 72
     8
 73
     4
 74
     0
 42
0.000000001
 43
0.0000000001
 40
0.0
 40
0.0
 40
0.0
 40
0.0
 40
1.0
 40
1.0
 40
1.0
 40
1.0
 10
488.8090850357816
 20
219.4067346100788
 30
0.0
 10
488.8090850357818
 20
219.4034650476622
 30
0.0
 10
488.8090850357819
 20
219.3998129716815
 30
0.0
 10
488.8090850357822
 20
219.3958126100788
 30
0.0
  0
SPLINE
  5
124A
330
1F
100
AcDbEntity
  8
OBRYS
  6
CONTINUOUS
100
AcDbSpline
210
0.0
220
0.0
230
1.0
 70
     8
 71
     3
 72
    36
 73
    32
 74
     0
 42
0.000000001
 43
0.0000000001
 40
0.0
 40
0.0
 40
0.0
 40
0.0
 40
0.1250000000000066
 40
0.1250000000000066
 40
0.1875000000000072
 40
0.1875000000000072
 40
0.218750000000009
 40
0.218750000000009
 40
0.2500000000000109
 40
0.2500000000000109
 40
0.3750000000000084
 40
0.3750000000000084
 40
0.4062500000000059
 40
0.4062500000000059
 40
0.4375000000000034
 40
0.4375000000000034
 40
0.499999999999996
 40
0.499999999999996
 40
0.6249999999999772
 40
0.6249999999999772
 40
0.6562499999999755
 40
0.6562499999999755
 40
0.6874999999999736
 40
0.7499999999999793
 40
0.812499999999985
 40
0.812499999999985
 40
0.8437499999999879
 40
0.8437499999999879
 40
0.8749999999999908
 40
0.8749999999999908
 40
1.0
 40
1.0
 40
1.0
 40
1.0
 10
446.0590850357812
 20
220.7730006159204
 30
0.0
 10
445.9771411621935
 20
220.7730006159204
 30
0.0
 10
445.8965048604251
 20
220.7809473171297
 30
0.0
 10
445.7774374148597
 20
220.8043355595726
 30
0.0
 10
445.7380650411478
 20
220.8140568233762
 30
0.0
 10
445.6794927718361
 20
220.8315941300826
 30
0.0
 10
445.6600100055417
 20
220.8379476668851
 30
0.0
 10
445.6213961301391
 20
220.851597513471
 30
0.0
 10
445.6023325986598
 20
220.8588675034926
 30
0.0
 10
445.5082077933928
 20
220.8973985763263
 30
0.0
 10
445.4366918574883
 20
220.9351422874167
 30
0.0
 10
445.3519853247787
 20
220.990894616842
 30
0.0
 10
445.3352805019541
 20
221.002477491927
 30
0.0
 10
445.3023512133374
 20
221.026521572445
 30
0.0
 10
445.28608829795
 20
221.0390143069664
 30
0.0
 10
445.2383221693262
 20
221.0776068458637
 30
0.0
 10
445.2079814972413
 20
221.1046887176651
 30
0.0
 10
445.1213270821922
 20
221.1898664544412
 30
0.0
 10
445.069340654481
 20
221.2518581716142
 30
0.0
 10
445.0117391505359
 20
221.3359933639012
 30
0.0
 10
445.0005630993284
 20
221.3532023727064
 30
0.0
 10
444.9791228195029
 20
221.3880588376948
 30
0.0
 10
444.9483649498548
 20
221.4409293103963
 30
0.0
 10
444.9039618394388
 20
221.5319118478542
 30
0.0
 10
444.8756316030861
 20
221.6077017248759
 30
0.0
 10
444.8571110581564
 20
221.665683121024
 30
0.0
 10
444.8513928518489
 20
221.6852004129988
 30
0.0
 10
444.8408819485521
 20
221.7246215365008
 30
0.0
 10
444.8360801852565
 20
221.7445706122428
 30
0.0
 10
444.8145735184094
 20
221.844653917639
 30
0.0
 10
444.805279298707
 20
221.9256880772842
 30
0.0
 10
444.8039318122673
 20
222.0076941091512
 30
0.0
  0
SPLINE
  5
1251
330
1F
100
AcDbEntity
  8
OBRYS
  6
CONTINUOUS
100
AcDbSpline
210
0.0
220
0.0
230
1.0
 70
     8
 71
     3
 72
    36
 73
    32
 74
     0
 42
0.000000001
 43
0.0000000001
 40
0.0
 40
0.0
 40
0.0
 40
0.0
 40
0.1250000000000118
 40
0.1250000000000118
 40
0.1562500000000153
 40
0.1562500000000153
 40
0.1875000000000188
 40
0.2500000000000309
 40
0.312500000000043
 40
0.312500000000043
 40
0.3437500000000466
 40
0.3437500000000466
 40
0.3750000000000503
 40
0.3750000000000503
 40
0.500000000000062
 40
0.500000000000062
 40
0.5312500000000584
 40
0.5312500000000584
 40
0.5625000000000547
 40
0.6250000000000508
 40
0.6875000000000471
 40
0.6875000000000471
 40
0.7187500000000439
 40
0.7187500000000439
 40
0.7500000000000407
 40
0.7500000000000407
 40
0.8750000000000203
 40
0.8750000000000203
 40
0.9375000000000102
 40
0.9375000000000102
 40
1.0
 40
1.0
 40
1.0
 40
1.0
 10
459.5591397421609
 20
160.9423592991087
 30
0.0
 10
459.6401810683525
 20
160.9423594111491
 30
0.0
 10
459.7206886187176
 20
160.9345849932799
 30
0.0
 10
459.8206447592812
 20
160.9149874604547
 30
0.0
 10
459.8406315728641
 20
160.9105621643242
 30
0.0
 10
459.880404660878
 20
160.9007253714705
 30
0.0
 10
459.9394619048706
 20
160.8845686339697
 30
0.0
 10
460.0349477540821
 20
160.8507936505557
 30
0.0
 10
460.1082577975416
 20
160.8166107431786
 30
0.0
 10
460.1620755453778
 20
160.7882635109617
 30
0.0
 10
460.1798203281572
 20
160.7783619772019
 30
0.0
 10
460.2149150481472
 20
160.7576402403672
 30
0.0
 10
460.2322926526944
 20
160.7468016499893
 30
0.0
 10
460.3178520989522
 20
160.6904720761264
 30
0.0
 10
460.3812782663024
 20
160.6391973578693
 30
0.0
 10
460.4542843238835
 20
160.5673402372586
 30
0.0
 10
460.4685231356611
 20
160.5526197069927
 30
0.0
 10
460.4961378135181
 20
160.5226463804944
 30
0.0
 10
460.5363351134757
 20
160.4768176364999
 30
0.0
 10
460.5973147613805
 20
160.3961690443321
 30
0.0
 10
460.6397398071104
 20
160.3271396365389
 30
0.0
 10
460.6691276984648
 20
160.2736432225039
 30
0.0
 10
460.678517806114
 20
160.2555231897284
 30
0.0
 10
460.6964695113592
 20
160.2186954190219
 30
0.0
 10
460.704984195113
 20
160.2000802910321
 30
0.0
 10
460.7450896642583
 20
160.106453065013
 30
0.0
 10
460.7695599939937
 20
160.0293649473409
 30
0.0
 10
460.7950311258355
 20
159.9105068743221
 30
0.0
 10
460.8016361667914
 20
159.8703461508622
 30
0.0
 10
460.8109436184126
 20
159.7889040810746
 30
0.0
 10
460.8135736152709
 20
159.7482236588297
 30
0.0
 10
460.8142386997624
 20
159.7076941091529
 30
0.0
  0
ARC
  5
1285
330
1F
100
AcDbEntity
  8
OBRYS
  6
CONTINUOUS
100
AcDbCircle
 10
355.1452900921807
 20
150.1270279937481
 30
0.0
 40
0.4225211530185476
100
AcDbArc
 50
202.9013451573865
 51
239.4158462699124
  0
ARC
  5
1286
330
1F
100
AcDbEntity
  8
OBRYS
  6
CONTINUOUS
100
AcDbCircle
 10
360.1532569177885
 20
147.2096969706725
 30
0.0
 40
0.4000000000000968
100
AcDbArc
 50
21.21626705880043
 51
59.99999999998921
  0
ARC
  5
1287
330
1F
100
AcDbEntity
  8
OBRYS
100
AcDbCircle
 10
358.3942296848468
 20
149.960143474439
 30
0.0
 40
1.604898704782981
100
AcDbArc
 50
188.6857780788603
 51
291.1532309743595
  0
ARC
  5
1288
330
1F
100
AcDbEntity
  8
OBRYS
  6
CONTINUOUS
100
AcDbCircle
 10
355.1303099177886
 20
231.6056909706726
 30
0.0
 40
0.4
100
AcDbArc
 50
261.2157102266676
 51
300.0000000000008
  0
ARC
  5
1289
330
1F
100
AcDbEntity
  8
OBRYS
100
AcDbCircle
 10
358.3942255953215
 20
231.7552455810674
 30
0.0
 40
1.604895471901022
100
AcDbArc
 50
68.84675922006521
 51
171.3142578848525
  0
ARC
  5
128A
330
1F
100
AcDbEntity
  8
OBRYS
  6
CONTINUOUS
100
AcDbCircle
 10
360.1532569177886
 20
234.5056909706726
 30
0.0
 40
0.4
100
AcDbArc
 50
81.21630003364423
 51
119.9999999999967
  0
ARC
  5
128C
330
1F
100
AcDbEntity
  8
OBRYS
100
AcDbCircle
 10
446.0590192166013
 20
153.0282812582896
 30
0.0
 40
1.255252287662842
100
AcDbArc
 50
180.0280394841077
 51
270.0004898340678
  0
ARC
  5
128D
330
1F
100
AcDbEntity
  8
OBRYS
100
AcDbCircle
 10
446.0590203837252
 20
159.6871063861802
 30
0.0
 40
1.255252586152823
100
AcDbArc
 50
89.9970529740595
 51
179.9719473997799
  0
ARC
  5
1290
330
1F
100
AcDbEntity
  8
OBRYS
100
AcDbCircle
 10
459.5591472596831
 20
153.0282847592887
 30
0.0
 40
1.255255840368586
100
AcDbArc
 50
269.997159808478
 51
359.9718012212151
  0
CIRCLE
  5
1292
330
1F
100
AcDbEntity
  8
OBRYS
100
AcDbCircle
 10
452.8090849480258
 20
156.3576939706726
 30
0.0
 40
2.9
  0
LINE
  5
1293
330
1F
100
AcDbEntity
  8
OBRYS
100
AcDbLine
 10
451.9576615659444
 20
156.9613523541652
 30
0.0
 11
451.6688481734376
 21
157.4979307452661
 31
0.0
  0
LINE
  5
1294
330
1F
100
AcDbEntity
  8
OBRYS
100
AcDbLine
 10
452.2054267903123
 20
157.2091175785328
 30
0.0
 11
451.6688481734377
 21
157.497930745266
 31
0.0
  0
ARC
  5
1295
330
1F
100
AcDbEntity
  8
OBRYS
100
AcDbCircle
 10
451.5840852335904
 20
157.582693685108
 30
0.0
 40
0.7249997144354545
100
AcDbArc
 50
269.9999774322011
 51
0.0000225677988972
  0
LINE
  5
1296
330
1F
100
AcDbEntity
  8
OBRYS
100
AcDbLine
 10
450.7069819480258
 20
156.8576939706726
 30
0.0
 11
450.7069819480258
 21
155.8576939706726
 31
0.0
  0
ARC
  5
1297
330
1F
100
AcDbEntity
  8
OBRYS
100
AcDbCircle
 10
451.5840869406899
 20
155.1326959633367
 30
0.0
 40
0.7249980073386084
100
AcDbArc
 50
359.9998425219888
 51
90.00015747801119
  0
LINE
  5
1298
330
1F
100
AcDbEntity
  8
OBRYS
100
AcDbLine
 10
451.6688459480259
 20
155.2174549706726
 30
0.0
 11
451.9576623536529
 21
155.7540352818226
 31
0.0
  0
LINE
  5
1299
330
1F
100
AcDbEntity
  8
OBRYS
100
AcDbLine
 10
451.6688467374291
 20
155.217456437273
 30
0.0
 11
452.205426259176
 21
155.5062713762998
 31
0.0
  0
ARC
  5
129A
330
1F
100
AcDbEntity
  8
OBRYS
100
AcDbCircle
 10
454.0340846624612
 20
155.1326942562372
 30
0.0
 40
0.7249997144353977
100
AcDbArc
 50
89.99997743219662
 51
180.0000225678012
  0
LINE
  5
129B
330
1F
100
AcDbEntity
  8
OBRYS
100
AcDbLine
 10
453.9493217226196
 20
155.217457196084
 30
0.0
 11
453.4127436368756
 21
155.5062713762998
 31
0.0
  0
LINE
  5
129C
330
1F
100
AcDbEntity
  8
OBRYS
100
AcDbLine
 10
453.6605075423985
 20
155.7540352818228
 30
0.0
 11
453.9493239480258
 21
155.2174549706726
 31
0.0
  0
ARC
  5
129D
330
1F
100
AcDbEntity
  8
OBRYS
100
AcDbCircle
 10
454.034086369572
 20
157.5826953922188
 30
0.0
 40
0.7250014215476038
100
AcDbArc
 50
180.0001123426743
 51
269.999887657328
  0
LINE
  5
129E
330
1F
100
AcDbEntity
  8
OBRYS
100
AcDbLine
 10
453.9493217226255
 20
157.4979307452723
 30
0.0
 11
453.4127436368756
 21
157.2091165650453
 31
0.0
  0
LINE
  5
129F
330
1F
100
AcDbEntity
  8
OBRYS
100
AcDbLine
 10
453.6605075423986
 20
156.9613526595224
 30
0.0
 11
453.9493217226255
 21
157.4979307452723
 31
0.0
  0
LINE
  5
12A0
330
1F
100
AcDbEntity
  8
OBRYS
100
AcDbLine
 10
454.9111879480259
 20
156.8576939706726
 30
0.0
 11
454.9111879480259
 21
155.8576939706726
 31
0.0
  0
ARC
  5
12A2
330
1F
100
AcDbEntity
  8
OBRYS
100
AcDbCircle
 10
464.1040704165543
 20
153.0965657055091
 30
0.0
 40
1.300306954878606
100
AcDbArc
 50
180.1505086275277
 51
269.966667519312
  0
ARC
  5
12A3
330
1F
100
AcDbEntity
  8
OBRYS
100
AcDbCircle
 10
464.1059202613079
 20
159.6377666377904
 30
0.0
 40
1.30215535890178
100
AcDbArc
 50
90.01145397314627
 51
179.876079215466
  0
ARC
  5
12A4
330
1F
100
AcDbEntity
  8
OBRYS
100
AcDbCircle
 10
477.512249012868
 20
159.6377650125266
 30
0.0
 40
1.302156984289975
100
AcDbArc
 50
0.1239921427152637
 51
89.98851867819805
  0
ARC
  5
12A5
330
1F
100
AcDbEntity
  8
OBRYS
100
AcDbCircle
 10
477.5140575702134
 20
153.096608703253
 30
0.0
 40
1.300349977671088
100
AcDbArc
 50
270.0351779772921
 51
359.8476017869061
  0
ARC
  5
12B7
330
1F
100
AcDbEntity
  8
OBRYS
100
AcDbCircle
 10
482.0590207441184
 20
153.0282819173622
 30
0.0
 40
1.255252946723354
100
AcDbArc
 50
180.0280691245868
 51
270.0004201105862
  0
ARC
  5
12B8
330
1F
100
AcDbEntity
  8
OBRYS
100
AcDbCircle
 10
482.0590216763042
 20
159.6871050929018
 30
0.0
 40
1.255253879365465
100
AcDbArc
 50
89.9971119765687
 51
179.9718883972716
  0
ARC
  5
12B9
330
1F
100
AcDbEntity
  8
OBRYS
100
AcDbCircle
 10
495.5591478243198
 20
159.6871036952177
 30
0.0
 40
1.255255275479596
100
AcDbArc
 50
0.0281753683718872
 51
90.00035951125797
  0
ARC
  5
12BA
330
1F
100
AcDbEntity
  8
OBRYS
100
AcDbCircle
 10
495.5591905027097
 20
153.0282415430555
 30
0.0
 40
1.255212576821111
100
AcDbArc
 50
269.99518182178
 51
359.973772909607
  0
CIRCLE
  5
12BB
330
1F
100
AcDbEntity
  8
OBRYS
100
AcDbCircle
 10
488.8090849480258
 20
156.3576939706726
 30
0.0
 40
2.899982888728155
  0
LINE
  5
12BC
330
1F
100
AcDbEntity
  8
OBRYS
100
AcDbLine
 10
486.7069819480258
 20
156.8576939706726
 30
0.0
 11
486.7069819480258
 21
155.8576939706726
 31
0.0
  0
LINE
  5
12BD
330
1F
100
AcDbEntity
  8
OBRYS
100
AcDbLine
 10
490.9111879480259
 20
156.8576939706726
 30
0.0
 11
490.9111879480259
 21
155.8576939706726
 31
0.0
  0
LINE
  5
12BE
330
1F
100
AcDbEntity
  8
OBRYS
100
AcDbLine
 10
488.2054261977107
 20
157.2091165987257
 30
0.0
 11
487.6688459480259
 21
157.4979329706726
 31
0.0
  0
LINE
  5
12BF
330
1F
100
AcDbEntity
  8
OBRYS
100
AcDbLine
 10
487.6688459480259
 20
157.4979329706726
 30
0.0
 11
487.9576615659444
 21
156.9613523541652
 31
0.0
  0
LINE
  5
12C0
330
1F
100
AcDbEntity
  8
OBRYS
100
AcDbLine
 10
489.6605084165098
 20
156.9613522168497
 30
0.0
 11
489.9493217226251
 21
157.497930745272
 31
0.0
  0
LINE
  5
12C1
330
1F
100
AcDbEntity
  8
OBRYS
100
AcDbLine
 10
489.9493217226251
 20
157.497930745272
 30
0.0
 11
489.4127432810616
 21
157.2091175785328
 31
0.0
  0
LINE
  5
12C2
330
1F
100
AcDbEntity
  8
OBRYS
100
AcDbLine
 10
489.4127431935638
 20
155.506270500768
 30
0.0
 11
489.9493217226197
 21
155.2174571960838
 31
0.0
  0
LINE
  5
12C3
330
1F
100
AcDbEntity
  8
OBRYS
100
AcDbLine
 10
489.9493217226197
 20
155.2174571960838
 30
0.0
 11
489.6605075759909
 21
155.754035220518
 31
0.0
  0
LINE
  5
12C4
330
1F
100
AcDbEntity
  8
OBRYS
100
AcDbLine
 10
488.2054267903121
 20
155.506270639048
 30
0.0
 11
487.6688481734264
 21
155.2174571960731
 31
0.0
  0
LINE
  5
12C5
330
1F
100
AcDbEntity
  8
OBRYS
100
AcDbLine
 10
487.6688481734264
 20
155.2174571960731
 30
0.0
 11
487.9576614795107
 21
155.7540357244434
 31
0.0
  0
ARC
  5
12C6
330
1F
100
AcDbEntity
  8
OBRYS
100
AcDbCircle
 10
487.5840869406899
 20
155.1326959633367
 30
0.0
 40
0.7249980073386084
100
AcDbArc
 50
359.9998425219888
 51
90.00015747801119
  0
ARC
  5
12C7
330
1F
100
AcDbEntity
  8
OBRYS
100
AcDbCircle
 10
487.5840852335904
 20
157.582693685108
 30
0.0
 40
0.7249997144354545
100
AcDbArc
 50
269.9999774322011
 51
0.0000225677988972
  0
ARC
  5
12C8
330
1F
100
AcDbEntity
  8
OBRYS
100
AcDbCircle
 10
490.034086369572
 20
157.5826953922188
 30
0.0
 40
0.7250014215476038
100
AcDbArc
 50
180.0001123426743
 51
269.999887657328
  0
ARC
  5
12C9
330
1F
100
AcDbEntity
  8
OBRYS
100
AcDbCircle
 10
490.0340846624612
 20
155.1326942562372
 30
0.0
 40
0.7249997144353977
100
AcDbArc
 50
89.99997743219662
 51
180.0000225678012
  0
LINE
  5
12CA
330
1F
100
AcDbEntity
  8
OBRYS
100
AcDbLine
 10
497.5090849480259
 20
235.7576939706726
 30
0.0
 11
444.1090849480258
 21
235.7576939706726
 31
0.0
  0
ARC
  5
12DD
330
1F
100
AcDbEntity
  8
OBRYS
100
AcDbCircle
 10
446.0590786696999
 20
228.6870767289738
 30
0.0
 40
1.255310873424244
100
AcDbArc
 50
89.99970943485293
 51
179.9718274202399
  0
ARC
  5
12DE
330
1F
100
AcDbEntity
  8
OBRYS
100
AcDbCircle
 10
459.559091439651
 20
222.0283126314793
 30
0.0
 40
1.255311660823553
100
AcDbArc
 50
269.9997037048777
 51
359.9717626660237
  0
ARC
  5
12DF
330
1F
100
AcDbEntity
  8
OBRYS
100
AcDbCircle
 10
459.5590912795237
 20
228.6870761501517
 30
0.0
 40
1.255311820536912
100
AcDbArc
 50
0.028198977493063
 51
90.00028898645081
  0
ARC
  5
12E0
330
1F
100
AcDbEntity
  8
OBRYS
100
AcDbCircle
 10
464.0590793034567
 20
228.6870764633736
 30
0.0
 40
1.255311507311619
100
AcDbArc
 50
89.99974236674679
 51
179.971815311763
  0
ARC
  5
12E2
330
1F
100
AcDbEntity
  8
OBRYS
100
AcDbCircle
 10
464.0590780687326
 20
222.0283112431259
 30
0.0
 40
1.255310272472171
100
AcDbArc
 50
180.0281739969667
 51
270.000313989677
  0
ARC
  5
12E3
330
1F
100
AcDbEntity
  8
OBRYS
100
AcDbCircle
 10
477.559091439651
 20
222.0283126314793
 30
0.0
 40
1.255311660823553
100
AcDbArc
 50
269.9997037048777
 51
359.9717626660237
  0
ARC
  5
12E4
330
1F
100
AcDbEntity
  8
OBRYS
100
AcDbCircle
 10
477.5590901862226
 20
228.6870750563068
 30
0.0
 40
1.255312914376717
100
AcDbArc
 50
0.0282488788799811
 51
90.00023908506526
  0
ARC
  5
12E5
330
1F
100
AcDbEntity
  8
OBRYS
100
AcDbCircle
 10
482.1040971642369
 20
228.6187954307408
 30
0.0
 40
1.300333775804982
100
AcDbArc
 50
90.03451035948491
 51
179.8482693144192
  0
ARC
  5
12E6
330
1F
100
AcDbEntity
  8
OBRYS
100
AcDbCircle
 10
482.1059209616333
 20
222.0776220030886
 30
0.0
 40
1.302156058575737
100
AcDbArc
 50
180.1239074971952
 51
269.9885152181982
  0
ARC
  5
12E7
330
1F
100
AcDbEntity
  8
OBRYS
100
AcDbCircle
 10
495.5122487603008
 20
222.0776231797136
 30
0.0
 40
1.302157235235633
100
AcDbArc
 50
270.0114924327104
 51
359.8760408423712
  0
ARC
  5
12E8
330
1F
100
AcDbEntity
  8
OBRYS
100
AcDbCircle
 10
495.5140723541165
 20
228.6187940496165
 30
0.0
 40
1.300335157156599
100
AcDbArc
 50
0.1517913801469416
 51
89.96547303491236
  0
LINE
  5
12E9
330
1F
100
AcDbEntity
  8
OBRYS
100
AcDbLine
 10
446.3069819480258
 20
225.9076939706726
 30
0.0
 11
446.3069819480258
 21
224.9076939706726
 31
0.0
  0
LINE
  5
12EA
330
1F
100
AcDbEntity
  8
OBRYS
100
AcDbLine
 10
450.5111879480258
 20
225.9076939706726
 30
0.0
 11
450.5111879480258
 21
224.9076939706726
 31
0.0
  0
LINE
  5
12EB
330
1F
100
AcDbEntity
  8
OBRYS
100
AcDbLine
 10
455.1069819480259
 20
225.9076939706726
 30
0.0
 11
455.1069819480259
 21
224.9076939706726
 31
0.0
  0
LINE
  5
12EC
330
1F
100
AcDbEntity
  8
OBRYS
100
AcDbLine
 10
459.3111879480259
 20
225.9076939706726
 30
0.0
 11
459.3111879480259
 21
224.9076939706726
 31
0.0
  0
LINE
  5
12ED
330
1F
100
AcDbEntity
  8
OBRYS
100
AcDbLine
 10
464.3069819480258
 20
225.9076939706726
 30
0.0
 11
464.3069819480258
 21
224.9076939706726
 31
0.0
  0
LINE
  5
12EE
330
1F
100
AcDbEntity
  8
OBRYS
100
AcDbLine
 10
468.5111879480258
 20
225.9076939706726
 30
0.0
 11
468.5111879480258
 21
224.9076939706726
 31
0.0
  0
LINE
  5
12EF
330
1F
100
AcDbEntity
  8
OBRYS
100
AcDbLine
 10
473.1069819480259
 20
225.9076939706726
 30
0.0
 11
473.1069819480259
 21
224.9076939706726
 31
0.0
  0
LINE
  5
12F0
330
1F
100
AcDbEntity
  8
OBRYS
100
AcDbLine
 10
477.3111879480259
 20
225.9076939706726
 30
0.0
 11
477.3111879480259
 21
224.9076939706726
 31
0.0
  0
CIRCLE
  5
12F1
330
1F
100
AcDbEntity
  8
OBRYS
100
AcDbCircle
 10
448.4090849480258
 20
225.3576939706726
 30
0.0
 40
2.9
  0
CIRCLE
  5
12F2
330
1F
100
AcDbEntity
  8
OBRYS
100
AcDbCircle
 10
457.2090849480258
 20
225.3576939706726
 30
0.0
 40
2.9
  0
CIRCLE
  5
12F3
330
1F
100
AcDbEntity
  8
OBRYS
100
AcDbCircle
 10
466.4090849480258
 20
225.3576939706726
 30
0.0
 40
2.9
  0
CIRCLE
  5
12F4
330
1F
100
AcDbEntity
  8
OBRYS
100
AcDbCircle
 10
475.2090849480258
 20
225.3576939706726
 30
0.0
 40
2.9
  0
ARC
  5
12F5
330
1F
100
AcDbEntity
  8
OBRYS
100
AcDbCircle
 10
447.1840852335905
 20
226.632693685108
 30
0.0
 40
0.7249997144354545
100
AcDbArc
 50
269.9999774322011
 51
0.0000225677944049
  0
ARC
  5
12F6
330
1F
100
AcDbEntity
  8
OBRYS
100
AcDbCircle
 10
449.6340863695721
 20
226.6326953922188
 30
0.0
 40
0.7250014215476038
100
AcDbArc
 50
180.0001123426788
 51
269.999887657328
  0
ARC
  5
12F7
330
1F
100
AcDbEntity
  8
OBRYS
100
AcDbCircle
 10
447.1840869406899
 20
224.1826959633367
 30
0.0
 40
0.7249980073386653
100
AcDbArc
 50
359.9998425219911
 51
90.00015747800671
  0
ARC
  5
12F8
330
1F
100
AcDbEntity
  8
OBRYS
100
AcDbCircle
 10
449.6340846624612
 20
224.1826942562372
 30
0.0
 40
0.7249997144354545
100
AcDbArc
 50
89.9999774322011
 51
180.0000225677989
  0
ARC
  5
12F9
330
1F
100
AcDbEntity
  8
OBRYS
100
AcDbCircle
 10
455.9840852335904
 20
226.632693685108
 30
0.0
 40
0.7249997144354545
100
AcDbArc
 50
269.9999774322011
 51
0.0000225677944049
  0
ARC
  5
12FA
330
1F
100
AcDbEntity
  8
OBRYS
100
AcDbCircle
 10
455.9840869406898
 20
224.1826959633367
 30
0.0
 40
0.7249980073386653
100
AcDbArc
 50
359.9998425219911
 51
90.00015747800671
  0
ARC
  5
12FB
330
1F
100
AcDbEntity
  8
OBRYS
100
AcDbCircle
 10
458.4340846624612
 20
224.1826942562372
 30
0.0
 40
0.7249997144354545
100
AcDbArc
 50
89.9999774322011
 51
180.0000225677989
  0
ARC
  5
12FC
330
1F
100
AcDbEntity
  8
OBRYS
100
AcDbCircle
 10
458.434086369572
 20
226.6326953922188
 30
0.0
 40
0.7250014215476038
100
AcDbArc
 50
180.0001123426788
 51
269.999887657328
  0
ARC
  5
12FD
330
1F
100
AcDbEntity
  8
OBRYS
100
AcDbCircle
 10
465.1840852335905
 20
226.632693685108
 30
0.0
 40
0.7249997144354545
100
AcDbArc
 50
269.9999774322011
 51
0.0000225677944049
  0
ARC
  5
12FE
330
1F
100
AcDbEntity
  8
OBRYS
100
AcDbCircle
 10
467.6340863695721
 20
226.6326953922188
 30
0.0
 40
0.7250014215476038
100
AcDbArc
 50
180.0001123426788
 51
269.999887657328
  0
ARC
  5
12FF
330
1F
100
AcDbEntity
  8
OBRYS
100
AcDbCircle
 10
465.1840869406899
 20
224.1826959633367
 30
0.0
 40
0.7249980073386653
100
AcDbArc
 50
359.9998425219911
 51
90.00015747800671
  0
ARC
  5
1300
330
1F
100
AcDbEntity
  8
OBRYS
100
AcDbCircle
 10
467.6340846624612
 20
224.1826942562372
 30
0.0
 40
0.7249997144354545
100
AcDbArc
 50
89.9999774322011
 51
180.0000225677989
  0
ARC
  5
1301
330
1F
100
AcDbEntity
  8
OBRYS
100
AcDbCircle
 10
473.9840852335904
 20
226.632693685108
 30
0.0
 40
0.7249997144354545
100
AcDbArc
 50
269.9999774322011
 51
0.0000225677944049
  0
ARC
  5
1302
330
1F
100
AcDbEntity
  8
OBRYS
100
AcDbCircle
 10
473.9840869406898
 20
224.1826959633367
 30
0.0
 40
0.7249980073386653
100
AcDbArc
 50
359.9998425219911
 51
90.00015747800671
  0
ARC
  5
1303
330
1F
100
AcDbEntity
  8
OBRYS
100
AcDbCircle
 10
476.4340846624612
 20
224.1826942562372
 30
0.0
 40
0.7249997144354545
100
AcDbArc
 50
89.9999774322011
 51
180.0000225677989
  0
ARC
  5
1304
330
1F
100
AcDbEntity
  8
OBRYS
100
AcDbCircle
 10
476.434086369572
 20
226.6326953922188
 30
0.0
 40
0.7250014215476323
100
AcDbArc
 50
180.0001123426788
 51
269.999887657328
  0
LINE
  5
1305
330
1F
100
AcDbEntity
  8
OBRYS
100
AcDbLine
 10
447.5576623536531
 20
226.0113526595223
 30
0.0
 11
447.2688459480258
 21
226.5479329706726
 31
0.0
  0
LINE
  5
1306
330
1F
100
AcDbEntity
  8
OBRYS
100
AcDbLine
 10
447.2688459480258
 20
226.5479329706726
 30
0.0
 11
447.805426259176
 21
226.2591165650453
 31
0.0
  0
LINE
  5
1307
330
1F
100
AcDbEntity
  8
OBRYS
100
AcDbLine
 10
447.5576623536531
 20
224.8040352818228
 30
0.0
 11
447.2688481734264
 21
224.2674571960732
 31
0.0
  0
LINE
  5
1308
330
1F
100
AcDbEntity
  8
OBRYS
100
AcDbLine
 10
447.2688481734264
 20
224.2674571960732
 30
0.0
 11
447.805426259176
 21
224.5562713762998
 31
0.0
  0
LINE
  5
1309
330
1F
100
AcDbEntity
  8
OBRYS
100
AcDbLine
 10
449.2605075423986
 20
224.8040352818228
 30
0.0
 11
449.5493217226363
 21
224.2674571960673
 31
0.0
  0
LINE
  5
130A
330
1F
100
AcDbEntity
  8
OBRYS
100
AcDbLine
 10
449.5493217226363
 20
224.2674571960673
 30
0.0
 11
449.0127436368755
 21
224.5562713762998
 31
0.0
  0
LINE
  5
130B
330
1F
100
AcDbEntity
  8
OBRYS
100
AcDbLine
 10
449.0127441636862
 20
226.2591168537146
 30
0.0
 11
449.5493217226252
 21
226.547930745272
 31
0.0
  0
LINE
  5
130C
330
1F
100
AcDbEntity
  8
OBRYS
100
AcDbLine
 10
449.5493217226252
 20
226.547930745272
 30
0.0
 11
449.2605075423987
 21
226.0113526595226
 31
0.0
  0
LINE
  5
130D
330
1F
100
AcDbEntity
  8
OBRYS
100
AcDbLine
 10
456.357662353653
 20
226.0113526595223
 30
0.0
 11
456.0688481734261
 21
226.5479307452722
 31
0.0
  0
LINE
  5
130E
330
1F
100
AcDbEntity
  8
OBRYS
100
AcDbLine
 10
456.0688481734261
 20
226.5479307452722
 30
0.0
 11
456.6054262591761
 21
226.2591165650453
 31
0.0
  0
LINE
  5
130F
330
1F
100
AcDbEntity
  8
OBRYS
100
AcDbLine
 10
456.6054262591761
 20
224.5562713762998
 30
0.0
 11
456.0688459480259
 21
224.2674549706726
 31
0.0
  0
LINE
  5
1310
330
1F
100
AcDbEntity
  8
OBRYS
100
AcDbLine
 10
456.0688459480259
 20
224.2674549706726
 30
0.0
 11
456.357662353653
 21
224.8040352818228
 31
0.0
  0
LINE
  5
1311
330
1F
100
AcDbEntity
  8
OBRYS
100
AcDbLine
 10
457.8127436368756
 20
224.5562713762998
 30
0.0
 11
458.3493239480259
 21
224.2674549706726
 31
0.0
  0
LINE
  5
1312
330
1F
100
AcDbEntity
  8
OBRYS
100
AcDbLine
 10
458.3493239480259
 20
224.2674549706726
 30
0.0
 11
458.0605075423986
 21
224.8040352818228
 31
0.0
  0
LINE
  5
1313
330
1F
100
AcDbEntity
  8
OBRYS
100
AcDbLine
 10
458.0605075423987
 20
226.0113526595226
 30
0.0
 11
458.3493239480259
 21
226.5479329706726
 31
0.0
  0
LINE
  5
1314
330
1F
100
AcDbEntity
  8
OBRYS
100
AcDbLine
 10
458.3493239480259
 20
226.5479329706726
 30
0.0
 11
457.8127441636861
 21
226.2591168537145
 31
0.0
  0
LINE
  5
1315
330
1F
100
AcDbEntity
  8
OBRYS
100
AcDbLine
 10
465.5576623536531
 20
226.0113526595223
 30
0.0
 11
465.2688481734206
 21
226.547930745283
 31
0.0
  0
LINE
  5
1316
330
1F
100
AcDbEntity
  8
OBRYS
100
AcDbLine
 10
465.2688481734206
 20
226.547930745283
 30
0.0
 11
465.805426259176
 21
226.2591165650453
 31
0.0
  0
LINE
  5
1317
330
1F
100
AcDbEntity
  8
OBRYS
100
AcDbLine
 10
465.5576623536531
 20
224.8040352818228
 30
0.0
 11
465.2688459480258
 21
224.2674549706726
 31
0.0
  0
LINE
  5
1318
330
1F
100
AcDbEntity
  8
OBRYS
100
AcDbLine
 10
465.2688459480258
 20
224.2674549706726
 30
0.0
 11
465.805426259176
 21
224.5562713762998
 31
0.0
  0
LINE
  5
1319
330
1F
100
AcDbEntity
  8
OBRYS
100
AcDbLine
 10
467.0127436368755
 20
224.5562713762998
 30
0.0
 11
467.5493217226253
 21
224.2674571960731
 31
0.0
  0
LINE
  5
131A
330
1F
100
AcDbEntity
  8
OBRYS
100
AcDbLine
 10
467.5493217226253
 20
224.2674571960731
 30
0.0
 11
467.2605075423986
 21
224.8040352818228
 31
0.0
  0
LINE
  5
131B
330
1F
100
AcDbEntity
  8
OBRYS
100
AcDbLine
 10
467.0127436368755
 20
226.2591165650453
 30
0.0
 11
467.5493239480258
 21
226.5479329706726
 31
0.0
  0
LINE
  5
131C
330
1F
100
AcDbEntity
  8
OBRYS
100
AcDbLine
 10
467.5493239480258
 20
226.5479329706726
 30
0.0
 11
467.2605078310679
 21
226.011353186333
 31
0.0
  0
LINE
  5
131D
330
1F
100
AcDbEntity
  8
OBRYS
100
AcDbLine
 10
474.3576623536531
 20
226.0113526595223
 30
0.0
 11
474.0688481734373
 21
226.5479307452663
 31
0.0
  0
LINE
  5
131E
330
1F
100
AcDbEntity
  8
OBRYS
100
AcDbLine
 10
474.0688481734373
 20
226.5479307452663
 30
0.0
 11
474.6054262591761
 21
226.2591165650453
 31
0.0
  0
LINE
  5
131F
330
1F
100
AcDbEntity
  8
OBRYS
100
AcDbLine
 10
474.357662353653
 20
224.8040352818228
 30
0.0
 11
474.0688459480259
 21
224.2674549706726
 31
0.0
  0
LINE
  5
1320
330
1F
100
AcDbEntity
  8
OBRYS
100
AcDbLine
 10
474.0688459480259
 20
224.2674549706726
 30
0.0
 11
474.6054262591761
 21
224.5562713762998
 31
0.0
  0
LINE
  5
1321
330
1F
100
AcDbEntity
  8
OBRYS
100
AcDbLine
 10
475.8127436368756
 20
224.5562713762998
 30
0.0
 11
476.3493239480259
 21
224.2674549706726
 31
0.0
  0
LINE
  5
1322
330
1F
100
AcDbEntity
  8
OBRYS
100
AcDbLine
 10
476.3493239480259
 20
224.2674549706726
 30
0.0
 11
476.0605075423986
 21
224.8040352818228
 31
0.0
  0
LINE
  5
1323
330
1F
100
AcDbEntity
  8
OBRYS
100
AcDbLine
 10
476.0605078310678
 20
226.011353186333
 30
0.0
 11
476.3493239480259
 21
226.5479329706726
 31
0.0
  0
LINE
  5
1324
330
1F
100
AcDbEntity
  8
OBRYS
100
AcDbLine
 10
476.3493239480259
 20
226.5479329706726
 30
0.0
 11
475.8127441636862
 21
226.2591168537145
 31
0.0
  0
LINE
  5
1325
330
1F
100
AcDbEntity
  8
OBRYS
100
AcDbLine
 10
443.9090849480258
 20
146.1576939706726
 30
0.0
 11
443.9090849480258
 21
235.5576939706726
 31
0.0
  0
DIMENSION
  5
1330
102
{ACAD_REACTORS
102
}
102
{ACAD_XDICTIONARY
360
1331
102
}
330
1F
100
AcDbEntity
  8
KOTY
100
AcDbDimension
  2
*D17
 10
403.5600189177886
 20
245.8694714153149
 30
0.0
 11
367.6600189177885
 21
248.3754714153149
 31
0.0
 70
    32
  3
STANDARD
100
AcDbAlignedDimension
 13
331.7600189177886
 23
213.1576939706726
 33
0.0
 14
403.5600189177886
 24
224.7576939706726
 34
0.0
100
AcDbRotatedDimension
1001
ACAD
1000
DSTYLE
1002
{
1070
   271
1070
     0
1070
   278
1070
    44
1070
   140
1040
3.0
1070
    73
1070
     0
1070
    77
1070
     1
1070
   147
1040
1.0
1070
    41
1040
3.0
1002
}
  0
DIMENSION
  5
1340
102
{ACAD_REACTORS
102
}
102
{ACAD_XDICTIONARY
360
1341
102
}
330
1F
100
AcDbEntity
  8
KOTY
100
AcDbDimension
  2
*D18
 10
320.473941592266
 20
213.3576939706726
 30
0.0
 11
317.948441592266
 21
190.8576939706726
 31
0.0
 70
    32
  3
STANDARD
100
AcDbAlignedDimension
 13
331.9600189177886
 23
168.3576939706726
 33
0.0
 14
331.9600189177886
 24
213.3576939706726
 34
0.0
 50
90.0
100
AcDbRotatedDimension
1001
ACAD
1000
DSTYLE
1002
{
1070
   271
1070
     0
1070
   278
1070
    44
1070
   140
1040
3.0
1070
    73
1070
     0
1070
    77
1070
     1
1070
   147
1040
1.0
1070
    41
1040
3.0
1002
}
  0
DIMENSION
  5
1350
102
{ACAD_REACTORS
102
}
102
{ACAD_XDICTIONARY
360
1351
102
}
330
1F
100
AcDbEntity
  8
KOTY
100
AcDbDimension
  2
*D19
 10
310.5266136542384
 20
235.7576939706726
 30
0.0
 11
307.9951136542384
 21
190.8576939706726
 31
0.0
 70
    32
  3
STANDARD
100
AcDbAlignedDimension
 13
360.1683479177885
 23
145.9576939706726
 33
0.0
 14
360.1683479177885
 24
235.7576939706726
 34
0.0
 50
90.0
100
AcDbRotatedDimension
1001
ACAD
1000
DSTYLE
1002
{
1070
   271
1070
     0
1070
   278
1070
    44
1070
   140
1040
3.0
1070
    73
1070
     0
1070
    77
1070
     1
1070
   147
1040
1.0
1070
    41
1040
3.0
1002
}
  0
DIMENSION
  5
1360
102
{ACAD_REACTORS
102
}
102
{ACAD_XDICTIONARY
360
1361
102
}
330
1F
100
AcDbEntity
  8
KOTY
100
AcDbDimension
  2
*D20
 10
398.0600189177886
 20
122.6358462391053
 30
0.0
 11
364.9100189177885
 21
125.1673462391053
 31
0.0
 70
    32
  3
STANDARD
100
AcDbAlignedDimension
 13
331.7600189177886
 23
168.5576939706726
 33
0.0
 14
398.0600189177886
 24
172.4576959706726
 34
0.0
100
AcDbRotatedDimension
1001
ACAD
1000
DSTYLE
1002
{
1070
   271
1070
     0
1070
   278
1070
    44
1070
   140
1040
3.0
1070
    73
1070
     0
1070
    77
1070
     1
1070
   147
1040
1.0
1070
    41
1040
3.0
1002
}
  0
DIMENSION
  5
1370
102
{ACAD_REACTORS
102
}
102
{ACAD_XDICTIONARY
360
1371
102
}
330
1F
100
AcDbEntity
  8
KOTY
100
AcDbDimension
  2
*D21
 10
398.0600189177886
 20
134.1506929986001
 30
0.0
 11
376.0600189177886
 21
136.6506929986001
 31
0.0
 70
    32
  3
STANDARD
100
AcDbAlignedDimension
 13
354.0600189177886
 23
149.5729289706726
 33
0.0
 14
398.0600189177886
 24
172.4576959706726
 34
0.0
100
AcDbRotatedDimension
1001
ACAD
1000
DSTYLE
1002
{
1070
   271
1070
     0
1070
   278
1070
    44
1070
   140
1040
3.0
1070
    73
1070
     0
1070
    77
1070
     1
1070
   147
1040
1.0
1070
    41
1040
3.0
1002
}
  0
DIMENSION
  5
1380
102
{ACAD_REACTORS
102
}
102
{ACAD_XDICTIONARY
360
1381
102
}
330
1F
100
AcDbEntity
  8
KOTY
100
AcDbDimension
  2
*D22
 10
412.7427093336444
 20
142.361432319528
 30
0.0
 11
410.2112093336444
 21
189.0595631451003
 31
0.0
 70
    32
  1
94
  3
STANDARD
100
AcDbAlignedDimension
 13
401.9364469177885
 23
235.7576939706726
 33
0.0
 14
402.4769312988689
 24
142.361432319528
 34
0.0
 50
90.0
100
AcDbRotatedDimension
1001
ACAD
1000
DSTYLE
1002
{
1070
   271
1070
     3
1070
   278
1070
    44
1070
   140
1040
3.0
1070
    73
1070
     0
1070
    77
1070
     1
1070
   147
1040
1.0
1070
    41
1040
3.0
1002
}
  0
DIMENSION
  5
1390
102
{ACAD_REACTORS
102
}
102
{ACAD_XDICTIONARY
360
1391
102
}
330
1F
100
AcDbEntity
  8
KOTY
100
AcDbDimension
  2
*D23
 10
497.7090849480259
 20
134.1506929986001
 30
0.0
 11
470.8090849480258
 21
136.6761929986001
 31
0.0
 70
    32
  3
STANDARD
100
AcDbAlignedDimension
 13
443.9090849480258
 23
146.1576939706726
 33
0.0
 14
497.7090849480259
 24
146.1576939706726
 34
0.0
100
AcDbRotatedDimension
1001
ACAD
1000
DSTYLE
1002
{
1070
   271
1070
     0
1070
   278
1070
    44
1070
   140
1040
3.0
1070
    73
1070
     0
1070
    77
1070
     1
1070
   147
1040
1.0
1070
    41
1040
3.0
1002
}
  0
VIEWPORT
  5
13A7
330
13A3
100
AcDbEntity
 67
     1
  8
0
100
AcDbViewport
 10
5.25
 20
4.0
 30
0.0
 40
12.6
 41
9.6
 68
     1
 69
     1
1001
ACAD
1000
MVIEW
1002
{
1070
    16
1010
0.0
1020
0.0
1030
0.0
1010
0.0
1020
0.0
1030
1.0
1040
0.0
1040
9.6
1040
5.25
1040
4.0
1040
50.0
1040
0.0
1040
0.0
1070
     0
1070
   100
1070
     0
1070
     3
1070
     0
1070
     0
1070
     0
1070
     0
1040
0.0
1040
0.0
1040
0.0
1040
0.5
1040
0.5
1040
0.0
1040
0.0
1070
     0
1002
{
1002
}
1002
}
  0
VIEWPORT
  5
13A8
330
13A3
100
AcDbEntity
 67
     1
  8
0
100
AcDbViewport
 10
5.25
 20
4.0
 30
0.0
 40
8.4
 41
6.4
 68
     2
 69
     2
1001
ACAD
1000
MVIEW
1002
{
1070
    16
1010
0.0
1020
0.0
1030
0.0
1010
0.0
1020
0.0
1030
1.0
1040
0.0
1040
148.6297148340291
1040
402.0833493011321
1040
186.0116588272101
1040
50.0
1040
0.0
1040
0.0
1070
     0
1070
   100
1070
     0
1070
     3
1070
     0
1070
     0
1070
     0
1070
     0
1040
0.0
1040
0.0
1040
0.0
1040
0.5
1040
0.5
1040
0.0
1040
0.0
1070
     0
1002
{
1002
}
1002
}
  0
ENDSEC
  0
SECTION
  2
OBJECTS
  0
DICTIONARY
  5
C
330
0
100
AcDbDictionary
  3
ACAD_DETAILVIEWSTYLE
350
122
  3
ACAD_GROUP
350
D
  3
ACAD_IMAGE_VARS
350
DC
  3
ACAD_MLINESTYLE
350
17
  3
ACAD_SCALELIST
350
B6
  3
ACAD_SECTIONVIEWSTYLE
350
123
  3
ACDBVARIABLEDICTIONARY
350
66
  3
APPDATA
350
E1
  3
DWGPROPS
350
13AA
  0
DICTIONARY
  5
1326
330
2
100
AcDbDictionary
280
     1
  3
ACAD_LAYERSTATES
360
1329
  3
ACLYDICTIONARY
360
132E
  0
DICTIONARY
  5
1331
330
1330
100
AcDbDictionary
280
     1
  0
DICTIONARY
  5
1341
330
1340
100
AcDbDictionary
280
     1
  0
DICTIONARY
  5
1351
330
1350
100
AcDbDictionary
280
     1
  0
DICTIONARY
  5
1361
330
1360
100
AcDbDictionary
280
     1
  0
DICTIONARY
  5
1371
330
1370
100
AcDbDictionary
280
     1
  0
DICTIONARY
  5
1381
330
1380
100
AcDbDictionary
280
     1
  0
DICTIONARY
  5
1391
330
1390
100
AcDbDictionary
280
     1
  0
DICTIONARY
  5
122
102
{ACAD_REACTORS
330
C
102
}
330
C
100
AcDbDictionary
  0
DICTIONARY
  5
D
102
{ACAD_REACTORS
330
C
102
}
330
C
100
AcDbDictionary
  0
RASTERVARIABLES
  5
DC
102
{ACAD_REACTORS
330
C
102
}
330
C
100
AcDbRasterVariables
 90
        0
 70
     1
 71
     1
 72
     5
  0
DICTIONARY
  5
17
102
{ACAD_REACTORS
330
C
102
}
330
C
100
AcDbDictionary
  3
STANDARD
350
18
  0
DICTIONARY
  5
B6
102
{ACAD_REACTORS
330
C
102
}
330
C
100
AcDbDictionary
  0
DICTIONARY
  5
123
102
{ACAD_REACTORS
330
C
102
}
330
C
100
AcDbDictionary
  0
DICTIONARY
  5
66
102
{ACAD_REACTORS
330
C
102
}
330
C
100
AcDbDictionary
  3
DIMASSOC
350
67
  3
HIDETEXT
350
6B
  0
DICTIONARY
  5
E1
102
{ACAD_REACTORS
330
C
102
}
330
C
100
AcDbDictionary
  0
XRECORD
  5
13AA
102
{ACAD_REACTORS
330
C
102
}
330
C
100
AcDbXrecord
  1
DWGPROPS COOKIE
  2

  3

  4

  6

  7

  8
jaromir.podrabsky
  9

300
=
301
=
302
=
303
=
304
=
305
=
306
=
307
=
308
=
309
=
 40
0.0
 41
2452643.063384271
 42
2457091.422863658
  1

 90
        0
  0
DICTIONARY
  5
1329
102
{ACAD_REACTORS
330
1326
102
}
330
1326
100
AcDbDictionary
  0
DICTIONARY
  5
132E
102
{ACAD_REACTORS
330
1326
102
}
330
1326
100
AcDbDictionary
1001
ACAD
1000
<All
  0
MLINESTYLE
  5
18
102
{ACAD_REACTORS
330
17
102
}
330
17
100
AcDbMlineStyle
  2
STANDARD
 70
     0
  3

 62
   256
 51
90.0
 52
90.0
 71
     2
 49
0.5
 62
   256
  6
BYLAYER
 49
-0.5
 62
   256
  6
BYLAYER
  0
DICTIONARYVAR
  5
67
102
{ACAD_REACTORS
330
66
102
}
330
66
100
DictionaryVariables
280
     0
  1
2
  0
DICTIONARYVAR
  5
6B
102
{ACAD_REACTORS
330
66
102
}
330
66
100
DictionaryVariables
280
     0
  1
1
  0
ENDSEC
  0
EOF
