  0
SECTION
  2
HEADER
  9
$ACADVER
  1
AC1014
  9
$ACADMAINTVER
 70
     9
  9
$DWGCODEPAGE
  3
ANSI_1250
  9
$INSBASE
 10
0.0
 20
0.0
 30
0.0
  9
$EXTMIN
 10
37.32493060588672
 20
15.54609222185596
 30
0.0
  9
$EXTMAX
 10
153.1100091800653
 20
116.1665404915275
 30
0.0
  9
$LIMMIN
 10
0.0
 20
0.0
  9
$LIMMAX
 10
12.0
 20
9.0
  9
$ORTHOMODE
 70
     0
  9
$REGENMODE
 70
     1
  9
$FILLMODE
 70
     1
  9
$QTEXTMODE
 70
     0
  9
$MIRRTEXT
 70
     0
  9
$DRAGMODE
 70
     2
  9
$LTSCALE
 40
1.0
  9
$OSMODE
 70
 15359
  9
$ATTMODE
 70
     1
  9
$TEXTSIZE
 40
0.2
  9
$TRACEWID
 40
0.05
  9
$TEXTSTYLE
  7
STANDARD
  9
$CLAYER
  8
KOTY
  9
$CELTYPE
  6
BYLAYER
  9
$CECOLOR
 62
   256
  9
$CELTSCALE
 40
1.0
  9
$DELOBJ
 70
     1
  9
$DISPSILH
 70
     0
  9
$DIMSCALE
 40
1.0
  9
$DIMASZ
 40
0.18
  9
$DIMEXO
 40
0.0625
  9
$DIMDLI
 40
0.38
  9
$DIMRND
 40
0.0
  9
$DIMDLE
 40
0.0
  9
$DIMEXE
 40
0.18
  9
$DIMTP
 40
0.0
  9
$DIMTM
 40
0.0
  9
$DIMTXT
 40
0.18
  9
$DIMCEN
 40
0.09
  9
$DIMTSZ
 40
0.0
  9
$DIMTOL
 70
     0
  9
$DIMLIM
 70
     0
  9
$DIMTIH
 70
     1
  9
$DIMTOH
 70
     1
  9
$DIMSE1
 70
     0
  9
$DIMSE2
 70
     0
  9
$DIMTAD
 70
     0
  9
$DIMZIN
 70
     0
  9
$DIMBLK
  1

  9
$DIMASO
 70
     1
  9
$DIMSHO
 70
     1
  9
$DIMPOST
  1

  9
$DIMAPOST
  1

  9
$DIMALT
 70
     0
  9
$DIMALTD
 70
     2
  9
$DIMALTF
 40
25.4
  9
$DIMLFAC
 40
1.0
  9
$DIMTOFL
 70
     0
  9
$DIMTVP
 40
0.0
  9
$DIMTIX
 70
     0
  9
$DIMSOXD
 70
     0
  9
$DIMSAH
 70
     0
  9
$DIMBLK1
  1

  9
$DIMBLK2
  1

  9
$DIMSTYLE
  2
STANDARD
  9
$DIMCLRD
 70
     0
  9
$DIMCLRE
 70
     0
  9
$DIMCLRT
 70
     0
  9
$DIMTFAC
 40
1.0
  9
$DIMGAP
 40
0.09
  9
$DIMJUST
 70
     0
  9
$DIMSD1
 70
     0
  9
$DIMSD2
 70
     0
  9
$DIMTOLJ
 70
     1
  9
$DIMTZIN
 70
     0
  9
$DIMALTZ
 70
     0
  9
$DIMALTTZ
 70
     0
  9
$DIMFIT
 70
     5
  9
$DIMUPT
 70
     0
  9
$DIMUNIT
 70
     2
  9
$DIMDEC
 70
     4
  9
$DIMTDEC
 70
     4
  9
$DIMALTU
 70
     2
  9
$DIMALTTD
 70
     2
  9
$DIMTXSTY
  7
STANDARD
  9
$DIMAUNIT
 70
     0
  9
$LUNITS
 70
     2
  9
$LUPREC
 70
     4
  9
$SKETCHINC
 40
0.1
  9
$FILLETRAD
 40
0.0
  9
$AUNITS
 70
     0
  9
$AUPREC
 70
     0
  9
$MENU
  1
.
  9
$ELEVATION
 40
0.0
  9
$PELEVATION
 40
0.0
  9
$THICKNESS
 40
0.0
  9
$LIMCHECK
 70
     0
  9
$CHAMFERA
 40
0.0
  9
$CHAMFERB
 40
0.0
  9
$CHAMFERC
 40
0.0
  9
$CHAMFERD
 40
0.0
  9
$SKPOLY
 70
     0
  9
$TDCREATE
 40
2452643.105050926
  9
$TDUPDATE
 40
2456764.560214352
  9
$TDINDWG
 40
0.0171825463
  9
$TDUSRTIMER
 40
2456764.474437106
  9
$USRTIMER
 70
     1
  9
$ANGBASE
 50
0.0
  9
$ANGDIR
 70
     0
  9
$PDMODE
 70
     0
  9
$PDSIZE
 40
0.0
  9
$PLINEWID
 40
0.0
  9
$COORDS
 70
     2
  9
$SPLFRAME
 70
     0
  9
$SPLINETYPE
 70
     6
  9
$SPLINESEGS
 70
     8
  9
$ATTDIA
 70
     0
  9
$ATTREQ
 70
     1
  9
$HANDLING
 70
     1
  9
$HANDSEED
  5
2FA
  9
$SURFTAB1
 70
     6
  9
$SURFTAB2
 70
     6
  9
$SURFTYPE
 70
     6
  9
$SURFU
 70
     6
  9
$SURFV
 70
     6
  9
$UCSNAME
  2

  9
$UCSORG
 10
0.0
 20
0.0
 30
0.0
  9
$UCSXDIR
 10
1.0
 20
0.0
 30
0.0
  9
$UCSYDIR
 10
0.0
 20
1.0
 30
0.0
  9
$PUCSNAME
  2

  9
$PUCSORG
 10
0.0
 20
0.0
 30
0.0
  9
$PUCSXDIR
 10
1.0
 20
0.0
 30
0.0
  9
$PUCSYDIR
 10
0.0
 20
1.0
 30
0.0
  9
$USERI1
 70
     0
  9
$USERI2
 70
     0
  9
$USERI3
 70
     0
  9
$USERI4
 70
     0
  9
$USERI5
 70
     0
  9
$USERR1
 40
0.0
  9
$USERR2
 40
0.0
  9
$USERR3
 40
0.0
  9
$USERR4
 40
0.0
  9
$USERR5
 40
0.0
  9
$WORLDVIEW
 70
     1
  9
$SHADEDGE
 70
     3
  9
$SHADEDIF
 70
    70
  9
$TILEMODE
 70
     0
  9
$MAXACTVP
 70
    64
  9
$PINSBASE
 10
0.0
 20
0.0
 30
0.0
  9
$PLIMCHECK
 70
     0
  9
$PEXTMIN
 10
1.05
 20
0.7999999999999998
 30
0.0
  9
$PEXTMAX
 10
9.45
 20
7.2
 30
0.0
  9
$PLIMMIN
 10
0.8500000000000006
 20
0.5999999999999998
  9
$PLIMMAX
 10
9.650000000000002
 20
7.4
  9
$UNITMODE
 70
     0
  9
$VISRETAIN
 70
     1
  9
$PLINEGEN
 70
     0
  9
$PSLTSCALE
 70
     1
  9
$TREEDEPTH
 70
  3020
  9
$PICKSTYLE
 70
     0
  9
$CMLSTYLE
  2
STANDARD
  9
$CMLJUST
 70
     0
  9
$CMLSCALE
 40
1.0
  9
$PROXYGRAPHICS
 70
     1
  9
$MEASUREMENT
 70
     0
  0
ENDSEC
  0
SECTION
  2
CLASSES
  0
CLASS
  1
ACDBDICTIONARYWDFLT
  2
AcDbDictionaryWithDefault
  3
ObjectDBX Classes
 90
        0
280
     0
281
     0
  0
CLASS
  1
ACDBPLACEHOLDER
  2
AcDbPlaceHolder
  3
ObjectDBX Classes
 90
        0
280
     0
281
     0
  0
CLASS
  1
LAYOUT
  2
AcDbLayout
  3
ObjectDBX Classes
 90
        0
280
     0
281
     0
  0
CLASS
  1
DICTIONARYVAR
  2
AcDbDictionaryVar
  3
ObjectDBX Classes
 90
        0
280
     0
281
     0
  0
CLASS
  1
TABLESTYLE
  2
AcDbTableStyle
  3
ObjectDBX Classes
 90
     4095
280
     0
281
     0
  0
CLASS
  1
MATERIAL
  2
AcDbMaterial
  3
ObjectDBX Classes
 90
     1153
280
     0
281
     0
  0
CLASS
  1
VISUALSTYLE
  2
AcDbVisualStyle
  3
ObjectDBX Classes
 90
     4095
280
     0
281
     0
  0
CLASS
  1
SCALE
  2
AcDbScale
  3
ObjectDBX Classes
 90
     1153
280
     0
281
     0
  0
CLASS
  1
CELLSTYLEMAP
  2
AcDbCellStyleMap
  3
ObjectDBX Classes
 90
     1152
280
     0
281
     0
  0
CLASS
  1
RASTERVARIABLES
  2
AcDbRasterVariables
  3
ISM
 90
        0
280
     0
281
     0
  0
CLASS
  1
SUN
  2
AcDbSun
  3
SCENEOE
 90
     1153
280
     0
281
     0
  0
CLASS
  1
DIMASSOC
  2
AcDbDimAssoc
  3
"AcDbDimAssoc|Product Desc:     AcDim ARX App For Dimension|Company:          Autodesk, Inc.|WEB Address:      www.autodesk.com"
 90
        0
280
     0
281
     0
  0
CLASS
  1
XRECORD
  2
AcDbXrecord
  3
ObjectDBX Classes
 90
        0
280
     0
281
     0
  0
CLASS
  1
LWPOLYLINE
  2
AcDbPolyline
  3
ObjectDBX Classes
 90
        0
280
     0
281
     1
  0
CLASS
  1
HATCH
  2
AcDbHatch
  3
ObjectDBX Classes
 90
        0
280
     0
281
     1
  0
ENDSEC
  0
SECTION
  2
TABLES
  0
TABLE
  2
VPORT
  5
8
330
0
100
AcDbSymbolTable
 70
     1
  0
VPORT
  5
94
330
8
100
AcDbSymbolTableRecord
100
AcDbViewportTableRecord
  2
*ACTIVE
 70
     0
 10
0.0
 20
0.0
 11
1.0
 21
1.0
 12
132.2835885696458
 22
91.17433880382731
 13
0.0
 23
0.0
 14
0.5
 24
0.5
 15
0.5
 25
0.5
 16
0.0
 26
0.0
 36
1.0
 17
-27.66959356597998
 27
-19.53870295786203
 37
0.0
 40
138.609735368226
 41
1.259351620947631
 42
50.0
 43
0.0
 44
0.0
 50
0.0
 51
0.0
 71
    16
 72
  1000
 73
     1
 74
     3
 75
     0
 76
     0
 77
     0
 78
     0
  0
ENDTAB
  0
TABLE
  2
LTYPE
  5
5
330
0
100
AcDbSymbolTable
 70
     1
  0
LTYPE
  5
14
330
5
100
AcDbSymbolTableRecord
100
AcDbLinetypeTableRecord
  2
BYBLOCK
 70
     0
  3

 72
    65
 73
     0
 40
0.0
  0
LTYPE
  5
15
330
5
100
AcDbSymbolTableRecord
100
AcDbLinetypeTableRecord
  2
BYLAYER
 70
     0
  3
Solid line
 72
    65
 73
     0
 40
0.0
  0
LTYPE
  5
16
330
5
100
AcDbSymbolTableRecord
100
AcDbLinetypeTableRecord
  2
CONTINUOUS
 70
     0
  3
Solid line
 72
    65
 73
     0
 40
0.0
  0
ENDTAB
  0
TABLE
  2
LAYER
  5
2
102
{ACAD_XDICTIONARY
360
1EC
102
}
330
0
100
AcDbSymbolTable
 70
     5
  0
LAYER
  5
10
330
2
100
AcDbSymbolTableRecord
100
AcDbLayerTableRecord
  2
0
 70
     0
 62
     7
  6
CONTINUOUS
  0
LAYER
  5
125
330
2
100
AcDbSymbolTableRecord
100
AcDbLayerTableRecord
  2
KOTY
 70
     0
 62
     1
  6
CONTINUOUS
  0
LAYER
  5
127
330
2
100
AcDbSymbolTableRecord
100
AcDbLayerTableRecord
  2
OBRYS
 70
     0
 62
     5
  6
CONTINUOUS
  0
LAYER
  5
1EF
330
2
100
AcDbSymbolTableRecord
100
AcDbLayerTableRecord
  2
POTISK
 70
     0
 62
   250
  6
CONTINUOUS
1001
ACAECLAYERSTANDARD
1000

1000

  0
LAYER
  5
24F
330
2
100
AcDbSymbolTableRecord
100
AcDbLayerTableRecord
  2
DEFPOINTS
 70
     0
 62
     7
  6
CONTINUOUS
  0
ENDTAB
  0
TABLE
  2
STYLE
  5
3
330
0
100
AcDbSymbolTable
 70
     1
  0
STYLE
  5
11
330
3
100
AcDbSymbolTableRecord
100
AcDbTextStyleTableRecord
  2
STANDARD
 70
     0
 40
0.0
 41
1.0
 50
0.0
 71
     0
 42
0.2
  3
arial.ttf
  4

1001
ACAD
1000
Arial
1071
        0
  0
ENDTAB
  0
TABLE
  2
VIEW
  5
6
330
0
100
AcDbSymbolTable
 70
     0
  0
ENDTAB
  0
TABLE
  2
UCS
  5
7
330
0
100
AcDbSymbolTable
 70
     0
  0
ENDTAB
  0
TABLE
  2
APPID
  5
9
330
0
100
AcDbSymbolTable
 70
     2
  0
APPID
  5
12
330
9
100
AcDbSymbolTableRecord
100
AcDbRegAppTableRecord
  2
ACAD
 70
     0
  0
APPID
  5
1F0
330
9
100
AcDbSymbolTableRecord
100
AcDbRegAppTableRecord
  2
ACAECLAYERSTANDARD
 70
     0
  0
ENDTAB
  0
TABLE
  2
DIMSTYLE
  5
A
330
0
100
AcDbSymbolTable
 70
     2
  0
DIMSTYLE
105
27
102
{ACAD_REACTORS
330
250
330
260
330
270
330
283
102
}
330
A
100
AcDbSymbolTableRecord
100
AcDbDimStyleTableRecord
  2
STANDARD
 70
     0
  3

  4

  5

  6

  7

 40
1.0
 41
0.18
 42
0.0625
 43
0.38
 44
0.18
 45
0.0
 46
0.0
 47
0.0
 48
0.0
140
0.18
141
0.09
142
0.0
143
25.4
144
1.0
145
0.0
146
1.0
147
0.09
 71
     0
 72
     0
 73
     1
 74
     1
 75
     0
 76
     0
 77
     0
 78
     0
170
     0
171
     2
172
     0
173
     0
174
     0
175
     0
176
     0
177
     0
178
     0
270
     2
271
     4
272
     4
273
     2
274
     2
340
11
275
     0
280
     0
281
     0
282
     0
283
     1
284
     0
285
     0
286
     0
287
     3
288
     0
  0
DIMSTYLE
105
128
330
A
100
AcDbSymbolTableRecord
100
AcDbDimStyleTableRecord
  2
ISO-25
 70
     0
  3

  4

  5

  6

  7

 40
1.0
 41
6.0
 42
0.0
 43
3.75
 44
1.25
 45
0.0
 46
0.0
 47
0.0
 48
0.0
140
3.0
141
2.5
142
0.0
143
0.03937007874016
144
1.0
145
0.0
146
1.0
147
0.625
 71
     0
 72
     0
 73
     0
 74
     1
 75
     0
 76
     0
 77
     1
 78
     8
170
     0
171
     3
172
     1
173
     0
174
     0
175
     0
176
     5
177
     5
178
     5
270
     2
271
     4
272
     4
273
     2
274
     2
340
11
275
     0
280
     0
281
     0
282
     0
283
     1
284
     0
285
     0
286
     0
287
     3
288
     0
  0
ENDTAB
  0
TABLE
  2
BLOCK_RECORD
  5
1
330
0
100
AcDbSymbolTable
 70
     7
  0
BLOCK_RECORD
  5
1F
330
1
100
AcDbSymbolTableRecord
100
AcDbBlockTableRecord
  2
*MODEL_SPACE
  0
BLOCK_RECORD
  5
296
330
1
100
AcDbSymbolTableRecord
100
AcDbBlockTableRecord
  2
*PAPER_SPACE
  0
BLOCK_RECORD
  5
253
330
1
100
AcDbSymbolTableRecord
100
AcDbBlockTableRecord
  2
*D0
  0
BLOCK_RECORD
  5
263
330
1
100
AcDbSymbolTableRecord
100
AcDbBlockTableRecord
  2
*D1
  0
BLOCK_RECORD
  5
273
330
1
100
AcDbSymbolTableRecord
100
AcDbBlockTableRecord
  2
*D2
  0
BLOCK_RECORD
  5
286
330
1
100
AcDbSymbolTableRecord
100
AcDbBlockTableRecord
  2
*D3
  0
BLOCK_RECORD
  5
2E4
330
1
100
AcDbSymbolTableRecord
100
AcDbBlockTableRecord
  2
_CLOSEDBLANK
  0
BLOCK_RECORD
  5
2EA
330
1
100
AcDbSymbolTableRecord
100
AcDbBlockTableRecord
  2
_CLOSED
  0
BLOCK_RECORD
  5
2F1
330
1
100
AcDbSymbolTableRecord
100
AcDbBlockTableRecord
  2
_DOT
  0
ENDTAB
  0
ENDSEC
  0
SECTION
  2
BLOCKS
  0
BLOCK
  5
20
330
1F
100
AcDbEntity
  8
0
100
AcDbBlockBegin
  2
*MODEL_SPACE
 70
     0
 10
0.0
 20
0.0
 30
0.0
  3
*MODEL_SPACE
  1

  0
ENDBLK
  5
21
330
1F
100
AcDbEntity
  8
0
100
AcDbBlockEnd
  0
BLOCK
  5
298
330
296
100
AcDbEntity
 67
     1
  8
0
100
AcDbBlockBegin
  2
*PAPER_SPACE
 70
     0
 10
0.0
 20
0.0
 30
0.0
  3
*PAPER_SPACE
  1

  0
ENDBLK
  5
299
330
296
100
AcDbEntity
 67
     1
  8
0
100
AcDbBlockEnd
  0
BLOCK
  5
254
330
253
100
AcDbEntity
  8
0
100
AcDbBlockBegin
  2
*D0
 70
     1
 10
0.0
 20
0.0
 30
0.0
  3
*D0
  1
*D4
  0
LINE
  5
256
330
253
100
AcDbEntity
  8
KOTY
 62
     0
100
AcDbLine
 10
135.1100091800653
 20
26.10404049152867
 30
0.0
 11
135.1100091800653
 21
15.86609222185596
 31
0.0
  0
LINE
  5
257
330
253
100
AcDbEntity
  8
KOTY
 62
     0
100
AcDbLine
 10
153.1100091800653
 20
26.10404049152867
 30
0.0
 11
153.1100091800653
 21
15.86609222185596
 31
0.0
  0
LINE
  5
258
330
253
100
AcDbEntity
  8
KOTY
 62
     0
100
AcDbLine
 10
139.1100091800653
 20
16.04609222185596
 30
0.0
 11
149.1100091800653
 21
16.04609222185596
 31
0.0
  0
SOLID
  5
259
330
253
100
AcDbEntity
  8
KOTY
 62
     0
100
AcDbTrace
 10
139.1100091800653
 20
16.71275888852263
 30
0.0
 11
139.1100091800653
 21
15.37942555518929
 31
0.0
 12
135.1100091800653
 22
16.04609222185596
 32
0.0
 13
135.1100091800653
 23
16.04609222185596
 33
0.0
  0
SOLID
  5
25A
330
253
100
AcDbEntity
  8
KOTY
 62
     0
100
AcDbTrace
 10
149.1100091800653
 20
15.37942555518929
 30
0.0
 11
149.1100091800653
 21
16.71275888852263
 31
0.0
 12
153.1100091800653
 22
16.04609222185596
 32
0.0
 13
153.1100091800653
 23
16.04609222185596
 33
0.0
  0
MTEXT
  5
25B
330
253
100
AcDbEntity
  8
KOTY
 62
     0
100
AcDbMText
 10
144.1100091800653
 20
19.08809222185596
 30
0.0
 40
4.0
 41
0.0
 71
     5
 72
     1
  1
\A1;18
  0
POINT
  5
25C
330
253
100
AcDbEntity
  8
DEFPOINTS
 62
     0
100
AcDbPoint
 10
135.1100091800653
 20
26.16654049152867
 30
0.0
  0
POINT
  5
25D
330
253
100
AcDbEntity
  8
DEFPOINTS
 62
     0
100
AcDbPoint
 10
153.1100091800653
 20
26.16654049152867
 30
0.0
  0
POINT
  5
25E
330
253
100
AcDbEntity
  8
DEFPOINTS
 62
     0
100
AcDbPoint
 10
153.1100091800653
 20
16.04609222185596
 30
0.0
  0
ENDBLK
  5
255
330
253
100
AcDbEntity
  8
0
100
AcDbBlockEnd
  0
BLOCK
  5
264
330
263
100
AcDbEntity
  8
0
100
AcDbBlockBegin
  2
*D1
 70
     1
 10
0.0
 20
0.0
 30
0.0
  3
*D1
  1
*D5
  0
LINE
  5
266
330
263
100
AcDbEntity
  8
KOTY
 62
     0
100
AcDbLine
 10
59.3103763694407
 20
48.60404049152867
 30
0.0
 11
59.3103763694407
 21
15.86609222185596
 31
0.0
  0
LINE
  5
267
330
263
100
AcDbEntity
  8
KOTY
 62
     0
100
AcDbLine
 10
112.3103763694407
 20
51.10404049152867
 30
0.0
 11
112.3103763694407
 21
15.86609222185596
 31
0.0
  0
LINE
  5
268
330
263
100
AcDbEntity
  8
KOTY
 62
     0
100
AcDbLine
 10
63.3103763694407
 20
16.04609222185596
 30
0.0
 11
108.3103763694407
 21
16.04609222185596
 31
0.0
  0
SOLID
  5
269
330
263
100
AcDbEntity
  8
KOTY
 62
     0
100
AcDbTrace
 10
63.3103763694407
 20
16.71275888852263
 30
0.0
 11
63.3103763694407
 21
15.37942555518929
 31
0.0
 12
59.3103763694407
 22
16.04609222185596
 32
0.0
 13
59.3103763694407
 23
16.04609222185596
 33
0.0
  0
SOLID
  5
26A
330
263
100
AcDbEntity
  8
KOTY
 62
     0
100
AcDbTrace
 10
108.3103763694407
 20
15.37942555518929
 30
0.0
 11
108.3103763694407
 21
16.71275888852263
 31
0.0
 12
112.3103763694407
 22
16.04609222185596
 32
0.0
 13
112.3103763694407
 23
16.04609222185596
 33
0.0
  0
MTEXT
  5
26B
330
263
100
AcDbEntity
  8
KOTY
 62
     0
100
AcDbMText
 10
85.8103763694407
 20
19.08809222185596
 30
0.0
 40
4.0
 41
0.0
 71
     5
 72
     1
  1
\A1;53
  0
POINT
  5
26C
330
263
100
AcDbEntity
  8
DEFPOINTS
 62
     0
100
AcDbPoint
 10
59.3103763694407
 20
48.66654049152867
 30
0.0
  0
POINT
  5
26D
330
263
100
AcDbEntity
  8
DEFPOINTS
 62
     0
100
AcDbPoint
 10
112.3103763694407
 20
51.16654049152867
 30
0.0
  0
POINT
  5
26E
330
263
100
AcDbEntity
  8
DEFPOINTS
 62
     0
100
AcDbPoint
 10
112.3103763694407
 20
16.04609222185596
 30
0.0
  0
ENDBLK
  5
265
330
263
100
AcDbEntity
  8
0
100
AcDbBlockEnd
  0
BLOCK
  5
274
330
273
100
AcDbEntity
  8
0
100
AcDbBlockBegin
  2
*D2
 70
     1
 10
0.0
 20
0.0
 30
0.0
  3
*D2
  1
*D6
  0
LINE
  5
276
330
273
100
AcDbEntity
  8
KOTY
 62
     0
100
AcDbLine
 10
59.2478763694407
 20
93.66654049152868
 30
0.0
 11
51.4014425399509
 21
93.66654049152868
 31
0.0
  0
LINE
  5
277
330
273
100
AcDbEntity
  8
KOTY
 62
     0
100
AcDbLine
 10
59.2478763694407
 20
48.60404049152867
 30
0.0
 11
51.4014425399509
 21
48.60404049152867
 31
0.0
  0
LINE
  5
278
330
273
100
AcDbEntity
  8
KOTY
 62
     0
100
AcDbLine
 10
51.5814425399509
 20
89.66654049152868
 30
0.0
 11
51.5814425399509
 21
52.60404049152867
 31
0.0
  0
SOLID
  5
279
330
273
100
AcDbEntity
  8
KOTY
 62
     0
100
AcDbTrace
 10
52.24810920661756
 20
89.66654049152868
 30
0.0
 11
50.91477587328423
 21
89.66654049152868
 31
0.0
 12
51.5814425399509
 22
93.66654049152868
 32
0.0
 13
51.5814425399509
 23
93.66654049152868
 33
0.0
  0
SOLID
  5
27A
330
273
100
AcDbEntity
  8
KOTY
 62
     0
100
AcDbTrace
 10
50.91477587328423
 20
52.60404049152867
 30
0.0
 11
52.24810920661756
 21
52.60404049152867
 31
0.0
 12
51.5814425399509
 22
48.60404049152867
 32
0.0
 13
51.5814425399509
 23
48.60404049152867
 33
0.0
  0
MTEXT
  5
27B
330
273
100
AcDbEntity
  8
KOTY
 62
     0
100
AcDbMText
 10
48.54744253995089
 20
71.13529049152868
 30
0.0
 40
4.0
 41
0.0
 71
     5
 72
     1
  1
\A1;45
 11
0.0
 21
1.0
 31
0.0
  0
POINT
  5
27C
330
273
100
AcDbEntity
  8
DEFPOINTS
 62
     0
100
AcDbPoint
 10
59.3103763694407
 20
93.66654049152868
 30
0.0
  0
POINT
  5
27D
330
273
100
AcDbEntity
  8
DEFPOINTS
 62
     0
100
AcDbPoint
 10
59.3103763694407
 20
48.60404049152867
 30
0.0
  0
POINT
  5
27E
330
273
100
AcDbEntity
  8
DEFPOINTS
 62
     0
100
AcDbPoint
 10
51.5814425399509
 20
48.60404049152867
 30
0.0
  0
ENDBLK
  5
275
330
273
100
AcDbEntity
  8
0
100
AcDbBlockEnd
  0
BLOCK
  5
287
330
286
100
AcDbEntity
  8
0
100
AcDbBlockBegin
  2
*D3
 70
     1
 10
0.0
 20
0.0
 30
0.0
  3
*D3
  1
*D7
  0
LINE
  5
289
330
286
100
AcDbEntity
  8
KOTY
 62
     0
100
AcDbLine
 10
81.74787636944048
 20
26.16654049152867
 30
0.0
 11
41.21393060588672
 21
26.16654049152866
 31
0.0
  0
LINE
  5
28A
330
286
100
AcDbEntity
  8
KOTY
 62
     0
100
AcDbLine
 10
81.74787636944048
 20
116.1665404915275
 30
0.0
 11
41.21393060588672
 21
116.1665404915275
 31
0.0
  0
LINE
  5
28B
330
286
100
AcDbEntity
  8
KOTY
 62
     0
100
AcDbLine
 10
41.39393060588672
 20
30.16654049152866
 30
0.0
 11
41.39393060588672
 21
112.1665404915275
 31
0.0
  0
SOLID
  5
28C
330
286
100
AcDbEntity
  8
KOTY
 62
     0
100
AcDbTrace
 10
40.72726393922005
 20
30.16654049152866
 30
0.0
 11
42.06059727255338
 21
30.16654049152866
 31
0.0
 12
41.39393060588672
 22
26.16654049152866
 32
0.0
 13
41.39393060588672
 23
26.16654049152866
 33
0.0
  0
SOLID
  5
28D
330
286
100
AcDbEntity
  8
KOTY
 62
     0
100
AcDbTrace
 10
42.06059727255339
 20
112.1665404915275
 30
0.0
 11
40.72726393922006
 21
112.1665404915275
 31
0.0
 12
41.39393060588672
 22
116.1665404915275
 32
0.0
 13
41.39393060588672
 23
116.1665404915275
 33
0.0
  0
MTEXT
  5
28E
330
286
100
AcDbEntity
  8
KOTY
 62
     0
100
AcDbMText
 10
38.35193060588672
 20
71.16654049152808
 30
0.0
 40
4.0
 41
0.0
 71
     5
 72
     1
  1
\A1;90
 11
7.894919286223438E-17
 21
1.0
 31
0.0
  0
POINT
  5
28F
330
286
100
AcDbEntity
  8
DEFPOINTS
 62
     0
100
AcDbPoint
 10
81.81037636944048
 20
26.16654049152867
 30
0.0
  0
POINT
  5
290
330
286
100
AcDbEntity
  8
DEFPOINTS
 62
     0
100
AcDbPoint
 10
81.81037636944048
 20
116.1665404915275
 30
0.0
  0
POINT
  5
291
330
286
100
AcDbEntity
  8
DEFPOINTS
 62
     0
100
AcDbPoint
 10
41.39393060588672
 20
116.1665404915275
 30
0.0
  0
ENDBLK
  5
288
330
286
100
AcDbEntity
  8
0
100
AcDbBlockEnd
  0
BLOCK
  5
2E5
330
2E4
100
AcDbEntity
  8
0
100
AcDbBlockBegin
  2
_CLOSEDBLANK
 70
     0
 10
0.0
 20
0.0
 30
0.0
  3
_CLOSEDBLANK
  1
_CLOSEDBLANK
  0
LINE
  5
2E7
330
2E4
100
AcDbEntity
  8
0
  6
BYBLOCK
 62
     0
100
AcDbLine
 10
-1.0
 20
0.166667
 30
0.0
 11
0.0
 21
0.0
 31
0.0
  0
LINE
  5
2E8
330
2E4
100
AcDbEntity
  8
0
  6
BYBLOCK
 62
     0
100
AcDbLine
 10
0.0
 20
0.0
 30
0.0
 11
-1.0
 21
-0.166667
 31
0.0
  0
LINE
  5
2E9
330
2E4
100
AcDbEntity
  8
0
  6
BYBLOCK
 62
     0
100
AcDbLine
 10
-1.0
 20
0.166667
 30
0.0
 11
-1.0
 21
-0.166667
 31
0.0
  0
ENDBLK
  5
2E6
330
2E4
100
AcDbEntity
  8
0
100
AcDbBlockEnd
  0
BLOCK
  5
2EB
330
2EA
100
AcDbEntity
  8
0
100
AcDbBlockBegin
  2
_CLOSED
 70
     0
 10
0.0
 20
0.0
 30
0.0
  3
_CLOSED
  1
_CLOSED
  0
LINE
  5
2ED
330
2EA
100
AcDbEntity
  8
0
  6
BYBLOCK
 62
     0
100
AcDbLine
 10
-1.0
 20
0.166667
 30
0.0
 11
0.0
 21
0.0
 31
0.0
  0
LINE
  5
2EE
330
2EA
100
AcDbEntity
  8
0
  6
BYBLOCK
 62
     0
100
AcDbLine
 10
0.0
 20
0.0
 30
0.0
 11
-1.0
 21
-0.166667
 31
0.0
  0
LINE
  5
2EF
330
2EA
100
AcDbEntity
  8
0
  6
BYBLOCK
 62
     0
100
AcDbLine
 10
-1.0
 20
0.166667
 30
0.0
 11
-1.0
 21
-0.166667
 31
0.0
  0
LINE
  5
2F0
330
2EA
100
AcDbEntity
  8
0
  6
BYBLOCK
 62
     0
100
AcDbLine
 10
0.0
 20
0.0
 30
0.0
 11
-1.0
 21
0.0
 31
0.0
  0
ENDBLK
  5
2EC
330
2EA
100
AcDbEntity
  8
0
100
AcDbBlockEnd
  0
BLOCK
  5
2F2
330
2F1
100
AcDbEntity
  8
0
100
AcDbBlockBegin
  2
_DOT
 70
     0
 10
0.0
 20
0.0
 30
0.0
  3
_DOT
  1
_DOT
  0
POLYLINE
  5
2F4
330
2F1
100
AcDbEntity
  8
0
  6
BYBLOCK
 62
     0
100
AcDb2dPolyline
 66
     1
 10
0.0
 20
0.0
 30
0.0
 70
     1
 40
0.5
 41
0.5
  0
VERTEX
  5
2F6
330
2F4
100
AcDbEntity
  8
0
  6
BYBLOCK
 62
     0
100
AcDbVertex
100
AcDb2dVertex
 10
-0.25
 20
0.0
 30
0.0
 42
1.0
  0
VERTEX
  5
2F7
330
2F4
100
AcDbEntity
  8
0
  6
BYBLOCK
 62
     0
100
AcDbVertex
100
AcDb2dVertex
 10
0.25
 20
0.0
 30
0.0
 42
1.0
  0
SEQEND
  5
2F8
330
2F4
100
AcDbEntity
  8
0
  6
BYBLOCK
 62
     0
  0
LINE
  5
2F5
330
2F1
100
AcDbEntity
  8
0
  6
BYBLOCK
 62
     0
100
AcDbLine
 10
-0.5
 20
0.0
 30
0.0
 11
-1.0
 21
0.0
 31
0.0
  0
ENDBLK
  5
2F3
330
2F1
100
AcDbEntity
  8
0
100
AcDbBlockEnd
  0
ENDSEC
  0
SECTION
  2
ENTITIES
  0
LINE
  5
19B
330
1F
100
AcDbEntity
  8
OBRYS
100
AcDbLine
 10
59.3103763694407
 20
93.66654049152868
 30
0.0
 11
67.3103763694407
 21
93.66654049152868
 31
0.0
  0
LINE
  5
19C
330
1F
100
AcDbEntity
  8
OBRYS
100
AcDbLine
 10
67.3103763694407
 20
93.66654049152868
 30
0.0
 11
67.3103763694407
 21
101.6665404915275
 31
0.0
  0
LINE
  5
19D
330
1F
100
AcDbEntity
  8
OBRYS
100
AcDbLine
 10
59.3103763694407
 20
48.66654049152867
 30
0.0
 11
67.3103763694407
 21
48.66654049152867
 31
0.0
  0
LINE
  5
19E
330
1F
100
AcDbEntity
  8
OBRYS
100
AcDbLine
 10
67.3103763694407
 20
48.66654049152867
 30
0.0
 11
67.3103763694407
 21
40.66654049152867
 31
0.0
  0
LINE
  5
19F
330
1F
100
AcDbEntity
  8
OBRYS
100
AcDbLine
 10
59.3103763694407
 20
93.66654049152868
 30
0.0
 11
59.3103763694407
 21
48.66654049152867
 31
0.0
  0
ARC
  5
1A0
330
1F
100
AcDbEntity
  8
OBRYS
100
AcDbCircle
 10
80.65431655681387
 20
102.8226003041555
 30
0.0
 40
1.166545736560447
100
AcDbArc
 50
277.6880456197283
 51
352.3119543802829
  0
ARC
  5
1A1
330
1F
100
AcDbEntity
  8
OBRYS
100
AcDbCircle
 10
80.81037636944059
 20
39.66654049152867
 30
0.0
 40
1.0
100
AcDbArc
 50
0.0
 51
90.0
  0
LINE
  5
1A2
330
1F
100
AcDbEntity
  8
OBRYS
100
AcDbLine
 10
67.3103763694407
 20
40.66654049152867
 30
0.0
 11
80.81037636944059
 21
40.66654049152867
 31
0.0
  0
LINE
  5
1A3
330
1F
100
AcDbEntity
  8
OBRYS
100
AcDbLine
 10
81.81037636944048
 20
39.66654049152867
 30
0.0
 11
81.81037636944048
 21
26.16654049152867
 31
0.0
  0
LINE
  5
1A4
330
1F
100
AcDbEntity
  8
OBRYS
100
AcDbLine
 10
67.3103763694407
 20
101.6665404915275
 30
0.0
 11
80.81037636944059
 21
101.6665404915275
 31
0.0
  0
LINE
  5
1A5
330
1F
100
AcDbEntity
  8
OBRYS
100
AcDbLine
 10
81.81037636944048
 20
102.6665404915287
 30
0.0
 11
81.81037636944048
 21
116.1665404915275
 31
0.0
  0
LINE
  5
1A6
330
1F
100
AcDbEntity
  8
OBRYS
100
AcDbLine
 10
112.3103763694407
 20
91.16654049152868
 30
0.0
 11
112.3103763694407
 21
51.16654049152867
 31
0.0
  0
LINE
  5
1A7
330
1F
100
AcDbEntity
  8
OBRYS
100
AcDbLine
 10
80.81037636944059
 20
40.66654049152867
 30
0.0
 11
85.81037636944048
 21
40.66654049152867
 31
0.0
  0
LINE
  5
1A8
330
1F
100
AcDbEntity
  8
OBRYS
100
AcDbLine
 10
85.81037636944048
 20
40.66654049152867
 30
0.0
 11
85.81037636944048
 21
26.16654049152867
 31
0.0
  0
LINE
  5
1A9
330
1F
100
AcDbEntity
  8
OBRYS
100
AcDbLine
 10
80.81037636944059
 20
101.6665404915275
 30
0.0
 11
85.81037636944059
 21
101.6665404915275
 31
0.0
  0
LINE
  5
1AA
330
1F
100
AcDbEntity
  8
OBRYS
100
AcDbLine
 10
85.81037636944059
 20
101.6665404915275
 30
0.0
 11
85.81037636944059
 21
116.1665404915275
 31
0.0
  0
LINE
  5
1AB
330
1F
100
AcDbEntity
  8
OBRYS
100
AcDbLine
 10
112.3103763694407
 20
51.16654049152867
 30
0.0
 11
117.3103763694407
 21
51.16654049152867
 31
0.0
  0
LINE
  5
1AC
330
1F
100
AcDbEntity
  8
OBRYS
100
AcDbLine
 10
81.81037636944048
 20
26.16654049152867
 30
0.0
 11
117.3103763694407
 21
26.16654049152867
 31
0.0
  0
LINE
  5
1AD
330
1F
100
AcDbEntity
  8
OBRYS
100
AcDbLine
 10
117.3103763694407
 20
26.16654049152867
 30
0.0
 11
117.3103763694407
 21
51.16654049152867
 31
0.0
  0
LINE
  5
1AE
330
1F
100
AcDbEntity
  8
OBRYS
100
AcDbLine
 10
113.9688566033518
 20
51.16654049152867
 30
0.0
 11
113.9688566033518
 21
55.28728737141551
 31
0.0
  0
LINE
  5
1AF
330
1F
100
AcDbEntity
  8
OBRYS
100
AcDbLine
 10
113.9688566033518
 20
55.28728737141551
 30
0.0
 11
115.273940335047
 21
55.28728737141551
 31
0.0
  0
LINE
  5
1B0
330
1F
100
AcDbEntity
  8
OBRYS
100
AcDbLine
 10
117.3103763694407
 20
51.16654049152867
 30
0.0
 11
117.3103763694407
 21
51.16654049152867
 31
0.0
  0
LINE
  5
1B1
330
1F
100
AcDbEntity
  8
OBRYS
100
AcDbLine
 10
117.3103763694407
 20
51.16654049152867
 30
0.0
 11
115.273940335047
 21
55.28728737141551
 31
0.0
  0
LINE
  5
1B2
330
1F
100
AcDbEntity
  8
OBRYS
100
AcDbLine
 10
112.3103763694407
 20
91.16654049152868
 30
0.0
 11
114.8103763694405
 21
91.16654049152868
 31
0.0
  0
LINE
  5
1B3
330
1F
100
AcDbEntity
  8
OBRYS
100
AcDbLine
 10
114.8103763694405
 20
91.16654049152868
 30
0.0
 11
116.5759903562011
 21
89.39662319126961
 31
0.0
  0
LINE
  5
1B4
330
1F
100
AcDbEntity
  8
OBRYS
100
AcDbLine
 10
116.5759903562011
 20
89.39662319126961
 30
0.0
 11
117.3103763694407
 21
89.39662319126961
 31
0.0
  0
LINE
  5
1B5
330
1F
100
AcDbEntity
  8
OBRYS
100
AcDbLine
 10
81.81037636944048
 20
116.1665404915275
 30
0.0
 11
117.3103763694407
 21
116.1665404915275
 31
0.0
  0
LINE
  5
1B6
330
1F
100
AcDbEntity
  8
OBRYS
100
AcDbLine
 10
117.3103763694407
 20
116.1665404915275
 30
0.0
 11
117.3103763694407
 21
89.39662319126961
 31
0.0
  0
LINE
  5
1B7
330
1F
100
AcDbEntity
  8
OBRYS
100
AcDbLine
 10
117.3103763694407
 20
26.16654049152867
 30
0.0
 11
117.3103763694407
 21
23.16654049152753
 31
0.0
  0
LINE
  5
1B8
330
1F
100
AcDbEntity
  8
OBRYS
100
AcDbLine
 10
113.9688566033518
 20
23.16654049152753
 30
0.0
 11
117.3103763694407
 21
23.16654049152753
 31
0.0
  0
LINE
  5
1B9
330
1F
100
AcDbEntity
  8
OBRYS
100
AcDbLine
 10
113.9688566033518
 20
23.16654049152753
 30
0.0
 11
113.9688566033518
 21
26.16654049152867
 31
0.0
  0
LINE
  5
1BA
330
1F
100
AcDbEntity
  8
OBRYS
100
AcDbLine
 10
153.1100091800653
 20
101.6665404915275
 30
0.0
 11
135.1100091800653
 21
101.6665404915275
 31
0.0
  0
LINE
  5
1BB
330
1F
100
AcDbEntity
  8
OBRYS
100
AcDbLine
 10
153.1100091800653
 20
93.66654049152868
 30
0.0
 11
135.1100091800653
 21
93.66654049152868
 31
0.0
  0
LINE
  5
1BC
330
1F
100
AcDbEntity
  8
OBRYS
100
AcDbLine
 10
153.1100091800653
 20
48.66654049152867
 30
0.0
 11
135.1100091800653
 21
48.66654049152867
 31
0.0
  0
LINE
  5
1BD
330
1F
100
AcDbEntity
  8
OBRYS
100
AcDbLine
 10
153.1100091800653
 20
40.66654049152867
 30
0.0
 11
135.1100091800653
 21
40.66654049152867
 31
0.0
  0
LINE
  5
1BE
330
1F
100
AcDbEntity
  8
OBRYS
100
AcDbLine
 10
141.1100091800653
 20
26.16654049152867
 30
0.0
 11
141.1100091800653
 21
23.16654049152753
 31
0.0
  0
LINE
  5
1BF
330
1F
100
AcDbEntity
  8
OBRYS
100
AcDbLine
 10
141.1100091800653
 20
23.16654049152753
 30
0.0
 11
147.1100091800653
 21
23.16654049152753
 31
0.0
  0
LINE
  5
1C0
330
1F
100
AcDbEntity
  8
OBRYS
100
AcDbLine
 10
147.1100091800653
 20
23.16654049152753
 30
0.0
 11
147.1100091800653
 21
26.16654049152867
 31
0.0
  0
LINE
  5
1C1
330
1F
100
AcDbEntity
  8
OBRYS
100
AcDbLine
 10
142.1100091800652
 20
26.16654049152867
 30
0.0
 11
142.1100091800652
 21
24.16654049152867
 31
0.0
  0
LINE
  5
1C2
330
1F
100
AcDbEntity
  8
OBRYS
100
AcDbLine
 10
142.1100091800652
 20
24.16654049152867
 30
0.0
 11
146.1100091800653
 21
24.16654049152867
 31
0.0
  0
LINE
  5
1C3
330
1F
100
AcDbEntity
  8
OBRYS
100
AcDbLine
 10
146.1100091800653
 20
24.16654049152867
 30
0.0
 11
146.1100091800653
 21
26.16654049152867
 31
0.0
  0
CIRCLE
  5
1C4
330
1F
100
AcDbEntity
  8
OBRYS
100
AcDbCircle
 10
144.1262599557494
 20
108.2805278103327
 30
0.0
 40
2.5
  0
CIRCLE
  5
1C5
330
1F
100
AcDbEntity
  8
OBRYS
100
AcDbCircle
 10
150.1262599557493
 20
108.2805278103327
 30
0.0
 40
2.5
  0
CIRCLE
  5
1C6
330
1F
100
AcDbEntity
  8
OBRYS
100
AcDbCircle
 10
138.1262599557493
 20
108.2805278103327
 30
0.0
 40
2.5
  0
CIRCLE
  5
1C7
330
1F
100
AcDbEntity
  8
OBRYS
100
AcDbCircle
 10
144.1728118609136
 20
34.27198416201764
 30
0.0
 40
2.5
  0
CIRCLE
  5
1C8
330
1F
100
AcDbEntity
  8
OBRYS
100
AcDbCircle
 10
150.1728118609136
 20
34.27198416201764
 30
0.0
 40
2.5
  0
CIRCLE
  5
1C9
330
1F
100
AcDbEntity
  8
OBRYS
100
AcDbCircle
 10
138.1728118609137
 20
34.27198416201764
 30
0.0
 40
2.5
  0
LINE
  5
1CB
330
1F
100
AcDbEntity
  8
OBRYS
100
AcDbLine
 10
135.6767702129661
 20
108.7805278103326
 30
0.0
 11
140.5757496985325
 21
108.7805278103327
 31
0.0
  0
LINE
  5
1CD
330
1F
100
AcDbEntity
  8
OBRYS
100
AcDbLine
 10
135.6767702129661
 20
107.7805278103327
 30
0.0
 11
140.5757496985325
 21
107.7805278103327
 31
0.0
  0
LINE
  5
1CF
330
1F
100
AcDbEntity
  8
OBRYS
100
AcDbLine
 10
141.6767702129662
 20
108.7805278103327
 30
0.0
 11
146.5757496985325
 21
108.7805278103327
 31
0.0
  0
LINE
  5
1D1
330
1F
100
AcDbEntity
  8
OBRYS
100
AcDbLine
 10
141.6767702129662
 20
107.7805278103327
 30
0.0
 11
146.5757496985325
 21
107.7805278103327
 31
0.0
  0
LINE
  5
1D3
330
1F
100
AcDbEntity
  8
OBRYS
100
AcDbLine
 10
147.6767702129661
 20
108.7805278103326
 30
0.0
 11
152.5757496985325
 21
108.7805278103327
 31
0.0
  0
LINE
  5
1D5
330
1F
100
AcDbEntity
  8
OBRYS
100
AcDbLine
 10
147.6767702129661
 20
107.7805278103327
 30
0.0
 11
152.5757496985325
 21
107.7805278103327
 31
0.0
  0
LINE
  5
1D7
330
1F
100
AcDbEntity
  8
OBRYS
100
AcDbLine
 10
135.7233221181305
 20
34.77198416201765
 30
0.0
 11
140.6223016036966
 21
34.77198416201764
 31
0.0
  0
LINE
  5
1D9
330
1F
100
AcDbEntity
  8
OBRYS
100
AcDbLine
 10
135.7233221181309
 20
33.7719841620156
 30
0.0
 11
140.6223016036966
 21
33.77198416201559
 31
0.0
  0
LINE
  5
1DB
330
1F
100
AcDbEntity
  8
OBRYS
100
AcDbLine
 10
141.7233221181304
 20
34.7719841620176
 30
0.0
 11
146.6223016036967
 21
34.77198416201764
 31
0.0
  0
LINE
  5
1DD
330
1F
100
AcDbEntity
  8
OBRYS
100
AcDbLine
 10
141.7233221181308
 20
33.77198416201551
 30
0.0
 11
146.6223016036967
 21
33.77198416201559
 31
0.0
  0
LINE
  5
1DF
330
1F
100
AcDbEntity
  8
OBRYS
100
AcDbLine
 10
147.7233221181304
 20
34.77198416201767
 30
0.0
 11
152.6223016036966
 21
34.77198416201764
 31
0.0
  0
LINE
  5
1E1
330
1F
100
AcDbEntity
  8
OBRYS
100
AcDbLine
 10
147.7233221181309
 20
33.77198416201535
 30
0.0
 11
152.6223016036966
 21
33.77198416201559
 31
0.0
  0
LINE
  5
1E4
330
1F
100
AcDbEntity
  8
OBRYS
100
AcDbLine
 10
136.6443455187675
 20
51.0651229966516
 30
0.0
 11
151.6443455187677
 21
51.0651229966516
 31
0.0
  0
LINE
  5
1E5
330
1F
100
AcDbEntity
  8
OBRYS
100
AcDbLine
 10
151.6443455187677
 20
51.0651229966516
 30
0.0
 11
151.6443455187677
 21
91.06512299665252
 31
0.0
  0
LINE
  5
1E6
330
1F
100
AcDbEntity
  8
OBRYS
100
AcDbLine
 10
151.6443455187677
 20
91.06512299665252
 30
0.0
 11
136.6443455187675
 21
91.06512299665252
 31
0.0
  0
LINE
  5
1E7
330
1F
100
AcDbEntity
  8
OBRYS
100
AcDbLine
 10
136.6443455187675
 20
91.06512299665252
 30
0.0
 11
136.6443455187675
 21
51.0651229966516
 31
0.0
  0
LINE
  5
1E8
330
1F
100
AcDbEntity
  8
OBRYS
100
AcDbLine
 10
135.1100091800653
 20
26.16654049152867
 30
0.0
 11
153.1100091800653
 21
26.16654049152867
 31
0.0
  0
LINE
  5
1E9
330
1F
100
AcDbEntity
  8
OBRYS
100
AcDbLine
 10
153.1100091800653
 20
26.16654049152867
 30
0.0
 11
153.1100091800653
 21
116.1665404915275
 31
0.0
  0
LINE
  5
1EA
330
1F
100
AcDbEntity
  8
OBRYS
100
AcDbLine
 10
153.1100091800653
 20
116.1665404915275
 30
0.0
 11
135.1100091800653
 21
116.1665404915275
 31
0.0
  0
LINE
  5
1EB
330
1F
100
AcDbEntity
  8
OBRYS
100
AcDbLine
 10
135.1100091800653
 20
116.1665404915275
 30
0.0
 11
135.1100091800653
 21
26.16654049152867
 31
0.0
  0
MTEXT
  5
1FA
330
1F
100
AcDbEntity
  8
POTISK
100
AcDbMText
 10
136.0106202093388
 20
98.39117784968458
 30
0.0
 40
0.2
 41
4.335584415584435
 71
     1
 72
     1
  1
{\H12.5x;PE}
1001
ACAD
1000
ACAD_MTEXT_DEFINED_HEIGHT_BEGIN
1070
    46
1040
2.5
1000
ACAD_MTEXT_DEFINED_HEIGHT_END
  0
MTEXT
  5
220
330
1F
100
AcDbEntity
  8
POTISK
100
AcDbMText
 10
143.1141970047934
 20
98.3911778496846
 30
0.0
 40
0.2
 41
2.213388798701288
 71
     1
 72
     1
  1
{\H12.5x;N}
1001
ACAD
1000
ACAD_MTEXT_DEFINED_HEIGHT_BEGIN
1070
    46
1040
2.5
1000
ACAD_MTEXT_DEFINED_HEIGHT_END
  0
MTEXT
  5
246
330
1F
100
AcDbEntity
  8
POTISK
100
AcDbMText
 10
149.3277467015872
 20
98.3911778496846
 30
0.0
 40
0.2
 41
1.662321428571431
 71
     1
 72
     1
  1
{\H12.5x;L}
1001
ACAD
1000
ACAD_MTEXT_DEFINED_HEIGHT_BEGIN
1070
    46
1040
2.5
1000
ACAD_MTEXT_DEFINED_HEIGHT_END
  0
MTEXT
  5
247
330
1F
100
AcDbEntity
  8
POTISK
100
AcDbMText
 10
136.0106202093388
 20
45.38240687927512
 30
0.0
 40
0.2
 41
4.335584415584435
 71
     1
 72
     1
  1
{\H12.5x;PE}
1001
ACAD
1000
ACAD_MTEXT_DEFINED_HEIGHT_BEGIN
1070
    46
1040
2.5
1000
ACAD_MTEXT_DEFINED_HEIGHT_END
  0
MTEXT
  5
248
330
1F
100
AcDbEntity
  8
POTISK
100
AcDbMText
 10
143.1141970047934
 20
45.38240687927514
 30
0.0
 40
0.2
 41
2.213388798701288
 71
     1
 72
     1
  1
{\H12.5x;N}
1001
ACAD
1000
ACAD_MTEXT_DEFINED_HEIGHT_BEGIN
1070
    46
1040
2.5
1000
ACAD_MTEXT_DEFINED_HEIGHT_END
  0
MTEXT
  5
249
330
1F
100
AcDbEntity
  8
POTISK
100
AcDbMText
 10
149.3277467015872
 20
45.38240687927514
 30
0.0
 40
0.2
 41
1.662321428571431
 71
     1
 72
     1
  1
{\H12.5x;L}
1001
ACAD
1000
ACAD_MTEXT_DEFINED_HEIGHT_BEGIN
1070
    46
1040
2.5
1000
ACAD_MTEXT_DEFINED_HEIGHT_END
  0
DIMENSION
  5
250
330
1F
100
AcDbEntity
  8
KOTY
100
AcDbDimension
  2
*D0
 10
153.1100091800653
 20
16.04609222185596
 30
0.0
 11
144.1100091800653
 21
19.08809222185596
 31
0.0
 70
    32
  3
STANDARD
100
AcDbAlignedDimension
 13
135.1100091800653
 23
26.16654049152867
 33
0.0
 14
153.1100091800653
 24
26.16654049152867
 34
0.0
100
AcDbRotatedDimension
1001
ACAD
1000
DSTYLE
1002
{
1070
     7
1000

1070
     6
1000

1070
     5
1000

1070
   173
1070
     1
1070
   140
1040
4.0
1070
   271
1070
     0
1070
   278
1070
    44
1070
    73
1070
     0
1070
    77
1070
     1
1070
   147
1040
1.0
1070
    41
1040
4.0
1002
}
  0
DIMENSION
  5
260
330
1F
100
AcDbEntity
  8
KOTY
100
AcDbDimension
  2
*D1
 10
112.3103763694407
 20
16.04609222185596
 30
0.0
 11
85.8103763694407
 21
19.08809222185596
 31
0.0
 70
    32
  3
STANDARD
100
AcDbAlignedDimension
 13
59.3103763694407
 23
48.66654049152867
 33
0.0
 14
112.3103763694407
 24
51.16654049152867
 34
0.0
100
AcDbRotatedDimension
1001
ACAD
1000
DSTYLE
1002
{
1070
     7
1000

1070
     6
1000

1070
     5
1000

1070
   173
1070
     1
1070
   140
1040
4.0
1070
   271
1070
     0
1070
   278
1070
    44
1070
    73
1070
     0
1070
    77
1070
     1
1070
   147
1040
1.0
1070
    41
1040
4.0
1002
}
  0
DIMENSION
  5
270
330
1F
100
AcDbEntity
  8
KOTY
100
AcDbDimension
  2
*D2
 10
51.5814425399509
 20
48.60404049152867
 30
0.0
 11
48.54744253995089
 21
71.13529049152868
 31
0.0
 70
    32
  3
STANDARD
100
AcDbAlignedDimension
 13
59.3103763694407
 23
93.66654049152868
 33
0.0
 14
59.3103763694407
 24
48.60404049152867
 34
0.0
 50
90.0
100
AcDbRotatedDimension
1001
ACAD
1000
DSTYLE
1002
{
1070
     7
1000

1070
     6
1000

1070
     5
1000

1070
   173
1070
     1
1070
   140
1040
4.0
1070
   271
1070
     0
1070
   278
1070
    44
1070
    73
1070
     0
1070
    77
1070
     1
1070
   147
1040
1.0
1070
    41
1040
4.0
1002
}
  0
DIMENSION
  5
283
330
1F
100
AcDbEntity
  8
KOTY
100
AcDbDimension
  2
*D3
 10
41.39393060588672
 20
116.1665404915275
 30
0.0
 11
38.35193060588672
 21
71.16654049152808
 31
0.0
 70
    32
  3
STANDARD
100
AcDbAlignedDimension
 13
81.81037636944048
 23
26.16654049152867
 33
0.0
 14
81.81037636944048
 24
116.1665404915275
 34
0.0
 50
90.0
100
AcDbRotatedDimension
1001
ACAD
1000
DSTYLE
1002
{
1070
     7
1000

1070
     6
1000

1070
     5
1000

1070
   173
1070
     1
1070
   140
1040
4.0
1070
   271
1070
     0
1070
   278
1070
    44
1070
    73
1070
     0
1070
    77
1070
     1
1070
   147
1040
1.0
1070
    41
1040
4.0
1002
}
  0
VIEWPORT
  5
29A
330
296
100
AcDbEntity
 67
     1
  8
0
100
AcDbViewport
 10
0.0
 20
0.0
 30
0.0
 40
8.976
 41
6.936000000000001
 68
     1
 69
     1
1001
ACAD
1000
MVIEW
1002
{
1070
    16
1010
0.0
1020
0.0
1030
0.0
1010
0.0
1020
0.0
1030
1.0
1040
0.0
1040
6.936000000000001
1040
5.25
1040
4.0
1040
50.0
1040
0.0
1040
0.0
1070
     0
1070
   100
1070
     0
1070
     3
1070
     0
1070
     0
1070
     0
1070
     0
1040
0.0
1040
0.0
1040
0.0
1040
0.5
1040
0.5
1040
0.0
1040
0.0
1070
     0
1002
{
1002
}
1002
}
  0
VIEWPORT
  5
29B
330
296
100
AcDbEntity
 67
     1
  8
0
100
AcDbViewport
 10
5.25
 20
4.0
 30
0.0
 40
8.4
 41
6.4
 68
     2
 69
     2
1001
ACAD
1000
MVIEW
1002
{
1070
    16
1010
0.0
1020
0.0
1030
0.0
1010
0.0
1020
0.0
1030
1.0
1040
0.0
1040
102.632857235065
1040
95.21746989297603
1040
65.85631635669175
1040
50.0
1040
0.0
1040
0.0
1070
     0
1070
   100
1070
     0
1070
     3
1070
     0
1070
     0
1070
     0
1070
     0
1040
0.0
1040
0.0
1040
0.0
1040
0.5
1040
0.5
1040
0.0
1040
0.0
1070
     0
1002
{
1002
}
1002
}
  0
ENDSEC
  0
SECTION
  2
OBJECTS
  0
DICTIONARY
  5
C
330
0
100
AcDbDictionary
  3
ACAD_DETAILVIEWSTYLE
350
122
  3
ACAD_GROUP
350
D
  3
ACAD_IMAGE_VARS
350
DC
  3
ACAD_MLINESTYLE
350
17
  3
ACAD_SCALELIST
350
29E
  3
ACAD_SECTIONVIEWSTYLE
350
123
  3
ACDBVARIABLEDICTIONARY
350
66
  3
APPDATA
350
E1
  3
DWGPROPS
350
2F9
  0
DICTIONARY
  5
1EC
330
2
100
AcDbDictionary
280
     1
  3
ACAD_LAYERSTATES
360
1ED
  3
ACLYDICTIONARY
360
282
  0
DICTIONARY
  5
122
102
{ACAD_REACTORS
330
C
102
}
330
C
100
AcDbDictionary
  0
DICTIONARY
  5
D
102
{ACAD_REACTORS
330
C
102
}
330
C
100
AcDbDictionary
  0
RASTERVARIABLES
  5
DC
102
{ACAD_REACTORS
330
C
102
}
330
C
100
AcDbRasterVariables
 90
        0
 70
     1
 71
     1
 72
     5
  0
DICTIONARY
  5
17
102
{ACAD_REACTORS
330
C
102
}
330
C
100
AcDbDictionary
  3
STANDARD
350
18
  0
DICTIONARY
  5
29E
102
{ACAD_REACTORS
330
C
102
}
330
C
100
AcDbDictionary
  0
DICTIONARY
  5
123
102
{ACAD_REACTORS
330
C
102
}
330
C
100
AcDbDictionary
  0
DICTIONARY
  5
66
102
{ACAD_REACTORS
330
C
102
}
330
C
100
AcDbDictionary
  3
DIMASSOC
350
67
  3
HIDETEXT
350
6B
  0
DICTIONARY
  5
E1
102
{ACAD_REACTORS
330
C
102
}
330
C
100
AcDbDictionary
  0
XRECORD
  5
2F9
102
{ACAD_REACTORS
330
C
102
}
330
C
100
AcDbXrecord
  1
DWGPROPS COOKIE
  2

  3

  4

  6

  7

  8
jaromir.podrabsky
  9

300
=
301
=
302
=
303
=
304
=
305
=
306
=
307
=
308
=
309
=
 40
0.0
 41
2452643.021717593
 42
2456764.476881018
  1

 90
        0
  0
DICTIONARY
  5
1ED
102
{ACAD_REACTORS
330
1EC
102
}
330
1EC
100
AcDbDictionary
  0
DICTIONARY
  5
282
102
{ACAD_REACTORS
330
1EC
102
}
330
1EC
100
AcDbDictionary
1001
ACAD
1000
<All
  0
MLINESTYLE
  5
18
102
{ACAD_REACTORS
330
17
102
}
330
17
100
AcDbMlineStyle
  2
STANDARD
 70
     0
  3

 62
   256
 51
90.0
 52
90.0
 71
     2
 49
0.5
 62
   256
  6
BYLAYER
 49
-0.5
 62
   256
  6
BYLAYER
  0
DICTIONARYVAR
  5
67
102
{ACAD_REACTORS
330
66
102
}
330
66
100
DictionaryVariables
280
     0
  1
2
  0
DICTIONARYVAR
  5
6B
102
{ACAD_REACTORS
330
66
102
}
330
66
100
DictionaryVariables
280
     0
  1
1
  0
ENDSEC
  0
EOF
