  0
SECTION
  2
HEADER
  9
$ACADVER
  1
AC1014
  9
$ACADMAINTVER
 70
     9
  9
$DWGCODEPAGE
  3
ANSI_1250
  9
$INSBASE
 10
0.0
 20
0.0
 30
0.0
  9
$EXTMIN
 10
28.67675764359728
 20
16.85360700677326
 30
0.0
  9
$EXTMAX
 10
116.4057036712517
 20
82.17699999999999
 30
0.0
  9
$LIMMIN
 10
0.0
 20
0.0
  9
$LIMMAX
 10
12.0
 20
9.0
  9
$ORTHOMODE
 70
     0
  9
$REGENMODE
 70
     1
  9
$FILLMODE
 70
     1
  9
$QTEXTMODE
 70
     0
  9
$MIRRTEXT
 70
     0
  9
$DRAGMODE
 70
     2
  9
$LTSCALE
 40
1.0
  9
$OSMODE
 70
 15359
  9
$ATTMODE
 70
     1
  9
$TEXTSIZE
 40
0.2
  9
$TRACEWID
 40
0.05
  9
$TEXTSTYLE
  7
STANDARD
  9
$CLAYER
  8
KOTY
  9
$CELTYPE
  6
BYLAYER
  9
$CECOLOR
 62
   256
  9
$CELTSCALE
 40
1.0
  9
$DELOBJ
 70
     1
  9
$DISPSILH
 70
     0
  9
$DIMSCALE
 40
1.0
  9
$DIMASZ
 40
0.18
  9
$DIMEXO
 40
0.0625
  9
$DIMDLI
 40
0.38
  9
$DIMRND
 40
0.0
  9
$DIMDLE
 40
0.0
  9
$DIMEXE
 40
0.18
  9
$DIMTP
 40
0.0
  9
$DIMTM
 40
0.0
  9
$DIMTXT
 40
0.18
  9
$DIMCEN
 40
0.09
  9
$DIMTSZ
 40
0.0
  9
$DIMTOL
 70
     0
  9
$DIMLIM
 70
     0
  9
$DIMTIH
 70
     1
  9
$DIMTOH
 70
     1
  9
$DIMSE1
 70
     0
  9
$DIMSE2
 70
     0
  9
$DIMTAD
 70
     0
  9
$DIMZIN
 70
     0
  9
$DIMBLK
  1

  9
$DIMASO
 70
     1
  9
$DIMSHO
 70
     1
  9
$DIMPOST
  1

  9
$DIMAPOST
  1

  9
$DIMALT
 70
     0
  9
$DIMALTD
 70
     2
  9
$DIMALTF
 40
25.4
  9
$DIMLFAC
 40
1.0
  9
$DIMTOFL
 70
     0
  9
$DIMTVP
 40
0.0
  9
$DIMTIX
 70
     0
  9
$DIMSOXD
 70
     0
  9
$DIMSAH
 70
     0
  9
$DIMBLK1
  1

  9
$DIMBLK2
  1

  9
$DIMSTYLE
  2
STANDARD
  9
$DIMCLRD
 70
     0
  9
$DIMCLRE
 70
     0
  9
$DIMCLRT
 70
     0
  9
$DIMTFAC
 40
1.0
  9
$DIMGAP
 40
0.09
  9
$DIMJUST
 70
     0
  9
$DIMSD1
 70
     0
  9
$DIMSD2
 70
     0
  9
$DIMTOLJ
 70
     1
  9
$DIMTZIN
 70
     0
  9
$DIMALTZ
 70
     0
  9
$DIMALTTZ
 70
     0
  9
$DIMFIT
 70
     5
  9
$DIMUPT
 70
     0
  9
$DIMUNIT
 70
     2
  9
$DIMDEC
 70
     4
  9
$DIMTDEC
 70
     4
  9
$DIMALTU
 70
     2
  9
$DIMALTTD
 70
     2
  9
$DIMTXSTY
  7
STANDARD
  9
$DIMAUNIT
 70
     0
  9
$LUNITS
 70
     2
  9
$LUPREC
 70
     4
  9
$SKETCHINC
 40
0.1
  9
$FILLETRAD
 40
2.0
  9
$AUNITS
 70
     0
  9
$AUPREC
 70
     0
  9
$MENU
  1
.
  9
$ELEVATION
 40
0.0
  9
$PELEVATION
 40
0.0
  9
$THICKNESS
 40
0.0
  9
$LIMCHECK
 70
     0
  9
$CHAMFERA
 40
0.0
  9
$CHAMFERB
 40
0.0
  9
$CHAMFERC
 40
0.0
  9
$CHAMFERD
 40
0.0
  9
$SKPOLY
 70
     0
  9
$TDCREATE
 40
2452643.105050926
  9
$TDUPDATE
 40
2456764.549469144
  9
$TDINDWG
 40
0.0081745023
  9
$TDUSRTIMER
 40
2456764.465118646
  9
$USRTIMER
 70
     1
  9
$ANGBASE
 50
0.0
  9
$ANGDIR
 70
     0
  9
$PDMODE
 70
     0
  9
$PDSIZE
 40
0.0
  9
$PLINEWID
 40
0.0
  9
$COORDS
 70
     2
  9
$SPLFRAME
 70
     0
  9
$SPLINETYPE
 70
     6
  9
$SPLINESEGS
 70
     8
  9
$ATTDIA
 70
     0
  9
$ATTREQ
 70
     1
  9
$HANDLING
 70
     1
  9
$HANDSEED
  5
29F
  9
$SURFTAB1
 70
     6
  9
$SURFTAB2
 70
     6
  9
$SURFTYPE
 70
     6
  9
$SURFU
 70
     6
  9
$SURFV
 70
     6
  9
$UCSNAME
  2

  9
$UCSORG
 10
0.0
 20
0.0
 30
0.0
  9
$UCSXDIR
 10
1.0
 20
0.0
 30
0.0
  9
$UCSYDIR
 10
0.0
 20
1.0
 30
0.0
  9
$PUCSNAME
  2

  9
$PUCSORG
 10
0.0
 20
0.0
 30
0.0
  9
$PUCSXDIR
 10
1.0
 20
0.0
 30
0.0
  9
$PUCSYDIR
 10
0.0
 20
1.0
 30
0.0
  9
$USERI1
 70
     0
  9
$USERI2
 70
     0
  9
$USERI3
 70
     0
  9
$USERI4
 70
     0
  9
$USERI5
 70
     0
  9
$USERR1
 40
0.0
  9
$USERR2
 40
0.0
  9
$USERR3
 40
0.0
  9
$USERR4
 40
0.0
  9
$USERR5
 40
0.0
  9
$WORLDVIEW
 70
     1
  9
$SHADEDGE
 70
     3
  9
$SHADEDIF
 70
    70
  9
$TILEMODE
 70
     0
  9
$MAXACTVP
 70
    64
  9
$PINSBASE
 10
0.0
 20
0.0
 30
0.0
  9
$PLIMCHECK
 70
     0
  9
$PEXTMIN
 10
1.05
 20
0.7999999999999998
 30
0.0
  9
$PEXTMAX
 10
9.45
 20
7.2
 30
0.0
  9
$PLIMMIN
 10
0.8500000000000006
 20
0.5999999999999998
  9
$PLIMMAX
 10
9.650000000000002
 20
7.4
  9
$UNITMODE
 70
     0
  9
$VISRETAIN
 70
     1
  9
$PLINEGEN
 70
     0
  9
$PSLTSCALE
 70
     1
  9
$TREEDEPTH
 70
  3020
  9
$PICKSTYLE
 70
     0
  9
$CMLSTYLE
  2
STANDARD
  9
$CMLJUST
 70
     0
  9
$CMLSCALE
 40
1.0
  9
$PROXYGRAPHICS
 70
     1
  9
$MEASUREMENT
 70
     0
  0
ENDSEC
  0
SECTION
  2
CLASSES
  0
CLASS
  1
ACDBDICTIONARYWDFLT
  2
AcDbDictionaryWithDefault
  3
ObjectDBX Classes
 90
        0
280
     0
281
     0
  0
CLASS
  1
ACDBPLACEHOLDER
  2
AcDbPlaceHolder
  3
ObjectDBX Classes
 90
        0
280
     0
281
     0
  0
CLASS
  1
LAYOUT
  2
AcDbLayout
  3
ObjectDBX Classes
 90
        0
280
     0
281
     0
  0
CLASS
  1
DICTIONARYVAR
  2
AcDbDictionaryVar
  3
ObjectDBX Classes
 90
        0
280
     0
281
     0
  0
CLASS
  1
TABLESTYLE
  2
AcDbTableStyle
  3
ObjectDBX Classes
 90
     4095
280
     0
281
     0
  0
CLASS
  1
MATERIAL
  2
AcDbMaterial
  3
ObjectDBX Classes
 90
     1153
280
     0
281
     0
  0
CLASS
  1
VISUALSTYLE
  2
AcDbVisualStyle
  3
ObjectDBX Classes
 90
     4095
280
     0
281
     0
  0
CLASS
  1
SCALE
  2
AcDbScale
  3
ObjectDBX Classes
 90
     1153
280
     0
281
     0
  0
CLASS
  1
CELLSTYLEMAP
  2
AcDbCellStyleMap
  3
ObjectDBX Classes
 90
     1152
280
     0
281
     0
  0
CLASS
  1
RASTERVARIABLES
  2
AcDbRasterVariables
  3
ISM
 90
        0
280
     0
281
     0
  0
CLASS
  1
SUN
  2
AcDbSun
  3
SCENEOE
 90
     1153
280
     0
281
     0
  0
CLASS
  1
DIMASSOC
  2
AcDbDimAssoc
  3
"AcDbDimAssoc|Product Desc:     AcDim ARX App For Dimension|Company:          Autodesk, Inc.|WEB Address:      www.autodesk.com"
 90
        0
280
     0
281
     0
  0
CLASS
  1
XRECORD
  2
AcDbXrecord
  3
ObjectDBX Classes
 90
        0
280
     0
281
     0
  0
CLASS
  1
LWPOLYLINE
  2
AcDbPolyline
  3
ObjectDBX Classes
 90
        0
280
     0
281
     1
  0
CLASS
  1
HATCH
  2
AcDbHatch
  3
ObjectDBX Classes
 90
        0
280
     0
281
     1
  0
ENDSEC
  0
SECTION
  2
TABLES
  0
TABLE
  2
VPORT
  5
8
330
0
100
AcDbSymbolTable
 70
     1
  0
VPORT
  5
94
330
8
100
AcDbSymbolTableRecord
100
AcDbViewportTableRecord
  2
*ACTIVE
 70
     0
 10
0.0
 20
0.0
 11
1.0
 21
1.0
 12
105.6250016487009
 22
67.1941563767197
 13
0.0
 23
0.0
 14
0.5
 24
0.5
 15
0.5
 25
0.5
 16
0.0
 26
0.0
 36
1.0
 17
-27.66959356597988
 27
-19.53870295786197
 37
0.0
 40
91.9950421612945
 41
1.259351620947631
 42
50.0
 43
0.0
 44
0.0
 50
0.0
 51
0.0
 71
    16
 72
  1000
 73
     1
 74
     3
 75
     0
 76
     0
 77
     0
 78
     0
  0
ENDTAB
  0
TABLE
  2
LTYPE
  5
5
330
0
100
AcDbSymbolTable
 70
     1
  0
LTYPE
  5
14
330
5
100
AcDbSymbolTableRecord
100
AcDbLinetypeTableRecord
  2
BYBLOCK
 70
     0
  3

 72
    65
 73
     0
 40
0.0
  0
LTYPE
  5
15
330
5
100
AcDbSymbolTableRecord
100
AcDbLinetypeTableRecord
  2
BYLAYER
 70
     0
  3
Solid line
 72
    65
 73
     0
 40
0.0
  0
LTYPE
  5
16
330
5
100
AcDbSymbolTableRecord
100
AcDbLinetypeTableRecord
  2
CONTINUOUS
 70
     0
  3
Solid line
 72
    65
 73
     0
 40
0.0
  0
ENDTAB
  0
TABLE
  2
LAYER
  5
2
102
{ACAD_XDICTIONARY
360
195
102
}
330
0
100
AcDbSymbolTable
 70
     5
  0
LAYER
  5
10
330
2
100
AcDbSymbolTableRecord
100
AcDbLayerTableRecord
  2
0
 70
     0
 62
     7
  6
CONTINUOUS
  0
LAYER
  5
125
330
2
100
AcDbSymbolTableRecord
100
AcDbLayerTableRecord
  2
OBRYS
 70
     0
 62
     5
  6
CONTINUOUS
1001
ACAECLAYERSTANDARD
1000

1000

  0
LAYER
  5
198
330
2
100
AcDbSymbolTableRecord
100
AcDbLayerTableRecord
  2
KOTY
 70
     0
 62
     1
  6
CONTINUOUS
1001
ACAECLAYERSTANDARD
1000

1000

  0
LAYER
  5
1A0
330
2
100
AcDbSymbolTableRecord
100
AcDbLayerTableRecord
  2
DEFPOINTS
 70
     0
 62
     7
  6
CONTINUOUS
  0
LAYER
  5
255
330
2
100
AcDbSymbolTableRecord
100
AcDbLayerTableRecord
  2
POTISK
 70
     0
 62
   250
  6
CONTINUOUS
1001
ACAECLAYERSTANDARD
1000

1000

  0
ENDTAB
  0
TABLE
  2
STYLE
  5
3
330
0
100
AcDbSymbolTable
 70
     1
  0
STYLE
  5
11
330
3
100
AcDbSymbolTableRecord
100
AcDbTextStyleTableRecord
  2
STANDARD
 70
     0
 40
0.0
 41
1.0
 50
0.0
 71
     0
 42
0.2
  3
arial.ttf
  4

1001
ACAD
1000
Arial
1071
        0
  0
ENDTAB
  0
TABLE
  2
VIEW
  5
6
330
0
100
AcDbSymbolTable
 70
     0
  0
ENDTAB
  0
TABLE
  2
UCS
  5
7
330
0
100
AcDbSymbolTable
 70
     0
  0
ENDTAB
  0
TABLE
  2
APPID
  5
9
330
0
100
AcDbSymbolTable
 70
     2
  0
APPID
  5
12
330
9
100
AcDbSymbolTableRecord
100
AcDbRegAppTableRecord
  2
ACAD
 70
     0
  0
APPID
  5
127
330
9
100
AcDbSymbolTableRecord
100
AcDbRegAppTableRecord
  2
ACAECLAYERSTANDARD
 70
     0
  0
ENDTAB
  0
TABLE
  2
DIMSTYLE
  5
A
330
0
100
AcDbSymbolTable
 70
     1
  0
DIMSTYLE
105
27
102
{ACAD_REACTORS
330
1A1
330
1B1
330
1C1
330
1D1
330
1E1
102
}
330
A
100
AcDbSymbolTableRecord
100
AcDbDimStyleTableRecord
  2
STANDARD
 70
     0
  3

  4

  5

  6

  7

 40
1.0
 41
0.18
 42
0.0625
 43
0.38
 44
0.18
 45
0.0
 46
0.0
 47
0.0
 48
0.0
140
0.18
141
0.09
142
0.0
143
25.4
144
1.0
145
0.0
146
1.0
147
0.09
 71
     0
 72
     0
 73
     1
 74
     1
 75
     0
 76
     0
 77
     0
 78
     0
170
     0
171
     2
172
     0
173
     0
174
     0
175
     0
176
     0
177
     0
178
     0
270
     2
271
     4
272
     4
273
     2
274
     2
340
11
275
     0
280
     0
281
     0
282
     0
283
     1
284
     0
285
     0
286
     0
287
     3
288
     0
  0
ENDTAB
  0
TABLE
  2
BLOCK_RECORD
  5
1
330
0
100
AcDbSymbolTable
 70
     7
  0
BLOCK_RECORD
  5
1F
330
1
100
AcDbSymbolTableRecord
100
AcDbBlockTableRecord
  2
*MODEL_SPACE
  0
BLOCK_RECORD
  5
205
330
1
100
AcDbSymbolTableRecord
100
AcDbBlockTableRecord
  2
*PAPER_SPACE
  0
BLOCK_RECORD
  5
1A4
330
1
100
AcDbSymbolTableRecord
100
AcDbBlockTableRecord
  2
*D0
  0
BLOCK_RECORD
  5
1B4
330
1
100
AcDbSymbolTableRecord
100
AcDbBlockTableRecord
  2
*D1
  0
BLOCK_RECORD
  5
1C4
330
1
100
AcDbSymbolTableRecord
100
AcDbBlockTableRecord
  2
*D2
  0
BLOCK_RECORD
  5
1D4
330
1
100
AcDbSymbolTableRecord
100
AcDbBlockTableRecord
  2
*D3
  0
BLOCK_RECORD
  5
1E4
330
1
100
AcDbSymbolTableRecord
100
AcDbBlockTableRecord
  2
*D4
  0
BLOCK_RECORD
  5
1F2
330
1
100
AcDbSymbolTableRecord
100
AcDbBlockTableRecord
  2
_CLOSEDBLANK
  0
BLOCK_RECORD
  5
1F8
330
1
100
AcDbSymbolTableRecord
100
AcDbBlockTableRecord
  2
_CLOSED
  0
ENDTAB
  0
ENDSEC
  0
SECTION
  2
BLOCKS
  0
BLOCK
  5
20
330
1F
100
AcDbEntity
  8
0
100
AcDbBlockBegin
  2
*MODEL_SPACE
 70
     0
 10
0.0
 20
0.0
 30
0.0
  3
*MODEL_SPACE
  1

  0
ENDBLK
  5
21
330
1F
100
AcDbEntity
  8
0
100
AcDbBlockEnd
  0
BLOCK
  5
207
330
205
100
AcDbEntity
 67
     1
  8
0
100
AcDbBlockBegin
  2
*PAPER_SPACE
 70
     0
 10
0.0
 20
0.0
 30
0.0
  3
*PAPER_SPACE
  1

  0
ENDBLK
  5
208
330
205
100
AcDbEntity
 67
     1
  8
0
100
AcDbBlockEnd
  0
BLOCK
  5
1A5
330
1A4
100
AcDbEntity
  8
0
100
AcDbBlockBegin
  2
*D0
 70
     1
 10
0.0
 20
0.0
 30
0.0
  3
*D0
  1
*D1
  0
LINE
  5
1A7
330
1A4
100
AcDbEntity
  8
KOTY
 62
     0
100
AcDbLine
 10
70.40570367125169
 20
27.31454406243972
 30
0.0
 11
70.40570367125169
 21
17.00694034010659
 31
0.0
  0
LINE
  5
1A8
330
1A4
100
AcDbEntity
  8
KOTY
 62
     0
100
AcDbLine
 10
50.40570367125169
 20
27.31454406243972
 30
0.0
 11
50.40570367125169
 21
17.00694034010659
 31
0.0
  0
LINE
  5
1A9
330
1A4
100
AcDbEntity
  8
KOTY
 62
     0
100
AcDbLine
 10
67.40570367125169
 20
17.18694034010659
 30
0.0
 11
53.40570367125169
 21
17.18694034010659
 31
0.0
  0
SOLID
  5
1AA
330
1A4
100
AcDbEntity
  8
KOTY
 62
     0
100
AcDbTrace
 10
67.40570367125169
 20
16.68694034010659
 30
0.0
 11
67.40570367125169
 21
17.68694034010659
 31
0.0
 12
70.40570367125169
 22
17.18694034010659
 32
0.0
 13
70.40570367125169
 23
17.18694034010659
 33
0.0
  0
SOLID
  5
1AB
330
1A4
100
AcDbEntity
  8
KOTY
 62
     0
100
AcDbTrace
 10
53.40570367125169
 20
17.68694034010659
 30
0.0
 11
53.40570367125169
 21
16.68694034010659
 31
0.0
 12
50.40570367125169
 22
17.18694034010659
 32
0.0
 13
50.40570367125169
 23
17.18694034010659
 33
0.0
  0
MTEXT
  5
1AC
330
1A4
100
AcDbEntity
  8
KOTY
 62
     0
100
AcDbMText
 10
60.40570367125169
 20
19.71844034010659
 30
0.0
 40
3.0
 41
0.0
 71
     5
 72
     1
  1
\A1;20
  0
POINT
  5
1AD
330
1A4
100
AcDbEntity
  8
DEFPOINTS
 62
     0
100
AcDbPoint
 10
70.40570367125169
 20
27.37704406243972
 30
0.0
  0
POINT
  5
1AE
330
1A4
100
AcDbEntity
  8
DEFPOINTS
 62
     0
100
AcDbPoint
 10
50.40570367125169
 20
27.37704406243972
 30
0.0
  0
POINT
  5
1AF
330
1A4
100
AcDbEntity
  8
DEFPOINTS
 62
     0
100
AcDbPoint
 10
50.40570367125169
 20
17.18694034010659
 30
0.0
  0
ENDBLK
  5
1A6
330
1A4
100
AcDbEntity
  8
0
100
AcDbBlockEnd
  0
BLOCK
  5
1B5
330
1B4
100
AcDbEntity
  8
0
100
AcDbBlockBegin
  2
*D1
 70
     1
 10
0.0
 20
0.0
 30
0.0
  3
*D1
  1
*D2
  0
LINE
  5
1B7
330
1B4
100
AcDbEntity
  8
KOTY
 62
     0
100
AcDbLine
 10
70.40570367125169
 20
27.31454406243972
 30
0.0
 11
70.40570367125169
 21
17.00694034010659
 31
0.0
  0
LINE
  5
1B8
330
1B4
100
AcDbEntity
  8
KOTY
 62
     0
100
AcDbLine
 10
116.4057036712517
 20
29.41454406243971
 30
0.0
 11
116.4057036712517
 21
17.00694034010659
 31
0.0
  0
LINE
  5
1B9
330
1B4
100
AcDbEntity
  8
KOTY
 62
     0
100
AcDbLine
 10
73.40570367125169
 20
17.18694034010659
 30
0.0
 11
113.4057036712517
 21
17.18694034010659
 31
0.0
  0
SOLID
  5
1BA
330
1B4
100
AcDbEntity
  8
KOTY
 62
     0
100
AcDbTrace
 10
73.40570367125169
 20
17.68694034010659
 30
0.0
 11
73.40570367125169
 21
16.68694034010659
 31
0.0
 12
70.40570367125169
 22
17.18694034010659
 32
0.0
 13
70.40570367125169
 23
17.18694034010659
 33
0.0
  0
SOLID
  5
1BB
330
1B4
100
AcDbEntity
  8
KOTY
 62
     0
100
AcDbTrace
 10
113.4057036712517
 20
16.68694034010659
 30
0.0
 11
113.4057036712517
 21
17.68694034010659
 31
0.0
 12
116.4057036712517
 22
17.18694034010659
 32
0.0
 13
116.4057036712517
 23
17.18694034010659
 33
0.0
  0
MTEXT
  5
1BC
330
1B4
100
AcDbEntity
  8
KOTY
 62
     0
100
AcDbMText
 10
93.4057036712517
 20
19.71844034010659
 30
0.0
 40
3.0
 41
0.0
 71
     5
 72
     1
  1
\A1;300
  0
POINT
  5
1BD
330
1B4
100
AcDbEntity
  8
DEFPOINTS
 62
     0
100
AcDbPoint
 10
70.40570367125169
 20
27.37704406243972
 30
0.0
  0
POINT
  5
1BE
330
1B4
100
AcDbEntity
  8
DEFPOINTS
 62
     0
100
AcDbPoint
 10
116.4057036712517
 20
29.47704406243971
 30
0.0
  0
POINT
  5
1BF
330
1B4
100
AcDbEntity
  8
DEFPOINTS
 62
     0
100
AcDbPoint
 10
116.4057036712517
 20
17.18694034010659
 30
0.0
  0
ENDBLK
  5
1B6
330
1B4
100
AcDbEntity
  8
0
100
AcDbBlockEnd
  0
BLOCK
  5
1C5
330
1C4
100
AcDbEntity
  8
0
100
AcDbBlockBegin
  2
*D2
 70
     1
 10
0.0
 20
0.0
 30
0.0
  3
*D2
  1
*D3
  0
LINE
  5
1C7
330
1C4
100
AcDbEntity
  8
KOTY
 62
     0
100
AcDbLine
 10
50.40570367125169
 20
27.31454406243972
 30
0.0
 11
50.40570367125169
 21
17.00694034010659
 31
0.0
  0
LINE
  5
1C8
330
1C4
100
AcDbEntity
  8
KOTY
 62
     0
100
AcDbLine
 10
40.40516224734528
 20
39.81454406243989
 30
0.0
 11
40.40516224734528
 21
17.00694034010659
 31
0.0
  0
LINE
  5
1C9
330
1C4
100
AcDbEntity
  8
KOTY
 62
     0
100
AcDbLine
 10
47.40570367125169
 20
17.18694034010659
 30
0.0
 11
43.40516224734528
 21
17.18694034010659
 31
0.0
  0
SOLID
  5
1CA
330
1C4
100
AcDbEntity
  8
KOTY
 62
     0
100
AcDbTrace
 10
47.40570367125169
 20
16.68694034010659
 30
0.0
 11
47.40570367125169
 21
17.68694034010659
 31
0.0
 12
50.40570367125169
 22
17.18694034010659
 32
0.0
 13
50.40570367125169
 23
17.18694034010659
 33
0.0
  0
SOLID
  5
1CB
330
1C4
100
AcDbEntity
  8
KOTY
 62
     0
100
AcDbTrace
 10
43.40516224734528
 20
17.68694034010659
 30
0.0
 11
43.40516224734528
 21
16.68694034010659
 31
0.0
 12
40.40516224734528
 22
17.18694034010659
 32
0.0
 13
40.40516224734528
 23
17.18694034010659
 33
0.0
  0
MTEXT
  5
1CC
330
1C4
100
AcDbEntity
  8
KOTY
 62
     0
100
AcDbMText
 10
45.40543295929849
 20
19.71844034010659
 30
0.0
 40
3.0
 41
0.0
 71
     5
 72
     1
  1
\A1;10
  0
POINT
  5
1CD
330
1C4
100
AcDbEntity
  8
DEFPOINTS
 62
     0
100
AcDbPoint
 10
50.40570367125169
 20
27.37704406243972
 30
0.0
  0
POINT
  5
1CE
330
1C4
100
AcDbEntity
  8
DEFPOINTS
 62
     0
100
AcDbPoint
 10
40.40516224734528
 20
39.87704406243989
 30
0.0
  0
POINT
  5
1CF
330
1C4
100
AcDbEntity
  8
DEFPOINTS
 62
     0
100
AcDbPoint
 10
40.40516224734528
 20
17.18694034010659
 30
0.0
  0
ENDBLK
  5
1C6
330
1C4
100
AcDbEntity
  8
0
100
AcDbBlockEnd
  0
BLOCK
  5
1D5
330
1D4
100
AcDbEntity
  8
0
100
AcDbBlockBegin
  2
*D3
 70
     1
 10
0.0
 20
0.0
 30
0.0
  3
*D3
  1
*D4
  0
LINE
  5
1D7
330
1D4
100
AcDbEntity
  8
KOTY
 62
     0
100
AcDbLine
 10
50.34320367125319
 20
27.37704406243972
 30
0.0
 11
31.90275764359728
 21
27.37704406243972
 31
0.0
  0
LINE
  5
1D8
330
1D4
100
AcDbEntity
  8
KOTY
 62
     0
100
AcDbLine
 10
50.34320367125168
 20
52.37704406243972
 30
0.0
 11
31.90275764359728
 21
52.37704406243972
 31
0.0
  0
LINE
  5
1D9
330
1D4
100
AcDbEntity
  8
KOTY
 62
     0
100
AcDbLine
 10
32.08275764359728
 20
30.37704406243972
 30
0.0
 11
32.08275764359728
 21
49.37704406243972
 31
0.0
  0
SOLID
  5
1DA
330
1D4
100
AcDbEntity
  8
KOTY
 62
     0
100
AcDbTrace
 10
31.58275764359728
 20
30.37704406243972
 30
0.0
 11
32.58275764359728
 21
30.37704406243972
 31
0.0
 12
32.08275764359728
 22
27.37704406243972
 32
0.0
 13
32.08275764359728
 23
27.37704406243972
 33
0.0
  0
SOLID
  5
1DB
330
1D4
100
AcDbEntity
  8
KOTY
 62
     0
100
AcDbTrace
 10
32.58275764359728
 20
49.37704406243972
 30
0.0
 11
31.58275764359728
 21
49.37704406243972
 31
0.0
 12
32.08275764359728
 22
52.37704406243972
 32
0.0
 13
32.08275764359728
 23
52.37704406243972
 33
0.0
  0
MTEXT
  5
1DC
330
1D4
100
AcDbEntity
  8
KOTY
 62
     0
100
AcDbMText
 10
29.55125764359728
 20
39.87704406243972
 30
0.0
 40
3.0
 41
0.0
 71
     5
 72
     1
  1
\A1;25
 11
0.0
 21
1.0
 31
0.0
  0
POINT
  5
1DD
330
1D4
100
AcDbEntity
  8
DEFPOINTS
 62
     0
100
AcDbPoint
 10
50.40570367125319
 20
27.37704406243972
 30
0.0
  0
POINT
  5
1DE
330
1D4
100
AcDbEntity
  8
DEFPOINTS
 62
     0
100
AcDbPoint
 10
50.40570367125168
 20
52.37704406243972
 30
0.0
  0
POINT
  5
1DF
330
1D4
100
AcDbEntity
  8
DEFPOINTS
 62
     0
100
AcDbPoint
 10
32.08275764359728
 20
52.37704406243972
 30
0.0
  0
ENDBLK
  5
1D6
330
1D4
100
AcDbEntity
  8
0
100
AcDbBlockEnd
  0
BLOCK
  5
1E5
330
1E4
100
AcDbEntity
  8
0
100
AcDbBlockBegin
  2
*D4
 70
     1
 10
0.0
 20
0.0
 30
0.0
  3
*D4
  1
*D5
  0
LINE
  5
1E7
330
1E4
100
AcDbEntity
  8
KOTY
 62
     0
100
AcDbLine
 10
42.34320367125169
 20
82.17699999999999
 30
0.0
 11
31.90275764359728
 21
82.17699999999999
 31
0.0
  0
LINE
  5
1E8
330
1E4
100
AcDbEntity
  8
KOTY
 62
     0
100
AcDbLine
 10
42.34320367125169
 20
66.37704406243972
 30
0.0
 11
31.90275764359728
 21
66.37704406243972
 31
0.0
  0
LINE
  5
1E9
330
1E4
100
AcDbEntity
  8
KOTY
 62
     0
100
AcDbLine
 10
32.08275764359728
 20
79.17699999999999
 30
0.0
 11
32.08275764359728
 21
69.37704406243972
 31
0.0
  0
SOLID
  5
1EA
330
1E4
100
AcDbEntity
  8
KOTY
 62
     0
100
AcDbTrace
 10
32.58275764359728
 20
79.17699999999999
 30
0.0
 11
31.58275764359728
 21
79.17699999999999
 31
0.0
 12
32.08275764359728
 22
82.17699999999999
 32
0.0
 13
32.08275764359728
 23
82.17699999999999
 33
0.0
  0
SOLID
  5
1EB
330
1E4
100
AcDbEntity
  8
KOTY
 62
     0
100
AcDbTrace
 10
31.58275764359728
 20
69.37704406243972
 30
0.0
 11
32.58275764359728
 21
69.37704406243972
 31
0.0
 12
32.08275764359728
 22
66.37704406243972
 32
0.0
 13
32.08275764359728
 23
66.37704406243972
 33
0.0
  0
MTEXT
  5
1EC
330
1E4
100
AcDbEntity
  8
KOTY
 62
     0
100
AcDbMText
 10
29.55125764359729
 20
74.27702203121986
 30
0.0
 40
3.0
 41
0.0
 71
     5
 72
     1
  1
\A1;16
 11
0.0
 21
1.0
 31
0.0
  0
POINT
  5
1ED
330
1E4
100
AcDbEntity
  8
DEFPOINTS
 62
     0
100
AcDbPoint
 10
42.40570367125169
 20
82.17699999999999
 30
0.0
  0
POINT
  5
1EE
330
1E4
100
AcDbEntity
  8
DEFPOINTS
 62
     0
100
AcDbPoint
 10
42.40570367125169
 20
66.37704406243972
 30
0.0
  0
POINT
  5
1EF
330
1E4
100
AcDbEntity
  8
DEFPOINTS
 62
     0
100
AcDbPoint
 10
32.08275764359728
 20
66.37704406243972
 30
0.0
  0
ENDBLK
  5
1E6
330
1E4
100
AcDbEntity
  8
0
100
AcDbBlockEnd
  0
BLOCK
  5
1F3
330
1F2
100
AcDbEntity
  8
0
100
AcDbBlockBegin
  2
_CLOSEDBLANK
 70
     0
 10
0.0
 20
0.0
 30
0.0
  3
_CLOSEDBLANK
  1
_CLOSEDBLANK
  0
LINE
  5
1F5
330
1F2
100
AcDbEntity
  8
0
  6
BYBLOCK
 62
     0
100
AcDbLine
 10
-1.0
 20
0.166667
 30
0.0
 11
0.0
 21
0.0
 31
0.0
  0
LINE
  5
1F6
330
1F2
100
AcDbEntity
  8
0
  6
BYBLOCK
 62
     0
100
AcDbLine
 10
0.0
 20
0.0
 30
0.0
 11
-1.0
 21
-0.166667
 31
0.0
  0
LINE
  5
1F7
330
1F2
100
AcDbEntity
  8
0
  6
BYBLOCK
 62
     0
100
AcDbLine
 10
-1.0
 20
0.166667
 30
0.0
 11
-1.0
 21
-0.166667
 31
0.0
  0
ENDBLK
  5
1F4
330
1F2
100
AcDbEntity
  8
0
100
AcDbBlockEnd
  0
BLOCK
  5
1F9
330
1F8
100
AcDbEntity
  8
0
100
AcDbBlockBegin
  2
_CLOSED
 70
     0
 10
0.0
 20
0.0
 30
0.0
  3
_CLOSED
  1
_CLOSED
  0
LINE
  5
1FB
330
1F8
100
AcDbEntity
  8
0
  6
BYBLOCK
 62
     0
100
AcDbLine
 10
-1.0
 20
0.166667
 30
0.0
 11
0.0
 21
0.0
 31
0.0
  0
LINE
  5
1FC
330
1F8
100
AcDbEntity
  8
0
  6
BYBLOCK
 62
     0
100
AcDbLine
 10
0.0
 20
0.0
 30
0.0
 11
-1.0
 21
-0.166667
 31
0.0
  0
LINE
  5
1FD
330
1F8
100
AcDbEntity
  8
0
  6
BYBLOCK
 62
     0
100
AcDbLine
 10
-1.0
 20
0.166667
 30
0.0
 11
-1.0
 21
-0.166667
 31
0.0
  0
LINE
  5
1FE
330
1F8
100
AcDbEntity
  8
0
  6
BYBLOCK
 62
     0
100
AcDbLine
 10
0.0
 20
0.0
 30
0.0
 11
-1.0
 21
0.0
 31
0.0
  0
ENDBLK
  5
1FA
330
1F8
100
AcDbEntity
  8
0
100
AcDbBlockEnd
  0
ENDSEC
  0
SECTION
  2
ENTITIES
  0
LINE
  5
16E
330
1F
100
AcDbEntity
  8
OBRYS
100
AcDbLine
 10
70.40570367125169
 20
52.37704406243972
 30
0.0
 11
70.40570367125169
 21
27.37704406243972
 31
0.0
  0
LINE
  5
16F
330
1F
100
AcDbEntity
  8
OBRYS
100
AcDbLine
 10
70.40570367125169
 20
52.37704406243972
 30
0.0
 11
50.40570367125169
 21
52.37704406243972
 31
0.0
  0
LINE
  5
170
330
1F
100
AcDbEntity
  8
OBRYS
100
AcDbLine
 10
70.40570367125169
 20
27.37704406243972
 30
0.0
 11
50.40570367125169
 21
27.37704406243972
 31
0.0
  0
ARC
  5
171
330
1F
100
AcDbEntity
  8
OBRYS
100
AcDbCircle
 10
53.2175099947717
 20
39.87704406243989
 30
0.0
 40
12.81234774742642
100
AcDbArc
 50
102.6773570870064
 51
257.3226429129974
  0
LINE
  5
172
330
1F
100
AcDbEntity
  8
OBRYS
100
AcDbLine
 10
69.40570367125169
 20
51.37704406243972
 30
0.0
 11
69.40570367125169
 21
28.37704406243972
 31
0.0
  0
LINE
  5
173
330
1F
100
AcDbEntity
  8
OBRYS
100
AcDbLine
 10
65.90570367125169
 20
51.37704406243972
 30
0.0
 11
65.90570367125169
 21
28.37704406243972
 31
0.0
  0
LINE
  5
174
330
1F
100
AcDbEntity
  8
OBRYS
100
AcDbLine
 10
69.40570367125169
 20
51.37704406243972
 30
0.0
 11
65.90570367125169
 21
51.37704406243972
 31
0.0
  0
LINE
  5
175
330
1F
100
AcDbEntity
  8
OBRYS
100
AcDbLine
 10
69.40570367125169
 20
28.37704406243972
 30
0.0
 11
65.90570367125169
 21
28.37704406243972
 31
0.0
  0
LINE
  5
176
330
1F
100
AcDbEntity
  8
OBRYS
100
AcDbLine
 10
70.40570367125169
 20
50.27704406243972
 30
0.0
 11
116.4057036712517
 21
50.27704406243972
 31
0.0
  0
LINE
  5
177
330
1F
100
AcDbEntity
  8
OBRYS
100
AcDbLine
 10
70.40570367125169
 20
29.47704406243971
 30
0.0
 11
116.4057036712517
 21
29.47704406243971
 31
0.0
  0
LINE
  5
178
330
1F
100
AcDbEntity
  8
OBRYS
100
AcDbLine
 10
70.40570367125169
 20
45.07704406243972
 30
0.0
 11
116.4057036712517
 21
45.07704406243972
 31
0.0
  0
LINE
  5
179
330
1F
100
AcDbEntity
  8
OBRYS
100
AcDbLine
 10
70.40570367125169
 20
39.87704406243972
 30
0.0
 11
116.4057036712517
 21
39.87704406243972
 31
0.0
  0
LINE
  5
17A
330
1F
100
AcDbEntity
  8
OBRYS
100
AcDbLine
 10
70.40570367125169
 20
34.67704406243971
 30
0.0
 11
116.4057036712517
 21
34.67704406243971
 31
0.0
  0
HATCH
  5
17B
330
1F
100
AcDbEntity
  8
OBRYS
 62
   250
100
AcDbHatch
 10
0.0
 20
0.0
 30
0.0
210
0.0
220
0.0
230
1.0
  2
SOLID
 70
     1
 71
     0
 91
        1
 92
        1
 93
        1
 72
     4
 94
        3
 73
     0
 74
     1
 95
       62
 96
       58
 40
0.0
 40
0.0
 40
0.0
 40
0.0
 40
1.0
 40
1.0
 40
1.0
 40
2.0
 40
2.0
 40
2.0
 40
3.0
 40
3.0
 40
3.0
 40
4.0
 40
4.0
 40
4.0
 40
5.0
 40
5.0
 40
5.0
 40
6.0
 40
6.0
 40
6.0
 40
7.0
 40
7.0
 40
7.0
 40
8.0
 40
8.0
 40
8.0
 40
9.0
 40
9.0
 40
9.0
 40
10.0
 40
10.0
 40
10.0
 40
11.0
 40
11.0
 40
11.0
 40
12.0
 40
12.0
 40
12.0
 40
13.0
 40
13.0
 40
13.0
 40
14.0
 40
14.0
 40
14.0
 40
15.0
 40
15.0
 40
15.0
 40
16.0
 40
16.0
 40
16.0
 40
17.0
 40
17.0
 40
17.0
 40
18.0
 40
18.0
 40
18.0
 40
19.0
 40
19.0
 40
19.0
 40
19.0
 10
89.28055135005646
 20
49.69793931856241
 10
89.28055135005646
 20
49.36652113288131
 10
89.22680786048655
 20
49.08230075534821
 10
89.11794284315265
 20
48.84596720506011
 10
89.02285820775974
 20
48.6368499091054
 10
88.90710299945535
 20
48.5038692233748
 10
88.77102172778798
 20
48.44668063831961
 10
88.7658540845601
 20
48.44495809057701
 10
88.75758585539553
 20
48.44426907148
 10
88.75758585539553
 20
48.44426907148
 10
88.75758585539553
 20
48.44426907148
 10
88.75758585539553
 20
49.2407751476697
 10
88.75758585539553
 20
49.2407751476697
 10
88.75758585539553
 20
49.2407751476697
 10
88.75310723126468
 20
49.340682916742
 10
88.78273505243784
 20
49.37857896707971
 10
88.8485363762061
 20
49.46332831601691
 10
88.88092027376747
 20
49.58941881077701
 10
88.88092027376747
 20
49.7568504513602
 10
88.88092027376747
 20
49.8629593923059
 10
88.85956068175891
 20
49.98112616744991
 10
88.81649698819326
 20
50.11169528634091
 10
88.74173841616336
 20
50.33355943559101
 10
88.70143079898595
 20
50.4568938539629
 10
88.69488511756397
 20
50.4813540319082
 10
88.65147691444982
 20
50.651197239331
 10
88.6294283033442
 20
50.83895494327711
 10
88.6294283033442
 20
51.0446271437465
 10
88.6294283033442
 20
51.3433169223177
 10
88.68317179291411
 20
51.5913637972557
 10
88.79065877205393
 20
51.78876776856051
 10
88.87816419737926
 20
51.9520652945614
 10
88.98565117651906
 20
52.0581742355071
 10
89.11346421902182
 20
52.1070945913976
 10
89.12035440999232
 20
52.1091616486887
 10
89.12345499592904
 20
52.1098506677858
 10
89.12758911051135
 20
52.1098506677858
 10
89.13723537787003
 20
52.1098506677858
 10
89.12758911051135
 20
51.38569159678631
 10
89.12758911051135
 20
51.37949042491281
 10
89.12758911051135
 20
51.3515851514823
 10
89.11415323811887
 20
51.3254024257944
 10
89.07970228326637
 20
51.2716589362245
 10
89.03836113744337
 20
51.20999172703851
 10
89.01734605498335
 20
51.12351983035881
 10
89.01734605498335
 20
51.01293226528221
 10
89.01734605498335
 20
50.91302449621001
 10
89.0404281947345
 20
50.7907236064836
 10
89.08624796468833
 20
50.6456850865546
 10
89.16686319904319
 20
50.38454684877271
 10
89.20923787351178
 20
50.24743204845971
 10
89.21302747854556
 20
50.23434068561581
 10
89.2581582294023
 20
50.05450670128571
 10
89.28055135005646
 20
49.87605075514981
 10
89.28055135005646
 20
49.69793931856241
 10
89.28055135005646
 20
49.69793931856241
 10
89.28055135005646
 20
49.69793931856241
 10
89.28055135005646
 20
49.69793931856241
 97
        0
 75
     2
 76
     1
 98
        0
  0
HATCH
  5
17C
330
1F
100
AcDbEntity
  8
OBRYS
 62
   250
100
AcDbHatch
 10
0.0
 20
0.0
 30
0.0
210
0.0
220
0.0
230
1.0
  2
SOLID
 70
     1
 71
     0
 91
        1
 92
        1
 93
        1
 72
     4
 94
        3
 73
     0
 74
     1
 95
       62
 96
       58
 40
0.0
 40
0.0
 40
0.0
 40
0.0
 40
1.0
 40
1.0
 40
1.0
 40
2.0
 40
2.0
 40
2.0
 40
3.0
 40
3.0
 40
3.0
 40
4.0
 40
4.0
 40
4.0
 40
5.0
 40
5.0
 40
5.0
 40
6.0
 40
6.0
 40
6.0
 40
7.0
 40
7.0
 40
7.0
 40
8.0
 40
8.0
 40
8.0
 40
9.0
 40
9.0
 40
9.0
 40
10.0
 40
10.0
 40
10.0
 40
11.0
 40
11.0
 40
11.0
 40
12.0
 40
12.0
 40
12.0
 40
13.0
 40
13.0
 40
13.0
 40
14.0
 40
14.0
 40
14.0
 40
15.0
 40
15.0
 40
15.0
 40
16.0
 40
16.0
 40
16.0
 40
17.0
 40
17.0
 40
17.0
 40
18.0
 40
18.0
 40
18.0
 40
19.0
 40
19.0
 40
19.0
 40
19.0
 10
89.98610690543559
 20
49.69793931856241
 10
89.98610690543559
 20
49.36652113288131
 10
89.93236341586571
 20
49.08230075534821
 10
89.82349839853181
 20
48.84596720506011
 10
89.72841376313893
 20
48.6368499091054
 10
89.61265855483454
 20
48.5038692233748
 10
89.47657728316717
 20
48.44668063831961
 10
89.4714096399393
 20
48.44495809057701
 10
89.46314141077467
 20
48.44426907148
 10
89.46314141077467
 20
48.44426907148
 10
89.46314141077467
 20
48.44426907148
 10
89.46314141077467
 20
49.2407751476697
 10
89.46314141077467
 20
49.2407751476697
 10
89.46314141077467
 20
49.2407751476697
 10
89.45866278664387
 20
49.340682916742
 10
89.488290607817
 20
49.37857896707971
 10
89.55409193158529
 20
49.46332831601691
 10
89.58647582914661
 20
49.58941881077701
 10
89.58647582914661
 20
49.7568504513602
 10
89.58647582914661
 20
49.8629593923059
 10
89.56511623713807
 20
49.98112616744991
 10
89.52205254357246
 20
50.11169528634091
 10
89.44729397154255
 20
50.33355943559101
 10
89.40698635436509
 20
50.4568938539629
 10
89.40044067294313
 20
50.4813540319082
 10
89.35703246982898
 20
50.651197239331
 10
89.33498385872339
 20
50.83895494327711
 10
89.33498385872339
 20
51.0446271437465
 10
89.33498385872339
 20
51.3433169223177
 10
89.3887273482933
 20
51.5913637972557
 10
89.49621432743307
 20
51.78876776856051
 10
89.58371975275843
 20
51.9520652945614
 10
89.69120673189822
 20
52.0581742355071
 10
89.81901977440099
 20
52.1070945913976
 10
89.82590996537148
 20
52.1091616486887
 10
89.82901055130823
 20
52.1098506677858
 10
89.83314466589052
 20
52.1098506677858
 10
89.84279093324922
 20
52.1098506677858
 10
89.83314466589052
 20
51.38569159678631
 10
89.83314466589052
 20
51.37949042491281
 10
89.83314466589052
 20
51.3515851514823
 10
89.81970879349804
 20
51.3254024257944
 10
89.78525783864553
 20
51.2716589362245
 10
89.74391669282254
 20
51.20999172703851
 10
89.72290161036251
 20
51.12351983035881
 10
89.72290161036251
 20
51.01293226528221
 10
89.72290161036251
 20
50.91302449621001
 10
89.7459837501137
 20
50.7907236064836
 10
89.79180352006752
 20
50.6456850865546
 10
89.87241875442236
 20
50.38454684877271
 10
89.91479342889092
 20
50.24743204845971
 10
89.91858303392469
 20
50.23434068561581
 10
89.96371378478149
 20
50.05450670128571
 10
89.98610690543559
 20
49.87605075514981
 10
89.98610690543559
 20
49.69793931856241
 10
89.98610690543559
 20
49.69793931856241
 10
89.98610690543559
 20
49.69793931856241
 10
89.98610690543559
 20
49.69793931856241
 97
        0
 75
     2
 76
     1
 98
        0
  0
HATCH
  5
17D
330
1F
100
AcDbEntity
  8
OBRYS
 62
   250
100
AcDbHatch
 10
0.0
 20
0.0
 30
0.0
210
0.0
220
0.0
230
1.0
  2
SOLID
 70
     1
 71
     0
 91
        1
 92
        1
 93
        1
 72
     4
 94
        3
 73
     0
 74
     1
 95
       62
 96
       58
 40
0.0
 40
0.0
 40
0.0
 40
0.0
 40
1.0
 40
1.0
 40
1.0
 40
2.0
 40
2.0
 40
2.0
 40
3.0
 40
3.0
 40
3.0
 40
4.0
 40
4.0
 40
4.0
 40
5.0
 40
5.0
 40
5.0
 40
6.0
 40
6.0
 40
6.0
 40
7.0
 40
7.0
 40
7.0
 40
8.0
 40
8.0
 40
8.0
 40
9.0
 40
9.0
 40
9.0
 40
10.0
 40
10.0
 40
10.0
 40
11.0
 40
11.0
 40
11.0
 40
12.0
 40
12.0
 40
12.0
 40
13.0
 40
13.0
 40
13.0
 40
14.0
 40
14.0
 40
14.0
 40
15.0
 40
15.0
 40
15.0
 40
16.0
 40
16.0
 40
16.0
 40
17.0
 40
17.0
 40
17.0
 40
18.0
 40
18.0
 40
18.0
 40
19.0
 40
19.0
 40
19.0
 40
19.0
 10
89.28055135005646
 20
44.49793931856241
 10
89.28055135005646
 20
44.16652113288131
 10
89.22680786048655
 20
43.8823007553482
 10
89.11794284315265
 20
43.64596720506011
 10
89.02285820775974
 20
43.4368499091054
 10
88.90710299945535
 20
43.3038692233748
 10
88.77102172778798
 20
43.24668063831961
 10
88.7658540845601
 20
43.24495809057701
 10
88.75758585539553
 20
43.24426907148
 10
88.75758585539553
 20
43.24426907148
 10
88.75758585539553
 20
43.24426907148
 10
88.75758585539553
 20
44.0407751476697
 10
88.75758585539553
 20
44.0407751476697
 10
88.75758585539553
 20
44.0407751476697
 10
88.75310723126468
 20
44.140682916742
 10
88.78273505243784
 20
44.17857896707971
 10
88.8485363762061
 20
44.2633283160169
 10
88.88092027376747
 20
44.38941881077701
 10
88.88092027376747
 20
44.5568504513602
 10
88.88092027376747
 20
44.6629593923059
 10
88.85956068175891
 20
44.78112616744991
 10
88.81649698819326
 20
44.91169528634091
 10
88.74173841616336
 20
45.133559435591
 10
88.70143079898595
 20
45.2568938539629
 10
88.69488511756397
 20
45.2813540319082
 10
88.65147691444982
 20
45.451197239331
 10
88.6294283033442
 20
45.63895494327711
 10
88.6294283033442
 20
45.8446271437465
 10
88.6294283033442
 20
46.1433169223177
 10
88.68317179291411
 20
46.3913637972557
 10
88.79065877205393
 20
46.58876776856051
 10
88.87816419737926
 20
46.7520652945614
 10
88.98565117651906
 20
46.8581742355071
 10
89.11346421902182
 20
46.9070945913976
 10
89.12035440999232
 20
46.9091616486887
 10
89.12345499592904
 20
46.9098506677858
 10
89.12758911051135
 20
46.9098506677858
 10
89.13723537787003
 20
46.9098506677858
 10
89.12758911051135
 20
46.18569159678631
 10
89.12758911051135
 20
46.17949042491281
 10
89.12758911051135
 20
46.1515851514823
 10
89.11415323811887
 20
46.1254024257944
 10
89.07970228326637
 20
46.0716589362245
 10
89.03836113744337
 20
46.0099917270385
 10
89.01734605498335
 20
45.92351983035881
 10
89.01734605498335
 20
45.81293226528221
 10
89.01734605498335
 20
45.71302449621
 10
89.0404281947345
 20
45.5907236064836
 10
89.08624796468833
 20
45.4456850865546
 10
89.16686319904319
 20
45.1845468487727
 10
89.20923787351178
 20
45.0474320484597
 10
89.21302747854556
 20
45.03434068561581
 10
89.2581582294023
 20
44.85450670128571
 10
89.28055135005646
 20
44.67605075514981
 10
89.28055135005646
 20
44.49793931856241
 10
89.28055135005646
 20
44.49793931856241
 10
89.28055135005646
 20
44.49793931856241
 10
89.28055135005646
 20
44.49793931856241
 97
        0
 75
     2
 76
     1
 98
        0
  0
HATCH
  5
17E
330
1F
100
AcDbEntity
  8
OBRYS
 62
   250
100
AcDbHatch
 10
0.0
 20
0.0
 30
0.0
210
0.0
220
0.0
230
1.0
  2
SOLID
 70
     1
 71
     0
 91
        1
 92
        1
 93
        1
 72
     4
 94
        3
 73
     0
 74
     1
 95
       62
 96
       58
 40
0.0
 40
0.0
 40
0.0
 40
0.0
 40
1.0
 40
1.0
 40
1.0
 40
2.0
 40
2.0
 40
2.0
 40
3.0
 40
3.0
 40
3.0
 40
4.0
 40
4.0
 40
4.0
 40
5.0
 40
5.0
 40
5.0
 40
6.0
 40
6.0
 40
6.0
 40
7.0
 40
7.0
 40
7.0
 40
8.0
 40
8.0
 40
8.0
 40
9.0
 40
9.0
 40
9.0
 40
10.0
 40
10.0
 40
10.0
 40
11.0
 40
11.0
 40
11.0
 40
12.0
 40
12.0
 40
12.0
 40
13.0
 40
13.0
 40
13.0
 40
14.0
 40
14.0
 40
14.0
 40
15.0
 40
15.0
 40
15.0
 40
16.0
 40
16.0
 40
16.0
 40
17.0
 40
17.0
 40
17.0
 40
18.0
 40
18.0
 40
18.0
 40
19.0
 40
19.0
 40
19.0
 40
19.0
 10
89.98610690543559
 20
44.49793931856241
 10
89.98610690543559
 20
44.16652113288131
 10
89.93236341586571
 20
43.8823007553482
 10
89.82349839853181
 20
43.64596720506011
 10
89.72841376313893
 20
43.4368499091054
 10
89.61265855483454
 20
43.3038692233748
 10
89.47657728316717
 20
43.24668063831961
 10
89.4714096399393
 20
43.24495809057701
 10
89.46314141077467
 20
43.24426907148
 10
89.46314141077467
 20
43.24426907148
 10
89.46314141077467
 20
43.24426907148
 10
89.46314141077467
 20
44.0407751476697
 10
89.46314141077467
 20
44.0407751476697
 10
89.46314141077467
 20
44.0407751476697
 10
89.45866278664387
 20
44.140682916742
 10
89.488290607817
 20
44.17857896707971
 10
89.55409193158529
 20
44.2633283160169
 10
89.58647582914661
 20
44.38941881077701
 10
89.58647582914661
 20
44.5568504513602
 10
89.58647582914661
 20
44.6629593923059
 10
89.56511623713807
 20
44.78112616744991
 10
89.52205254357246
 20
44.91169528634091
 10
89.44729397154255
 20
45.133559435591
 10
89.40698635436509
 20
45.2568938539629
 10
89.40044067294313
 20
45.2813540319082
 10
89.35703246982898
 20
45.451197239331
 10
89.33498385872339
 20
45.63895494327711
 10
89.33498385872339
 20
45.8446271437465
 10
89.33498385872339
 20
46.1433169223177
 10
89.3887273482933
 20
46.3913637972557
 10
89.49621432743307
 20
46.58876776856051
 10
89.58371975275843
 20
46.7520652945614
 10
89.69120673189822
 20
46.8581742355071
 10
89.81901977440099
 20
46.9070945913976
 10
89.82590996537148
 20
46.9091616486887
 10
89.82901055130823
 20
46.9098506677858
 10
89.83314466589052
 20
46.9098506677858
 10
89.84279093324922
 20
46.9098506677858
 10
89.83314466589052
 20
46.18569159678631
 10
89.83314466589052
 20
46.17949042491281
 10
89.83314466589052
 20
46.1515851514823
 10
89.81970879349804
 20
46.1254024257944
 10
89.78525783864553
 20
46.0716589362245
 10
89.74391669282254
 20
46.0099917270385
 10
89.72290161036251
 20
45.92351983035881
 10
89.72290161036251
 20
45.81293226528221
 10
89.72290161036251
 20
45.71302449621
 10
89.7459837501137
 20
45.5907236064836
 10
89.79180352006752
 20
45.4456850865546
 10
89.87241875442236
 20
45.1845468487727
 10
89.91479342889092
 20
45.0474320484597
 10
89.91858303392469
 20
45.03434068561581
 10
89.96371378478149
 20
44.85450670128571
 10
89.98610690543559
 20
44.67605075514981
 10
89.98610690543559
 20
44.49793931856241
 10
89.98610690543559
 20
44.49793931856241
 10
89.98610690543559
 20
44.49793931856241
 10
89.98610690543559
 20
44.49793931856241
 97
        0
 75
     2
 76
     1
 98
        0
  0
HATCH
  5
17F
330
1F
100
AcDbEntity
  8
OBRYS
 62
   250
100
AcDbHatch
 10
0.0
 20
0.0
 30
0.0
210
0.0
220
0.0
230
1.0
  2
SOLID
 70
     1
 71
     0
 91
        1
 92
        1
 93
        1
 72
     4
 94
        3
 73
     0
 74
     1
 95
       62
 96
       58
 40
0.0
 40
0.0
 40
0.0
 40
0.0
 40
1.0
 40
1.0
 40
1.0
 40
2.0
 40
2.0
 40
2.0
 40
3.0
 40
3.0
 40
3.0
 40
4.0
 40
4.0
 40
4.0
 40
5.0
 40
5.0
 40
5.0
 40
6.0
 40
6.0
 40
6.0
 40
7.0
 40
7.0
 40
7.0
 40
8.0
 40
8.0
 40
8.0
 40
9.0
 40
9.0
 40
9.0
 40
10.0
 40
10.0
 40
10.0
 40
11.0
 40
11.0
 40
11.0
 40
12.0
 40
12.0
 40
12.0
 40
13.0
 40
13.0
 40
13.0
 40
14.0
 40
14.0
 40
14.0
 40
15.0
 40
15.0
 40
15.0
 40
16.0
 40
16.0
 40
16.0
 40
17.0
 40
17.0
 40
17.0
 40
18.0
 40
18.0
 40
18.0
 40
19.0
 40
19.0
 40
19.0
 40
19.0
 10
89.28055135005646
 20
39.29793931856241
 10
89.28055135005646
 20
38.9665211328813
 10
89.22680786048655
 20
38.6823007553482
 10
89.11794284315265
 20
38.44596720506011
 10
89.02285820775974
 20
38.23684990910539
 10
88.90710299945535
 20
38.10386922337479
 10
88.77102172778798
 20
38.04668063831961
 10
88.7658540845601
 20
38.044958090577
 10
88.75758585539553
 20
38.04426907148
 10
88.75758585539553
 20
38.04426907148
 10
88.75758585539553
 20
38.04426907148
 10
88.75758585539553
 20
38.8407751476697
 10
88.75758585539553
 20
38.8407751476697
 10
88.75758585539553
 20
38.8407751476697
 10
88.75310723126468
 20
38.940682916742
 10
88.78273505243784
 20
38.97857896707971
 10
88.8485363762061
 20
39.0633283160169
 10
88.88092027376747
 20
39.18941881077701
 10
88.88092027376747
 20
39.3568504513602
 10
88.88092027376747
 20
39.4629593923059
 10
88.85956068175891
 20
39.5811261674499
 10
88.81649698819326
 20
39.71169528634091
 10
88.74173841616336
 20
39.933559435591
 10
88.70143079898595
 20
40.0568938539629
 10
88.69488511756397
 20
40.0813540319082
 10
88.65147691444982
 20
40.251197239331
 10
88.6294283033442
 20
40.4389549432771
 10
88.6294283033442
 20
40.6446271437465
 10
88.6294283033442
 20
40.9433169223177
 10
88.68317179291411
 20
41.1913637972557
 10
88.79065877205393
 20
41.38876776856051
 10
88.87816419737926
 20
41.55206529456139
 10
88.98565117651906
 20
41.6581742355071
 10
89.11346421902182
 20
41.7070945913976
 10
89.12035440999232
 20
41.7091616486887
 10
89.12345499592904
 20
41.70985066778579
 10
89.12758911051135
 20
41.70985066778579
 10
89.13723537787003
 20
41.70985066778579
 10
89.12758911051135
 20
40.9856915967863
 10
89.12758911051135
 20
40.9794904249128
 10
89.12758911051135
 20
40.9515851514823
 10
89.11415323811887
 20
40.9254024257944
 10
89.07970228326637
 20
40.8716589362245
 10
89.03836113744337
 20
40.8099917270385
 10
89.01734605498335
 20
40.7235198303588
 10
89.01734605498335
 20
40.6129322652822
 10
89.01734605498335
 20
40.51302449621
 10
89.0404281947345
 20
40.3907236064836
 10
89.08624796468833
 20
40.24568508655459
 10
89.16686319904319
 20
39.9845468487727
 10
89.20923787351178
 20
39.8474320484597
 10
89.21302747854556
 20
39.83434068561581
 10
89.2581582294023
 20
39.6545067012857
 10
89.28055135005646
 20
39.47605075514981
 10
89.28055135005646
 20
39.29793931856241
 10
89.28055135005646
 20
39.29793931856241
 10
89.28055135005646
 20
39.29793931856241
 10
89.28055135005646
 20
39.29793931856241
 97
        0
 75
     2
 76
     1
 98
        0
  0
HATCH
  5
180
330
1F
100
AcDbEntity
  8
OBRYS
 62
   250
100
AcDbHatch
 10
0.0
 20
0.0
 30
0.0
210
0.0
220
0.0
230
1.0
  2
SOLID
 70
     1
 71
     0
 91
        1
 92
        1
 93
        1
 72
     4
 94
        3
 73
     0
 74
     1
 95
       62
 96
       58
 40
0.0
 40
0.0
 40
0.0
 40
0.0
 40
1.0
 40
1.0
 40
1.0
 40
2.0
 40
2.0
 40
2.0
 40
3.0
 40
3.0
 40
3.0
 40
4.0
 40
4.0
 40
4.0
 40
5.0
 40
5.0
 40
5.0
 40
6.0
 40
6.0
 40
6.0
 40
7.0
 40
7.0
 40
7.0
 40
8.0
 40
8.0
 40
8.0
 40
9.0
 40
9.0
 40
9.0
 40
10.0
 40
10.0
 40
10.0
 40
11.0
 40
11.0
 40
11.0
 40
12.0
 40
12.0
 40
12.0
 40
13.0
 40
13.0
 40
13.0
 40
14.0
 40
14.0
 40
14.0
 40
15.0
 40
15.0
 40
15.0
 40
16.0
 40
16.0
 40
16.0
 40
17.0
 40
17.0
 40
17.0
 40
18.0
 40
18.0
 40
18.0
 40
19.0
 40
19.0
 40
19.0
 40
19.0
 10
89.98610690543559
 20
39.29793931856241
 10
89.98610690543559
 20
38.9665211328813
 10
89.93236341586571
 20
38.6823007553482
 10
89.82349839853181
 20
38.44596720506011
 10
89.72841376313893
 20
38.23684990910539
 10
89.61265855483454
 20
38.10386922337479
 10
89.47657728316717
 20
38.04668063831961
 10
89.4714096399393
 20
38.044958090577
 10
89.46314141077467
 20
38.04426907148
 10
89.46314141077467
 20
38.04426907148
 10
89.46314141077467
 20
38.04426907148
 10
89.46314141077467
 20
38.8407751476697
 10
89.46314141077467
 20
38.8407751476697
 10
89.46314141077467
 20
38.8407751476697
 10
89.45866278664387
 20
38.940682916742
 10
89.488290607817
 20
38.97857896707971
 10
89.55409193158529
 20
39.0633283160169
 10
89.58647582914661
 20
39.18941881077701
 10
89.58647582914661
 20
39.3568504513602
 10
89.58647582914661
 20
39.4629593923059
 10
89.56511623713807
 20
39.5811261674499
 10
89.52205254357246
 20
39.71169528634091
 10
89.44729397154255
 20
39.933559435591
 10
89.40698635436509
 20
40.0568938539629
 10
89.40044067294313
 20
40.0813540319082
 10
89.35703246982898
 20
40.251197239331
 10
89.33498385872339
 20
40.4389549432771
 10
89.33498385872339
 20
40.6446271437465
 10
89.33498385872339
 20
40.9433169223177
 10
89.3887273482933
 20
41.1913637972557
 10
89.49621432743307
 20
41.38876776856051
 10
89.58371975275843
 20
41.55206529456139
 10
89.69120673189822
 20
41.6581742355071
 10
89.81901977440099
 20
41.7070945913976
 10
89.82590996537148
 20
41.7091616486887
 10
89.82901055130823
 20
41.70985066778579
 10
89.83314466589052
 20
41.70985066778579
 10
89.84279093324922
 20
41.70985066778579
 10
89.83314466589052
 20
40.9856915967863
 10
89.83314466589052
 20
40.9794904249128
 10
89.83314466589052
 20
40.9515851514823
 10
89.81970879349804
 20
40.9254024257944
 10
89.78525783864553
 20
40.8716589362245
 10
89.74391669282254
 20
40.8099917270385
 10
89.72290161036251
 20
40.7235198303588
 10
89.72290161036251
 20
40.6129322652822
 10
89.72290161036251
 20
40.51302449621
 10
89.7459837501137
 20
40.3907236064836
 10
89.79180352006752
 20
40.24568508655459
 10
89.87241875442236
 20
39.9845468487727
 10
89.91479342889092
 20
39.8474320484597
 10
89.91858303392469
 20
39.83434068561581
 10
89.96371378478149
 20
39.6545067012857
 10
89.98610690543559
 20
39.47605075514981
 10
89.98610690543559
 20
39.29793931856241
 10
89.98610690543559
 20
39.29793931856241
 10
89.98610690543559
 20
39.29793931856241
 10
89.98610690543559
 20
39.29793931856241
 97
        0
 75
     2
 76
     1
 98
        0
  0
HATCH
  5
181
330
1F
100
AcDbEntity
  8
OBRYS
 62
   250
100
AcDbHatch
 10
0.0
 20
0.0
 30
0.0
210
0.0
220
0.0
230
1.0
  2
SOLID
 70
     1
 71
     0
 91
        1
 92
        1
 93
        1
 72
     4
 94
        3
 73
     0
 74
     1
 95
       62
 96
       58
 40
0.0
 40
0.0
 40
0.0
 40
0.0
 40
1.0
 40
1.0
 40
1.0
 40
2.0
 40
2.0
 40
2.0
 40
3.0
 40
3.0
 40
3.0
 40
4.0
 40
4.0
 40
4.0
 40
5.0
 40
5.0
 40
5.0
 40
6.0
 40
6.0
 40
6.0
 40
7.0
 40
7.0
 40
7.0
 40
8.0
 40
8.0
 40
8.0
 40
9.0
 40
9.0
 40
9.0
 40
10.0
 40
10.0
 40
10.0
 40
11.0
 40
11.0
 40
11.0
 40
12.0
 40
12.0
 40
12.0
 40
13.0
 40
13.0
 40
13.0
 40
14.0
 40
14.0
 40
14.0
 40
15.0
 40
15.0
 40
15.0
 40
16.0
 40
16.0
 40
16.0
 40
17.0
 40
17.0
 40
17.0
 40
18.0
 40
18.0
 40
18.0
 40
19.0
 40
19.0
 40
19.0
 40
19.0
 10
89.28055135005646
 20
34.0979393185624
 10
89.28055135005646
 20
33.7665211328813
 10
89.22680786048655
 20
33.4823007553482
 10
89.11794284315265
 20
33.2459672050601
 10
89.02285820775974
 20
33.03684990910539
 10
88.90710299945535
 20
32.90386922337479
 10
88.77102172778798
 20
32.8466806383196
 10
88.7658540845601
 20
32.844958090577
 10
88.75758585539553
 20
32.84426907147999
 10
88.75758585539553
 20
32.84426907147999
 10
88.75758585539553
 20
32.84426907147999
 10
88.75758585539553
 20
33.64077514766969
 10
88.75758585539553
 20
33.64077514766969
 10
88.75758585539553
 20
33.64077514766969
 10
88.75310723126468
 20
33.740682916742
 10
88.78273505243784
 20
33.7785789670797
 10
88.8485363762061
 20
33.8633283160169
 10
88.88092027376747
 20
33.989418810777
 10
88.88092027376747
 20
34.15685045136019
 10
88.88092027376747
 20
34.26295939230589
 10
88.85956068175891
 20
34.3811261674499
 10
88.81649698819326
 20
34.5116952863409
 10
88.74173841616336
 20
34.733559435591
 10
88.70143079898595
 20
34.85689385396289
 10
88.69488511756397
 20
34.8813540319082
 10
88.65147691444982
 20
35.051197239331
 10
88.6294283033442
 20
35.2389549432771
 10
88.6294283033442
 20
35.44462714374649
 10
88.6294283033442
 20
35.7433169223177
 10
88.68317179291411
 20
35.99136379725569
 10
88.79065877205393
 20
36.1887677685605
 10
88.87816419737926
 20
36.35206529456139
 10
88.98565117651906
 20
36.45817423550709
 10
89.11346421902182
 20
36.5070945913976
 10
89.12035440999232
 20
36.5091616486887
 10
89.12345499592904
 20
36.50985066778579
 10
89.12758911051135
 20
36.50985066778579
 10
89.13723537787003
 20
36.50985066778579
 10
89.12758911051135
 20
35.7856915967863
 10
89.12758911051135
 20
35.7794904249128
 10
89.12758911051135
 20
35.7515851514823
 10
89.11415323811887
 20
35.72540242579439
 10
89.07970228326637
 20
35.6716589362245
 10
89.03836113744337
 20
35.6099917270385
 10
89.01734605498335
 20
35.5235198303588
 10
89.01734605498335
 20
35.4129322652822
 10
89.01734605498335
 20
35.31302449621
 10
89.0404281947345
 20
35.19072360648359
 10
89.08624796468833
 20
35.04568508655459
 10
89.16686319904319
 20
34.7845468487727
 10
89.20923787351178
 20
34.6474320484597
 10
89.21302747854556
 20
34.6343406856158
 10
89.2581582294023
 20
34.4545067012857
 10
89.28055135005646
 20
34.2760507551498
 10
89.28055135005646
 20
34.0979393185624
 10
89.28055135005646
 20
34.0979393185624
 10
89.28055135005646
 20
34.0979393185624
 10
89.28055135005646
 20
34.0979393185624
 97
        0
 75
     2
 76
     1
 98
        0
  0
HATCH
  5
182
330
1F
100
AcDbEntity
  8
OBRYS
 62
   250
100
AcDbHatch
 10
0.0
 20
0.0
 30
0.0
210
0.0
220
0.0
230
1.0
  2
SOLID
 70
     1
 71
     0
 91
        1
 92
        1
 93
        1
 72
     4
 94
        3
 73
     0
 74
     1
 95
       62
 96
       58
 40
0.0
 40
0.0
 40
0.0
 40
0.0
 40
1.0
 40
1.0
 40
1.0
 40
2.0
 40
2.0
 40
2.0
 40
3.0
 40
3.0
 40
3.0
 40
4.0
 40
4.0
 40
4.0
 40
5.0
 40
5.0
 40
5.0
 40
6.0
 40
6.0
 40
6.0
 40
7.0
 40
7.0
 40
7.0
 40
8.0
 40
8.0
 40
8.0
 40
9.0
 40
9.0
 40
9.0
 40
10.0
 40
10.0
 40
10.0
 40
11.0
 40
11.0
 40
11.0
 40
12.0
 40
12.0
 40
12.0
 40
13.0
 40
13.0
 40
13.0
 40
14.0
 40
14.0
 40
14.0
 40
15.0
 40
15.0
 40
15.0
 40
16.0
 40
16.0
 40
16.0
 40
17.0
 40
17.0
 40
17.0
 40
18.0
 40
18.0
 40
18.0
 40
19.0
 40
19.0
 40
19.0
 40
19.0
 10
89.98610690543559
 20
34.0979393185624
 10
89.98610690543559
 20
33.7665211328813
 10
89.93236341586571
 20
33.4823007553482
 10
89.82349839853181
 20
33.2459672050601
 10
89.72841376313893
 20
33.03684990910539
 10
89.61265855483454
 20
32.90386922337479
 10
89.47657728316717
 20
32.8466806383196
 10
89.4714096399393
 20
32.844958090577
 10
89.46314141077467
 20
32.84426907147999
 10
89.46314141077467
 20
32.84426907147999
 10
89.46314141077467
 20
32.84426907147999
 10
89.46314141077467
 20
33.64077514766969
 10
89.46314141077467
 20
33.64077514766969
 10
89.46314141077467
 20
33.64077514766969
 10
89.45866278664387
 20
33.740682916742
 10
89.488290607817
 20
33.7785789670797
 10
89.55409193158529
 20
33.8633283160169
 10
89.58647582914661
 20
33.989418810777
 10
89.58647582914661
 20
34.15685045136019
 10
89.58647582914661
 20
34.26295939230589
 10
89.56511623713807
 20
34.3811261674499
 10
89.52205254357246
 20
34.5116952863409
 10
89.44729397154255
 20
34.733559435591
 10
89.40698635436509
 20
34.85689385396289
 10
89.40044067294313
 20
34.8813540319082
 10
89.35703246982898
 20
35.051197239331
 10
89.33498385872339
 20
35.2389549432771
 10
89.33498385872339
 20
35.44462714374649
 10
89.33498385872339
 20
35.7433169223177
 10
89.3887273482933
 20
35.99136379725569
 10
89.49621432743307
 20
36.1887677685605
 10
89.58371975275843
 20
36.35206529456139
 10
89.69120673189822
 20
36.45817423550709
 10
89.81901977440099
 20
36.5070945913976
 10
89.82590996537148
 20
36.5091616486887
 10
89.82901055130823
 20
36.50985066778579
 10
89.83314466589052
 20
36.50985066778579
 10
89.84279093324922
 20
36.50985066778579
 10
89.83314466589052
 20
35.7856915967863
 10
89.83314466589052
 20
35.7794904249128
 10
89.83314466589052
 20
35.7515851514823
 10
89.81970879349804
 20
35.72540242579439
 10
89.78525783864553
 20
35.6716589362245
 10
89.74391669282254
 20
35.6099917270385
 10
89.72290161036251
 20
35.5235198303588
 10
89.72290161036251
 20
35.4129322652822
 10
89.72290161036251
 20
35.31302449621
 10
89.7459837501137
 20
35.19072360648359
 10
89.79180352006752
 20
35.04568508655459
 10
89.87241875442236
 20
34.7845468487727
 10
89.91479342889092
 20
34.6474320484597
 10
89.91858303392469
 20
34.6343406856158
 10
89.96371378478149
 20
34.4545067012857
 10
89.98610690543559
 20
34.2760507551498
 10
89.98610690543559
 20
34.0979393185624
 10
89.98610690543559
 20
34.0979393185624
 10
89.98610690543559
 20
34.0979393185624
 10
89.98610690543559
 20
34.0979393185624
 97
        0
 75
     2
 76
     1
 98
        0
  0
HATCH
  5
183
330
1F
100
AcDbEntity
  8
OBRYS
 62
   250
100
AcDbHatch
 10
0.0
 20
0.0
 30
0.0
210
0.0
220
0.0
230
1.0
  2
SOLID
 70
     1
 71
     0
 91
        1
 92
        1
 93
        1
 72
     4
 94
        3
 73
     0
 74
     1
 95
       62
 96
       58
 40
0.0
 40
0.0
 40
0.0
 40
0.0
 40
1.0
 40
1.0
 40
1.0
 40
2.0
 40
2.0
 40
2.0
 40
3.0
 40
3.0
 40
3.0
 40
4.0
 40
4.0
 40
4.0
 40
5.0
 40
5.0
 40
5.0
 40
6.0
 40
6.0
 40
6.0
 40
7.0
 40
7.0
 40
7.0
 40
8.0
 40
8.0
 40
8.0
 40
9.0
 40
9.0
 40
9.0
 40
10.0
 40
10.0
 40
10.0
 40
11.0
 40
11.0
 40
11.0
 40
12.0
 40
12.0
 40
12.0
 40
13.0
 40
13.0
 40
13.0
 40
14.0
 40
14.0
 40
14.0
 40
15.0
 40
15.0
 40
15.0
 40
16.0
 40
16.0
 40
16.0
 40
17.0
 40
17.0
 40
17.0
 40
18.0
 40
18.0
 40
18.0
 40
19.0
 40
19.0
 40
19.0
 40
19.0
 10
89.28055135005646
 20
28.8979393185624
 10
89.28055135005646
 20
28.5665211328813
 10
89.22680786048655
 20
28.2823007553482
 10
89.11794284315265
 20
28.0459672050601
 10
89.02285820775974
 20
27.83684990910539
 10
88.90710299945535
 20
27.70386922337479
 10
88.77102172778798
 20
27.6466806383196
 10
88.7658540845601
 20
27.644958090577
 10
88.75758585539553
 20
27.64426907147999
 10
88.75758585539553
 20
27.64426907147999
 10
88.75758585539553
 20
27.64426907147999
 10
88.75758585539553
 20
28.44077514766969
 10
88.75758585539553
 20
28.44077514766969
 10
88.75758585539553
 20
28.44077514766969
 10
88.75310723126468
 20
28.54068291674199
 10
88.78273505243784
 20
28.5785789670797
 10
88.8485363762061
 20
28.66332831601689
 10
88.88092027376747
 20
28.789418810777
 10
88.88092027376747
 20
28.95685045136019
 10
88.88092027376747
 20
29.06295939230589
 10
88.85956068175891
 20
29.1811261674499
 10
88.81649698819326
 20
29.3116952863409
 10
88.74173841616336
 20
29.53355943559099
 10
88.70143079898595
 20
29.65689385396289
 10
88.69488511756397
 20
29.68135403190819
 10
88.65147691444982
 20
29.85119723933099
 10
88.6294283033442
 20
30.0389549432771
 10
88.6294283033442
 20
30.24462714374649
 10
88.6294283033442
 20
30.54331692231769
 10
88.68317179291411
 20
30.79136379725569
 10
88.79065877205393
 20
30.9887677685605
 10
88.87816419737926
 20
31.15206529456139
 10
88.98565117651906
 20
31.25817423550709
 10
89.11346421902182
 20
31.30709459139759
 10
89.12035440999232
 20
31.30916164868869
 10
89.12345499592904
 20
31.30985066778579
 10
89.12758911051135
 20
31.30985066778579
 10
89.13723537787003
 20
31.30985066778579
 10
89.12758911051135
 20
30.5856915967863
 10
89.12758911051135
 20
30.5794904249128
 10
89.12758911051135
 20
30.55158515148229
 10
89.11415323811887
 20
30.52540242579439
 10
89.07970228326637
 20
30.47165893622449
 10
89.03836113744337
 20
30.40999172703849
 10
89.01734605498335
 20
30.3235198303588
 10
89.01734605498335
 20
30.2129322652822
 10
89.01734605498335
 20
30.11302449621
 10
89.0404281947345
 20
29.99072360648359
 10
89.08624796468833
 20
29.84568508655459
 10
89.16686319904319
 20
29.5845468487727
 10
89.20923787351178
 20
29.4474320484597
 10
89.21302747854556
 20
29.4343406856158
 10
89.2581582294023
 20
29.2545067012857
 10
89.28055135005646
 20
29.0760507551498
 10
89.28055135005646
 20
28.8979393185624
 10
89.28055135005646
 20
28.8979393185624
 10
89.28055135005646
 20
28.8979393185624
 10
89.28055135005646
 20
28.8979393185624
 97
        0
 75
     2
 76
     1
 98
        0
  0
HATCH
  5
184
330
1F
100
AcDbEntity
  8
OBRYS
 62
   250
100
AcDbHatch
 10
0.0
 20
0.0
 30
0.0
210
0.0
220
0.0
230
1.0
  2
SOLID
 70
     1
 71
     0
 91
        1
 92
        1
 93
        1
 72
     4
 94
        3
 73
     0
 74
     1
 95
       62
 96
       58
 40
0.0
 40
0.0
 40
0.0
 40
0.0
 40
1.0
 40
1.0
 40
1.0
 40
2.0
 40
2.0
 40
2.0
 40
3.0
 40
3.0
 40
3.0
 40
4.0
 40
4.0
 40
4.0
 40
5.0
 40
5.0
 40
5.0
 40
6.0
 40
6.0
 40
6.0
 40
7.0
 40
7.0
 40
7.0
 40
8.0
 40
8.0
 40
8.0
 40
9.0
 40
9.0
 40
9.0
 40
10.0
 40
10.0
 40
10.0
 40
11.0
 40
11.0
 40
11.0
 40
12.0
 40
12.0
 40
12.0
 40
13.0
 40
13.0
 40
13.0
 40
14.0
 40
14.0
 40
14.0
 40
15.0
 40
15.0
 40
15.0
 40
16.0
 40
16.0
 40
16.0
 40
17.0
 40
17.0
 40
17.0
 40
18.0
 40
18.0
 40
18.0
 40
19.0
 40
19.0
 40
19.0
 40
19.0
 10
89.98610690543559
 20
28.8979393185624
 10
89.98610690543559
 20
28.5665211328813
 10
89.93236341586571
 20
28.2823007553482
 10
89.82349839853181
 20
28.0459672050601
 10
89.72841376313893
 20
27.83684990910539
 10
89.61265855483454
 20
27.70386922337479
 10
89.47657728316717
 20
27.6466806383196
 10
89.4714096399393
 20
27.644958090577
 10
89.46314141077467
 20
27.64426907147999
 10
89.46314141077467
 20
27.64426907147999
 10
89.46314141077467
 20
27.64426907147999
 10
89.46314141077467
 20
28.44077514766969
 10
89.46314141077467
 20
28.44077514766969
 10
89.46314141077467
 20
28.44077514766969
 10
89.45866278664387
 20
28.54068291674199
 10
89.488290607817
 20
28.5785789670797
 10
89.55409193158529
 20
28.66332831601689
 10
89.58647582914661
 20
28.789418810777
 10
89.58647582914661
 20
28.95685045136019
 10
89.58647582914661
 20
29.06295939230589
 10
89.56511623713807
 20
29.1811261674499
 10
89.52205254357246
 20
29.3116952863409
 10
89.44729397154255
 20
29.53355943559099
 10
89.40698635436509
 20
29.65689385396289
 10
89.40044067294313
 20
29.68135403190819
 10
89.35703246982898
 20
29.85119723933099
 10
89.33498385872339
 20
30.0389549432771
 10
89.33498385872339
 20
30.24462714374649
 10
89.33498385872339
 20
30.54331692231769
 10
89.3887273482933
 20
30.79136379725569
 10
89.49621432743307
 20
30.9887677685605
 10
89.58371975275843
 20
31.15206529456139
 10
89.69120673189822
 20
31.25817423550709
 10
89.81901977440099
 20
31.30709459139759
 10
89.82590996537148
 20
31.30916164868869
 10
89.82901055130823
 20
31.30985066778579
 10
89.83314466589052
 20
31.30985066778579
 10
89.84279093324922
 20
31.30985066778579
 10
89.83314466589052
 20
30.5856915967863
 10
89.83314466589052
 20
30.5794904249128
 10
89.83314466589052
 20
30.55158515148229
 10
89.81970879349804
 20
30.52540242579439
 10
89.78525783864553
 20
30.47165893622449
 10
89.74391669282254
 20
30.40999172703849
 10
89.72290161036251
 20
30.3235198303588
 10
89.72290161036251
 20
30.2129322652822
 10
89.72290161036251
 20
30.11302449621
 10
89.7459837501137
 20
29.99072360648359
 10
89.79180352006752
 20
29.84568508655459
 10
89.87241875442236
 20
29.5845468487727
 10
89.91479342889092
 20
29.4474320484597
 10
89.91858303392469
 20
29.4343406856158
 10
89.96371378478149
 20
29.2545067012857
 10
89.98610690543559
 20
29.0760507551498
 10
89.98610690543559
 20
28.8979393185624
 10
89.98610690543559
 20
28.8979393185624
 10
89.98610690543559
 20
28.8979393185624
 10
89.98610690543559
 20
28.8979393185624
 97
        0
 75
     2
 76
     1
 98
        0
  0
MTEXT
  5
185
330
1F
100
AcDbEntity
  8
POTISK
100
AcDbMText
 10
66.90570367125171
 20
49.84269900471059
 30
0.0
 40
1.5
 41
0.0
 71
     1
 72
     1
  1
{\fArial|b0|i0|c0|p0;\H0.833333x;L}
 11
6.123233995736766E-17
 21
1.0
 31
0.0
1001
ACAD
1000
ACAD_MTEXT_DEFINED_HEIGHT_BEGIN
1070
    46
1040
1.5
1000
ACAD_MTEXT_DEFINED_HEIGHT_END
  0
MTEXT
  5
186
330
1F
100
AcDbEntity
  8
POTISK
100
AcDbMText
 10
66.90570367125166
 20
44.53214525009398
 30
0.0
 40
1.5
 41
0.0
 71
     1
 72
     1
  1
{\fArial|b0|i0|c0|p0;\H0.833333x;N}
 11
6.123233995736766E-17
 21
1.0
 31
0.0
1001
ACAD
1000
ACAD_MTEXT_DEFINED_HEIGHT_BEGIN
1070
    46
1040
1.5
1000
ACAD_MTEXT_DEFINED_HEIGHT_END
  0
MTEXT
  5
187
330
1F
100
AcDbEntity
  8
POTISK
100
AcDbMText
 10
66.90570367125169
 20
38.84634129838621
 30
0.0
 40
1.25
 41
0.0
 71
     1
 72
     1
  1
{\fArial|b0|i0|c0|p0;PE}
 11
6.123233995736766E-17
 21
1.0
 31
0.0
1001
ACAD
1000
ACAD_MTEXT_DEFINED_HEIGHT_BEGIN
1070
    46
1040
1.25
1000
ACAD_MTEXT_DEFINED_HEIGHT_END
  0
MTEXT
  5
188
330
1F
100
AcDbEntity
  8
POTISK
100
AcDbMText
 10
66.88542018510167
 20
28.79837736949209
 30
0.0
 40
1.25
 41
0.0
 71
     1
 72
     1
  1
{\fArial|b0|i0|c0|p0;KONTAKT}
 11
6.123233995736766E-17
 21
1.0
 31
0.0
1001
ACAD
1000
ACAD_MTEXT_DEFINED_HEIGHT_BEGIN
1070
    46
1040
1.25
1000
ACAD_MTEXT_DEFINED_HEIGHT_END
  0
LINE
  5
189
330
1F
100
AcDbEntity
  8
OBRYS
100
AcDbLine
 10
70.40570367125169
 20
82.17699999999999
 30
0.0
 11
70.40570367125169
 21
66.37704406243972
 31
0.0
  0
LINE
  5
18A
330
1F
100
AcDbEntity
  8
OBRYS
100
AcDbLine
 10
70.40570367125169
 20
66.37704406243972
 30
0.0
 11
42.40570367125169
 21
66.37704406243972
 31
0.0
  0
LINE
  5
18B
330
1F
100
AcDbEntity
  8
OBRYS
100
AcDbLine
 10
70.40570367125169
 20
82.17699999999999
 30
0.0
 11
42.40570367125169
 21
82.17699999999999
 31
0.0
  0
LINE
  5
18C
330
1F
100
AcDbEntity
  8
OBRYS
100
AcDbLine
 10
40.40570367125169
 20
68.37704406243972
 30
0.0
 11
40.40570367125169
 21
80.17699999999999
 31
0.0
  0
ARC
  5
18D
330
1F
100
AcDbEntity
  8
OBRYS
100
AcDbCircle
 10
42.40570367125169
 20
68.37704406243972
 30
0.0
 40
2.000000000000001
100
AcDbArc
 50
180.0
 51
270.0
  0
LINE
  5
18F
330
1F
100
AcDbEntity
  8
OBRYS
100
AcDbLine
 10
70.40570367125169
 20
74.27702203121986
 30
0.0
 11
116.4057036712517
 21
74.27702203121986
 31
0.0
  0
HATCH
  5
190
330
1F
100
AcDbEntity
  8
OBRYS
 62
   250
100
AcDbHatch
 10
0.0
 20
0.0
 30
0.0
210
0.0
220
0.0
230
1.0
  2
SOLID
 70
     1
 71
     0
 91
        1
 92
        1
 93
        1
 72
     4
 94
        3
 73
     0
 74
     1
 95
       62
 96
       58
 40
0.0
 40
0.0
 40
0.0
 40
0.0
 40
1.0
 40
1.0
 40
1.0
 40
2.0
 40
2.0
 40
2.0
 40
3.0
 40
3.0
 40
3.0
 40
4.0
 40
4.0
 40
4.0
 40
5.0
 40
5.0
 40
5.0
 40
6.0
 40
6.0
 40
6.0
 40
7.0
 40
7.0
 40
7.0
 40
8.0
 40
8.0
 40
8.0
 40
9.0
 40
9.0
 40
9.0
 40
10.0
 40
10.0
 40
10.0
 40
11.0
 40
11.0
 40
11.0
 40
12.0
 40
12.0
 40
12.0
 40
13.0
 40
13.0
 40
13.0
 40
14.0
 40
14.0
 40
14.0
 40
15.0
 40
15.0
 40
15.0
 40
16.0
 40
16.0
 40
16.0
 40
17.0
 40
17.0
 40
17.0
 40
18.0
 40
18.0
 40
18.0
 40
19.0
 40
19.0
 40
19.0
 40
19.0
 10
89.28055135005646
 20
73.69791728734255
 10
89.28055135005646
 20
73.36649910166143
 10
89.22680786048655
 20
73.08227872412836
 10
89.11794284315265
 20
72.84594517384024
 10
89.02285820775974
 20
72.63682787788555
 10
88.90710299945535
 20
72.50384719215494
 10
88.77102172778798
 20
72.44665860709974
 10
88.7658540845601
 20
72.44493605935715
 10
88.75758585539553
 20
72.44424704026012
 10
88.75758585539553
 20
72.44424704026012
 10
88.75758585539553
 20
72.44424704026012
 10
88.75758585539553
 20
73.24075311644982
 10
88.75758585539553
 20
73.24075311644982
 10
88.75758585539553
 20
73.24075311644982
 10
88.75310723126468
 20
73.34066088552215
 10
88.78273505243784
 20
73.37855693585983
 10
88.8485363762061
 20
73.46330628479704
 10
88.88092027376747
 20
73.58939677955716
 10
88.88092027376747
 20
73.75682842014034
 10
88.88092027376747
 20
73.86293736108605
 10
88.85956068175891
 20
73.98110413623006
 10
88.81649698819326
 20
74.11167325512106
 10
88.74173841616336
 20
74.33353740437114
 10
88.70143079898595
 20
74.45687182274305
 10
88.69488511756397
 20
74.48133200068834
 10
88.65147691444982
 20
74.65117520811113
 10
88.6294283033442
 20
74.83893291205725
 10
88.6294283033442
 20
75.04460511252664
 10
88.6294283033442
 20
75.34329489109784
 10
88.68317179291411
 20
75.59134176603585
 10
88.79065877205393
 20
75.78874573734065
 10
88.87816419737926
 20
75.95204326334154
 10
88.98565117651906
 20
76.05815220428725
 10
89.11346421902182
 20
76.10707256017774
 10
89.12035440999232
 20
76.10913961746884
 10
89.12345499592904
 20
76.10982863656592
 10
89.12758911051135
 20
76.10982863656592
 10
89.13723537787003
 20
76.10982863656592
 10
89.12758911051135
 20
75.38566956556646
 10
89.12758911051135
 20
75.37946839369296
 10
89.12758911051135
 20
75.35156312026244
 10
89.11415323811887
 20
75.32538039457454
 10
89.07970228326637
 20
75.27163690500466
 10
89.03836113744337
 20
75.20996969581866
 10
89.01734605498335
 20
75.12349779913895
 10
89.01734605498335
 20
75.01291023406235
 10
89.01734605498335
 20
74.91300246499016
 10
89.0404281947345
 20
74.79070157526372
 10
89.08624796468833
 20
74.64566305533474
 10
89.16686319904319
 20
74.38452481755284
 10
89.20923787351178
 20
74.24741001723983
 10
89.21302747854556
 20
74.23431865439595
 10
89.2581582294023
 20
74.05448467006586
 10
89.28055135005646
 20
73.87602872392996
 10
89.28055135005646
 20
73.69791728734255
 10
89.28055135005646
 20
73.69791728734255
 10
89.28055135005646
 20
73.69791728734255
 10
89.28055135005646
 20
73.69791728734255
 97
        0
 75
     2
 76
     1
 98
        0
  0
HATCH
  5
191
330
1F
100
AcDbEntity
  8
OBRYS
 62
   250
100
AcDbHatch
 10
0.0
 20
0.0
 30
0.0
210
0.0
220
0.0
230
1.0
  2
SOLID
 70
     1
 71
     0
 91
        1
 92
        1
 93
        1
 72
     4
 94
        3
 73
     0
 74
     1
 95
       62
 96
       58
 40
0.0
 40
0.0
 40
0.0
 40
0.0
 40
1.0
 40
1.0
 40
1.0
 40
2.0
 40
2.0
 40
2.0
 40
3.0
 40
3.0
 40
3.0
 40
4.0
 40
4.0
 40
4.0
 40
5.0
 40
5.0
 40
5.0
 40
6.0
 40
6.0
 40
6.0
 40
7.0
 40
7.0
 40
7.0
 40
8.0
 40
8.0
 40
8.0
 40
9.0
 40
9.0
 40
9.0
 40
10.0
 40
10.0
 40
10.0
 40
11.0
 40
11.0
 40
11.0
 40
12.0
 40
12.0
 40
12.0
 40
13.0
 40
13.0
 40
13.0
 40
14.0
 40
14.0
 40
14.0
 40
15.0
 40
15.0
 40
15.0
 40
16.0
 40
16.0
 40
16.0
 40
17.0
 40
17.0
 40
17.0
 40
18.0
 40
18.0
 40
18.0
 40
19.0
 40
19.0
 40
19.0
 40
19.0
 10
89.98610690543559
 20
73.69791728734255
 10
89.98610690543559
 20
73.36649910166143
 10
89.93236341586571
 20
73.08227872412836
 10
89.82349839853181
 20
72.84594517384024
 10
89.72841376313893
 20
72.63682787788555
 10
89.61265855483454
 20
72.50384719215494
 10
89.47657728316717
 20
72.44665860709974
 10
89.4714096399393
 20
72.44493605935715
 10
89.46314141077467
 20
72.44424704026012
 10
89.46314141077467
 20
72.44424704026012
 10
89.46314141077467
 20
72.44424704026012
 10
89.46314141077467
 20
73.24075311644982
 10
89.46314141077467
 20
73.24075311644982
 10
89.46314141077467
 20
73.24075311644982
 10
89.45866278664387
 20
73.34066088552215
 10
89.488290607817
 20
73.37855693585983
 10
89.55409193158529
 20
73.46330628479704
 10
89.58647582914661
 20
73.58939677955716
 10
89.58647582914661
 20
73.75682842014034
 10
89.58647582914661
 20
73.86293736108605
 10
89.56511623713807
 20
73.98110413623006
 10
89.52205254357246
 20
74.11167325512106
 10
89.44729397154255
 20
74.33353740437114
 10
89.40698635436509
 20
74.45687182274305
 10
89.40044067294313
 20
74.48133200068834
 10
89.35703246982898
 20
74.65117520811113
 10
89.33498385872339
 20
74.83893291205725
 10
89.33498385872339
 20
75.04460511252664
 10
89.33498385872339
 20
75.34329489109784
 10
89.3887273482933
 20
75.59134176603585
 10
89.49621432743307
 20
75.78874573734065
 10
89.58371975275843
 20
75.95204326334154
 10
89.69120673189822
 20
76.05815220428725
 10
89.81901977440099
 20
76.10707256017774
 10
89.82590996537148
 20
76.10913961746884
 10
89.82901055130823
 20
76.10982863656592
 10
89.83314466589052
 20
76.10982863656592
 10
89.84279093324922
 20
76.10982863656592
 10
89.83314466589052
 20
75.38566956556646
 10
89.83314466589052
 20
75.37946839369296
 10
89.83314466589052
 20
75.35156312026244
 10
89.81970879349804
 20
75.32538039457454
 10
89.78525783864553
 20
75.27163690500466
 10
89.74391669282254
 20
75.20996969581866
 10
89.72290161036251
 20
75.12349779913895
 10
89.72290161036251
 20
75.01291023406235
 10
89.72290161036251
 20
74.91300246499016
 10
89.7459837501137
 20
74.79070157526372
 10
89.79180352006752
 20
74.64566305533474
 10
89.87241875442236
 20
74.38452481755284
 10
89.91479342889092
 20
74.24741001723983
 10
89.91858303392469
 20
74.23431865439595
 10
89.96371378478149
 20
74.05448467006586
 10
89.98610690543559
 20
73.87602872392996
 10
89.98610690543559
 20
73.69791728734255
 10
89.98610690543559
 20
73.69791728734255
 10
89.98610690543559
 20
73.69791728734255
 10
89.98610690543559
 20
73.69791728734255
 97
        0
 75
     2
 76
     1
 98
        0
  0
DIMENSION
  5
1A1
330
1F
100
AcDbEntity
  8
KOTY
100
AcDbDimension
  2
*D0
 10
50.40570367125169
 20
17.18694034010659
 30
0.0
 11
60.40570367125169
 21
19.71844034010659
 31
0.0
 70
    32
  3
STANDARD
100
AcDbAlignedDimension
 13
70.40570367125169
 23
27.37704406243972
 33
0.0
 14
50.40570367125169
 24
27.37704406243972
 34
0.0
100
AcDbRotatedDimension
1001
ACAD
1000
DSTYLE
1002
{
1070
     7
1000

1070
     6
1000

1070
     5
1000

1070
   271
1070
     0
1070
   278
1070
    44
1070
   140
1040
3.0
1070
    73
1070
     0
1070
    77
1070
     1
1070
   147
1040
1.0
1070
   173
1070
     1
1070
    41
1040
3.0
1002
}
  0
DIMENSION
  5
1B1
330
1F
100
AcDbEntity
  8
KOTY
100
AcDbDimension
  2
*D1
 10
116.4057036712517
 20
17.18694034010659
 30
0.0
 11
93.4057036712517
 21
19.71844034010659
 31
0.0
 70
    32
  1
300
  3
STANDARD
100
AcDbAlignedDimension
 13
70.40570367125169
 23
27.37704406243972
 33
0.0
 14
116.4057036712517
 24
29.47704406243971
 34
0.0
100
AcDbRotatedDimension
1001
ACAD
1000
DSTYLE
1002
{
1070
     7
1000

1070
     6
1000

1070
     5
1000

1070
   271
1070
     0
1070
   278
1070
    44
1070
   140
1040
3.0
1070
    73
1070
     0
1070
    77
1070
     1
1070
   147
1040
1.0
1070
   173
1070
     1
1070
    41
1040
3.0
1002
}
  0
DIMENSION
  5
1C1
330
1F
100
AcDbEntity
  8
KOTY
100
AcDbDimension
  2
*D2
 10
40.40516224734528
 20
17.18694034010659
 30
0.0
 11
45.40543295929849
 21
19.71844034010659
 31
0.0
 70
    32
  3
STANDARD
100
AcDbAlignedDimension
 13
50.40570367125169
 23
27.37704406243972
 33
0.0
 14
40.40516224734528
 24
39.87704406243989
 34
0.0
100
AcDbRotatedDimension
1001
ACAD
1000
DSTYLE
1002
{
1070
     7
1000

1070
     6
1000

1070
     5
1000

1070
   271
1070
     0
1070
   278
1070
    44
1070
   140
1040
3.0
1070
    73
1070
     0
1070
    77
1070
     1
1070
   147
1040
1.0
1070
   173
1070
     1
1070
    41
1040
3.0
1002
}
  0
DIMENSION
  5
1D1
330
1F
100
AcDbEntity
  8
KOTY
100
AcDbDimension
  2
*D3
 10
32.08275764359728
 20
52.37704406243972
 30
0.0
 11
29.55125764359728
 21
39.87704406243972
 31
0.0
 70
    32
  3
STANDARD
100
AcDbAlignedDimension
 13
50.40570367125319
 23
27.37704406243972
 33
0.0
 14
50.40570367125168
 24
52.37704406243972
 34
0.0
 50
90.0
100
AcDbRotatedDimension
1001
ACAD
1000
DSTYLE
1002
{
1070
     7
1000

1070
     6
1000

1070
     5
1000

1070
   271
1070
     0
1070
   278
1070
    44
1070
   140
1040
3.0
1070
    73
1070
     0
1070
    77
1070
     1
1070
   147
1040
1.0
1070
   173
1070
     1
1070
    41
1040
3.0
1002
}
  0
DIMENSION
  5
1E1
330
1F
100
AcDbEntity
  8
KOTY
100
AcDbDimension
  2
*D4
 10
32.08275764359728
 20
66.37704406243972
 30
0.0
 11
29.55125764359729
 21
74.27702203121986
 31
0.0
 70
    32
  3
STANDARD
100
AcDbAlignedDimension
 13
42.40570367125169
 23
82.17699999999999
 33
0.0
 14
42.40570367125169
 24
66.37704406243972
 34
0.0
 50
90.0
100
AcDbRotatedDimension
1001
ACAD
1000
DSTYLE
1002
{
1070
     7
1000

1070
     6
1000

1070
     5
1000

1070
   271
1070
     0
1070
   278
1070
    44
1070
   140
1040
3.0
1070
    73
1070
     0
1070
    77
1070
     1
1070
   147
1040
1.0
1070
   173
1070
     1
1070
    41
1040
3.0
1002
}
  0
ARC
  5
1F1
330
1F
100
AcDbEntity
  8
OBRYS
100
AcDbCircle
 10
42.40570367125169
 20
80.17699999999999
 30
0.0
 40
2.000000000000001
100
AcDbArc
 50
90.0
 51
180.0
  0
VIEWPORT
  5
209
330
205
100
AcDbEntity
 67
     1
  8
0
100
AcDbViewport
 10
0.0
 20
0.0
 30
0.0
 40
8.976
 41
6.936000000000001
 68
     1
 69
     1
1001
ACAD
1000
MVIEW
1002
{
1070
    16
1010
0.0
1020
0.0
1030
0.0
1010
0.0
1020
0.0
1030
1.0
1040
0.0
1040
6.936000000000001
1040
5.25
1040
4.0
1040
50.0
1040
0.0
1040
0.0
1070
     0
1070
   100
1070
     0
1070
     3
1070
     0
1070
     0
1070
     0
1070
     0
1040
0.0
1040
0.0
1040
0.0
1040
0.5
1040
0.5
1040
0.0
1040
0.0
1070
     0
1002
{
1002
}
1002
}
  0
VIEWPORT
  5
20A
330
205
100
AcDbEntity
 67
     1
  8
0
100
AcDbViewport
 10
5.25
 20
4.0
 30
0.0
 40
8.4
 41
6.4
 68
     2
 69
     2
1001
ACAD
1000
MVIEW
1002
{
1070
    16
1010
0.0
1020
0.0
1030
0.0
1010
0.0
1020
0.0
1030
1.0
1040
0.0
1040
68.17792377006286
1040
72.54123065742448
1040
49.51530350338662
1040
50.0
1040
0.0
1040
0.0
1070
     0
1070
   100
1070
     0
1070
     3
1070
     0
1070
     0
1070
     0
1070
     0
1040
0.0
1040
0.0
1040
0.0
1040
0.5
1040
0.5
1040
0.0
1040
0.0
1070
     0
1002
{
1002
}
1002
}
  0
ENDSEC
  0
SECTION
  2
OBJECTS
  0
DICTIONARY
  5
C
330
0
100
AcDbDictionary
  3
ACAD_DETAILVIEWSTYLE
350
122
  3
ACAD_GROUP
350
D
  3
ACAD_IMAGE_VARS
350
DC
  3
ACAD_MLINESTYLE
350
17
  3
ACAD_SCALELIST
350
258
  3
ACAD_SECTIONVIEWSTYLE
350
123
  3
ACDBVARIABLEDICTIONARY
350
66
  3
APPDATA
350
E1
  3
DWGPROPS
350
29E
  0
DICTIONARY
  5
195
330
2
100
AcDbDictionary
280
     1
  3
ACAD_LAYERSTATES
360
196
  3
ACLYDICTIONARY
360
256
  0
DICTIONARY
  5
122
102
{ACAD_REACTORS
330
C
102
}
330
C
100
AcDbDictionary
  0
DICTIONARY
  5
D
102
{ACAD_REACTORS
330
C
102
}
330
C
100
AcDbDictionary
  0
RASTERVARIABLES
  5
DC
102
{ACAD_REACTORS
330
C
102
}
330
C
100
AcDbRasterVariables
 90
        0
 70
     1
 71
     1
 72
     5
  0
DICTIONARY
  5
17
102
{ACAD_REACTORS
330
C
102
}
330
C
100
AcDbDictionary
  3
STANDARD
350
18
  0
DICTIONARY
  5
258
102
{ACAD_REACTORS
330
C
102
}
330
C
100
AcDbDictionary
  0
DICTIONARY
  5
123
102
{ACAD_REACTORS
330
C
102
}
330
C
100
AcDbDictionary
  0
DICTIONARY
  5
66
102
{ACAD_REACTORS
330
C
102
}
330
C
100
AcDbDictionary
  3
DIMASSOC
350
67
  3
HIDETEXT
350
6B
  0
DICTIONARY
  5
E1
102
{ACAD_REACTORS
330
C
102
}
330
C
100
AcDbDictionary
  0
XRECORD
  5
29E
102
{ACAD_REACTORS
330
C
102
}
330
C
100
AcDbXrecord
  1
DWGPROPS COOKIE
  2

  3

  4

  6

  7

  8
jaromir.podrabsky
  9

300
=
301
=
302
=
303
=
304
=
305
=
306
=
307
=
308
=
309
=
 40
0.0
 41
2452643.021717593
 42
2456764.46613581
  1

 90
        0
  0
DICTIONARY
  5
196
102
{ACAD_REACTORS
330
195
102
}
330
195
100
AcDbDictionary
  0
DICTIONARY
  5
256
102
{ACAD_REACTORS
330
195
102
}
330
195
100
AcDbDictionary
1001
ACAD
1000
<All
  0
MLINESTYLE
  5
18
102
{ACAD_REACTORS
330
17
102
}
330
17
100
AcDbMlineStyle
  2
STANDARD
 70
     0
  3

 62
   256
 51
90.0
 52
90.0
 71
     2
 49
0.5
 62
   256
  6
BYLAYER
 49
-0.5
 62
   256
  6
BYLAYER
  0
DICTIONARYVAR
  5
67
102
{ACAD_REACTORS
330
66
102
}
330
66
100
DictionaryVariables
280
     0
  1
2
  0
DICTIONARYVAR
  5
6B
102
{ACAD_REACTORS
330
66
102
}
330
66
100
DictionaryVariables
280
     0
  1
1
  0
ENDSEC
  0
EOF
