  0
SECTION
  2
HEADER
  9
$ACADVER
  1
AC1014
  9
$ACADMAINTVER
 70
     9
  9
$DWGCODEPAGE
  3
ANSI_1250
  9
$INSBASE
 10
0.0
 20
0.0
 30
0.0
  9
$EXTMIN
 10
97.75897783627646
 20
131.166349688892
 30
0.0
  9
$EXTMAX
 10
271.6948423666753
 20
275.3554187398137
 30
48.0
  9
$LIMMIN
 10
0.0
 20
0.0
  9
$LIMMAX
 10
12.0
 20
9.0
  9
$ORTHOMODE
 70
     0
  9
$REGENMODE
 70
     1
  9
$FILLMODE
 70
     1
  9
$QTEXTMODE
 70
     0
  9
$MIRRTEXT
 70
     0
  9
$DRAGMODE
 70
     2
  9
$LTSCALE
 40
1.0
  9
$OSMODE
 70
 15359
  9
$ATTMODE
 70
     1
  9
$TEXTSIZE
 40
0.2
  9
$TRACEWID
 40
0.05
  9
$TEXTSTYLE
  7
STANDARD
  9
$CLAYER
  8
0
  9
$CELTYPE
  6
BYLAYER
  9
$CECOLOR
 62
   256
  9
$CELTSCALE
 40
1.0
  9
$DELOBJ
 70
     1
  9
$DISPSILH
 70
     0
  9
$DIMSCALE
 40
1.0
  9
$DIMASZ
 40
0.18
  9
$DIMEXO
 40
0.0625
  9
$DIMDLI
 40
0.38
  9
$DIMRND
 40
0.0
  9
$DIMDLE
 40
0.0
  9
$DIMEXE
 40
0.18
  9
$DIMTP
 40
0.0
  9
$DIMTM
 40
0.0
  9
$DIMTXT
 40
0.18
  9
$DIMCEN
 40
0.09
  9
$DIMTSZ
 40
0.0
  9
$DIMTOL
 70
     0
  9
$DIMLIM
 70
     0
  9
$DIMTIH
 70
     1
  9
$DIMTOH
 70
     1
  9
$DIMSE1
 70
     0
  9
$DIMSE2
 70
     0
  9
$DIMTAD
 70
     0
  9
$DIMZIN
 70
     0
  9
$DIMBLK
  1

  9
$DIMASO
 70
     1
  9
$DIMSHO
 70
     1
  9
$DIMPOST
  1

  9
$DIMAPOST
  1

  9
$DIMALT
 70
     0
  9
$DIMALTD
 70
     2
  9
$DIMALTF
 40
25.4
  9
$DIMLFAC
 40
1.0
  9
$DIMTOFL
 70
     0
  9
$DIMTVP
 40
0.0
  9
$DIMTIX
 70
     0
  9
$DIMSOXD
 70
     0
  9
$DIMSAH
 70
     0
  9
$DIMBLK1
  1

  9
$DIMBLK2
  1

  9
$DIMSTYLE
  2
STANDARD
  9
$DIMCLRD
 70
     0
  9
$DIMCLRE
 70
     0
  9
$DIMCLRT
 70
     0
  9
$DIMTFAC
 40
1.0
  9
$DIMGAP
 40
0.09
  9
$DIMJUST
 70
     0
  9
$DIMSD1
 70
     0
  9
$DIMSD2
 70
     0
  9
$DIMTOLJ
 70
     1
  9
$DIMTZIN
 70
     0
  9
$DIMALTZ
 70
     0
  9
$DIMALTTZ
 70
     0
  9
$DIMFIT
 70
     5
  9
$DIMUPT
 70
     0
  9
$DIMUNIT
 70
     2
  9
$DIMDEC
 70
     4
  9
$DIMTDEC
 70
     4
  9
$DIMALTU
 70
     2
  9
$DIMALTTD
 70
     2
  9
$DIMTXSTY
  7
STANDARD
  9
$DIMAUNIT
 70
     0
  9
$LUNITS
 70
     2
  9
$LUPREC
 70
     4
  9
$SKETCHINC
 40
0.1
  9
$FILLETRAD
 40
0.0
  9
$AUNITS
 70
     0
  9
$AUPREC
 70
     0
  9
$MENU
  1
.
  9
$ELEVATION
 40
0.0
  9
$PELEVATION
 40
0.0
  9
$THICKNESS
 40
0.0
  9
$LIMCHECK
 70
     0
  9
$CHAMFERA
 40
0.0
  9
$CHAMFERB
 40
0.0
  9
$CHAMFERC
 40
0.0
  9
$CHAMFERD
 40
0.0
  9
$SKPOLY
 70
     0
  9
$TDCREATE
 40
2452643.105050926
  9
$TDUPDATE
 40
2456764.548318877
  9
$TDINDWG
 40
0.0028973611
  9
$TDUSRTIMER
 40
2456764.4641211
  9
$USRTIMER
 70
     1
  9
$ANGBASE
 50
0.0
  9
$ANGDIR
 70
     0
  9
$PDMODE
 70
     0
  9
$PDSIZE
 40
0.0
  9
$PLINEWID
 40
0.0
  9
$COORDS
 70
     2
  9
$SPLFRAME
 70
     0
  9
$SPLINETYPE
 70
     6
  9
$SPLINESEGS
 70
     8
  9
$ATTDIA
 70
     0
  9
$ATTREQ
 70
     1
  9
$HANDLING
 70
     1
  9
$HANDSEED
  5
410
  9
$SURFTAB1
 70
     6
  9
$SURFTAB2
 70
     6
  9
$SURFTYPE
 70
     6
  9
$SURFU
 70
     6
  9
$SURFV
 70
     6
  9
$UCSNAME
  2

  9
$UCSORG
 10
0.0
 20
0.0
 30
0.0
  9
$UCSXDIR
 10
1.0
 20
0.0
 30
0.0
  9
$UCSYDIR
 10
0.0
 20
1.0
 30
0.0
  9
$PUCSNAME
  2

  9
$PUCSORG
 10
0.0
 20
0.0
 30
0.0
  9
$PUCSXDIR
 10
1.0
 20
0.0
 30
0.0
  9
$PUCSYDIR
 10
0.0
 20
1.0
 30
0.0
  9
$USERI1
 70
     0
  9
$USERI2
 70
     0
  9
$USERI3
 70
     0
  9
$USERI4
 70
     0
  9
$USERI5
 70
     0
  9
$USERR1
 40
0.0
  9
$USERR2
 40
0.0
  9
$USERR3
 40
0.0
  9
$USERR4
 40
0.0
  9
$USERR5
 40
0.0
  9
$WORLDVIEW
 70
     1
  9
$SHADEDGE
 70
     3
  9
$SHADEDIF
 70
    70
  9
$TILEMODE
 70
     0
  9
$MAXACTVP
 70
    64
  9
$PINSBASE
 10
0.0
 20
0.0
 30
0.0
  9
$PLIMCHECK
 70
     0
  9
$PEXTMIN
 10
1.05
 20
0.7999999999999998
 30
0.0
  9
$PEXTMAX
 10
9.45
 20
7.2
 30
0.0
  9
$PLIMMIN
 10
0.8500000000000006
 20
0.5999999999999998
  9
$PLIMMAX
 10
9.650000000000002
 20
7.4
  9
$UNITMODE
 70
     0
  9
$VISRETAIN
 70
     1
  9
$PLINEGEN
 70
     0
  9
$PSLTSCALE
 70
     1
  9
$TREEDEPTH
 70
  3020
  9
$PICKSTYLE
 70
     0
  9
$CMLSTYLE
  2
STANDARD
  9
$CMLJUST
 70
     0
  9
$CMLSCALE
 40
1.0
  9
$PROXYGRAPHICS
 70
     1
  9
$MEASUREMENT
 70
     0
  0
ENDSEC
  0
SECTION
  2
CLASSES
  0
CLASS
  1
ACDBDICTIONARYWDFLT
  2
AcDbDictionaryWithDefault
  3
ObjectDBX Classes
 90
        0
280
     0
281
     0
  0
CLASS
  1
ACDBPLACEHOLDER
  2
AcDbPlaceHolder
  3
ObjectDBX Classes
 90
        0
280
     0
281
     0
  0
CLASS
  1
LAYOUT
  2
AcDbLayout
  3
ObjectDBX Classes
 90
        0
280
     0
281
     0
  0
CLASS
  1
DICTIONARYVAR
  2
AcDbDictionaryVar
  3
ObjectDBX Classes
 90
        0
280
     0
281
     0
  0
CLASS
  1
TABLESTYLE
  2
AcDbTableStyle
  3
ObjectDBX Classes
 90
     4095
280
     0
281
     0
  0
CLASS
  1
MATERIAL
  2
AcDbMaterial
  3
ObjectDBX Classes
 90
     1153
280
     0
281
     0
  0
CLASS
  1
VISUALSTYLE
  2
AcDbVisualStyle
  3
ObjectDBX Classes
 90
     4095
280
     0
281
     0
  0
CLASS
  1
SCALE
  2
AcDbScale
  3
ObjectDBX Classes
 90
     1153
280
     0
281
     0
  0
CLASS
  1
CELLSTYLEMAP
  2
AcDbCellStyleMap
  3
ObjectDBX Classes
 90
     1152
280
     0
281
     0
  0
CLASS
  1
RASTERVARIABLES
  2
AcDbRasterVariables
  3
ISM
 90
        0
280
     0
281
     0
  0
CLASS
  1
SUN
  2
AcDbSun
  3
SCENEOE
 90
     1153
280
     0
281
     0
  0
CLASS
  1
DIMASSOC
  2
AcDbDimAssoc
  3
"AcDbDimAssoc|Product Desc:     AcDim ARX App For Dimension|Company:          Autodesk, Inc.|WEB Address:      www.autodesk.com"
 90
        0
280
     0
281
     0
  0
CLASS
  1
XRECORD
  2
AcDbXrecord
  3
ObjectDBX Classes
 90
        0
280
     0
281
     0
  0
CLASS
  1
LWPOLYLINE
  2
AcDbPolyline
  3
ObjectDBX Classes
 90
        0
280
     0
281
     1
  0
CLASS
  1
HATCH
  2
AcDbHatch
  3
ObjectDBX Classes
 90
        0
280
     0
281
     1
  0
ENDSEC
  0
SECTION
  2
TABLES
  0
TABLE
  2
VPORT
  5
8
330
0
100
AcDbSymbolTable
 70
     1
  0
VPORT
  5
94
330
8
100
AcDbSymbolTableRecord
100
AcDbViewportTableRecord
  2
*ACTIVE
 70
     0
 10
0.0
 20
0.0
 11
1.0
 21
1.0
 12
210.8077732073447
 22
218.1450030707162
 13
0.0
 23
0.0
 14
0.5
 24
0.5
 15
0.5
 25
0.5
 16
0.0
 26
0.0
 36
1.0
 17
-27.66959356597982
 27
-19.53870295786203
 37
0.0
 40
174.0980346871161
 41
1.259351620947631
 42
50.0
 43
0.0
 44
0.0
 50
0.0
 51
0.0
 71
    16
 72
  1000
 73
     1
 74
     3
 75
     0
 76
     0
 77
     0
 78
     0
  0
ENDTAB
  0
TABLE
  2
LTYPE
  5
5
330
0
100
AcDbSymbolTable
 70
     1
  0
LTYPE
  5
14
330
5
100
AcDbSymbolTableRecord
100
AcDbLinetypeTableRecord
  2
BYBLOCK
 70
     0
  3

 72
    65
 73
     0
 40
0.0
  0
LTYPE
  5
15
330
5
100
AcDbSymbolTableRecord
100
AcDbLinetypeTableRecord
  2
BYLAYER
 70
     0
  3

 72
    65
 73
     0
 40
0.0
  0
LTYPE
  5
16
330
5
100
AcDbSymbolTableRecord
100
AcDbLinetypeTableRecord
  2
CONTINUOUS
 70
     0
  3
Solid line
 72
    65
 73
     0
 40
0.0
  0
ENDTAB
  0
TABLE
  2
LAYER
  5
2
102
{ACAD_XDICTIONARY
360
3BD
102
}
330
0
100
AcDbSymbolTable
 70
     5
  0
LAYER
  5
10
330
2
100
AcDbSymbolTableRecord
100
AcDbLayerTableRecord
  2
0
 70
     0
 62
     7
  6
CONTINUOUS
  0
LAYER
  5
125
330
2
100
AcDbSymbolTableRecord
100
AcDbLayerTableRecord
  2
DEFPOINTS
 70
     0
 62
     7
  6
CONTINUOUS
  0
LAYER
  5
126
330
2
100
AcDbSymbolTableRecord
100
AcDbLayerTableRecord
  2
HLAVNÍ
 70
     0
 62
     5
  6
CONTINUOUS
  0
LAYER
  5
128
330
2
100
AcDbSymbolTableRecord
100
AcDbLayerTableRecord
  2
KOTY
 70
     0
 62
     1
  6
CONTINUOUS
1001
ACAECLAYERSTANDARD
1000

1000

  0
LAYER
  5
3C2
330
2
100
AcDbSymbolTableRecord
100
AcDbLayerTableRecord
  2
POTISK
 70
     0
 62
   250
  6
CONTINUOUS
1001
ACAECLAYERSTANDARD
1000

1000

  0
ENDTAB
  0
TABLE
  2
STYLE
  5
3
330
0
100
AcDbSymbolTable
 70
     1
  0
STYLE
  5
11
330
3
100
AcDbSymbolTableRecord
100
AcDbTextStyleTableRecord
  2
STANDARD
 70
     0
 40
0.0
 41
1.0
 50
0.0
 71
     0
 42
0.2
  3
arial.ttf
  4

1001
ACAD
1000
Arial
1071
        0
  0
ENDTAB
  0
TABLE
  2
VIEW
  5
6
330
0
100
AcDbSymbolTable
 70
     0
  0
ENDTAB
  0
TABLE
  2
UCS
  5
7
330
0
100
AcDbSymbolTable
 70
     0
  0
ENDTAB
  0
TABLE
  2
APPID
  5
9
330
0
100
AcDbSymbolTable
 70
     2
  0
APPID
  5
12
330
9
100
AcDbSymbolTableRecord
100
AcDbRegAppTableRecord
  2
ACAD
 70
     0
  0
APPID
  5
129
330
9
100
AcDbSymbolTableRecord
100
AcDbRegAppTableRecord
  2
ACAECLAYERSTANDARD
 70
     0
  0
ENDTAB
  0
TABLE
  2
DIMSTYLE
  5
A
330
0
100
AcDbSymbolTable
 70
     2
  0
DIMSTYLE
105
27
330
A
100
AcDbSymbolTableRecord
100
AcDbDimStyleTableRecord
  2
STANDARD
 70
     0
  3

  4

  5

  6

  7

 40
1.0
 41
0.18
 42
0.0625
 43
0.38
 44
0.18
 45
0.0
 46
0.0
 47
0.0
 48
0.0
140
0.18
141
0.09
142
0.0
143
25.4
144
1.0
145
0.0
146
1.0
147
0.09
 71
     0
 72
     0
 73
     1
 74
     1
 75
     0
 76
     0
 77
     0
 78
     0
170
     0
171
     2
172
     0
173
     0
174
     0
175
     0
176
     0
177
     0
178
     0
270
     2
271
     4
272
     4
273
     2
274
     2
340
11
275
     0
280
     0
281
     0
282
     0
283
     1
284
     0
285
     0
286
     0
287
     3
288
     0
  0
DIMSTYLE
105
12A
102
{ACAD_REACTORS
330
347
330
34A
330
34D
102
}
330
A
100
AcDbSymbolTableRecord
100
AcDbDimStyleTableRecord
  2
ISO-25
 70
     0
  3

  4

  5

  6

  7

 40
1.0
 41
6.0
 42
0.0
 43
3.75
 44
1.25
 45
0.0
 46
0.0
 47
0.0
 48
0.0
140
3.0
141
2.5
142
0.0
143
0.03937007874016
144
1.0
145
0.0
146
1.0
147
0.625
 71
     0
 72
     0
 73
     0
 74
     1
 75
     0
 76
     0
 77
     1
 78
     8
170
     0
171
     3
172
     1
173
     0
174
     0
175
     0
176
     5
177
     5
178
     5
270
     2
271
     4
272
     4
273
     2
274
     2
340
11
275
     0
280
     0
281
     0
282
     0
283
     1
284
     0
285
     0
286
     0
287
     3
288
     0
  0
ENDTAB
  0
TABLE
  2
BLOCK_RECORD
  5
1
330
0
100
AcDbSymbolTable
 70
     4
  0
BLOCK_RECORD
  5
1F
330
1
100
AcDbSymbolTableRecord
100
AcDbBlockTableRecord
  2
*MODEL_SPACE
  0
BLOCK_RECORD
  5
58
330
1
100
AcDbSymbolTableRecord
100
AcDbBlockTableRecord
  2
*PAPER_SPACE
  0
BLOCK_RECORD
  5
5D
330
1
100
AcDbSymbolTableRecord
100
AcDbBlockTableRecord
  2
*PAPER_SPACE0
  0
BLOCK_RECORD
  5
350
330
1
100
AcDbSymbolTableRecord
100
AcDbBlockTableRecord
  2
*D1
  0
BLOCK_RECORD
  5
35C
330
1
100
AcDbSymbolTableRecord
100
AcDbBlockTableRecord
  2
*D2
  0
BLOCK_RECORD
  5
368
330
1
100
AcDbSymbolTableRecord
100
AcDbBlockTableRecord
  2
*D3
  0
ENDTAB
  0
ENDSEC
  0
SECTION
  2
BLOCKS
  0
BLOCK
  5
20
330
1F
100
AcDbEntity
  8
0
100
AcDbBlockBegin
  2
*MODEL_SPACE
 70
     0
 10
0.0
 20
0.0
 30
0.0
  3
*MODEL_SPACE
  1

  0
ENDBLK
  5
21
330
1F
100
AcDbEntity
  8
0
100
AcDbBlockEnd
  0
BLOCK
  5
5A
330
58
100
AcDbEntity
 67
     1
  8
0
100
AcDbBlockBegin
  2
*PAPER_SPACE
 70
     0
 10
0.0
 20
0.0
 30
0.0
  3
*PAPER_SPACE
  1

  0
ENDBLK
  5
5B
330
58
100
AcDbEntity
 67
     1
  8
0
100
AcDbBlockEnd
  0
BLOCK
  5
5F
330
5D
100
AcDbEntity
  8
0
100
AcDbBlockBegin
  2
*PAPER_SPACE0
 70
     0
 10
0.0
 20
0.0
 30
0.0
  3
*PAPER_SPACE0
  1
*PAPER_SPACE0
  0
ENDBLK
  5
60
330
5D
100
AcDbEntity
  8
0
100
AcDbBlockEnd
  0
BLOCK
  5
351
330
350
100
AcDbEntity
  8
0
100
AcDbBlockBegin
  2
*D1
 70
     1
 10
0.0
 20
0.0
 30
0.0
  3
*D1
  1
*D5
  0
LINE
  5
353
330
350
100
AcDbEntity
  8
KOTY
100
AcDbLine
 10
118.1946993394387
 20
269.3554404427027
 30
0.0
 11
101.6009778362765
 21
269.3554404427027
 31
0.0
  0
LINE
  5
354
330
350
100
AcDbEntity
  8
KOTY
100
AcDbLine
 10
118.1946993394387
 20
148.8554743812476
 30
0.0
 11
101.6009778362765
 21
148.8554743812476
 31
0.0
  0
LINE
  5
355
330
350
100
AcDbEntity
  8
KOTY
100
AcDbLine
 10
102.8509778362765
 20
264.3554404427027
 30
0.0
 11
102.8509778362765
 21
153.8554743812476
 31
0.0
  0
SOLID
  5
356
330
350
100
AcDbEntity
  8
KOTY
100
AcDbTrace
 10
103.6843111696098
 20
264.3554404427027
 30
0.0
 11
102.0176445029432
 21
264.3554404427027
 31
0.0
 12
102.8509778362765
 22
269.3554404427027
 32
0.0
 13
102.8509778362765
 23
269.3554404427027
 33
0.0
  0
SOLID
  5
357
330
350
100
AcDbEntity
  8
KOTY
100
AcDbTrace
 10
102.0176445029432
 20
153.8554743812476
 30
0.0
 11
103.6843111696098
 21
153.8554743812476
 31
0.0
 12
102.8509778362765
 22
148.8554743812476
 32
0.0
 13
102.8509778362765
 23
148.8554743812476
 33
0.0
  0
MTEXT
  5
358
330
350
100
AcDbEntity
  8
KOTY
100
AcDbMText
 10
99.2984778362765
 20
209.1054574119751
 30
0.0
 40
5.0
 41
0.0
 71
     5
 72
     1
  1
\A1;120
 11
1.179324374909322E-16
 21
1.0
 31
0.0
  0
POINT
  5
359
330
350
100
AcDbEntity
  8
DEFPOINTS
 62
     0
100
AcDbPoint
 10
118.1946993394387
 20
269.3554404427027
 30
0.0
  0
POINT
  5
35A
330
350
100
AcDbEntity
  8
DEFPOINTS
 62
     0
100
AcDbPoint
 10
118.1946993394387
 20
148.8554743812476
 30
0.0
  0
POINT
  5
35B
330
350
100
AcDbEntity
  8
DEFPOINTS
 62
     0
100
AcDbPoint
 10
102.8509778362765
 20
148.8554743812476
 30
0.0
  0
ENDBLK
  5
352
330
350
100
AcDbEntity
  8
0
100
AcDbBlockEnd
  0
BLOCK
  5
35D
330
35C
100
AcDbEntity
  8
0
100
AcDbBlockBegin
  2
*D2
 70
     1
 10
0.0
 20
0.0
 30
0.0
  3
*D2
  1
*D6
  0
LINE
  5
35F
330
35C
100
AcDbEntity
  8
KOTY
100
AcDbLine
 10
118.1946993394387
 20
148.8554743812476
 30
0.0
 11
118.1946993394387
 21
131.166349688892
 31
0.0
  0
LINE
  5
360
330
35C
100
AcDbEntity
  8
KOTY
100
AcDbLine
 10
178.6947101750082
 20
148.8554743812476
 30
0.0
 11
178.6947101750082
 21
131.166349688892
 31
0.0
  0
LINE
  5
361
330
35C
100
AcDbEntity
  8
KOTY
100
AcDbLine
 10
123.1946993394387
 20
132.416349688892
 30
0.0
 11
173.6947101750082
 21
132.416349688892
 31
0.0
  0
SOLID
  5
362
330
35C
100
AcDbEntity
  8
KOTY
100
AcDbTrace
 10
123.1946993394387
 20
133.2496830222254
 30
0.0
 11
123.1946993394387
 21
131.5830163555587
 31
0.0
 12
118.1946993394387
 22
132.416349688892
 32
0.0
 13
118.1946993394387
 23
132.416349688892
 33
0.0
  0
SOLID
  5
363
330
35C
100
AcDbEntity
  8
KOTY
100
AcDbTrace
 10
173.6947101750082
 20
131.5830163555587
 30
0.0
 11
173.6947101750082
 21
133.2496830222254
 31
0.0
 12
178.6947101750082
 22
132.416349688892
 32
0.0
 13
178.6947101750082
 23
132.416349688892
 33
0.0
  0
MTEXT
  5
364
330
35C
100
AcDbEntity
  8
KOTY
100
AcDbMText
 10
148.4447047572235
 20
135.968849688892
 30
0.0
 40
5.0
 41
0.0
 71
     5
 72
     1
  1
\A1;60
  0
POINT
  5
365
330
35C
100
AcDbEntity
  8
DEFPOINTS
 62
     0
100
AcDbPoint
 10
118.1946993394387
 20
148.8554743812476
 30
0.0
  0
POINT
  5
366
330
35C
100
AcDbEntity
  8
DEFPOINTS
 62
     0
100
AcDbPoint
 10
178.6947101750082
 20
148.8554743812476
 30
0.0
  0
POINT
  5
367
330
35C
100
AcDbEntity
  8
DEFPOINTS
 62
     0
100
AcDbPoint
 10
178.6947101750082
 20
132.416349688892
 30
0.0
  0
ENDBLK
  5
35E
330
35C
100
AcDbEntity
  8
0
100
AcDbBlockEnd
  0
BLOCK
  5
369
330
368
100
AcDbEntity
  8
0
100
AcDbBlockBegin
  2
*D3
 70
     1
 10
0.0
 20
0.0
 30
0.0
  3
*D3
  1
*D7
  0
LINE
  5
36B
330
368
100
AcDbEntity
  8
KOTY
100
AcDbLine
 10
228.6945867358588
 20
148.8554743812476
 30
0.0
 11
228.6945867358588
 21
131.166349688892
 31
0.0
  0
LINE
  5
36C
330
368
100
AcDbEntity
  8
KOTY
100
AcDbLine
 10
270.1948959702754
 20
159.9202039449114
 30
0.0
 11
270.1948959702754
 21
131.166349688892
 31
0.0
  0
LINE
  5
36D
330
368
100
AcDbEntity
  8
KOTY
100
AcDbLine
 10
233.6945867358588
 20
132.416349688892
 30
0.0
 11
265.1948959702754
 21
132.416349688892
 31
0.0
  0
SOLID
  5
36E
330
368
100
AcDbEntity
  8
KOTY
100
AcDbTrace
 10
233.6945867358588
 20
133.2496830222254
 30
0.0
 11
233.6945867358588
 21
131.5830163555587
 31
0.0
 12
228.6945867358588
 22
132.416349688892
 32
0.0
 13
228.6945867358588
 23
132.416349688892
 33
0.0
  0
SOLID
  5
36F
330
368
100
AcDbEntity
  8
KOTY
100
AcDbTrace
 10
265.1948959702754
 20
131.5830163555587
 30
0.0
 11
265.1948959702754
 21
133.2496830222254
 31
0.0
 12
270.1948959702754
 22
132.416349688892
 32
0.0
 13
270.1948959702754
 23
132.416349688892
 33
0.0
  0
MTEXT
  5
370
330
368
100
AcDbEntity
  8
KOTY
100
AcDbMText
 10
249.4447413530671
 20
135.968849688892
 30
0.0
 40
5.0
 41
0.0
 71
     5
 72
     1
  1
\A1;40
  0
POINT
  5
371
330
368
100
AcDbEntity
  8
DEFPOINTS
 62
     0
100
AcDbPoint
 10
228.6945867358588
 20
148.8554743812476
 30
0.0
  0
POINT
  5
372
330
368
100
AcDbEntity
  8
DEFPOINTS
 62
     0
100
AcDbPoint
 10
270.1948959702754
 20
159.9202039449114
 30
0.0
  0
POINT
  5
373
330
368
100
AcDbEntity
  8
DEFPOINTS
 62
     0
100
AcDbPoint
 10
270.1948959702754
 20
132.416349688892
 30
0.0
  0
ENDBLK
  5
36A
330
368
100
AcDbEntity
  8
0
100
AcDbBlockEnd
  0
ENDSEC
  0
SECTION
  2
ENTITIES
  0
LINE
  5
260
330
1F
100
AcDbEntity
  8
HLAVNÍ
100
AcDbLine
 10
236.0250609093734
 20
275.3554187398137
 30
0.0
 11
236.2514036827544
 21
275.1292482212065
 31
0.0
  0
LINE
  5
261
330
1F
100
AcDbEntity
  8
HLAVNÍ
100
AcDbLine
 10
232.7705633480518
 20
271.3655655471654
 30
0.0
 11
235.6857190040764
 21
274.2807212031896
 31
0.0
  0
LINE
  5
262
330
1F
100
AcDbEntity
  8
HLAVNÍ
100
AcDbLine
 10
235.6857190040764
 20
274.2807212031896
 30
0.0
 11
236.2514036827544
 21
275.1292482212065
 31
0.0
  0
LINE
  5
263
330
1F
100
AcDbEntity
  8
HLAVNÍ
100
AcDbLine
 10
235.1341592168879
 20
274.8605307733575
 30
0.0
 11
236.0250609093734
 21
275.3554187398137
 31
0.0
  0
LINE
  5
264
330
1F
100
AcDbEntity
  8
HLAVNÍ
100
AcDbLine
 10
232.4391451623706
 20
272.1655167188405
 30
0.0
 11
235.1341592168879
 21
274.8605307733575
 31
0.0
  0
LINE
  5
265
330
1F
100
AcDbEntity
  8
HLAVNÍ
100
AcDbLine
 10
231.1945568959743
 20
270.9555150408266
 30
0.0
 11
231.7806138543907
 21
270.9555150408266
 31
0.0
  0
LINE
  5
266
330
1F
100
AcDbEntity
  8
HLAVNÍ
100
AcDbLine
 10
230.5945568959743
 20
269.3554404427027
 30
0.0
 11
230.5945568959743
 21
270.3555150408267
 31
0.0
  0
LINE
  5
267
330
1F
100
AcDbEntity
  8
HLAVNÍ
100
AcDbLine
 10
231.1946057242991
 20
271.7554662125016
 30
0.0
 11
231.4491956687095
 21
271.7554662125016
 31
0.0
  0
LINE
  5
268
330
1F
100
AcDbEntity
  8
HLAVNÍ
100
AcDbLine
 10
229.7946057242991
 20
269.3554404427027
 30
0.0
 11
229.7946057242991
 21
270.3554662125015
 31
0.0
  0
LINE
  5
269
330
1F
100
AcDbEntity
  8
HLAVNÍ
100
AcDbLine
 10
129.1947169690671
 20
261.3554119616296
 30
0.0
 11
135.4446369436331
 21
261.3554119616296
 31
0.0
  0
LINE
  5
26A
330
1F
100
AcDbEntity
  8
HLAVNÍ
100
AcDbLine
 10
130.0447942800526
 20
273.1054268783966
 30
0.0
 11
130.0447942800526
 21
274.3554797752196
 31
0.0
  0
LINE
  5
26B
330
1F
100
AcDbEntity
  8
HLAVNÍ
100
AcDbLine
 10
130.0447942800526
 20
274.3554797752196
 30
0.0
 11
131.0447332446463
 21
275.3554187398137
 31
0.0
  0
LINE
  5
26C
330
1F
100
AcDbEntity
  8
HLAVNÍ
100
AcDbLine
 10
131.0447332446463
 20
275.3554187398137
 30
0.0
 11
135.3447291745607
 21
275.3554187398137
 31
0.0
  0
LINE
  5
26D
330
1F
100
AcDbEntity
  8
HLAVNÍ
100
AcDbLine
 10
135.3447291745607
 20
275.3554187398137
 30
0.0
 11
136.3446681391547
 21
274.3554797752196
 31
0.0
  0
LINE
  5
26E
330
1F
100
AcDbEntity
  8
HLAVNÍ
100
AcDbLine
 10
136.3446681391547
 20
274.3554797752196
 30
0.0
 11
136.3446681391547
 21
273.1054268783966
 31
0.0
  0
LINE
  5
26F
330
1F
100
AcDbEntity
  8
HLAVNÍ
100
AcDbLine
 10
130.0447942800526
 20
269.3554404427027
 30
0.0
 11
130.0447942800526
 21
273.1054268783966
 31
0.0
  0
LINE
  5
270
330
1F
100
AcDbEntity
  8
HLAVNÍ
100
AcDbLine
 10
130.0447942800526
 20
269.3554404427027
 30
0.0
 11
129.1947169690671
 21
269.3554404427027
 31
0.0
  0
LINE
  5
271
330
1F
100
AcDbEntity
  8
HLAVNÍ
100
AcDbLine
 10
129.1947169690671
 20
269.3554404427027
 30
0.0
 11
129.1947169690671
 21
266.1085992612956
 31
0.0
  0
LINE
  5
272
330
1F
100
AcDbEntity
  8
HLAVNÍ
100
AcDbLine
 10
265.6945677378935
 20
157.6053278946856
 30
0.0
 11
265.6945677378935
 21
158.6054391140526
 31
0.0
  0
LINE
  5
273
330
1F
100
AcDbEntity
  8
HLAVNÍ
100
AcDbLine
 10
265.6945677378935
 20
153.8556859685397
 30
0.0
 11
265.6945677378935
 21
157.6053278946856
 31
0.0
  0
LINE
  5
274
330
1F
100
AcDbEntity
  8
HLAVNÍ
100
AcDbLine
 10
265.6945677378935
 20
260.6054146744906
 30
0.0
 11
265.6945677378935
 21
264.3554011101846
 31
0.0
  0
LINE
  5
275
330
1F
100
AcDbEntity
  8
HLAVNÍ
100
AcDbLine
 10
265.6945677378935
 20
259.6054757098966
 30
0.0
 11
265.6945677378935
 21
260.6054146744906
 31
0.0
  0
LINE
  5
276
330
1F
100
AcDbEntity
  8
HLAVNÍ
100
AcDbLine
 10
238.6946654008937
 20
145.1054879455536
 30
0.0
 11
248.1948607110185
 21
145.1054879455536
 31
0.0
  0
LINE
  5
277
330
1F
100
AcDbEntity
  8
HLAVNÍ
100
AcDbLine
 10
252.6948444338518
 20
145.6053713004625
 30
0.0
 11
253.6946111436714
 21
145.6053713004625
 31
0.0
  0
LINE
  5
278
330
1F
100
AcDbEntity
  8
HLAVNÍ
100
AcDbLine
 10
248.1948607110185
 20
145.6053713004625
 30
0.0
 11
252.6948444338518
 21
146.1055991649216
 31
0.0
  0
LINE
  5
279
330
1F
100
AcDbEntity
  8
HLAVNÍ
100
AcDbLine
 10
248.1948607110185
 20
145.6053713004625
 30
0.0
 11
248.1948607110185
 21
145.1054879455536
 31
0.0
  0
LINE
  5
27A
330
1F
100
AcDbEntity
  8
HLAVNÍ
100
AcDbLine
 10
252.6948444338518
 20
146.1055991649216
 30
0.0
 11
252.6948444338518
 21
145.6053713004625
 31
0.0
  0
LINE
  5
27B
330
1F
100
AcDbEntity
  8
HLAVNÍ
100
AcDbLine
 10
253.6946111436714
 20
148.8554743812476
 30
0.0
 11
253.6946111436714
 21
145.6053713004625
 31
0.0
  0
LINE
  5
27C
330
1F
100
AcDbEntity
  8
HLAVNÍ
100
AcDbLine
 10
238.6946654008937
 20
148.8554743812476
 30
0.0
 11
238.6946654008937
 21
145.1054879455536
 31
0.0
  0
LINE
  5
27D
330
1F
100
AcDbEntity
  8
HLAVNÍ
100
AcDbLine
 10
238.6946654008937
 20
269.3554404427027
 30
0.0
 11
238.6946654008937
 21
273.1054268783966
 31
0.0
  0
LINE
  5
27E
330
1F
100
AcDbEntity
  8
HLAVNÍ
100
AcDbLine
 10
253.6946111436714
 20
269.3554404427027
 30
0.0
 11
253.6946111436714
 21
272.6055435234866
 31
0.0
  0
LINE
  5
27F
330
1F
100
AcDbEntity
  8
HLAVNÍ
100
AcDbLine
 10
252.6948444338518
 20
272.1054879138036
 30
0.0
 11
252.6948444338518
 21
272.6055435234866
 31
0.0
  0
LINE
  5
280
330
1F
100
AcDbEntity
  8
HLAVNÍ
100
AcDbLine
 10
248.1948607110185
 20
272.6055435234866
 30
0.0
 11
248.1948607110185
 21
273.1054268783966
 31
0.0
  0
LINE
  5
281
330
1F
100
AcDbEntity
  8
HLAVNÍ
100
AcDbLine
 10
248.1948607110185
 20
272.6055435234866
 30
0.0
 11
252.6948444338518
 21
272.1054879138036
 31
0.0
  0
LINE
  5
282
330
1F
100
AcDbEntity
  8
HLAVNÍ
100
AcDbLine
 10
252.6948444338518
 20
272.6055435234866
 30
0.0
 11
253.6946111436714
 21
272.6055435234866
 31
0.0
  0
LINE
  5
283
330
1F
100
AcDbEntity
  8
HLAVNÍ
100
AcDbLine
 10
238.6946654008937
 20
273.1054268783966
 30
0.0
 11
248.1948607110185
 21
273.1054268783966
 31
0.0
  0
LINE
  5
284
330
1F
100
AcDbEntity
  8
HLAVNÍ
100
AcDbLine
 10
160.9447169611297
 20
148.8554743812476
 30
0.0
 11
167.6946925453796
 21
148.8554743812476
 31
0.0
  0
LINE
  5
285
330
1F
100
AcDbEntity
  8
HLAVNÍ
100
AcDbLine
 10
129.1947169690671
 20
148.8554743812476
 30
0.0
 11
135.9446925533172
 21
148.8554743812476
 31
0.0
  0
LINE
  5
286
330
1F
100
AcDbEntity
  8
HLAVNÍ
100
AcDbLine
 10
139.1947956341019
 20
154.6053387461297
 30
0.0
 11
139.1947956341019
 21
156.1053333204076
 31
0.0
  0
LINE
  5
287
330
1F
100
AcDbEntity
  8
HLAVNÍ
100
AcDbLine
 10
144.1946627118449
 20
154.6053387461297
 30
0.0
 11
144.1946627118449
 21
156.1053333204076
 31
0.0
  0
LINE
  5
288
330
1F
100
AcDbEntity
  8
HLAVNÍ
100
AcDbLine
 10
149.1947020443623
 20
154.6053387461297
 30
0.0
 11
149.1947020443623
 21
156.1053333204076
 31
0.0
  0
LINE
  5
289
330
1F
100
AcDbEntity
  8
HLAVNÍ
100
AcDbLine
 10
154.1947413768795
 20
154.6053387461297
 30
0.0
 11
154.1947413768795
 21
156.1053333204076
 31
0.0
  0
LINE
  5
28A
330
1F
100
AcDbEntity
  8
HLAVNÍ
100
AcDbLine
 10
139.1947956341019
 20
154.6053387461297
 30
0.0
 11
139.1947956341019
 21
156.1053333204076
 31
0.0
  0
LINE
  5
28B
330
1F
100
AcDbEntity
  8
HLAVNÍ
100
AcDbLine
 10
144.1946627118449
 20
154.6053387461297
 30
0.0
 11
144.1946627118449
 21
156.1053333204076
 31
0.0
  0
LINE
  5
28C
330
1F
100
AcDbEntity
  8
HLAVNÍ
100
AcDbLine
 10
149.1947020443623
 20
154.6053387461297
 30
0.0
 11
149.1947020443623
 21
156.1053333204076
 31
0.0
  0
LINE
  5
28D
330
1F
100
AcDbEntity
  8
HLAVNÍ
100
AcDbLine
 10
154.1947413768795
 20
154.6053387461297
 30
0.0
 11
154.1947413768795
 21
156.1053333204076
 31
0.0
  0
LINE
  5
28E
330
1F
100
AcDbEntity
  8
HLAVNÍ
100
AcDbLine
 10
137.6948010598241
 20
154.6053387461297
 30
0.0
 11
137.6948010598241
 21
156.1053333204076
 31
0.0
  0
LINE
  5
28F
330
1F
100
AcDbEntity
  8
HLAVNÍ
100
AcDbLine
 10
142.6946681375671
 20
154.6053387461297
 30
0.0
 11
142.6946681375671
 21
156.1053333204076
 31
0.0
  0
LINE
  5
290
330
1F
100
AcDbEntity
  8
HLAVNÍ
100
AcDbLine
 10
147.6947074700845
 20
154.6053387461297
 30
0.0
 11
147.6947074700845
 21
156.1053333204076
 31
0.0
  0
LINE
  5
291
330
1F
100
AcDbEntity
  8
HLAVNÍ
100
AcDbLine
 10
152.6947468026019
 20
154.6053387461297
 30
0.0
 11
152.6947468026019
 21
156.1053333204076
 31
0.0
  0
LINE
  5
292
330
1F
100
AcDbEntity
  8
HLAVNÍ
100
AcDbLine
 10
139.1947956341019
 20
156.1053333204076
 30
0.0
 11
137.6948010598241
 21
156.1053333204076
 31
0.0
  0
LINE
  5
293
330
1F
100
AcDbEntity
  8
HLAVNÍ
100
AcDbLine
 10
144.1946627118449
 20
156.1053333204076
 30
0.0
 11
142.6946681375671
 21
156.1053333204076
 31
0.0
  0
LINE
  5
294
330
1F
100
AcDbEntity
  8
HLAVNÍ
100
AcDbLine
 10
149.1947020443623
 20
156.1053333204076
 30
0.0
 11
147.6947074700845
 21
156.1053333204076
 31
0.0
  0
LINE
  5
295
330
1F
100
AcDbEntity
  8
HLAVNÍ
100
AcDbLine
 10
154.1947413768795
 20
156.1053333204076
 30
0.0
 11
152.6947468026019
 21
156.1053333204076
 31
0.0
  0
LINE
  5
296
330
1F
100
AcDbEntity
  8
HLAVNÍ
100
AcDbLine
 10
159.1947807093971
 20
156.1053333204076
 30
0.0
 11
157.6947861351192
 21
156.1053333204076
 31
0.0
  0
LINE
  5
297
330
1F
100
AcDbEntity
  8
HLAVNÍ
100
AcDbLine
 10
157.6947861351192
 20
154.6053387461297
 30
0.0
 11
157.6947861351192
 21
156.1053333204076
 31
0.0
  0
LINE
  5
298
330
1F
100
AcDbEntity
  8
HLAVNÍ
100
AcDbLine
 10
159.1947807093971
 20
154.6053387461297
 30
0.0
 11
159.1947807093971
 21
156.1053333204076
 31
0.0
  0
LINE
  5
299
330
1F
100
AcDbEntity
  8
HLAVNÍ
100
AcDbLine
 10
159.1947807093971
 20
154.6053387461297
 30
0.0
 11
159.1947807093971
 21
156.1053333204076
 31
0.0
  0
LINE
  5
29A
330
1F
100
AcDbEntity
  8
HLAVNÍ
100
AcDbLine
 10
161.4447725708137
 20
157.6053278946856
 30
0.0
 11
135.4446369436331
 21
157.6053278946856
 31
0.0
  0
LINE
  5
29B
330
1F
100
AcDbEntity
  8
HLAVNÍ
100
AcDbLine
 10
161.4447725708137
 20
154.6053387461297
 30
0.0
 11
135.4446369436331
 21
154.6053387461297
 31
0.0
  0
LINE
  5
29C
330
1F
100
AcDbEntity
  8
HLAVNÍ
100
AcDbLine
 10
135.4446369436331
 20
154.6053387461297
 30
0.0
 11
135.4446369436331
 21
157.6053278946856
 31
0.0
  0
LINE
  5
29D
330
1F
100
AcDbEntity
  8
HLAVNÍ
100
AcDbLine
 10
161.4447725708137
 20
154.6053387461297
 30
0.0
 11
161.4447725708137
 21
157.6053278946856
 31
0.0
  0
LINE
  5
29E
330
1F
100
AcDbEntity
  8
HLAVNÍ
100
AcDbLine
 10
140.9447318858344
 20
154.6053387461297
 30
0.0
 11
140.9447318858344
 21
157.6053278946856
 31
0.0
  0
LINE
  5
29F
330
1F
100
AcDbEntity
  8
HLAVNÍ
100
AcDbLine
 10
155.9446776286123
 20
154.6053387461297
 30
0.0
 11
155.9446776286123
 21
157.6053278946856
 31
0.0
  0
LINE
  5
2A0
330
1F
100
AcDbEntity
  8
HLAVNÍ
100
AcDbLine
 10
139.4447373115568
 20
154.6053387461297
 30
0.0
 11
139.4447373115568
 21
157.6053278946856
 31
0.0
  0
LINE
  5
2A1
330
1F
100
AcDbEntity
  8
HLAVNÍ
100
AcDbLine
 10
157.44467220289
 20
154.6053387461297
 30
0.0
 11
157.44467220289
 21
157.6053278946856
 31
0.0
  0
LINE
  5
2A2
330
1F
100
AcDbEntity
  8
HLAVNÍ
100
AcDbLine
 10
135.9446925533172
 20
145.1054879455536
 30
0.0
 11
135.9446925533172
 21
154.6053387461297
 31
0.0
  0
LINE
  5
2A3
330
1F
100
AcDbEntity
  8
HLAVNÍ
100
AcDbLine
 10
160.9447169611297
 20
145.1054879455536
 30
0.0
 11
160.9447169611297
 21
154.6053387461297
 31
0.0
  0
LINE
  5
2A4
330
1F
100
AcDbEntity
  8
HLAVNÍ
100
AcDbLine
 10
135.9446925533172
 20
145.6053713004625
 30
0.0
 11
160.9447169611297
 21
145.6053713004625
 31
0.0
  0
LINE
  5
2A5
330
1F
100
AcDbEntity
  8
HLAVNÍ
100
AcDbLine
 10
160.9447169611297
 20
153.6055720363096
 30
0.0
 11
135.9446925533172
 21
153.6055720363096
 31
0.0
  0
LINE
  5
2A6
330
1F
100
AcDbEntity
  8
HLAVNÍ
100
AcDbLine
 10
135.9446925533172
 20
145.1054879455536
 30
0.0
 11
160.9447169611297
 21
145.1054879455536
 31
0.0
  0
LINE
  5
2A7
330
1F
100
AcDbEntity
  8
HLAVNÍ
100
AcDbLine
 10
138.8447739328005
 20
148.6460125757446
 30
0.0
 11
138.8447739328005
 21
152.5651531997646
 31
0.0
  0
LINE
  5
2A8
330
1F
100
AcDbEntity
  8
HLAVNÍ
100
AcDbLine
 10
148.8446803430609
 20
148.6460125757446
 30
0.0
 11
148.8446803430609
 21
152.5651531997646
 31
0.0
  0
LINE
  5
2A9
330
1F
100
AcDbEntity
  8
HLAVNÍ
100
AcDbLine
 10
138.0446505063512
 20
148.6460125757446
 30
0.0
 11
138.0446505063512
 21
152.5651531997646
 31
0.0
  0
LINE
  5
2AA
330
1F
100
AcDbEntity
  8
HLAVNÍ
100
AcDbLine
 10
148.044729171386
 20
148.6460125757446
 30
0.0
 11
148.044729171386
 21
152.5651531997646
 31
0.0
  0
LINE
  5
2AB
330
1F
100
AcDbEntity
  8
HLAVNÍ
100
AcDbLine
 10
158.0446355816464
 20
148.6460125757446
 30
0.0
 11
158.0446355816464
 21
152.5651531997646
 31
0.0
  0
LINE
  5
2AC
330
1F
100
AcDbEntity
  8
HLAVNÍ
100
AcDbLine
 10
158.8447590080957
 20
148.6460125757446
 30
0.0
 11
158.8447590080957
 21
152.5651531997646
 31
0.0
  0
LINE
  5
2AD
330
1F
100
AcDbEntity
  8
HLAVNÍ
100
AcDbLine
 10
139.4447373115568
 20
146.6054825198316
 30
0.0
 11
137.444687127595
 21
146.6054825198316
 31
0.0
  0
LINE
  5
2AE
330
1F
100
AcDbEntity
  8
HLAVNÍ
100
AcDbLine
 10
137.444687127595
 20
146.6054825198316
 30
0.0
 11
137.444687127595
 21
147.6055937391986
 31
0.0
  0
LINE
  5
2AF
330
1F
100
AcDbEntity
  8
HLAVNÍ
100
AcDbLine
 10
137.444687127595
 20
147.6055937391986
 30
0.0
 11
139.4447373115568
 21
147.6055937391986
 31
0.0
  0
LINE
  5
2B0
330
1F
100
AcDbEntity
  8
HLAVNÍ
100
AcDbLine
 10
139.4447373115568
 20
147.6055937391986
 30
0.0
 11
139.4447373115568
 21
146.6054825198316
 31
0.0
  0
LINE
  5
2B1
330
1F
100
AcDbEntity
  8
HLAVNÍ
100
AcDbLine
 10
144.444776644074
 20
146.6054825198316
 30
0.0
 11
142.4447264601124
 21
146.6054825198316
 31
0.0
  0
LINE
  5
2B2
330
1F
100
AcDbEntity
  8
HLAVNÍ
100
AcDbLine
 10
142.4447264601124
 20
146.6054825198316
 30
0.0
 11
142.4447264601124
 21
147.6055937391986
 31
0.0
  0
LINE
  5
2B3
330
1F
100
AcDbEntity
  8
HLAVNÍ
100
AcDbLine
 10
142.4447264601124
 20
147.6055937391986
 30
0.0
 11
144.444776644074
 21
147.6055937391986
 31
0.0
  0
LINE
  5
2B4
330
1F
100
AcDbEntity
  8
HLAVNÍ
100
AcDbLine
 10
144.444776644074
 20
147.6055937391986
 30
0.0
 11
144.444776644074
 21
146.6054825198316
 31
0.0
  0
LINE
  5
2B5
330
1F
100
AcDbEntity
  8
HLAVNÍ
100
AcDbLine
 10
149.4446437218171
 20
146.6054825198316
 30
0.0
 11
147.4447657926296
 21
146.6054825198316
 31
0.0
  0
LINE
  5
2B6
330
1F
100
AcDbEntity
  8
HLAVNÍ
100
AcDbLine
 10
147.4447657926296
 20
146.6054825198316
 30
0.0
 11
147.4447657926296
 21
147.6055937391986
 31
0.0
  0
LINE
  5
2B7
330
1F
100
AcDbEntity
  8
HLAVNÍ
100
AcDbLine
 10
147.4447657926296
 20
147.6055937391986
 30
0.0
 11
149.4446437218171
 21
147.6055937391986
 31
0.0
  0
LINE
  5
2B8
330
1F
100
AcDbEntity
  8
HLAVNÍ
100
AcDbLine
 10
149.4446437218171
 20
147.6055937391986
 30
0.0
 11
149.4446437218171
 21
146.6054825198316
 31
0.0
  0
LINE
  5
2B9
330
1F
100
AcDbEntity
  8
HLAVNÍ
100
AcDbLine
 10
154.4446830543345
 20
146.6054825198316
 30
0.0
 11
152.4446328703728
 21
146.6054825198316
 31
0.0
  0
LINE
  5
2BA
330
1F
100
AcDbEntity
  8
HLAVNÍ
100
AcDbLine
 10
152.4446328703728
 20
146.6054825198316
 30
0.0
 11
152.4446328703728
 21
147.6055937391986
 31
0.0
  0
LINE
  5
2BB
330
1F
100
AcDbEntity
  8
HLAVNÍ
100
AcDbLine
 10
152.4446328703728
 20
147.6055937391986
 30
0.0
 11
154.4446830543345
 21
147.6055937391986
 31
0.0
  0
LINE
  5
2BC
330
1F
100
AcDbEntity
  8
HLAVNÍ
100
AcDbLine
 10
154.4446830543345
 20
147.6055937391986
 30
0.0
 11
154.4446830543345
 21
146.6054825198316
 31
0.0
  0
LINE
  5
2BD
330
1F
100
AcDbEntity
  8
HLAVNÍ
100
AcDbLine
 10
159.4447223868519
 20
146.6054825198316
 30
0.0
 11
157.44467220289
 21
146.6054825198316
 31
0.0
  0
LINE
  5
2BE
330
1F
100
AcDbEntity
  8
HLAVNÍ
100
AcDbLine
 10
157.44467220289
 20
146.6054825198316
 30
0.0
 11
157.44467220289
 21
147.6055937391986
 31
0.0
  0
LINE
  5
2BF
330
1F
100
AcDbEntity
  8
HLAVNÍ
100
AcDbLine
 10
157.44467220289
 20
147.6055937391986
 30
0.0
 11
159.4447223868519
 21
147.6055937391986
 31
0.0
  0
LINE
  5
2C0
330
1F
100
AcDbEntity
  8
HLAVNÍ
100
AcDbLine
 10
159.4447223868519
 20
147.6055937391986
 30
0.0
 11
159.4447223868519
 21
146.6054825198316
 31
0.0
  0
LINE
  5
2C1
330
1F
100
AcDbEntity
  8
HLAVNÍ
100
AcDbLine
 10
135.9446925533172
 20
269.3554404427027
 30
0.0
 11
129.1947169690671
 21
269.3554404427027
 31
0.0
  0
LINE
  5
2C2
330
1F
100
AcDbEntity
  8
HLAVNÍ
100
AcDbLine
 10
167.6946925453796
 20
269.3554404427027
 30
0.0
 11
160.9447169611297
 21
269.3554404427027
 31
0.0
  0
LINE
  5
2C3
330
1F
100
AcDbEntity
  8
HLAVNÍ
100
AcDbLine
 10
157.6947861351192
 20
263.6054038230465
 30
0.0
 11
157.6947861351192
 21
262.1054092487686
 31
0.0
  0
LINE
  5
2C4
330
1F
100
AcDbEntity
  8
HLAVNÍ
100
AcDbLine
 10
152.6947468026019
 20
263.6054038230465
 30
0.0
 11
152.6947468026019
 21
262.1054092487686
 31
0.0
  0
LINE
  5
2C5
330
1F
100
AcDbEntity
  8
HLAVNÍ
100
AcDbLine
 10
147.6947074700845
 20
263.6054038230465
 30
0.0
 11
147.6947074700845
 21
262.1054092487686
 31
0.0
  0
LINE
  5
2C6
330
1F
100
AcDbEntity
  8
HLAVNÍ
100
AcDbLine
 10
142.6946681375671
 20
263.6054038230465
 30
0.0
 11
142.6946681375671
 21
262.1054092487686
 31
0.0
  0
LINE
  5
2C7
330
1F
100
AcDbEntity
  8
HLAVNÍ
100
AcDbLine
 10
157.6947861351192
 20
263.6054038230465
 30
0.0
 11
157.6947861351192
 21
262.1054092487686
 31
0.0
  0
LINE
  5
2C8
330
1F
100
AcDbEntity
  8
HLAVNÍ
100
AcDbLine
 10
152.6947468026019
 20
263.6054038230465
 30
0.0
 11
152.6947468026019
 21
262.1054092487686
 31
0.0
  0
LINE
  5
2C9
330
1F
100
AcDbEntity
  8
HLAVNÍ
100
AcDbLine
 10
147.6947074700845
 20
263.6054038230465
 30
0.0
 11
147.6947074700845
 21
262.1054092487686
 31
0.0
  0
LINE
  5
2CA
330
1F
100
AcDbEntity
  8
HLAVNÍ
100
AcDbLine
 10
142.6946681375671
 20
263.6054038230465
 30
0.0
 11
142.6946681375671
 21
262.1054092487686
 31
0.0
  0
LINE
  5
2CB
330
1F
100
AcDbEntity
  8
HLAVNÍ
100
AcDbLine
 10
159.1947807093971
 20
263.6054038230465
 30
0.0
 11
159.1947807093971
 21
262.1054092487686
 31
0.0
  0
LINE
  5
2CC
330
1F
100
AcDbEntity
  8
HLAVNÍ
100
AcDbLine
 10
154.1947413768795
 20
263.6054038230465
 30
0.0
 11
154.1947413768795
 21
262.1054092487686
 31
0.0
  0
LINE
  5
2CD
330
1F
100
AcDbEntity
  8
HLAVNÍ
100
AcDbLine
 10
149.1947020443623
 20
263.6054038230465
 30
0.0
 11
149.1947020443623
 21
262.1054092487686
 31
0.0
  0
LINE
  5
2CE
330
1F
100
AcDbEntity
  8
HLAVNÍ
100
AcDbLine
 10
144.1946627118449
 20
263.6054038230465
 30
0.0
 11
144.1946627118449
 21
262.1054092487686
 31
0.0
  0
LINE
  5
2CF
330
1F
100
AcDbEntity
  8
HLAVNÍ
100
AcDbLine
 10
157.6947861351192
 20
262.1054092487686
 30
0.0
 11
159.1947807093971
 21
262.1054092487686
 31
0.0
  0
LINE
  5
2D0
330
1F
100
AcDbEntity
  8
HLAVNÍ
100
AcDbLine
 10
152.6947468026019
 20
262.1054092487686
 30
0.0
 11
154.1947413768795
 21
262.1054092487686
 31
0.0
  0
LINE
  5
2D1
330
1F
100
AcDbEntity
  8
HLAVNÍ
100
AcDbLine
 10
147.6947074700845
 20
262.1054092487686
 30
0.0
 11
149.1947020443623
 21
262.1054092487686
 31
0.0
  0
LINE
  5
2D2
330
1F
100
AcDbEntity
  8
HLAVNÍ
100
AcDbLine
 10
142.6946681375671
 20
262.1054092487686
 30
0.0
 11
144.1946627118449
 21
262.1054092487686
 31
0.0
  0
LINE
  5
2D3
330
1F
100
AcDbEntity
  8
HLAVNÍ
100
AcDbLine
 10
137.6948010598241
 20
262.1054092487686
 30
0.0
 11
139.1947956341019
 21
262.1054092487686
 31
0.0
  0
LINE
  5
2D4
330
1F
100
AcDbEntity
  8
HLAVNÍ
100
AcDbLine
 10
139.1947956341019
 20
263.6054038230465
 30
0.0
 11
139.1947956341019
 21
262.1054092487686
 31
0.0
  0
LINE
  5
2D5
330
1F
100
AcDbEntity
  8
HLAVNÍ
100
AcDbLine
 10
137.6948010598241
 20
263.6054038230465
 30
0.0
 11
137.6948010598241
 21
262.1054092487686
 31
0.0
  0
LINE
  5
2D6
330
1F
100
AcDbEntity
  8
HLAVNÍ
100
AcDbLine
 10
137.6948010598241
 20
263.6054038230465
 30
0.0
 11
137.6948010598241
 21
262.1054092487686
 31
0.0
  0
LINE
  5
2D7
330
1F
100
AcDbEntity
  8
HLAVNÍ
100
AcDbLine
 10
135.4446369436331
 20
260.6054146744906
 30
0.0
 11
161.4447725708137
 21
260.6054146744906
 31
0.0
  0
LINE
  5
2D8
330
1F
100
AcDbEntity
  8
HLAVNÍ
100
AcDbLine
 10
135.4446369436331
 20
263.6054038230465
 30
0.0
 11
161.4447725708137
 21
263.6054038230465
 31
0.0
  0
LINE
  5
2D9
330
1F
100
AcDbEntity
  8
HLAVNÍ
100
AcDbLine
 10
161.4447725708137
 20
263.6054038230465
 30
0.0
 11
161.4447725708137
 21
260.6054146744906
 31
0.0
  0
LINE
  5
2DA
330
1F
100
AcDbEntity
  8
HLAVNÍ
100
AcDbLine
 10
135.4446369436331
 20
263.6054038230465
 30
0.0
 11
135.4446369436331
 21
260.6054146744906
 31
0.0
  0
LINE
  5
2DB
330
1F
100
AcDbEntity
  8
HLAVNÍ
100
AcDbLine
 10
155.9446776286123
 20
263.6054038230465
 30
0.0
 11
155.9446776286123
 21
260.6054146744906
 31
0.0
  0
LINE
  5
2DC
330
1F
100
AcDbEntity
  8
HLAVNÍ
100
AcDbLine
 10
140.9447318858344
 20
263.6054038230465
 30
0.0
 11
140.9447318858344
 21
260.6054146744906
 31
0.0
  0
LINE
  5
2DD
330
1F
100
AcDbEntity
  8
HLAVNÍ
100
AcDbLine
 10
157.44467220289
 20
263.6054038230465
 30
0.0
 11
157.44467220289
 21
260.6054146744906
 31
0.0
  0
LINE
  5
2DE
330
1F
100
AcDbEntity
  8
HLAVNÍ
100
AcDbLine
 10
139.4447373115568
 20
263.6054038230465
 30
0.0
 11
139.4447373115568
 21
260.6054146744906
 31
0.0
  0
LINE
  5
2DF
330
1F
100
AcDbEntity
  8
HLAVNÍ
100
AcDbLine
 10
160.9447169611297
 20
273.1054268783966
 30
0.0
 11
160.9447169611297
 21
263.6054038230465
 31
0.0
  0
LINE
  5
2E0
330
1F
100
AcDbEntity
  8
HLAVNÍ
100
AcDbLine
 10
135.9446925533172
 20
273.1054268783966
 30
0.0
 11
135.9446925533172
 21
263.6054038230465
 31
0.0
  0
LINE
  5
2E1
330
1F
100
AcDbEntity
  8
HLAVNÍ
100
AcDbLine
 10
160.9447169611297
 20
272.6055435234866
 30
0.0
 11
135.9446925533172
 21
272.6055435234866
 31
0.0
  0
LINE
  5
2E2
330
1F
100
AcDbEntity
  8
HLAVNÍ
100
AcDbLine
 10
135.9446925533172
 20
264.6055150424147
 30
0.0
 11
160.9447169611297
 21
264.6055150424147
 31
0.0
  0
LINE
  5
2E3
330
1F
100
AcDbEntity
  8
HLAVNÍ
100
AcDbLine
 10
160.9447169611297
 20
273.1054268783966
 30
0.0
 11
135.9446925533172
 21
273.1054268783966
 31
0.0
  0
LINE
  5
2E4
330
1F
100
AcDbEntity
  8
HLAVNÍ
100
AcDbLine
 10
158.0446355816464
 20
269.5650745029797
 30
0.0
 11
158.0446355816464
 21
265.6459338789595
 31
0.0
  0
LINE
  5
2E5
330
1F
100
AcDbEntity
  8
HLAVNÍ
100
AcDbLine
 10
148.044729171386
 20
269.5650745029797
 30
0.0
 11
148.044729171386
 21
265.6459338789595
 31
0.0
  0
LINE
  5
2E6
330
1F
100
AcDbEntity
  8
HLAVNÍ
100
AcDbLine
 10
158.8447590080957
 20
269.5650745029797
 30
0.0
 11
158.8447590080957
 21
265.6459338789595
 31
0.0
  0
LINE
  5
2E7
330
1F
100
AcDbEntity
  8
HLAVNÍ
100
AcDbLine
 10
148.8446803430609
 20
269.5650745029797
 30
0.0
 11
148.8446803430609
 21
265.6459338789595
 31
0.0
  0
LINE
  5
2E8
330
1F
100
AcDbEntity
  8
HLAVNÍ
100
AcDbLine
 10
138.8447739328005
 20
269.5650745029797
 30
0.0
 11
138.8447739328005
 21
265.6459338789595
 31
0.0
  0
LINE
  5
2E9
330
1F
100
AcDbEntity
  8
HLAVNÍ
100
AcDbLine
 10
138.0446505063512
 20
269.5650745029797
 30
0.0
 11
138.0446505063512
 21
265.6459338789595
 31
0.0
  0
LINE
  5
2EA
330
1F
100
AcDbEntity
  8
HLAVNÍ
100
AcDbLine
 10
157.44467220289
 20
271.6054323041196
 30
0.0
 11
159.4447223868519
 21
271.6054323041196
 31
0.0
  0
LINE
  5
2EB
330
1F
100
AcDbEntity
  8
HLAVNÍ
100
AcDbLine
 10
159.4447223868519
 20
271.6054323041196
 30
0.0
 11
159.4447223868519
 21
270.6054933395257
 31
0.0
  0
LINE
  5
2EC
330
1F
100
AcDbEntity
  8
HLAVNÍ
100
AcDbLine
 10
159.4447223868519
 20
270.6054933395257
 30
0.0
 11
157.44467220289
 21
270.6054933395257
 31
0.0
  0
LINE
  5
2ED
330
1F
100
AcDbEntity
  8
HLAVNÍ
100
AcDbLine
 10
157.44467220289
 20
270.6054933395257
 30
0.0
 11
157.44467220289
 21
271.6054323041196
 31
0.0
  0
LINE
  5
2EE
330
1F
100
AcDbEntity
  8
HLAVNÍ
100
AcDbLine
 10
152.4446328703728
 20
271.6054323041196
 30
0.0
 11
154.4446830543345
 21
271.6054323041196
 31
0.0
  0
LINE
  5
2EF
330
1F
100
AcDbEntity
  8
HLAVNÍ
100
AcDbLine
 10
154.4446830543345
 20
271.6054323041196
 30
0.0
 11
154.4446830543345
 21
270.6054933395257
 31
0.0
  0
LINE
  5
2F0
330
1F
100
AcDbEntity
  8
HLAVNÍ
100
AcDbLine
 10
154.4446830543345
 20
270.6054933395257
 30
0.0
 11
152.4446328703728
 21
270.6054933395257
 31
0.0
  0
LINE
  5
2F1
330
1F
100
AcDbEntity
  8
HLAVNÍ
100
AcDbLine
 10
152.4446328703728
 20
270.6054933395257
 30
0.0
 11
152.4446328703728
 21
271.6054323041196
 31
0.0
  0
LINE
  5
2F2
330
1F
100
AcDbEntity
  8
HLAVNÍ
100
AcDbLine
 10
147.4447657926296
 20
271.6054323041196
 30
0.0
 11
149.4446437218171
 21
271.6054323041196
 31
0.0
  0
LINE
  5
2F3
330
1F
100
AcDbEntity
  8
HLAVNÍ
100
AcDbLine
 10
149.4446437218171
 20
271.6054323041196
 30
0.0
 11
149.4446437218171
 21
270.6054933395257
 31
0.0
  0
LINE
  5
2F4
330
1F
100
AcDbEntity
  8
HLAVNÍ
100
AcDbLine
 10
149.4446437218171
 20
270.6054933395257
 30
0.0
 11
147.4447657926296
 21
270.6054933395257
 31
0.0
  0
LINE
  5
2F5
330
1F
100
AcDbEntity
  8
HLAVNÍ
100
AcDbLine
 10
147.4447657926296
 20
270.6054933395257
 30
0.0
 11
147.4447657926296
 21
271.6054323041196
 31
0.0
  0
LINE
  5
2F6
330
1F
100
AcDbEntity
  8
HLAVNÍ
100
AcDbLine
 10
142.4447264601124
 20
271.6054323041196
 30
0.0
 11
144.444776644074
 21
271.6054323041196
 31
0.0
  0
LINE
  5
2F7
330
1F
100
AcDbEntity
  8
HLAVNÍ
100
AcDbLine
 10
144.444776644074
 20
271.6054323041196
 30
0.0
 11
144.444776644074
 21
270.6054933395257
 31
0.0
  0
LINE
  5
2F8
330
1F
100
AcDbEntity
  8
HLAVNÍ
100
AcDbLine
 10
144.444776644074
 20
270.6054933395257
 30
0.0
 11
142.4447264601124
 21
270.6054933395257
 31
0.0
  0
LINE
  5
2F9
330
1F
100
AcDbEntity
  8
HLAVNÍ
100
AcDbLine
 10
142.4447264601124
 20
270.6054933395257
 30
0.0
 11
142.4447264601124
 21
271.6054323041196
 31
0.0
  0
LINE
  5
2FA
330
1F
100
AcDbEntity
  8
HLAVNÍ
100
AcDbLine
 10
137.444687127595
 20
271.6054323041196
 30
0.0
 11
139.4447373115568
 21
271.6054323041196
 31
0.0
  0
LINE
  5
2FB
330
1F
100
AcDbEntity
  8
HLAVNÍ
100
AcDbLine
 10
139.4447373115568
 20
271.6054323041196
 30
0.0
 11
139.4447373115568
 21
270.6054933395257
 31
0.0
  0
LINE
  5
2FC
330
1F
100
AcDbEntity
  8
HLAVNÍ
100
AcDbLine
 10
139.4447373115568
 20
270.6054933395257
 30
0.0
 11
137.444687127595
 21
270.6054933395257
 31
0.0
  0
LINE
  5
2FD
330
1F
100
AcDbEntity
  8
HLAVNÍ
100
AcDbLine
 10
137.444687127595
 20
270.6054933395257
 30
0.0
 11
137.444687127595
 21
271.6054323041196
 31
0.0
  0
LINE
  5
2FE
330
1F
100
AcDbEntity
  8
HLAVNÍ
100
AcDbLine
 10
265.6945677378935
 20
259.6054757098966
 30
0.0
 11
268.1947847509073
 21
259.6054757098966
 31
0.0
  0
LINE
  5
2FF
330
1F
100
AcDbEntity
  8
HLAVNÍ
100
AcDbLine
 10
265.6945677378935
 20
260.6054146744906
 30
0.0
 11
268.1948959702754
 21
260.6054146744906
 31
0.0
  0
LINE
  5
300
330
1F
100
AcDbEntity
  8
HLAVNÍ
100
AcDbLine
 10
265.6945677378935
 20
158.6054391140526
 30
0.0
 11
268.1947847509073
 21
158.6054391140526
 31
0.0
  0
LINE
  5
301
330
1F
100
AcDbEntity
  8
HLAVNÍ
100
AcDbLine
 10
265.6945677378935
 20
157.6053278946856
 30
0.0
 11
268.1948959702754
 21
157.6053278946856
 31
0.0
  0
LINE
  5
302
330
1F
100
AcDbEntity
  8
HLAVNÍ
100
AcDbLine
 10
270.1948959702754
 20
159.6053278946856
 30
0.0
 11
270.1948959702754
 21
258.6054146744906
 31
0.0
  0
LINE
  5
303
330
1F
100
AcDbEntity
  8
HLAVNÍ
100
AcDbLine
 10
269.1947847509073
 20
159.6054391140526
 30
0.0
 11
269.1947847509073
 21
258.6054757098966
 31
0.0
  0
LINE
  5
304
330
1F
100
AcDbEntity
  8
HLAVNÍ
100
AcDbLine
 10
228.6945867358588
 20
148.8554743812476
 30
0.0
 11
260.6947006601505
 21
148.8554743812476
 31
0.0
  0
LINE
  5
305
330
1F
100
AcDbEntity
  8
HLAVNÍ
100
AcDbLine
 10
260.6947006601505
 20
148.8554743812476
 30
0.0
 11
265.6945677378935
 21
153.8556859685397
 31
0.0
  0
LINE
  5
306
330
1F
100
AcDbEntity
  8
HLAVNÍ
100
AcDbLine
 10
228.6945867358588
 20
269.3554404427027
 30
0.0
 11
260.6947006601505
 21
269.3554404427027
 31
0.0
  0
LINE
  5
307
330
1F
100
AcDbEntity
  8
HLAVNÍ
100
AcDbLine
 10
260.6947006601505
 20
269.3554404427027
 30
0.0
 11
265.6945677378935
 21
264.3554011101846
 31
0.0
  0
LINE
  5
308
330
1F
100
AcDbEntity
  8
HLAVNÍ
100
AcDbLine
 10
228.6945867358588
 20
148.8554743812476
 30
0.0
 11
228.6945867358588
 21
269.3554404427027
 31
0.0
  0
LINE
  5
309
330
1F
100
AcDbEntity
  8
HLAVNÍ
100
AcDbLine
 10
171.1947373036192
 20
148.8554743812476
 30
0.0
 11
178.6947101750082
 21
148.8554743812476
 31
0.0
  0
LINE
  5
30A
330
1F
100
AcDbEntity
  8
HLAVNÍ
100
AcDbLine
 10
178.6947101750082
 20
148.8554743812476
 30
0.0
 11
178.6947101750082
 21
269.3554404427027
 31
0.0
  0
LINE
  5
30B
330
1F
100
AcDbEntity
  8
HLAVNÍ
100
AcDbLine
 10
178.6947101750082
 20
269.3554404427027
 30
0.0
 11
171.1947373036192
 21
269.3554404427027
 31
0.0
  0
LINE
  5
30C
330
1F
100
AcDbEntity
  8
HLAVNÍ
100
AcDbLine
 10
118.1946993394387
 20
148.8554743812476
 30
0.0
 11
125.6946722108276
 21
148.8554743812476
 31
0.0
  0
LINE
  5
30D
330
1F
100
AcDbEntity
  8
HLAVNÍ
100
AcDbLine
 10
171.1947373036192
 20
152.1055774620326
 30
0.0
 11
171.1947373036192
 21
148.8554743812476
 31
0.0
  0
LINE
  5
30E
330
1F
100
AcDbEntity
  8
HLAVNÍ
100
AcDbLine
 10
129.1947169690671
 20
152.1055774620326
 30
0.0
 11
129.1947169690671
 21
148.8554743812476
 31
0.0
  0
LINE
  5
30F
330
1F
100
AcDbEntity
  8
HLAVNÍ
100
AcDbLine
 10
125.6946722108276
 20
148.8554743812476
 30
0.0
 11
125.6946722108276
 21
152.1055774620326
 31
0.0
  0
LINE
  5
310
330
1F
100
AcDbEntity
  8
HLAVNÍ
100
AcDbLine
 10
167.6946925453796
 20
148.8554743812476
 30
0.0
 11
167.6946925453796
 21
152.1055774620326
 31
0.0
  0
LINE
  5
311
330
1F
100
AcDbEntity
  8
HLAVNÍ
100
AcDbLine
 10
125.6946722108276
 20
269.3554404427027
 30
0.0
 11
118.1946993394387
 21
269.3554404427027
 31
0.0
  0
LINE
  5
312
330
1F
100
AcDbEntity
  8
HLAVNÍ
100
AcDbLine
 10
118.1946993394387
 20
269.3554404427027
 30
0.0
 11
118.1946993394387
 21
148.8554743812476
 31
0.0
  0
LINE
  5
313
330
1F
100
AcDbEntity
  8
HLAVNÍ
100
AcDbLine
 10
171.1947373036192
 20
266.1055096166917
 30
0.0
 11
171.1947373036192
 21
269.3554404427027
 31
0.0
  0
LINE
  5
314
330
1F
100
AcDbEntity
  8
HLAVNÍ
100
AcDbLine
 10
129.194572576612
 20
266.0861190654327
 30
0.0
 11
129.1947169690671
 21
269.3554404427027
 31
0.0
  0
LINE
  5
315
330
1F
100
AcDbEntity
  8
HLAVNÍ
100
AcDbLine
 10
125.6946722108276
 20
269.3554404427027
 30
0.0
 11
125.6946722108276
 21
266.1085992612956
 31
0.0
  0
LINE
  5
316
330
1F
100
AcDbEntity
  8
HLAVNÍ
100
AcDbLine
 10
167.6946925453796
 20
269.3554404427027
 30
0.0
 11
167.6946925453796
 21
266.1055096166917
 31
0.0
  0
LINE
  5
317
330
1F
100
AcDbEntity
  8
HLAVNÍ
100
AcDbLine
 10
119.1946383040323
 20
157.6053278946856
 30
0.0
 11
177.6947712104144
 21
157.6053278946856
 31
0.0
  0
LINE
  5
318
330
1F
100
AcDbEntity
  8
HLAVNÍ
100
AcDbLine
 10
119.1946383040323
 20
260.6054146744906
 30
0.0
 11
177.6947712104144
 21
260.6054146744906
 31
0.0
  0
LINE
  5
319
330
1F
100
AcDbEntity
  8
HLAVNÍ
100
AcDbLine
 10
177.6947712104144
 20
148.8554743812476
 30
0.0
 11
177.6947712104144
 21
269.3554404427027
 31
0.0
  0
LINE
  5
31A
330
1F
100
AcDbEntity
  8
HLAVNÍ
100
AcDbLine
 10
119.1946383040323
 20
269.3554404427027
 30
0.0
 11
119.1946383040323
 21
148.8554743812476
 31
0.0
  0
ARC
  5
31B
330
1F
100
AcDbEntity
  8
HLAVNÍ
100
AcDbCircle
 10
127.4446945899473
 20
152.1055774620326
 30
0.0
 40
1.750022379119741
100
AcDbArc
 50
0.0
 51
180.0
  0
ARC
  5
31C
330
1F
100
AcDbEntity
  8
HLAVNÍ
100
AcDbCircle
 10
169.4447149244993
 20
152.1055774620326
 30
0.0
 40
1.750022379119798
100
AcDbArc
 50
0.0
 51
180.0
  0
CIRCLE
  5
31D
330
1F
100
AcDbEntity
  8
HLAVNÍ
100
AcDbCircle
 10
138.4448423666752
 20
150.6085992612956
 30
0.0
 40
2.0
  0
CIRCLE
  5
31E
330
1F
100
AcDbEntity
  8
HLAVNÍ
100
AcDbCircle
 10
143.4453423666753
 20
150.6085992612956
 30
0.0
 40
2.0
  0
CIRCLE
  5
31F
330
1F
100
AcDbEntity
  8
HLAVNÍ
100
AcDbCircle
 10
148.4448423666752
 20
150.6085992612956
 30
0.0
 40
2.0
  0
CIRCLE
  5
320
330
1F
100
AcDbEntity
  8
HLAVNÍ
100
AcDbCircle
 10
153.4448423666752
 20
150.6085992612956
 30
0.0
 40
2.0
  0
CIRCLE
  5
321
330
1F
100
AcDbEntity
  8
HLAVNÍ
100
AcDbCircle
 10
158.4443423666752
 20
150.6085992612956
 30
0.0
 40
2.0
  0
CIRCLE
  5
322
330
1F
100
AcDbEntity
  8
HLAVNÍ
100
AcDbCircle
 10
124.4448423666752
 20
170.1085992612956
 30
0.0
 40
2.4
  0
CIRCLE
  5
323
330
1F
100
AcDbEntity
  8
HLAVNÍ
100
AcDbCircle
 10
172.4443423666752
 20
170.1085992612956
 30
48.0
 40
2.4
  0
CIRCLE
  5
324
330
1F
100
AcDbEntity
  8
HLAVNÍ
100
AcDbCircle
 10
124.4448423666752
 20
248.1085992612956
 30
0.0
 40
2.4
  0
CIRCLE
  5
325
330
1F
100
AcDbEntity
  8
HLAVNÍ
100
AcDbCircle
 10
172.4443423666752
 20
248.1085992612956
 30
0.0
 40
2.4
  0
CIRCLE
  5
326
330
1F
100
AcDbEntity
  8
HLAVNÍ
100
AcDbCircle
 10
136.4448423666752
 20
225.6085992612956
 30
0.0
 40
2.4
  0
CIRCLE
  5
327
330
1F
100
AcDbEntity
  8
HLAVNÍ
100
AcDbCircle
 10
160.4448423666752
 20
225.6085992612956
 30
0.0
 40
2.4
  0
ARC
  5
328
330
1F
100
AcDbEntity
  8
HLAVNÍ
100
AcDbCircle
 10
127.4446945899473
 20
266.1085992612956
 30
0.0
 40
1.750022379119741
100
AcDbArc
 50
180.0
 51
0.0
  0
ARC
  5
329
330
1F
100
AcDbEntity
  8
HLAVNÍ
100
AcDbCircle
 10
169.4447149244993
 20
266.1055096166917
 30
0.0
 40
1.750022379119798
100
AcDbArc
 50
180.0
 51
0.0
  0
CIRCLE
  5
32A
330
1F
100
AcDbEntity
  8
HLAVNÍ
100
AcDbCircle
 10
133.1948423666752
 20
272.5585992612957
 30
0.0
 40
0.7
  0
CIRCLE
  5
32B
330
1F
100
AcDbEntity
  8
HLAVNÍ
100
AcDbCircle
 10
133.1948423666752
 20
265.3585992612956
 30
0.0
 40
1.0
  0
ARC
  5
32C
330
1F
100
AcDbEntity
  8
HLAVNÍ
100
AcDbCircle
 10
133.194842366666
 20
265.358599261299
 30
0.0
 40
3.000000000009496
100
AcDbArc
 50
324.239493300063
 51
336.4363774382419
  0
ARC
  5
32D
330
1F
100
AcDbEntity
  8
HLAVNÍ
100
AcDbCircle
 10
133.1948423666742
 20
265.3585992612943
 30
0.0
 40
3.000000000000063
100
AcDbArc
 50
23.56362256173715
 51
318.5844467802155
  0
CIRCLE
  5
32E
330
1F
100
AcDbEntity
  8
HLAVNÍ
100
AcDbCircle
 10
138.4448423666752
 20
267.6085992612956
 30
0.0
 40
2.0
  0
CIRCLE
  5
32F
330
1F
100
AcDbEntity
  8
HLAVNÍ
100
AcDbCircle
 10
143.4453423666753
 20
267.6085992612956
 30
0.0
 40
2.0
  0
CIRCLE
  5
330
330
1F
100
AcDbEntity
  8
HLAVNÍ
100
AcDbCircle
 10
148.4448423666752
 20
267.6085992612956
 30
0.0
 40
2.0
  0
CIRCLE
  5
331
330
1F
100
AcDbEntity
  8
HLAVNÍ
100
AcDbCircle
 10
153.4448423666752
 20
267.6085992612956
 30
0.0
 40
2.0
  0
CIRCLE
  5
332
330
1F
100
AcDbEntity
  8
HLAVNÍ
100
AcDbCircle
 10
158.4443423666752
 20
267.6085992612956
 30
0.0
 40
2.0
  0
MTEXT
  5
333
330
1F
100
AcDbEntity
  8
POTISK
100
AcDbMText
 10
136.7430070317249
 20
258.6285992612956
 30
0.0
 40
3.5
 41
4.037677177304886
 71
     1
 72
     1
  1
{\fTahoma|b0|i0|c0|p0;PE}
1001
ACAD
1000
ACAD_MTEXT_DEFINED_HEIGHT_BEGIN
1070
    46
1040
3.5
1000
ACAD_MTEXT_DEFINED_HEIGHT_END
  0
MTEXT
  5
334
330
1F
100
AcDbEntity
  8
POTISK
100
AcDbMText
 10
147.6510029595197
 20
258.6285992612956
 30
0.0
 40
2.5
 41
4.314345839541147
 71
     1
 72
     1
  1
{\fTahoma|b0|i0|c0|p0;\H1.4x;N}
1001
ACAD
1000
ACAD_MTEXT_DEFINED_HEIGHT_BEGIN
1070
    46
1040
3.5
1000
ACAD_MTEXT_DEFINED_HEIGHT_END
  0
MTEXT
  5
335
330
1F
100
AcDbEntity
  8
POTISK
100
AcDbMText
 10
158.362263968313
 20
258.6285992612956
 30
0.0
 40
2.5
 41
3.745091874601712
 71
     1
 72
     1
  1
{\fTahoma|b0|i0|c0|p0;\H1.4x;L}
1001
ACAD
1000
ACAD_MTEXT_DEFINED_HEIGHT_BEGIN
1070
    46
1040
3.5
1000
ACAD_MTEXT_DEFINED_HEIGHT_END
  0
MTEXT
  5
336
330
1F
100
AcDbEntity
  8
POTISK
100
AcDbMText
 10
136.7463423666753
 20
164.6285992612956
 30
0.0
 40
3.5
 41
4.037677177304886
 71
     1
 72
     1
  1
{\fTahoma|b0|i0|c0|p0;PE}
1001
ACAD
1000
ACAD_MTEXT_DEFINED_HEIGHT_BEGIN
1070
    46
1040
3.5
1000
ACAD_MTEXT_DEFINED_HEIGHT_END
  0
MTEXT
  5
337
330
1F
100
AcDbEntity
  8
POTISK
100
AcDbMText
 10
147.6484970266386
 20
164.6285992612956
 30
0.0
 40
2.5
 41
2.769017726114271
 71
     1
 72
     1
  1
{\fTahoma|b0|i0|c0|p0;\H1.4x;N}
1001
ACAD
1000
ACAD_MTEXT_DEFINED_HEIGHT_BEGIN
1070
    46
1040
3.5
1000
ACAD_MTEXT_DEFINED_HEIGHT_END
  0
MTEXT
  5
338
330
1F
100
AcDbEntity
  8
POTISK
100
AcDbMText
 10
158.3504534823183
 20
164.6285992612956
 30
0.0
 40
2.5
 41
2.189564411802507
 71
     1
 72
     1
  1
{\fTahoma|b0|i0|c0|p0;\H1.4x;L}
1001
ACAD
1000
ACAD_MTEXT_DEFINED_HEIGHT_BEGIN
1070
    46
1040
3.5
1000
ACAD_MTEXT_DEFINED_HEIGHT_END
  0
ARC
  5
339
330
1F
100
AcDbEntity
  8
HLAVNÍ
100
AcDbCircle
 10
268.1947847509073
 20
159.6054391140526
 30
0.0
 40
1.0
100
AcDbArc
 50
270.0
 51
0.0
  0
ARC
  5
33A
330
1F
100
AcDbEntity
  8
HLAVNÍ
100
AcDbCircle
 10
268.1948959702754
 20
159.6053278946856
 30
0.0
 40
2.000000000000001
100
AcDbArc
 50
270.0
 51
0.0
  0
ARC
  5
33B
330
1F
100
AcDbEntity
  8
HLAVNÍ
100
AcDbCircle
 10
268.1947847509073
 20
258.6054757098966
 30
0.0
 40
1.0
100
AcDbArc
 50
0.0
 51
90.0
  0
ARC
  5
33C
330
1F
100
AcDbEntity
  8
HLAVNÍ
100
AcDbCircle
 10
268.1948959702754
 20
258.6054146744906
 30
0.0
 40
2.000000000000001
100
AcDbArc
 50
0.0
 51
90.0
  0
ARC
  5
33D
330
1F
100
AcDbEntity
  8
HLAVNÍ
100
AcDbCircle
 10
231.1945568959743
 20
270.3555150408267
 30
0.0
 40
0.6
100
AcDbArc
 50
90.0
 51
180.0
  0
ARC
  5
33E
330
1F
100
AcDbEntity
  8
HLAVNÍ
100
AcDbCircle
 10
231.1946057242991
 20
270.3554662125015
 30
0.0
 40
1.400000000000001
100
AcDbArc
 50
90.0
 51
180.0
  0
ARC
  5
33F
330
1F
100
AcDbEntity
  8
HLAVNÍ
100
AcDbCircle
 10
231.7806138543907
 20
272.3555150408267
 30
0.0
 40
1.399999999999998
100
AcDbArc
 50
270.0
 51
314.9999999999975
  0
ARC
  5
340
330
1F
100
AcDbEntity
  8
HLAVNÍ
100
AcDbCircle
 10
231.4491956687095
 20
273.1554662125017
 30
0.0
 40
1.4
100
AcDbArc
 50
270.0
 51
314.9999999999975
  0
ARC
  5
341
330
1F
100
AcDbEntity
  8
HLAVNÍ
100
AcDbCircle
 10
236.694842366675
 20
254.3285992612957
 30
0.0
 40
9.999999999999885
100
AcDbArc
 50
143.1325435179766
 51
216.8674564820234
  0
ARC
  5
342
330
1F
100
AcDbEntity
  8
HLAVNÍ
100
AcDbCircle
 10
236.6948423666758
 20
163.8285992612957
 30
0.0
 40
10.00000000000052
100
AcDbArc
 50
143.1325435179793
 51
216.8674564820207
  0
ARC
  5
343
330
1F
100
AcDbEntity
  8
HLAVNÍ
100
AcDbCircle
 10
268.9448423666751
 20
170.0985992612959
 30
0.0
 40
2.750000000000245
100
AcDbArc
 50
297.0369456330827
 51
62.96305436691224
  0
ARC
  5
344
330
1F
100
AcDbEntity
  8
HLAVNÍ
100
AcDbCircle
 10
268.9448423666752
 20
225.6085992612956
 30
0.0
 40
2.749999999999991
100
AcDbArc
 50
297.0369456330827
 51
62.96305436691723
  0
ARC
  5
345
330
1F
100
AcDbEntity
  8
HLAVNÍ
100
AcDbCircle
 10
268.9448423666752
 20
248.1126366774981
 30
0.0
 40
2.749999999999991
100
AcDbArc
 50
297.0369456330827
 51
62.96305436691723
  0
LINE
  5
346
330
1F
100
AcDbEntity
  8
HLAVNÍ
100
AcDbLine
 10
129.1947169690671
 20
266.1085992612956
 30
0.0
 11
129.1947169690671
 21
261.3554119616296
 31
0.0
  0
DIMENSION
  5
347
330
1F
100
AcDbEntity
  8
KOTY
100
AcDbDimension
  2
*D1
 10
102.8509778362765
 20
148.8554743812476
 30
0.0
 11
99.2984778362765
 21
209.1054574119751
 31
0.0
 70
    32
  1
120
  3
ISO-25
100
AcDbAlignedDimension
 13
118.1946993394387
 23
269.3554404427027
 33
0.0
 14
118.1946993394387
 24
148.8554743812476
 34
0.0
 50
90.0
100
AcDbRotatedDimension
1001
ACAD
1000
DSTYLE
1002
{
1070
   287
1070
     5
1070
   140
1040
5.0
1070
   271
1070
     1
1070
   278
1070
    44
1070
    41
1040
5.0
1070
   147
1040
1.0
1070
   178
1070
   256
1070
   176
1070
   256
1070
   177
1070
   256
1070
   279
1070
     2
1002
}
  0
DIMENSION
  5
34A
330
1F
100
AcDbEntity
  8
KOTY
100
AcDbDimension
  2
*D2
 10
178.6947101750082
 20
132.416349688892
 30
0.0
 11
148.4447047572235
 21
135.968849688892
 31
0.0
 70
    32
  1
60
  3
ISO-25
100
AcDbAlignedDimension
 13
118.1946993394387
 23
148.8554743812476
 33
0.0
 14
178.6947101750082
 24
148.8554743812476
 34
0.0
100
AcDbRotatedDimension
1001
ACAD
1000
DSTYLE
1002
{
1070
   287
1070
     5
1070
   140
1040
5.0
1070
   271
1070
     1
1070
   278
1070
    44
1070
    41
1040
5.0
1070
   147
1040
1.0
1070
   178
1070
   256
1070
   176
1070
   256
1070
   177
1070
   256
1070
   279
1070
     2
1002
}
  0
DIMENSION
  5
34D
330
1F
100
AcDbEntity
  8
KOTY
100
AcDbDimension
  2
*D3
 10
270.1948959702754
 20
132.416349688892
 30
0.0
 11
249.4447413530671
 21
135.968849688892
 31
0.0
 70
    32
  1
40
  3
ISO-25
100
AcDbAlignedDimension
 13
228.6945867358588
 23
148.8554743812476
 33
0.0
 14
270.1948959702754
 24
159.9202039449114
 34
0.0
100
AcDbRotatedDimension
1001
ACAD
1000
DSTYLE
1002
{
1070
   287
1070
     5
1070
   140
1040
5.0
1070
   271
1070
     1
1070
   278
1070
    44
1070
    41
1040
5.0
1070
   147
1040
1.0
1070
   178
1070
   256
1070
   176
1070
   256
1070
   177
1070
   256
1070
   279
1070
     2
1002
}
  0
VIEWPORT
  5
374
330
58
100
AcDbEntity
 67
     1
  8
0
100
AcDbViewport
 10
0.0
 20
0.0
 30
0.0
 40
8.976
 41
6.936000000000001
 68
     1
 69
     1
1001
ACAD
1000
MVIEW
1002
{
1070
    16
1010
0.0
1020
0.0
1030
0.0
1010
0.0
1020
0.0
1030
1.0
1040
0.0
1040
6.936000000000001
1040
5.25
1040
4.0
1040
50.0
1040
0.0
1040
0.0
1070
     0
1070
   100
1070
     0
1070
     3
1070
     0
1070
     0
1070
     0
1070
     0
1040
0.0
1040
0.0
1040
0.0
1040
0.5
1040
0.5
1040
0.0
1040
0.0
1070
     0
1002
{
1002
}
1002
}
  0
VIEWPORT
  5
375
330
58
100
AcDbEntity
 67
     1
  8
0
100
AcDbViewport
 10
5.25
 20
4.0
 30
0.0
 40
8.4
 41
6.4
 68
     2
 69
     2
1001
ACAD
1000
MVIEW
1002
{
1070
    16
1010
0.0
1020
0.0
1030
0.0
1010
0.0
1020
0.0
1030
1.0
1040
0.0
1040
147.0728504319401
1040
184.7269101014759
1040
203.2608842143529
1040
50.0
1040
0.0
1040
0.0
1070
     0
1070
   100
1070
     0
1070
     3
1070
     0
1070
     0
1070
     0
1070
     0
1040
0.0
1040
0.0
1040
0.0
1040
0.5
1040
0.5
1040
0.0
1040
0.0
1070
     0
1002
{
1002
}
1002
}
  0
ENDSEC
  0
SECTION
  2
OBJECTS
  0
DICTIONARY
  5
C
330
0
100
AcDbDictionary
  3
ACAD_DETAILVIEWSTYLE
350
122
  3
ACAD_GROUP
350
D
  3
ACAD_IMAGE_VARS
350
DC
  3
ACAD_MLINESTYLE
350
17
  3
ACAD_SCALELIST
350
3C9
  3
ACAD_SECTIONVIEWSTYLE
350
123
  3
ACDBVARIABLEDICTIONARY
350
66
  3
APPDATA
350
E1
  3
DWGPROPS
350
40F
  0
DICTIONARY
  5
3BD
330
2
100
AcDbDictionary
280
     1
  3
ACAD_LAYERSTATES
360
3C0
  3
ACLYDICTIONARY
360
3C6
  0
DICTIONARY
  5
122
102
{ACAD_REACTORS
330
C
102
}
330
C
100
AcDbDictionary
  0
DICTIONARY
  5
D
102
{ACAD_REACTORS
330
C
102
}
330
C
100
AcDbDictionary
  0
RASTERVARIABLES
  5
DC
102
{ACAD_REACTORS
330
C
102
}
330
C
100
AcDbRasterVariables
 90
        0
 70
     1
 71
     1
 72
     5
  0
DICTIONARY
  5
17
102
{ACAD_REACTORS
330
C
102
}
330
C
100
AcDbDictionary
  3
STANDARD
350
18
  0
DICTIONARY
  5
3C9
102
{ACAD_REACTORS
330
C
102
}
330
C
100
AcDbDictionary
  0
DICTIONARY
  5
123
102
{ACAD_REACTORS
330
C
102
}
330
C
100
AcDbDictionary
  0
DICTIONARY
  5
66
102
{ACAD_REACTORS
330
C
102
}
330
C
100
AcDbDictionary
  3
DIMASSOC
350
67
  3
HIDETEXT
350
6B
  0
DICTIONARY
  5
E1
102
{ACAD_REACTORS
330
C
102
}
330
C
100
AcDbDictionary
  0
XRECORD
  5
40F
102
{ACAD_REACTORS
330
C
102
}
330
C
100
AcDbXrecord
  1
DWGPROPS COOKIE
  2

  3

  4

  6

  7

  8
jaromir.podrabsky
  9

300
=
301
=
302
=
303
=
304
=
305
=
306
=
307
=
308
=
309
=
 40
0.0
 41
2452643.021717593
 42
2456764.464985544
  1

 90
        0
  0
DICTIONARY
  5
3C0
102
{ACAD_REACTORS
330
3BD
102
}
330
3BD
100
AcDbDictionary
  0
DICTIONARY
  5
3C6
102
{ACAD_REACTORS
330
3BD
102
}
330
3BD
100
AcDbDictionary
1001
ACAD
1000
<All
  0
MLINESTYLE
  5
18
102
{ACAD_REACTORS
330
17
102
}
330
17
100
AcDbMlineStyle
  2
STANDARD
 70
     0
  3

 62
   256
 51
90.0
 52
90.0
 71
     2
 49
0.5
 62
   256
  6
BYLAYER
 49
-0.5
 62
   256
  6
BYLAYER
  0
DICTIONARYVAR
  5
67
102
{ACAD_REACTORS
330
66
102
}
330
66
100
DictionaryVariables
280
     0
  1
2
  0
DICTIONARYVAR
  5
6B
102
{ACAD_REACTORS
330
66
102
}
330
66
100
DictionaryVariables
280
     0
  1
1
  0
ENDSEC
  0
EOF
