  0
SECTION
  2
HEADER
  9
$ACADVER
  1
AC1014
  9
$ACADMAINTVER
 70
     9
  9
$DWGCODEPAGE
  3
ANSI_1250
  9
$INSBASE
 10
0.0
 20
0.0
 30
0.0
  9
$EXTMIN
 10
50.38510624390926
 20
58.10635330691858
 30
0.0
  9
$EXTMAX
 10
124.7247492439093
 20
127.2794623069186
 30
0.0
  9
$LIMMIN
 10
0.0
 20
0.0
  9
$LIMMAX
 10
12.0
 20
9.0
  9
$ORTHOMODE
 70
     0
  9
$REGENMODE
 70
     1
  9
$FILLMODE
 70
     1
  9
$QTEXTMODE
 70
     0
  9
$MIRRTEXT
 70
     0
  9
$DRAGMODE
 70
     2
  9
$LTSCALE
 40
1.0
  9
$OSMODE
 70
 15359
  9
$ATTMODE
 70
     1
  9
$TEXTSIZE
 40
0.2
  9
$TRACEWID
 40
0.05
  9
$TEXTSTYLE
  7
STANDARD
  9
$CLAYER
  8
KOTY
  9
$CELTYPE
  6
BYLAYER
  9
$CECOLOR
 62
   256
  9
$CELTSCALE
 40
1.0
  9
$DELOBJ
 70
     1
  9
$DISPSILH
 70
     0
  9
$DIMSCALE
 40
1.0
  9
$DIMASZ
 40
0.18
  9
$DIMEXO
 40
0.0625
  9
$DIMDLI
 40
0.38
  9
$DIMRND
 40
0.0
  9
$DIMDLE
 40
0.0
  9
$DIMEXE
 40
0.18
  9
$DIMTP
 40
0.0
  9
$DIMTM
 40
0.0
  9
$DIMTXT
 40
0.18
  9
$DIMCEN
 40
0.09
  9
$DIMTSZ
 40
0.0
  9
$DIMTOL
 70
     0
  9
$DIMLIM
 70
     0
  9
$DIMTIH
 70
     1
  9
$DIMTOH
 70
     1
  9
$DIMSE1
 70
     0
  9
$DIMSE2
 70
     0
  9
$DIMTAD
 70
     0
  9
$DIMZIN
 70
     0
  9
$DIMBLK
  1

  9
$DIMASO
 70
     1
  9
$DIMSHO
 70
     1
  9
$DIMPOST
  1

  9
$DIMAPOST
  1

  9
$DIMALT
 70
     0
  9
$DIMALTD
 70
     2
  9
$DIMALTF
 40
25.4
  9
$DIMLFAC
 40
1.0
  9
$DIMTOFL
 70
     0
  9
$DIMTVP
 40
0.0
  9
$DIMTIX
 70
     0
  9
$DIMSOXD
 70
     0
  9
$DIMSAH
 70
     0
  9
$DIMBLK1
  1

  9
$DIMBLK2
  1

  9
$DIMSTYLE
  2
STANDARD
  9
$DIMCLRD
 70
     0
  9
$DIMCLRE
 70
     0
  9
$DIMCLRT
 70
     0
  9
$DIMTFAC
 40
1.0
  9
$DIMGAP
 40
0.09
  9
$DIMJUST
 70
     0
  9
$DIMSD1
 70
     0
  9
$DIMSD2
 70
     0
  9
$DIMTOLJ
 70
     1
  9
$DIMTZIN
 70
     0
  9
$DIMALTZ
 70
     0
  9
$DIMALTTZ
 70
     0
  9
$DIMFIT
 70
     5
  9
$DIMUPT
 70
     0
  9
$DIMUNIT
 70
     2
  9
$DIMDEC
 70
     4
  9
$DIMTDEC
 70
     4
  9
$DIMALTU
 70
     2
  9
$DIMALTTD
 70
     2
  9
$DIMTXSTY
  7
STANDARD
  9
$DIMAUNIT
 70
     0
  9
$LUNITS
 70
     2
  9
$LUPREC
 70
     4
  9
$SKETCHINC
 40
0.1
  9
$FILLETRAD
 40
0.0
  9
$AUNITS
 70
     0
  9
$AUPREC
 70
     0
  9
$MENU
  1
.
  9
$ELEVATION
 40
0.0
  9
$PELEVATION
 40
0.0
  9
$THICKNESS
 40
0.0
  9
$LIMCHECK
 70
     0
  9
$CHAMFERA
 40
0.0
  9
$CHAMFERB
 40
0.0
  9
$CHAMFERC
 40
0.0
  9
$CHAMFERD
 40
0.0
  9
$SKPOLY
 70
     0
  9
$TDCREATE
 40
2452643.105050926
  9
$TDUPDATE
 40
2457085.448304664
  9
$TDINDWG
 40
0.0245574537
  9
$TDUSRTIMER
 40
2457085.404626794
  9
$USRTIMER
 70
     1
  9
$ANGBASE
 50
0.0
  9
$ANGDIR
 70
     0
  9
$PDMODE
 70
     0
  9
$PDSIZE
 40
0.0
  9
$PLINEWID
 40
0.0
  9
$COORDS
 70
     2
  9
$SPLFRAME
 70
     0
  9
$SPLINETYPE
 70
     6
  9
$SPLINESEGS
 70
     8
  9
$ATTDIA
 70
     0
  9
$ATTREQ
 70
     1
  9
$HANDLING
 70
     1
  9
$HANDSEED
  5
658
  9
$SURFTAB1
 70
     6
  9
$SURFTAB2
 70
     6
  9
$SURFTYPE
 70
     6
  9
$SURFU
 70
     6
  9
$SURFV
 70
     6
  9
$UCSNAME
  2

  9
$UCSORG
 10
0.0
 20
0.0
 30
0.0
  9
$UCSXDIR
 10
1.0
 20
0.0
 30
0.0
  9
$UCSYDIR
 10
0.0
 20
1.0
 30
0.0
  9
$PUCSNAME
  2

  9
$PUCSORG
 10
0.0
 20
0.0
 30
0.0
  9
$PUCSXDIR
 10
1.0
 20
0.0
 30
0.0
  9
$PUCSYDIR
 10
0.0
 20
1.0
 30
0.0
  9
$USERI1
 70
     0
  9
$USERI2
 70
     0
  9
$USERI3
 70
     0
  9
$USERI4
 70
     0
  9
$USERI5
 70
     0
  9
$USERR1
 40
0.0
  9
$USERR2
 40
0.0
  9
$USERR3
 40
0.0
  9
$USERR4
 40
0.0
  9
$USERR5
 40
0.0
  9
$WORLDVIEW
 70
     1
  9
$SHADEDGE
 70
     3
  9
$SHADEDIF
 70
    70
  9
$TILEMODE
 70
     0
  9
$MAXACTVP
 70
    64
  9
$PINSBASE
 10
0.0
 20
0.0
 30
0.0
  9
$PLIMCHECK
 70
     0
  9
$PEXTMIN
 10
1.05
 20
0.7999999999999998
 30
0.0
  9
$PEXTMAX
 10
9.45
 20
7.2
 30
0.0
  9
$PLIMMIN
 10
0.8500000000000006
 20
0.5999999999999998
  9
$PLIMMAX
 10
9.650000000000002
 20
7.4
  9
$UNITMODE
 70
     0
  9
$VISRETAIN
 70
     1
  9
$PLINEGEN
 70
     0
  9
$PSLTSCALE
 70
     1
  9
$TREEDEPTH
 70
  3020
  9
$PICKSTYLE
 70
     0
  9
$CMLSTYLE
  2
STANDARD
  9
$CMLJUST
 70
     0
  9
$CMLSCALE
 40
1.0
  9
$PROXYGRAPHICS
 70
     1
  9
$MEASUREMENT
 70
     0
  0
ENDSEC
  0
SECTION
  2
CLASSES
  0
CLASS
  1
ACDBDICTIONARYWDFLT
  2
AcDbDictionaryWithDefault
  3
ObjectDBX Classes
 90
        0
280
     0
281
     0
  0
CLASS
  1
ACDBPLACEHOLDER
  2
AcDbPlaceHolder
  3
ObjectDBX Classes
 90
        0
280
     0
281
     0
  0
CLASS
  1
LAYOUT
  2
AcDbLayout
  3
ObjectDBX Classes
 90
        0
280
     0
281
     0
  0
CLASS
  1
DICTIONARYVAR
  2
AcDbDictionaryVar
  3
ObjectDBX Classes
 90
        0
280
     0
281
     0
  0
CLASS
  1
TABLESTYLE
  2
AcDbTableStyle
  3
ObjectDBX Classes
 90
     4095
280
     0
281
     0
  0
CLASS
  1
MATERIAL
  2
AcDbMaterial
  3
ObjectDBX Classes
 90
     1153
280
     0
281
     0
  0
CLASS
  1
VISUALSTYLE
  2
AcDbVisualStyle
  3
ObjectDBX Classes
 90
     4095
280
     0
281
     0
  0
CLASS
  1
SCALE
  2
AcDbScale
  3
ObjectDBX Classes
 90
     1153
280
     0
281
     0
  0
CLASS
  1
CELLSTYLEMAP
  2
AcDbCellStyleMap
  3
ObjectDBX Classes
 90
     1152
280
     0
281
     0
  0
CLASS
  1
RASTERVARIABLES
  2
AcDbRasterVariables
  3
ISM
 90
        0
280
     0
281
     0
  0
CLASS
  1
SUN
  2
AcDbSun
  3
SCENEOE
 90
     1153
280
     0
281
     0
  0
CLASS
  1
DIMASSOC
  2
AcDbDimAssoc
  3
"AcDbDimAssoc|Product Desc:     AcDim ARX App For Dimension|Company:          Autodesk, Inc.|WEB Address:      www.autodesk.com"
 90
        0
280
     0
281
     0
  0
CLASS
  1
XRECORD
  2
AcDbXrecord
  3
ObjectDBX Classes
 90
        0
280
     0
281
     0
  0
CLASS
  1
LWPOLYLINE
  2
AcDbPolyline
  3
ObjectDBX Classes
 90
        0
280
     0
281
     1
  0
CLASS
  1
HATCH
  2
AcDbHatch
  3
ObjectDBX Classes
 90
        0
280
     0
281
     1
  0
ENDSEC
  0
SECTION
  2
TABLES
  0
TABLE
  2
VPORT
  5
8
330
0
100
AcDbSymbolTable
 70
     1
  0
VPORT
  5
94
330
8
100
AcDbSymbolTableRecord
100
AcDbViewportTableRecord
  2
*ACTIVE
 70
     0
 10
0.0
 20
0.0
 11
1.0
 21
1.0
 12
112.2898738819504
 22
112.1237038503287
 13
0.0
 23
0.0
 14
0.5
 24
0.5
 15
0.5
 25
0.5
 16
0.0
 26
0.0
 36
1.0
 17
-27.66959356597903
 27
-19.53870295786196
 37
0.0
 40
77.91948122647874
 41
1.13768115942029
 42
50.0
 43
0.0
 44
0.0
 50
0.0
 51
0.0
 71
    16
 72
  1000
 73
     1
 74
     3
 75
     0
 76
     0
 77
     0
 78
     0
  0
ENDTAB
  0
TABLE
  2
LTYPE
  5
5
330
0
100
AcDbSymbolTable
 70
     1
  0
LTYPE
  5
14
330
5
100
AcDbSymbolTableRecord
100
AcDbLinetypeTableRecord
  2
BYBLOCK
 70
     0
  3

 72
    65
 73
     0
 40
0.0
  0
LTYPE
  5
15
330
5
100
AcDbSymbolTableRecord
100
AcDbLinetypeTableRecord
  2
BYLAYER
 70
     0
  3
Solid line
 72
    65
 73
     0
 40
0.0
  0
LTYPE
  5
16
330
5
100
AcDbSymbolTableRecord
100
AcDbLinetypeTableRecord
  2
CONTINUOUS
 70
     0
  3
Solid line
 72
    65
 73
     0
 40
0.0
  0
ENDTAB
  0
TABLE
  2
LAYER
  5
2
102
{ACAD_XDICTIONARY
360
526
102
}
330
0
100
AcDbSymbolTable
 70
     4
  0
LAYER
  5
10
330
2
100
AcDbSymbolTableRecord
100
AcDbLayerTableRecord
  2
0
 70
     0
 62
     7
  6
CONTINUOUS
  0
LAYER
  5
125
330
2
100
AcDbSymbolTableRecord
100
AcDbLayerTableRecord
  2
DEFPOINTS
 70
     0
 62
     7
  6
CONTINUOUS
  0
LAYER
  5
126
330
2
100
AcDbSymbolTableRecord
100
AcDbLayerTableRecord
  2
OBRYS
 70
     0
 62
     5
  6
CONTINUOUS
1001
ACAECLAYERSTANDARD
1000

1000

  0
LAYER
  5
129
330
2
100
AcDbSymbolTableRecord
100
AcDbLayerTableRecord
  2
KOTY
 70
     0
 62
     1
  6
CONTINUOUS
1001
ACAECLAYERSTANDARD
1000

1000

  0
ENDTAB
  0
TABLE
  2
STYLE
  5
3
330
0
100
AcDbSymbolTable
 70
     1
  0
STYLE
  5
11
330
3
100
AcDbSymbolTableRecord
100
AcDbTextStyleTableRecord
  2
STANDARD
 70
     0
 40
0.0
 41
1.0
 50
0.0
 71
     0
 42
0.2
  3
arial.ttf
  4

1001
ACAD
1000
Arial
1071
        0
  0
ENDTAB
  0
TABLE
  2
VIEW
  5
6
330
0
100
AcDbSymbolTable
 70
     0
  0
ENDTAB
  0
TABLE
  2
UCS
  5
7
330
0
100
AcDbSymbolTable
 70
     0
  0
ENDTAB
  0
TABLE
  2
APPID
  5
9
330
0
100
AcDbSymbolTable
 70
     2
  0
APPID
  5
12
330
9
100
AcDbSymbolTableRecord
100
AcDbRegAppTableRecord
  2
ACAD
 70
     0
  0
APPID
  5
128
330
9
100
AcDbSymbolTableRecord
100
AcDbRegAppTableRecord
  2
ACAECLAYERSTANDARD
 70
     0
  0
ENDTAB
  0
TABLE
  2
DIMSTYLE
  5
A
330
0
100
AcDbSymbolTable
 70
     1
  0
DIMSTYLE
105
27
102
{ACAD_REACTORS
330
4FB
330
4FE
330
52A
330
647
102
}
330
A
100
AcDbSymbolTableRecord
100
AcDbDimStyleTableRecord
  2
STANDARD
 70
     0
  3

  4

  5

  6

  7

 40
1.0
 41
0.18
 42
0.0625
 43
0.38
 44
0.18
 45
0.0
 46
0.0
 47
0.0
 48
0.0
140
0.18
141
0.09
142
0.0
143
25.4
144
1.0
145
0.0
146
1.0
147
0.09
 71
     0
 72
     0
 73
     1
 74
     1
 75
     0
 76
     0
 77
     0
 78
     0
170
     0
171
     2
172
     0
173
     0
174
     0
175
     0
176
     0
177
     0
178
     0
270
     2
271
     4
272
     4
273
     2
274
     2
340
11
275
     0
280
     0
281
     0
282
     0
283
     1
284
     0
285
     0
286
     0
287
     3
288
     0
  0
ENDTAB
  0
TABLE
  2
BLOCK_RECORD
  5
1
330
0
100
AcDbSymbolTable
 70
     5
  0
BLOCK_RECORD
  5
1F
330
1
100
AcDbSymbolTableRecord
100
AcDbBlockTableRecord
  2
*MODEL_SPACE
  0
BLOCK_RECORD
  5
58
330
1
100
AcDbSymbolTableRecord
100
AcDbBlockTableRecord
  2
*PAPER_SPACE
  0
BLOCK_RECORD
  5
5D
330
1
100
AcDbSymbolTableRecord
100
AcDbBlockTableRecord
  2
*PAPER_SPACE0
  0
BLOCK_RECORD
  5
50E
330
1
100
AcDbSymbolTableRecord
100
AcDbBlockTableRecord
  2
*D1
  0
BLOCK_RECORD
  5
51A
330
1
100
AcDbSymbolTableRecord
100
AcDbBlockTableRecord
  2
*D2
  0
BLOCK_RECORD
  5
52D
330
1
100
AcDbSymbolTableRecord
100
AcDbBlockTableRecord
  2
*D3
  0
BLOCK_RECORD
  5
64A
330
1
100
AcDbSymbolTableRecord
100
AcDbBlockTableRecord
  2
*D4
  0
ENDTAB
  0
ENDSEC
  0
SECTION
  2
BLOCKS
  0
BLOCK
  5
20
330
1F
100
AcDbEntity
  8
0
100
AcDbBlockBegin
  2
*MODEL_SPACE
 70
     0
 10
0.0
 20
0.0
 30
0.0
  3
*MODEL_SPACE
  1

  0
ENDBLK
  5
21
330
1F
100
AcDbEntity
  8
0
100
AcDbBlockEnd
  0
BLOCK
  5
5A
330
58
100
AcDbEntity
 67
     1
  8
0
100
AcDbBlockBegin
  2
*PAPER_SPACE
 70
     0
 10
0.0
 20
0.0
 30
0.0
  3
*PAPER_SPACE
  1

  0
ENDBLK
  5
5B
330
58
100
AcDbEntity
 67
     1
  8
0
100
AcDbBlockEnd
  0
BLOCK
  5
5F
330
5D
100
AcDbEntity
  8
0
100
AcDbBlockBegin
  2
*PAPER_SPACE0
 70
     0
 10
0.0
 20
0.0
 30
0.0
  3
*PAPER_SPACE0
  1
*PAPER_SPACE0
  0
ENDBLK
  5
60
330
5D
100
AcDbEntity
  8
0
100
AcDbBlockEnd
  0
BLOCK
  5
50F
330
50E
100
AcDbEntity
  8
0
100
AcDbBlockBegin
  2
*D1
 70
     1
 10
0.0
 20
0.0
 30
0.0
  3
*D1
  1
*D6
  0
LINE
  5
511
330
50E
100
AcDbEntity
  8
KOTY
 62
     0
100
AcDbLine
 10
63.85720424390925
 20
115.2013343069186
 30
0.0
 11
55.06370895651049
 21
115.2013343069186
 31
0.0
  0
LINE
  5
512
330
50E
100
AcDbEntity
  8
KOTY
 62
     0
100
AcDbLine
 10
69.09317424390926
 20
77.04606030691858
 30
0.0
 11
55.06370895651049
 21
77.04606030691858
 31
0.0
  0
LINE
  5
513
330
50E
100
AcDbEntity
  8
KOTY
 62
     0
100
AcDbLine
 10
55.24370895651049
 20
112.2013343069186
 30
0.0
 11
55.24370895651049
 21
80.04606030691858
 31
0.0
  0
SOLID
  5
514
330
50E
100
AcDbEntity
  8
KOTY
 62
     0
100
AcDbTrace
 10
55.74370895651049
 20
112.2013343069186
 30
0.0
 11
54.74370895651049
 21
112.2013343069186
 31
0.0
 12
55.24370895651049
 22
115.2013343069186
 32
0.0
 13
55.24370895651049
 23
115.2013343069186
 33
0.0
  0
SOLID
  5
515
330
50E
100
AcDbEntity
  8
KOTY
 62
     0
100
AcDbTrace
 10
54.74370895651049
 20
80.04606030691858
 30
0.0
 11
55.74370895651049
 21
80.04606030691858
 31
0.0
 12
55.24370895651049
 22
77.04606030691858
 32
0.0
 13
55.24370895651049
 23
77.04606030691858
 33
0.0
  0
MTEXT
  5
516
330
50E
100
AcDbEntity
  8
KOTY
 62
     0
100
AcDbMText
 10
51.92260624390926
 20
96.12369730691859
 30
0.0
 40
3.0
 41
0.0
 71
     5
 72
     1
  1
\A1;38
 11
0.0
 21
1.0
 31
0.0
  0
POINT
  5
517
330
50E
100
AcDbEntity
  8
DEFPOINTS
 62
     0
100
AcDbPoint
 10
63.91970424390925
 20
115.2013343069186
 30
0.0
  0
POINT
  5
518
330
50E
100
AcDbEntity
  8
DEFPOINTS
 62
     0
100
AcDbPoint
 10
69.15567424390926
 20
77.04606030691858
 30
0.0
  0
POINT
  5
519
330
50E
100
AcDbEntity
  8
DEFPOINTS
 62
     0
100
AcDbPoint
 10
55.24370895651049
 20
77.04606030691858
 30
0.0
  0
ENDBLK
  5
510
330
50E
100
AcDbEntity
  8
0
100
AcDbBlockEnd
  0
BLOCK
  5
51B
330
51A
100
AcDbEntity
  8
0
100
AcDbBlockBegin
  2
*D2
 70
     1
 10
0.0
 20
0.0
 30
0.0
  3
*D2
  1
*D7
  0
LINE
  5
51D
330
51A
100
AcDbEntity
  8
KOTY
 62
     0
100
AcDbLine
 10
115.3747492439093
 20
114.7638343069186
 30
0.0
 11
115.3747492439093
 21
122.8625478690897
 31
0.0
  0
LINE
  5
51E
330
51A
100
AcDbEntity
  8
KOTY
 62
     0
100
AcDbLine
 10
124.7247492439093
 20
114.7638343069186
 30
0.0
 11
124.7247492439093
 21
122.8625478690897
 31
0.0
  0
LINE
  5
51F
330
51A
100
AcDbEntity
  8
KOTY
 62
     0
100
AcDbLine
 10
118.3747492439093
 20
122.6825478690897
 30
0.0
 11
121.7247492439093
 21
122.6825478690897
 31
0.0
  0
SOLID
  5
520
330
51A
100
AcDbEntity
  8
KOTY
 62
     0
100
AcDbTrace
 10
118.3747492439093
 20
123.1825478690897
 30
0.0
 11
118.3747492439093
 21
122.1825478690897
 31
0.0
 12
115.3747492439093
 22
122.6825478690897
 32
0.0
 13
115.3747492439093
 23
122.6825478690897
 33
0.0
  0
SOLID
  5
521
330
51A
100
AcDbEntity
  8
KOTY
 62
     0
100
AcDbTrace
 10
121.7247492439093
 20
122.1825478690897
 30
0.0
 11
121.7247492439093
 21
123.1825478690897
 31
0.0
 12
124.7247492439093
 22
122.6825478690897
 32
0.0
 13
124.7247492439093
 23
122.6825478690897
 33
0.0
  0
MTEXT
  5
522
330
51A
100
AcDbEntity
  8
KOTY
 62
     0
100
AcDbMText
 10
120.0497492439092
 20
125.4719623069186
 30
0.0
 40
3.0
 41
0.0
 71
     5
 72
     1
  1
\A1;9,4
  0
POINT
  5
523
330
51A
100
AcDbEntity
  8
DEFPOINTS
 62
     0
100
AcDbPoint
 10
115.3747492439093
 20
114.7013343069186
 30
0.0
  0
POINT
  5
524
330
51A
100
AcDbEntity
  8
DEFPOINTS
 62
     0
100
AcDbPoint
 10
124.7247492439093
 20
114.7013343069186
 30
0.0
  0
POINT
  5
525
330
51A
100
AcDbEntity
  8
DEFPOINTS
 62
     0
100
AcDbPoint
 10
124.7247492439093
 20
122.6825478690897
 30
0.0
  0
ENDBLK
  5
51C
330
51A
100
AcDbEntity
  8
0
100
AcDbBlockEnd
  0
BLOCK
  5
52E
330
52D
100
AcDbEntity
  8
0
100
AcDbBlockBegin
  2
*D3
 70
     1
 10
0.0
 20
0.0
 30
0.0
  3
*D3
  1
*D8
  0
LINE
  5
530
330
52D
100
AcDbEntity
  8
KOTY
 62
     0
100
AcDbLine
 10
63.41970424390925
 20
114.7638343069186
 30
0.0
 11
63.41970424390925
 21
122.8625478690897
 31
0.0
  0
LINE
  5
531
330
52D
100
AcDbEntity
  8
KOTY
 62
     0
100
AcDbLine
 10
80.51970424390926
 20
114.7638343069186
 30
0.0
 11
80.51970424390926
 21
122.8625478690897
 31
0.0
  0
LINE
  5
532
330
52D
100
AcDbEntity
  8
KOTY
 62
     0
100
AcDbLine
 10
66.41970424390925
 20
122.6825478690897
 30
0.0
 11
77.51970424390926
 21
122.6825478690897
 31
0.0
  0
SOLID
  5
533
330
52D
100
AcDbEntity
  8
KOTY
 62
     0
100
AcDbTrace
 10
66.41970424390925
 20
123.1825478690897
 30
0.0
 11
66.41970424390925
 21
122.1825478690897
 31
0.0
 12
63.41970424390925
 22
122.6825478690897
 32
0.0
 13
63.41970424390925
 23
122.6825478690897
 33
0.0
  0
SOLID
  5
534
330
52D
100
AcDbEntity
  8
KOTY
 62
     0
100
AcDbTrace
 10
77.51970424390926
 20
122.1825478690897
 30
0.0
 11
77.51970424390926
 21
123.1825478690897
 31
0.0
 12
80.51970424390926
 22
122.6825478690897
 32
0.0
 13
80.51970424390926
 23
122.6825478690897
 33
0.0
  0
MTEXT
  5
535
330
52D
100
AcDbEntity
  8
KOTY
 62
     0
100
AcDbMText
 10
71.96970424390926
 20
125.2140478690897
 30
0.0
 40
3.0
 41
0.0
 71
     5
 72
     1
  1
\A1;18
  0
POINT
  5
536
330
52D
100
AcDbEntity
  8
DEFPOINTS
 62
     0
100
AcDbPoint
 10
63.41970424390925
 20
114.7013343069186
 30
0.0
  0
POINT
  5
537
330
52D
100
AcDbEntity
  8
DEFPOINTS
 62
     0
100
AcDbPoint
 10
80.51970424390926
 20
114.7013343069186
 30
0.0
  0
POINT
  5
538
330
52D
100
AcDbEntity
  8
DEFPOINTS
 62
     0
100
AcDbPoint
 10
80.51970424390926
 20
122.6825478690897
 30
0.0
  0
ENDBLK
  5
52F
330
52D
100
AcDbEntity
  8
0
100
AcDbBlockEnd
  0
BLOCK
  5
64B
330
64A
100
AcDbEntity
  8
0
100
AcDbBlockBegin
  2
*D4
 70
     1
 10
0.0
 20
0.0
 30
0.0
  3
*D4
  1
*D4
  0
LINE
  5
64D
330
64A
100
AcDbEntity
  8
KOTY
 62
     0
100
AcDbLine
 10
72.64512524390926
 20
58.10844830691858
 30
0.0
 11
45.91908675277348
 21
58.10844830691858
 31
0.0
  0
LINE
  5
64E
330
64A
100
AcDbEntity
  8
KOTY
 62
     0
100
AcDbLine
 10
63.85720424390925
 20
115.2013343069186
 30
0.0
 11
45.91908675277348
 21
115.2013343069186
 31
0.0
  0
LINE
  5
64F
330
64A
100
AcDbEntity
  8
KOTY
 62
     0
100
AcDbLine
 10
46.09908675277348
 20
61.10844830691858
 30
0.0
 11
46.09908675277348
 21
112.2013343069186
 31
0.0
  0
SOLID
  5
650
330
64A
100
AcDbEntity
  8
KOTY
 62
     0
100
AcDbTrace
 10
45.59908675277348
 20
61.10844830691858
 30
0.0
 11
46.59908675277348
 21
61.10844830691858
 31
0.0
 12
46.09908675277348
 22
58.10844830691858
 32
0.0
 13
46.09908675277348
 23
58.10844830691858
 33
0.0
  0
SOLID
  5
651
330
64A
100
AcDbEntity
  8
KOTY
 62
     0
100
AcDbTrace
 10
46.59908675277348
 20
112.2013343069186
 30
0.0
 11
45.59908675277348
 21
112.2013343069186
 31
0.0
 12
46.09908675277348
 22
115.2013343069186
 32
0.0
 13
46.09908675277348
 23
115.2013343069186
 33
0.0
  0
MTEXT
  5
652
330
64A
100
AcDbEntity
  8
KOTY
 62
     0
100
AcDbMText
 10
43.57358675277349
 20
86.65489130691859
 30
0.0
 40
3.0
 41
0.0
 71
     5
 72
     1
  1
\A1;57
 11
0.0
 21
1.0
 31
0.0
  0
POINT
  5
653
330
64A
100
AcDbEntity
  8
DEFPOINTS
 62
     0
100
AcDbPoint
 10
72.70762524390926
 20
58.10844830691858
 30
0.0
  0
POINT
  5
654
330
64A
100
AcDbEntity
  8
DEFPOINTS
 62
     0
100
AcDbPoint
 10
63.91970424390925
 20
115.2013343069186
 30
0.0
  0
POINT
  5
655
330
64A
100
AcDbEntity
  8
DEFPOINTS
 62
     0
100
AcDbPoint
 10
46.09908675277348
 20
115.2013343069186
 30
0.0
  0
ENDBLK
  5
64C
330
64A
100
AcDbEntity
  8
0
100
AcDbBlockEnd
  0
ENDSEC
  0
SECTION
  2
ENTITIES
  0
LINE
  5
339
330
1F
100
AcDbEntity
  8
OBRYS
100
AcDbLine
 10
75.62497824390925
 20
72.64606030691857
 30
0.0
 11
75.62497824390925
 21
77.04606030691858
 31
0.0
  0
LINE
  5
33A
330
1F
100
AcDbEntity
  8
OBRYS
100
AcDbLine
 10
71.26025624390925
 20
72.79181030691859
 30
0.0
 11
75.47915224390925
 21
72.79181030691859
 31
0.0
  0
LINE
  5
33B
330
1F
100
AcDbEntity
  8
OBRYS
100
AcDbLine
 10
71.11443024390925
 20
77.04606030691858
 30
0.0
 11
71.11443024390925
 21
72.64606030691857
 31
0.0
  0
LINE
  5
33C
330
1F
100
AcDbEntity
  8
OBRYS
100
AcDbLine
 10
72.69054424390926
 20
58.63517830691859
 30
0.0
 11
72.69052324390925
 21
58.62307830691859
 31
0.0
  0
LINE
  5
33D
330
1F
100
AcDbEntity
  8
OBRYS
100
AcDbLine
 10
73.91948224390926
 20
64.90114330691858
 30
0.0
 11
72.71948424390926
 21
64.90323730691858
 31
0.0
  0
LINE
  5
33E
330
1F
100
AcDbEntity
  8
OBRYS
100
AcDbLine
 10
72.72369124390926
 20
67.31363430691857
 30
0.0
 11
72.73236719384866
 21
72.28490862245502
 31
0.0
  0
LINE
  5
33F
330
1F
100
AcDbEntity
  8
OBRYS
100
AcDbLine
 10
73.92368924390925
 20
67.31153930691858
 30
0.0
 11
73.93236923785115
 21
72.28486299134627
 31
0.0
  0
LINE
  5
340
330
1F
100
AcDbEntity
  8
OBRYS
100
AcDbLine
 10
73.90762324390926
 20
58.10635330691858
 30
0.0
 11
73.90936824390926
 21
59.10635230691858
 31
0.0
  0
LINE
  5
341
330
1F
100
AcDbEntity
  8
OBRYS
100
AcDbLine
 10
73.90988424390926
 20
59.40175130691858
 30
0.0
 11
73.92788424390926
 21
59.40172030691858
 31
0.0
  0
LINE
  5
342
330
1F
100
AcDbEntity
  8
OBRYS
100
AcDbLine
 10
73.92788424390926
 20
59.40172030691858
 30
0.0
 11
73.92798524390926
 21
59.45962030691859
 31
0.0
  0
LINE
  5
343
330
1F
100
AcDbEntity
  8
OBRYS
100
AcDbLine
 10
73.92798524390926
 20
59.45962030691859
 30
0.0
 11
73.95036824390925
 21
72.2848623069186
 31
0.0
  0
LINE
  5
344
330
1F
100
AcDbEntity
  8
OBRYS
100
AcDbLine
 10
72.69188824390926
 20
59.40527730691858
 30
0.0
 11
72.70988824390926
 21
59.40524630691857
 31
0.0
  0
LINE
  5
345
330
1F
100
AcDbEntity
  8
OBRYS
100
AcDbLine
 10
72.69198824390925
 20
59.46227730691859
 30
0.0
 11
72.69188824390926
 21
59.40527730691858
 31
0.0
  0
LINE
  5
346
330
1F
100
AcDbEntity
  8
OBRYS
100
AcDbLine
 10
73.90858524390926
 20
58.65755230691857
 30
0.0
 11
73.92658524390926
 21
58.6575213069186
 31
0.0
  0
LINE
  5
347
330
1F
100
AcDbEntity
  8
OBRYS
100
AcDbLine
 10
73.90853824390926
 20
58.63065230691859
 30
0.0
 11
73.92653824390926
 21
58.63062130691858
 31
0.0
  0
LINE
  5
348
330
1F
100
AcDbEntity
  8
OBRYS
100
AcDbLine
 10
73.90854324390926
 20
58.63355230691857
 30
0.0
 11
73.92654324390925
 21
58.6335213069186
 31
0.0
  0
LINE
  5
349
330
1F
100
AcDbEntity
  8
OBRYS
100
AcDbLine
 10
73.92653824390926
 20
58.63062130691858
 30
0.0
 11
73.92652624390925
 21
58.62352130691858
 31
0.0
  0
LINE
  5
34A
330
1F
100
AcDbEntity
  8
OBRYS
100
AcDbLine
 10
72.69059024390926
 20
58.66167830691859
 30
0.0
 11
72.69054924390926
 21
58.63807830691857
 31
0.0
  0
LINE
  5
34B
330
1F
100
AcDbEntity
  8
OBRYS
100
AcDbLine
 10
72.69054424390926
 20
58.63517830691859
 30
0.0
 11
72.70854424390926
 21
58.63514730691858
 31
0.0
  0
LINE
  5
34C
330
1F
100
AcDbEntity
  8
OBRYS
100
AcDbLine
 10
73.92653824390926
 20
58.63062130691858
 30
0.0
 11
73.92654324390925
 21
58.6335213069186
 31
0.0
  0
LINE
  5
34D
330
1F
100
AcDbEntity
  8
OBRYS
100
AcDbLine
 10
72.69059024390926
 20
58.66167830691859
 30
0.0
 11
72.70859024390926
 21
58.66164730691858
 31
0.0
  0
LINE
  5
34E
330
1F
100
AcDbEntity
  8
OBRYS
100
AcDbLine
 10
72.69188824390926
 20
59.40527730691858
 30
0.0
 11
72.69059024390926
 21
58.66167830691859
 31
0.0
  0
LINE
  5
34F
330
1F
100
AcDbEntity
  8
OBRYS
100
AcDbLine
 10
73.90852624390925
 20
58.62355230691858
 30
0.0
 11
73.92652624390925
 21
58.62352130691858
 31
0.0
  0
LINE
  5
350
330
1F
100
AcDbEntity
  8
OBRYS
100
AcDbLine
 10
74.97922824390926
 20
77.6918103069186
 30
0.0
 11
81.01970424390926
 21
77.6918103069186
 31
0.0
  0
LINE
  5
351
330
1F
100
AcDbEntity
  8
OBRYS
100
AcDbLine
 10
75.47915224390925
 20
77.19188630691858
 30
0.0
 11
75.47915224390925
 21
72.79181030691859
 31
0.0
  0
LINE
  5
352
330
1F
100
AcDbEntity
  8
OBRYS
100
AcDbLine
 10
71.26025624390925
 20
72.79181030691859
 30
0.0
 11
71.26025624390925
 21
77.19188630691858
 31
0.0
  0
LINE
  5
353
330
1F
100
AcDbEntity
  8
OBRYS
100
AcDbLine
 10
64.21970424390926
 20
84.24435330691858
 30
0.0
 11
63.91534124390925
 21
84.24700930691859
 31
0.0
  0
LINE
  5
354
330
1F
100
AcDbEntity
  8
OBRYS
100
AcDbLine
 10
68.64749724390926
 20
78.4813343069186
 30
0.0
 11
64.71970424390926
 21
78.4813343069186
 31
0.0
  0
LINE
  5
356
330
1F
100
AcDbEntity
  8
OBRYS
100
AcDbLine
 10
72.69054924390926
 20
58.63807830691857
 30
0.0
 11
72.69054424390926
 21
58.63517830691859
 31
0.0
  0
LINE
  5
357
330
1F
100
AcDbEntity
  8
OBRYS
100
AcDbLine
 10
73.92658524390926
 20
58.6575213069186
 30
0.0
 11
73.92788424390926
 21
59.40172030691858
 31
0.0
  0
LINE
  5
359
330
1F
100
AcDbEntity
  8
OBRYS
100
AcDbLine
 10
72.69052324390925
 20
58.62307830691859
 30
0.0
 11
72.69051924390925
 21
58.6208783069186
 31
0.0
  0
LINE
  5
35A
330
1F
100
AcDbEntity
  8
OBRYS
100
AcDbLine
 10
72.69051924390925
 20
58.6208783069186
 30
0.0
 11
72.70851924390925
 21
58.62084730691859
 31
0.0
  0
LINE
  5
35B
330
1F
100
AcDbEntity
  8
OBRYS
100
AcDbLine
 10
62.91970424390925
 20
113.3513343069186
 30
0.0
 11
62.91970424390925
 21
113.5513343069186
 31
0.0
  0
LINE
  5
35C
330
1F
100
AcDbEntity
  8
OBRYS
100
AcDbLine
 10
62.91970424390925
 20
106.7513343069186
 30
0.0
 11
62.91970424390925
 21
106.9513343069186
 31
0.0
  0
LINE
  5
35D
330
1F
100
AcDbEntity
  8
OBRYS
100
AcDbLine
 10
81.01970424390926
 20
109.7513343069186
 30
0.0
 11
81.01970424390926
 21
109.5513343069186
 31
0.0
  0
LINE
  5
35E
330
1F
100
AcDbEntity
  8
OBRYS
100
AcDbLine
 10
62.91970424390925
 20
103.9513343069186
 30
0.0
 11
62.91970424390925
 21
104.1513343069186
 31
0.0
  0
LINE
  5
35F
330
1F
100
AcDbEntity
  8
OBRYS
100
AcDbLine
 10
69.15567424390926
 20
77.04606030691858
 30
0.0
 11
71.11443024390925
 21
77.04606030691858
 31
0.0
  0
LINE
  5
360
330
1F
100
AcDbEntity
  8
OBRYS
100
AcDbLine
 10
75.62497824390925
 20
77.04606030691858
 30
0.0
 11
80.51970424390926
 21
77.04606030691858
 31
0.0
  0
LINE
  5
361
330
1F
100
AcDbEntity
  8
OBRYS
100
AcDbLine
 10
72.69052324390925
 20
58.62307830691859
 30
0.0
 11
72.70852324390926
 21
58.62304730691858
 31
0.0
  0
LINE
  5
362
330
1F
100
AcDbEntity
  8
OBRYS
100
AcDbLine
 10
73.90936824390926
 20
59.10635230691858
 30
0.0
 11
72.70937024390926
 21
59.10844630691858
 31
0.0
  0
LINE
  5
363
330
1F
100
AcDbEntity
  8
OBRYS
100
AcDbLine
 10
73.90936824390926
 20
59.10635230691858
 30
0.0
 11
73.91948224390926
 21
64.90114330691858
 31
0.0
  0
LINE
  5
364
330
1F
100
AcDbEntity
  8
OBRYS
100
AcDbLine
 10
72.70937024390926
 20
59.10844630691858
 30
0.0
 11
72.71948424390926
 21
64.90323730691858
 31
0.0
  0
LINE
  5
365
102
{ACAD_REACTORS
102
}
330
1F
100
AcDbEntity
  8
OBRYS
100
AcDbLine
 10
72.70762524390926
 20
58.10844830691858
 30
0.0
 11
72.70937024390926
 21
59.10844630691858
 31
0.0
  0
LINE
  5
366
330
1F
100
AcDbEntity
  8
OBRYS
100
AcDbLine
 10
73.90762324390926
 20
58.10635330691858
 30
0.0
 11
72.70762524390926
 21
58.10844830691858
 31
0.0
  0
LINE
  5
367
330
1F
100
AcDbEntity
  8
OBRYS
100
AcDbLine
 10
73.90998524390926
 20
59.45965130691857
 30
0.0
 11
73.92798524390926
 21
59.45962030691859
 31
0.0
  0
LINE
  5
368
330
1F
100
AcDbEntity
  8
OBRYS
100
AcDbLine
 10
72.69054924390926
 20
58.63807830691857
 30
0.0
 11
72.70854924390926
 21
58.63804730691859
 31
0.0
  0
LINE
  5
369
330
1F
100
AcDbEntity
  8
OBRYS
100
AcDbLine
 10
73.92654324390925
 20
58.6335213069186
 30
0.0
 11
73.92658524390926
 21
58.6575213069186
 31
0.0
  0
LINE
  5
36A
330
1F
100
AcDbEntity
  8
OBRYS
100
AcDbLine
 10
72.69198824390925
 20
59.46227730691859
 30
0.0
 11
72.70998824390925
 21
59.46224630691859
 31
0.0
  0
LINE
  5
36B
330
1F
100
AcDbEntity
  8
OBRYS
100
AcDbLine
 10
72.71436724390925
 20
72.28490930691859
 30
0.0
 11
72.69198824390925
 21
59.46227730691859
 31
0.0
  0
LINE
  5
36C
330
1F
100
AcDbEntity
  8
OBRYS
100
AcDbLine
 10
71.26025624390925
 20
77.19188630691858
 30
0.0
 11
69.15440224390926
 21
77.19188630691858
 31
0.0
  0
LINE
  5
36D
330
1F
100
AcDbEntity
  8
OBRYS
100
AcDbLine
 10
74.97922824390926
 20
72.29188630691857
 30
0.0
 11
74.97922824390926
 21
77.6918103069186
 31
0.0
  0
LINE
  5
36E
330
1F
100
AcDbEntity
  8
OBRYS
100
AcDbLine
 10
71.76018024390926
 20
77.6918103069186
 30
0.0
 11
71.76018024390926
 21
72.29188630691857
 31
0.0
  0
LINE
  5
370
330
1F
100
AcDbEntity
  8
OBRYS
100
AcDbLine
 10
64.21970424390926
 20
78.9813343069186
 30
0.0
 11
69.14315224390926
 21
78.9813343069186
 31
0.0
  0
LINE
  5
371
330
1F
100
AcDbEntity
  8
OBRYS
100
AcDbLine
 10
64.71970424390926
 20
84.74000830691858
 30
0.0
 11
64.71970424390926
 21
78.4813343069186
 31
0.0
  0
LINE
  5
372
330
1F
100
AcDbEntity
  8
OBRYS
100
AcDbLine
 10
63.41970424390925
 20
84.74699030691858
 30
0.0
 11
64.71970424390926
 21
84.74000830691858
 31
0.0
  0
LINE
  5
373
102
{ACAD_REACTORS
102
}
330
1F
100
AcDbEntity
  8
OBRYS
100
AcDbLine
 10
63.91970424390925
 20
115.2013343069186
 30
0.0
 11
63.91534124390925
 21
84.24700930691859
 31
0.0
  0
LINE
  5
374
330
1F
100
AcDbEntity
  8
OBRYS
100
AcDbLine
 10
80.51970424390926
 20
114.7013343069186
 30
0.0
 11
63.41970424390925
 21
114.7013343069186
 31
0.0
  0
LINE
  5
375
330
1F
100
AcDbEntity
  8
OBRYS
100
AcDbLine
 10
80.01970424390926
 20
78.7013343069186
 30
0.0
 11
80.01970424390926
 21
115.2013343069186
 31
0.0
  0
LINE
  5
376
330
1F
100
AcDbEntity
  8
OBRYS
100
AcDbLine
 10
81.01970424390926
 20
78.7013343069186
 30
0.0
 11
80.01970424390926
 21
78.7013343069186
 31
0.0
  0
LINE
  5
377
330
1F
100
AcDbEntity
  8
OBRYS
100
AcDbLine
 10
80.51970424390926
 20
77.04606030691858
 30
0.0
 11
80.51970424390926
 21
79.2013343069186
 31
0.0
  0
LINE
  5
378
330
1F
100
AcDbEntity
  8
OBRYS
100
AcDbLine
 10
68.65442524390926
 20
77.68744730691859
 30
0.0
 11
68.64749724390926
 21
78.4813343069186
 31
0.0
  0
LINE
  5
379
330
1F
100
AcDbEntity
  8
OBRYS
100
AcDbLine
 10
63.41970424390925
 20
84.74699030691858
 30
0.0
 11
63.41970424390925
 21
114.7013343069186
 31
0.0
  0
LINE
  5
37A
330
1F
100
AcDbEntity
  8
OBRYS
100
AcDbLine
 10
68.65441724390925
 20
77.68744730691859
 30
0.0
 11
71.76018024390926
 21
77.6918103069186
 31
0.0
  0
LINE
  5
37B
330
1F
100
AcDbEntity
  8
OBRYS
100
AcDbLine
 10
81.01970424390926
 20
78.7013343069186
 30
0.0
 11
81.01970424390926
 21
77.6918103069186
 31
0.0
  0
LINE
  5
37C
330
1F
100
AcDbEntity
  8
OBRYS
100
AcDbLine
 10
63.91970424390925
 20
115.2013343069186
 30
0.0
 11
80.01970424390926
 21
115.2013343069186
 31
0.0
  0
LINE
  5
37D
330
1F
100
AcDbEntity
  8
OBRYS
100
AcDbLine
 10
80.51970424390926
 20
114.7013343069186
 30
0.0
 11
80.51970424390926
 21
79.2013343069186
 31
0.0
  0
LINE
  5
37E
330
1F
100
AcDbEntity
  8
OBRYS
100
AcDbLine
 10
80.51970424390926
 20
77.19188630691858
 30
0.0
 11
75.47915224390925
 21
77.19188630691858
 31
0.0
  0
LINE
  5
37F
330
1F
100
AcDbEntity
  8
OBRYS
100
AcDbLine
 10
74.97922824390926
 20
72.29188630691857
 30
0.0
 11
71.76018024390926
 21
72.29188630691857
 31
0.0
  0
LINE
  5
380
330
1F
100
AcDbEntity
  8
OBRYS
100
AcDbLine
 10
64.21970424390926
 20
78.9813343069186
 30
0.0
 11
64.21970424390926
 21
84.24435330691858
 31
0.0
  0
LINE
  5
381
330
1F
100
AcDbEntity
  8
OBRYS
100
AcDbLine
 10
71.11450624390926
 20
72.64606030691857
 30
0.0
 11
71.26025624390925
 21
72.79181030691859
 31
0.0
  0
LINE
  5
382
330
1F
100
AcDbEntity
  8
OBRYS
100
AcDbLine
 10
71.76018024390926
 20
72.29188630691857
 30
0.0
 11
71.61443024390925
 21
72.14613630691858
 31
0.0
  0
LINE
  5
383
330
1F
100
AcDbEntity
  8
OBRYS
100
AcDbLine
 10
75.12497824390925
 20
72.14613630691858
 30
0.0
 11
74.97922824390926
 21
72.29188630691857
 31
0.0
  0
LINE
  5
384
330
1F
100
AcDbEntity
  8
OBRYS
100
AcDbLine
 10
75.47915224390925
 20
72.79181030691859
 30
0.0
 11
75.62490224390926
 21
72.64606030691857
 31
0.0
  0
LINE
  5
385
330
1F
100
AcDbEntity
  8
OBRYS
100
AcDbLine
 10
68.65568924390925
 20
77.54169730691859
 30
0.0
 11
68.65441724390925
 21
77.68744730691859
 31
0.0
  0
LINE
  5
388
330
1F
100
AcDbEntity
  8
OBRYS
100
AcDbLine
 10
73.92368924390925
 20
67.31153930691858
 30
0.0
 11
72.72369124390926
 21
67.31363430691857
 31
0.0
  0
LINE
  5
389
330
1F
100
AcDbEntity
  8
OBRYS
100
AcDbLine
 10
81.01970424390926
 20
77.6918103069186
 30
0.0
 11
81.01970424390926
 21
77.54606030691858
 31
0.0
  0
LINE
  5
38A
330
1F
100
AcDbEntity
  8
OBRYS
100
AcDbLine
 10
73.92652624390925
 20
58.62352130691858
 30
0.0
 11
73.92652224390926
 21
58.62142130691859
 31
0.0
  0
LINE
  5
38B
330
1F
100
AcDbEntity
  8
OBRYS
100
AcDbLine
 10
73.90852224390926
 20
58.62145230691857
 30
0.0
 11
73.92652224390926
 21
58.62142130691859
 31
0.0
  0
LINE
  5
38C
330
1F
100
AcDbEntity
  8
OBRYS
100
AcDbLine
 10
62.91970424390925
 20
101.1513343069186
 30
0.0
 11
62.91970424390925
 21
101.3513343069186
 31
0.0
  0
LINE
  5
38D
330
1F
100
AcDbEntity
  8
OBRYS
100
AcDbLine
 10
81.01970424390926
 20
101.3513343069186
 30
0.0
 11
81.01970424390926
 21
101.1513343069186
 31
0.0
  0
LINE
  5
38E
330
1F
100
AcDbEntity
  8
OBRYS
100
AcDbLine
 10
81.01970424390926
 20
113.5513343069186
 30
0.0
 11
81.01970424390926
 21
113.3513343069186
 31
0.0
  0
LINE
  5
38F
330
1F
100
AcDbEntity
  8
OBRYS
100
AcDbLine
 10
62.91970424390925
 20
109.5513343069186
 30
0.0
 11
62.91970424390925
 21
109.7513343069186
 31
0.0
  0
LINE
  5
390
330
1F
100
AcDbEntity
  8
OBRYS
100
AcDbLine
 10
81.01970424390926
 20
104.1513343069186
 30
0.0
 11
81.01970424390926
 21
103.9513343069186
 31
0.0
  0
LINE
  5
391
330
1F
100
AcDbEntity
  8
OBRYS
100
AcDbLine
 10
81.01970424390926
 20
106.9513343069186
 30
0.0
 11
81.01970424390926
 21
106.7513343069186
 31
0.0
  0
LINE
  5
392
330
1F
100
AcDbEntity
  8
OBRYS
100
AcDbLine
 10
71.61443024390925
 20
72.14606030691857
 30
0.0
 11
72.71416424390925
 21
72.14606030691857
 31
0.0
  0
LINE
  5
393
330
1F
100
AcDbEntity
  8
OBRYS
100
AcDbLine
 10
73.95009724390925
 20
72.14606030691857
 30
0.0
 11
75.12497824390925
 21
72.14606030691857
 31
0.0
  0
LINE
  5
394
330
1F
100
AcDbEntity
  8
OBRYS
100
AcDbLine
 10
73.92322124390925
 20
67.04364030691858
 30
0.0
 11
72.72322324390926
 21
67.04573430691858
 31
0.0
  0
LINE
  5
395
330
1F
100
AcDbEntity
  8
OBRYS
100
AcDbLine
 10
73.91994924390926
 20
65.16894330691858
 30
0.0
 11
72.71995124390926
 21
65.17103730691858
 31
0.0
  0
LINE
  5
397
330
1F
100
AcDbEntity
  8
OBRYS
100
AcDbLine
 10
72.71948424390926
 20
64.90323730691858
 30
0.0
 11
72.71995124390926
 21
65.17103730691858
 31
0.0
  0
LINE
  5
398
330
1F
100
AcDbEntity
  8
OBRYS
100
AcDbLine
 10
73.91948224390926
 20
64.90114330691858
 30
0.0
 11
73.91994924390926
 21
65.16894330691858
 31
0.0
  0
LINE
  5
399
330
1F
100
AcDbEntity
  8
OBRYS
100
AcDbLine
 10
80.51970424390926
 20
77.04613630691858
 30
0.0
 11
80.51970424390926
 21
77.04606030691858
 31
0.0
  0
LINE
  5
39A
330
1F
100
AcDbEntity
  8
OBRYS
100
AcDbLine
 10
75.62497824390925
 20
72.64606030691857
 30
0.0
 11
75.62490224390926
 21
72.64606030691857
 31
0.0
  0
LINE
  5
39B
330
1F
100
AcDbEntity
  8
OBRYS
100
AcDbLine
 10
72.71995124390926
 20
65.17103730691858
 30
0.0
 11
72.72322324390926
 21
67.04573430691858
 31
0.0
  0
LINE
  5
3A2
330
1F
100
AcDbEntity
  8
OBRYS
100
AcDbLine
 10
72.72322324390926
 20
67.04573430691858
 30
0.0
 11
72.72369124390926
 21
67.31363430691857
 31
0.0
  0
LINE
  5
3A3
330
1F
100
AcDbEntity
  8
OBRYS
100
AcDbLine
 10
73.92322124390925
 20
67.04364030691858
 30
0.0
 11
73.92368924390925
 21
67.31153930691858
 31
0.0
  0
LINE
  5
3A5
330
1F
100
AcDbEntity
  8
OBRYS
100
AcDbLine
 10
75.12497824390925
 20
72.14613630691858
 30
0.0
 11
75.12497824390925
 21
72.14606030691857
 31
0.0
  0
LINE
  5
3A6
330
1F
100
AcDbEntity
  8
OBRYS
100
AcDbLine
 10
71.11443024390925
 20
72.64606030691857
 30
0.0
 11
71.11450624390926
 21
72.64606030691857
 31
0.0
  0
LINE
  5
3B1
330
1F
100
AcDbEntity
  8
OBRYS
100
AcDbLine
 10
73.91994924390926
 20
65.16894330691858
 30
0.0
 11
73.92322124390925
 21
67.04364030691858
 31
0.0
  0
LINE
  5
3B2
330
1F
100
AcDbEntity
  8
OBRYS
100
AcDbLine
 10
71.76018024390926
 20
77.6918103069186
 30
0.0
 11
71.11450624390926
 21
77.04613630691858
 31
0.0
  0
LINE
  5
3B3
330
1F
100
AcDbEntity
  8
OBRYS
100
AcDbLine
 10
75.62490224390926
 20
77.04613630691858
 30
0.0
 11
75.62497824390925
 21
77.04606030691858
 31
0.0
  0
LINE
  5
3B4
330
1F
100
AcDbEntity
  8
OBRYS
100
AcDbLine
 10
71.11443024390925
 20
77.04606030691858
 30
0.0
 11
71.11450624390926
 21
77.04613630691858
 31
0.0
  0
LINE
  5
3B5
330
1F
100
AcDbEntity
  8
OBRYS
100
AcDbLine
 10
64.21970424390926
 20
84.24435330691858
 30
0.0
 11
64.71970424390926
 21
84.74000830691858
 31
0.0
  0
LINE
  5
3B6
330
1F
100
AcDbEntity
  8
OBRYS
100
AcDbLine
 10
80.51970424390926
 20
79.2013343069186
 30
0.0
 11
80.01970424390926
 21
78.7013343069186
 31
0.0
  0
LINE
  5
3B7
330
1F
100
AcDbEntity
  8
OBRYS
100
AcDbLine
 10
68.64749724390926
 20
78.4813343069186
 30
0.0
 11
69.14315224390926
 21
78.9813343069186
 31
0.0
  0
LINE
  5
3B8
330
1F
100
AcDbEntity
  8
OBRYS
100
AcDbLine
 10
80.61970324390926
 20
110.1513343069186
 30
0.0
 11
80.62003824390926
 21
110.1513353069186
 31
0.0
  0
LINE
  5
3B9
330
1F
100
AcDbEntity
  8
OBRYS
100
AcDbLine
 10
63.31937124390926
 20
110.1513353069186
 30
0.0
 11
63.31970524390925
 21
110.1513343069186
 31
0.0
  0
LINE
  5
3BA
330
1F
100
AcDbEntity
  8
OBRYS
100
AcDbLine
 10
75.62490224390926
 20
77.04613630691858
 30
0.0
 11
74.97922824390926
 21
77.6918103069186
 31
0.0
  0
LINE
  5
3BB
330
1F
100
AcDbEntity
  8
OBRYS
100
AcDbLine
 10
63.41953924390926
 20
113.9513343069186
 30
0.0
 11
63.41948024390926
 21
113.9513343069186
 31
0.0
  0
LINE
  5
3BC
330
1F
100
AcDbEntity
  8
OBRYS
100
AcDbLine
 10
80.51992924390926
 20
113.9513343069186
 30
0.0
 11
80.51986924390926
 21
113.9513343069186
 31
0.0
  0
LINE
  5
3BD
330
1F
100
AcDbEntity
  8
OBRYS
100
AcDbLine
 10
123.6793766286671
 20
115.1522069272405
 30
0.0
 11
123.6990282439093
 21
113.9513103069186
 31
0.0
  0
LINE
  5
3BE
330
1F
100
AcDbEntity
  8
OBRYS
100
AcDbLine
 10
116.3494652023382
 20
113.9513343279403
 30
0.0
 11
116.3695538589882
 21
115.15220691789
 31
0.0
  0
LINE
  5
3BF
330
1F
100
AcDbEntity
  8
OBRYS
100
AcDbLine
 10
117.8400932439093
 20
114.0607053069186
 30
0.0
 11
117.8400842439092
 21
114.0013343069186
 31
0.0
  0
LINE
  5
3C0
330
1F
100
AcDbEntity
  8
OBRYS
100
AcDbLine
 10
122.2088372439092
 20
114.0607053069186
 30
0.0
 11
122.2088462439092
 21
114.0013343069186
 31
0.0
  0
LINE
  5
3C1
330
1F
100
AcDbEntity
  8
OBRYS
100
AcDbLine
 10
117.8400932439093
 20
114.0607053069186
 30
0.0
 11
122.2088372439092
 21
114.0607053069186
 31
0.0
  0
LINE
  5
3C2
330
1F
100
AcDbEntity
  8
OBRYS
100
AcDbLine
 10
116.3503160195535
 20
114.0021950246358
 30
0.0
 11
117.8400842439092
 21
114.0013343069186
 31
0.0
  0
LINE
  5
3C3
330
1F
100
AcDbEntity
  8
OBRYS
100
AcDbLine
 10
123.6870942439093
 20
114.7100603069186
 30
0.0
 11
116.3618362439093
 21
114.7100603069186
 31
0.0
  0
LINE
  5
3C4
330
1F
100
AcDbEntity
  8
OBRYS
100
AcDbLine
 10
122.2088462439092
 20
114.0013343069186
 30
0.0
 11
123.6981957057367
 21
114.0021861390275
 31
0.0
  0
LINE
  5
3C5
330
1F
100
AcDbEntity
  8
OBRYS
100
AcDbLine
 10
116.4195462439093
 20
115.2013343069186
 30
0.0
 11
123.6293842439093
 21
115.2013343069186
 31
0.0
  0
LINE
  5
3C6
330
1F
100
AcDbEntity
  8
OBRYS
100
AcDbLine
 10
121.1170452439092
 20
111.7594483069186
 30
0.0
 11
121.1170452439092
 21
111.9939143069186
 31
0.0
  0
LINE
  5
3C7
330
1F
100
AcDbEntity
  8
OBRYS
100
AcDbLine
 10
118.9318852439092
 20
111.9939143069186
 30
0.0
 11
118.9318852439092
 21
111.7594483069186
 31
0.0
  0
LINE
  5
3C8
330
1F
100
AcDbEntity
  8
OBRYS
100
AcDbLine
 10
121.1170452439092
 20
111.9939143069186
 30
0.0
 11
118.9318852439092
 21
111.9939143069186
 31
0.0
  0
LINE
  5
3C9
330
1F
100
AcDbEntity
  8
OBRYS
100
AcDbLine
 10
118.9318852439092
 20
111.7594483069186
 30
0.0
 11
121.1170452439092
 21
111.7594483069186
 31
0.0
  0
LINE
  5
3CA
330
1F
100
AcDbEntity
  8
OBRYS
100
AcDbLine
 10
118.9318852439092
 20
111.7594483069186
 30
0.0
 11
118.9279302439093
 21
110.3356483069186
 31
0.0
  0
LINE
  5
3CB
330
1F
100
AcDbEntity
  8
OBRYS
100
AcDbLine
 10
121.1209992439093
 20
110.3356483069186
 30
0.0
 11
121.1171802439092
 21
111.7594483069186
 31
0.0
  0
LINE
  5
3CC
330
1F
100
AcDbEntity
  8
OBRYS
100
AcDbLine
 10
118.9279302439093
 20
110.3356483069186
 30
0.0
 11
121.1209992439093
 21
110.3356483069186
 31
0.0
  0
LINE
  5
3CD
330
1F
100
AcDbEntity
  8
OBRYS
100
AcDbLine
 10
121.1244672439093
 20
112.0513343069186
 30
0.0
 11
118.9244632439093
 21
112.0513343069186
 31
0.0
  0
LINE
  5
3CE
330
1F
100
AcDbEntity
  8
OBRYS
100
AcDbLine
 10
121.1744652439093
 20
110.3514603069186
 30
0.0
 11
121.1744652439093
 21
112.0013363069186
 31
0.0
  0
LINE
  5
3CF
330
1F
100
AcDbEntity
  8
OBRYS
100
AcDbLine
 10
118.8744652439093
 20
112.0013363069186
 30
0.0
 11
118.8744652439093
 21
110.3514603069186
 31
0.0
  0
LINE
  5
3D0
330
1F
100
AcDbEntity
  8
OBRYS
100
AcDbLine
 10
121.1209992439093
 20
110.3014603069186
 30
0.0
 11
118.9279302439093
 21
110.3014603069186
 31
0.0
  0
LINE
  5
3D1
330
1F
100
AcDbEntity
  8
OBRYS
100
AcDbLine
 10
118.9279302439093
 20
110.3014603069186
 30
0.0
 11
118.9244672439092
 21
110.3014603069186
 31
0.0
  0
LINE
  5
3D2
330
1F
100
AcDbEntity
  8
OBRYS
100
AcDbLine
 10
121.1244632439092
 20
110.3014603069186
 30
0.0
 11
121.1209992439093
 21
110.3014603069186
 31
0.0
  0
LINE
  5
3D5
330
1F
100
AcDbEntity
  8
OBRYS
100
AcDbLine
 10
123.6747492439092
 20
100.7513343069186
 30
0.0
 11
116.3747492439093
 21
100.7513343069186
 31
0.0
  0
LINE
  5
3D6
330
1F
100
AcDbEntity
  8
OBRYS
100
AcDbLine
 10
123.6747492439092
 20
112.9513343069186
 30
0.0
 11
116.3747492439093
 21
112.9513343069186
 31
0.0
  0
LINE
  5
3D7
330
1F
100
AcDbEntity
  8
OBRYS
100
AcDbLine
 10
116.3747492439093
 20
113.9513343069186
 30
0.0
 11
123.6747492439092
 21
113.9513343069186
 31
0.0
  0
LINE
  5
3D8
330
1F
100
AcDbEntity
  8
OBRYS
100
AcDbLine
 10
116.3747492439093
 20
110.1513343069186
 30
0.0
 11
123.6747492439092
 21
110.1513343069186
 31
0.0
  0
LINE
  5
3DB
330
1F
100
AcDbEntity
  8
OBRYS
100
AcDbLine
 10
123.6747492439092
 20
109.1513343069186
 30
0.0
 11
116.3747492439093
 21
109.1513343069186
 31
0.0
  0
LINE
  5
3DC
330
1F
100
AcDbEntity
  8
OBRYS
100
AcDbLine
 10
116.3747492439093
 20
107.3513343069186
 30
0.0
 11
123.6747492439092
 21
107.3513343069186
 31
0.0
  0
LINE
  5
3DD
330
1F
100
AcDbEntity
  8
OBRYS
100
AcDbLine
 10
123.6747492439092
 20
106.3513343069186
 30
0.0
 11
116.3747492439093
 21
106.3513343069186
 31
0.0
  0
LINE
  5
3DE
330
1F
100
AcDbEntity
  8
OBRYS
100
AcDbLine
 10
116.3747492439093
 20
104.5513343069186
 30
0.0
 11
123.6747492439092
 21
104.5513343069186
 31
0.0
  0
LINE
  5
3DF
330
1F
100
AcDbEntity
  8
OBRYS
100
AcDbLine
 10
123.6747492439092
 20
103.5513343069186
 30
0.0
 11
116.3747492439093
 21
103.5513343069186
 31
0.0
  0
LINE
  5
3E0
330
1F
100
AcDbEntity
  8
OBRYS
100
AcDbLine
 10
116.3747492439093
 20
101.7513343069186
 30
0.0
 11
123.6747492439092
 21
101.7513343069186
 31
0.0
  0
LINE
  5
3E1
330
1F
100
AcDbEntity
  8
OBRYS
100
AcDbLine
 10
118.8238732439092
 20
110.1513343069186
 30
0.0
 11
118.8247492439093
 21
112.2013363069186
 31
0.0
  0
LINE
  5
3E2
330
1F
100
AcDbEntity
  8
OBRYS
100
AcDbLine
 10
121.2247492439093
 20
112.2013363069186
 30
0.0
 11
121.2247492439093
 21
110.1513193069186
 31
0.0
  0
LINE
  5
3E4
330
1F
100
AcDbEntity
  8
OBRYS
100
AcDbLine
 10
124.2334754471279
 20
72.29188645934039
 30
0.0
 11
124.2247492439093
 21
115.2013343069186
 31
0.0
  0
LINE
  5
3E5
330
1F
100
AcDbEntity
  8
OBRYS
100
AcDbLine
 10
115.3747492439093
 20
84.74699030691858
 30
0.0
 11
124.7247492439093
 21
84.74699030691858
 31
0.0
  0
LINE
  5
3E6
330
1F
100
AcDbEntity
  8
OBRYS
100
AcDbLine
 10
115.8747492439093
 20
115.2013343069186
 30
0.0
 11
115.8834754471279
 21
72.14613645934037
 31
0.0
  0
LINE
  5
3E8
330
1F
100
AcDbEntity
  8
OBRYS
100
AcDbLine
 10
118.8247492439093
 20
112.2013363069186
 30
0.0
 11
121.2247492439093
 21
112.2013363069186
 31
0.0
  0
LINE
  5
3E9
330
1F
100
AcDbEntity
  8
OBRYS
100
AcDbLine
 10
123.8493152439092
 20
115.2013343069186
 30
0.0
 11
124.2247492439093
 21
115.2013343069186
 31
0.0
  0
LINE
  5
3EA
330
1F
100
AcDbEntity
  8
OBRYS
100
AcDbLine
 10
123.7888415523092
 20
113.9513344017775
 30
0.0
 11
123.7953902439093
 21
114.7017703069186
 31
0.0
  0
LINE
  5
3EB
330
1F
100
AcDbEntity
  8
OBRYS
100
AcDbLine
 10
116.2541082439093
 20
114.7017703069186
 30
0.0
 11
116.2606568178668
 21
113.9513344017775
 31
0.0
  0
LINE
  5
3EC
330
1F
100
AcDbEntity
  8
OBRYS
100
AcDbLine
 10
124.7247492439093
 20
114.7013343069186
 30
0.0
 11
124.7247492439093
 21
84.74699030691858
 31
0.0
  0
LINE
  5
3ED
330
1F
100
AcDbEntity
  8
OBRYS
100
AcDbLine
 10
115.8747492439093
 20
115.2013343069186
 30
0.0
 11
116.2001822439093
 21
115.2013343069186
 31
0.0
  0
LINE
  5
3EE
330
1F
100
AcDbEntity
  8
OBRYS
100
AcDbLine
 10
124.2247492439093
 20
84.24700930691859
 30
0.0
 11
115.8747492439093
 21
84.24700930691859
 31
0.0
  0
LINE
  5
3EF
330
1F
100
AcDbEntity
  8
OBRYS
100
AcDbLine
 10
124.2247492439093
 20
84.24435330691858
 30
0.0
 11
124.2247492439093
 21
84.24700930691859
 31
0.0
  0
LINE
  5
3F0
330
1F
100
AcDbEntity
  8
OBRYS
100
AcDbLine
 10
124.7247492439093
 20
84.74699030691858
 30
0.0
 11
124.7247492439093
 21
84.74000830691858
 31
0.0
  0
LINE
  5
3F1
330
1F
100
AcDbEntity
  8
OBRYS
100
AcDbLine
 10
115.8747492439093
 20
84.24700930691859
 30
0.0
 11
115.8747492439093
 21
84.24435330691858
 31
0.0
  0
LINE
  5
3F2
330
1F
100
AcDbEntity
  8
OBRYS
100
AcDbLine
 10
115.3747492439093
 20
84.74000830691858
 30
0.0
 11
115.3747492439093
 21
84.74699030691858
 31
0.0
  0
LINE
  5
3F3
330
1F
100
AcDbEntity
  8
OBRYS
100
AcDbLine
 10
116.836132041496
 20
78.4813343069186
 30
0.0
 11
115.8747492439093
 21
78.4813343069186
 31
0.0
  0
LINE
  5
3F4
330
1F
100
AcDbEntity
  8
OBRYS
100
AcDbLine
 10
124.2247492439093
 20
78.4813343069186
 30
0.0
 11
123.2133663924309
 21
78.4813343069186
 31
0.0
  0
LINE
  5
3F5
330
1F
100
AcDbEntity
  8
OBRYS
100
AcDbLine
 10
122.7133663938818
 20
78.98129621616388
 30
0.0
 11
124.7247492439093
 21
78.9813343069186
 31
0.0
  0
LINE
  5
3F7
330
1F
100
AcDbEntity
  8
OBRYS
100
AcDbLine
 10
117.1284528245237
 20
78.57568845175665
 30
0.0
 11
117.1334682439092
 21
84.24700930691859
 31
0.0
  0
LINE
  5
3F9
330
1F
100
AcDbEntity
  8
OBRYS
100
AcDbLine
 10
122.9160302439093
 20
84.24700930691859
 30
0.0
 11
122.9160302439093
 21
78.9813343069186
 31
0.0
  0
LINE
  5
3FA
330
1F
100
AcDbEntity
  8
OBRYS
100
AcDbLine
 10
115.3747492439093
 20
78.9813343069186
 30
0.0
 11
115.3747492439093
 21
84.74000830691858
 31
0.0
  0
LINE
  5
3FB
330
1F
100
AcDbEntity
  8
OBRYS
100
AcDbLine
 10
124.7247492439093
 20
84.74000830691858
 30
0.0
 11
124.7247492439093
 21
78.9813343069186
 31
0.0
  0
LINE
  5
3FC
330
1F
100
AcDbEntity
  8
OBRYS
100
AcDbLine
 10
122.7129652439093
 20
84.24700930691859
 30
0.0
 11
122.7133663938818
 21
78.98129621616388
 31
0.0
  0
LINE
  5
3FD
330
1F
100
AcDbEntity
  8
OBRYS
100
AcDbLine
 10
117.336132040052
 20
78.98129630600059
 30
0.0
 11
117.3365322439093
 21
84.24700930691859
 31
0.0
  0
LINE
  5
3FF
330
1F
100
AcDbEntity
  8
OBRYS
100
AcDbLine
 10
115.3747492439093
 20
77.54606030691858
 30
0.0
 11
124.7247492439093
 21
77.6918103069186
 31
0.0
  0
LINE
  5
401
330
1F
100
AcDbEntity
  8
OBRYS
100
AcDbLine
 10
124.7247492439093
 20
78.9813343069186
 30
0.0
 11
124.7247492439093
 21
77.6918103069186
 31
0.0
  0
LINE
  5
402
330
1F
100
AcDbEntity
  8
OBRYS
100
AcDbLine
 10
115.3747492439093
 20
77.54606030691858
 30
0.0
 11
115.3747492439093
 21
78.9813343069186
 31
0.0
  0
LINE
  5
403
330
1F
100
AcDbEntity
  8
OBRYS
100
AcDbLine
 10
124.2334752439093
 20
77.19188630691858
 30
0.0
 11
115.8834752439093
 21
77.04613630691858
 31
0.0
  0
LINE
  5
405
330
1F
100
AcDbEntity
  8
OBRYS
100
AcDbLine
 10
115.3747492439093
 20
72.64606030691857
 30
0.0
 11
115.3747492439093
 21
77.54606030691858
 31
0.0
  0
LINE
  5
407
330
1F
100
AcDbEntity
  8
OBRYS
100
AcDbLine
 10
115.3747492439093
 20
72.64606030691857
 30
0.0
 11
124.7247492439093
 21
72.79181030691859
 31
0.0
  0
LINE
  5
408
330
1F
100
AcDbEntity
  8
OBRYS
100
AcDbLine
 10
124.2334754471279
 20
72.29188645934042
 30
0.0
 11
115.8834752439093
 21
72.14613630691858
 31
0.0
  0
LINE
  5
409
330
1F
100
AcDbEntity
  8
OBRYS
100
AcDbLine
 10
124.7247492439093
 20
77.6918103069186
 30
0.0
 11
124.7247492439093
 21
72.79181030691859
 31
0.0
  0
LINE
  5
40A
330
1F
100
AcDbEntity
  8
OBRYS
100
AcDbLine
 10
122.4096062439093
 20
82.41184930691858
 30
0.0
 11
117.6372862439092
 21
82.41184930691858
 31
0.0
  0
LINE
  5
40B
330
1F
100
AcDbEntity
  8
OBRYS
100
AcDbLine
 10
122.4096062439093
 20
79.5584013069186
 30
0.0
 11
117.6372862439092
 21
79.5584013069186
 31
0.0
  0
LINE
  5
40C
330
1F
100
AcDbEntity
  8
OBRYS
100
AcDbLine
 10
117.3377482439093
 20
82.48062430691857
 30
0.0
 11
117.3364042439093
 21
82.48062430691857
 31
0.0
  0
LINE
  5
40D
330
1F
100
AcDbEntity
  8
OBRYS
100
AcDbLine
 10
117.3377522439093
 20
82.34962830691859
 30
0.0
 11
117.3364072439093
 21
82.34962830691859
 31
0.0
  0
LINE
  5
40E
330
1F
100
AcDbEntity
  8
OBRYS
100
AcDbLine
 10
117.3377292439093
 20
82.9730283069186
 30
0.0
 11
117.3365282439093
 21
82.9730283069186
 31
0.0
  0
LINE
  5
40F
330
1F
100
AcDbEntity
  8
OBRYS
100
AcDbLine
 10
117.3365822439092
 20
83.56742630691858
 30
0.0
 11
117.3377852439093
 21
83.56742630691858
 31
0.0
  0
LINE
  5
410
330
1F
100
AcDbEntity
  8
OBRYS
100
AcDbLine
 10
119.2929492439092
 20
72.20564930691859
 30
0.0
 11
119.2929492439092
 21
72.1988583069186
 31
0.0
  0
LINE
  5
411
330
1F
100
AcDbEntity
  8
OBRYS
100
AcDbLine
 10
119.2929492439092
 20
72.1988583069186
 30
0.0
 11
119.2861492439093
 21
72.18245830691859
 31
0.0
  0
LINE
  5
412
330
1F
100
AcDbEntity
  8
OBRYS
100
AcDbLine
 10
119.2861492439093
 20
72.18245830691859
 30
0.0
 11
119.1296492439093
 21
71.49555930691858
 31
0.0
  0
LINE
  5
413
330
1F
100
AcDbEntity
  8
OBRYS
100
AcDbLine
 10
119.1029492439093
 20
71.25815930691857
 30
0.0
 11
119.1029492439093
 21
60.97657530691859
 31
0.0
  0
LINE
  5
414
330
1F
100
AcDbEntity
  8
OBRYS
100
AcDbLine
 10
119.1288492439093
 20
60.7387753069186
 30
0.0
 11
119.2863492439093
 21
60.02547630691859
 31
0.0
  0
LINE
  5
415
330
1F
100
AcDbEntity
  8
OBRYS
100
AcDbLine
 10
119.2959492439093
 20
59.98207630691857
 30
0.0
 11
119.2929492439092
 21
59.44727730691858
 31
0.0
  0
LINE
  5
416
330
1F
100
AcDbEntity
  8
OBRYS
100
AcDbLine
 10
119.2929492439092
 20
59.44727730691858
 30
0.0
 11
119.2693492439093
 21
59.39027730691859
 31
0.0
  0
LINE
  5
417
330
1F
100
AcDbEntity
  8
OBRYS
100
AcDbLine
 10
119.2693492439093
 20
59.39027730691859
 30
0.0
 11
118.5257492439092
 21
58.64667830691857
 31
0.0
  0
LINE
  5
418
330
1F
100
AcDbEntity
  8
OBRYS
100
AcDbLine
 10
118.5257492439092
 20
58.64667830691857
 30
0.0
 11
118.4687492439093
 21
58.62307830691859
 31
0.0
  0
LINE
  5
419
330
1F
100
AcDbEntity
  8
OBRYS
100
AcDbLine
 10
118.4687492439093
 20
58.62307830691859
 30
0.0
 11
117.4449492439093
 21
58.62307830691859
 31
0.0
  0
LINE
  5
41A
330
1F
100
AcDbEntity
  8
OBRYS
100
AcDbLine
 10
117.3333492439093
 20
58.66347830691859
 30
0.0
 11
116.5168492439093
 21
59.34387730691859
 31
0.0
  0
LINE
  5
41B
330
1F
100
AcDbEntity
  8
OBRYS
100
AcDbLine
 10
116.4429492439093
 20
59.50167730691859
 30
0.0
 11
116.4429492439093
 21
72.15562830691857
 31
0.0
  0
LINE
  5
41C
330
1F
100
AcDbEntity
  8
OBRYS
100
AcDbLine
 10
118.5257492439092
 20
58.64667830691857
 30
0.0
 11
118.5257492439092
 21
58.6466473069186
 31
0.0
  0
LINE
  5
41D
330
1F
100
AcDbEntity
  8
OBRYS
100
AcDbLine
 10
123.6579492439093
 20
72.2821393069186
 30
0.0
 11
123.6579492439093
 21
59.46227730691859
 31
0.0
  0
LINE
  5
41E
330
1F
100
AcDbEntity
  8
OBRYS
100
AcDbLine
 10
123.6579492439093
 20
59.46227730691859
 30
0.0
 11
123.6343492439093
 21
59.40527730691858
 31
0.0
  0
LINE
  5
41F
330
1F
100
AcDbEntity
  8
OBRYS
100
AcDbLine
 10
123.6343492439093
 20
59.40527730691858
 30
0.0
 11
122.8907492439093
 21
58.66167830691859
 31
0.0
  0
LINE
  5
420
330
1F
100
AcDbEntity
  8
OBRYS
100
AcDbLine
 10
122.8907492439093
 20
58.66167830691859
 30
0.0
 11
122.8337492439093
 21
58.63807830691857
 31
0.0
  0
LINE
  5
421
330
1F
100
AcDbEntity
  8
OBRYS
100
AcDbLine
 10
120.7929492439092
 20
59.43917730691859
 30
0.0
 11
120.7929492439092
 21
60.05247630691858
 31
0.0
  0
LINE
  5
422
330
1F
100
AcDbEntity
  8
OBRYS
100
AcDbLine
 10
120.7997492439092
 20
60.11277630691859
 30
0.0
 11
120.9482492439093
 21
60.76457530691857
 31
0.0
  0
LINE
  5
423
330
1F
100
AcDbEntity
  8
OBRYS
100
AcDbLine
 10
120.9749492439093
 20
61.00197530691858
 30
0.0
 11
120.9749492439093
 21
71.28355930691859
 31
0.0
  0
LINE
  5
424
330
1F
100
AcDbEntity
  8
OBRYS
100
AcDbLine
 10
120.9490492439093
 20
71.52135930691858
 30
0.0
 11
120.7921662439093
 21
72.2318073069186
 31
0.0
  0
LINE
  5
425
330
1F
100
AcDbEntity
  8
OBRYS
100
AcDbLine
 10
122.8337492439093
 20
58.63807830691857
 30
0.0
 11
122.8337492439093
 21
58.63804730691859
 31
0.0
  0
LINE
  5
426
330
1F
100
AcDbEntity
  8
OBRYS
100
AcDbLine
 10
121.8147492439093
 20
58.63804730691859
 30
0.0
 11
122.8337492439093
 21
58.63804730691859
 31
0.0
  0
LINE
  5
427
330
1F
100
AcDbEntity
  8
OBRYS
100
AcDbLine
 10
122.8907492439093
 20
58.66167830691859
 30
0.0
 11
122.8907492439093
 21
58.66164730691858
 31
0.0
  0
LINE
  5
428
330
1F
100
AcDbEntity
  8
OBRYS
100
AcDbLine
 10
117.3333492439093
 20
58.66347830691859
 30
0.0
 11
117.3333492439093
 21
58.66344730691858
 31
0.0
  0
LINE
  5
429
330
1F
100
AcDbEntity
  8
OBRYS
100
AcDbLine
 10
119.2693492439093
 20
59.39027730691859
 30
0.0
 11
119.2693492439093
 21
59.39024630691858
 31
0.0
  0
LINE
  5
42A
330
1F
100
AcDbEntity
  8
OBRYS
100
AcDbLine
 10
118.5257492439092
 20
58.6466473069186
 30
0.0
 11
119.2693492439093
 21
59.39024630691858
 31
0.0
  0
LINE
  5
42B
330
1F
100
AcDbEntity
  8
OBRYS
100
AcDbLine
 10
123.6343492439093
 20
59.40527730691858
 30
0.0
 11
123.6343492439093
 21
59.40524630691857
 31
0.0
  0
LINE
  5
42C
330
1F
100
AcDbEntity
  8
OBRYS
100
AcDbLine
 10
122.8907492439093
 20
58.66164730691858
 30
0.0
 11
123.6343492439093
 21
59.40524630691857
 31
0.0
  0
LINE
  5
42D
330
1F
100
AcDbEntity
  8
OBRYS
100
AcDbLine
 10
116.5168492439093
 20
59.34384630691858
 30
0.0
 11
117.3333492439093
 21
58.66344730691858
 31
0.0
  0
LINE
  5
42E
330
1F
100
AcDbEntity
  8
OBRYS
100
AcDbLine
 10
120.8713492439093
 20
59.28437730691857
 30
0.0
 11
121.7017492439093
 21
58.67504730691857
 31
0.0
  0
LINE
  5
42F
330
1F
100
AcDbEntity
  8
OBRYS
100
AcDbLine
 10
119.2929492439092
 20
59.44727730691858
 30
0.0
 11
119.2929492439092
 21
59.44724630691857
 31
0.0
  0
LINE
  5
430
330
1F
100
AcDbEntity
  8
OBRYS
100
AcDbLine
 10
119.2693492439093
 20
59.39024630691858
 30
0.0
 11
119.2929492439092
 21
59.44724630691857
 31
0.0
  0
LINE
  5
431
330
1F
100
AcDbEntity
  8
OBRYS
100
AcDbLine
 10
123.6579492439093
 20
59.46227730691859
 30
0.0
 11
123.6579492439093
 21
59.46224630691859
 31
0.0
  0
LINE
  5
432
330
1F
100
AcDbEntity
  8
OBRYS
100
AcDbLine
 10
123.6343492439093
 20
59.40524630691857
 30
0.0
 11
123.6579492439093
 21
59.46224630691859
 31
0.0
  0
LINE
  5
433
330
1F
100
AcDbEntity
  8
OBRYS
100
AcDbLine
 10
119.2959492439093
 20
59.98207630691857
 30
0.0
 11
119.2959492439093
 21
59.98204530691859
 31
0.0
  0
LINE
  5
434
330
1F
100
AcDbEntity
  8
OBRYS
100
AcDbLine
 10
119.4247492439092
 20
59.10635230691858
 30
0.0
 11
119.4247492439092
 21
59.10844630691858
 31
0.0
  0
LINE
  5
435
330
1F
100
AcDbEntity
  8
OBRYS
100
AcDbLine
 10
118.4247492439092
 20
58.10635330691858
 30
0.0
 11
119.4247492439092
 21
59.10635230691858
 31
0.0
  0
LINE
  5
436
330
1F
100
AcDbEntity
  8
OBRYS
100
AcDbLine
 10
117.2747492439093
 20
58.10635330691858
 30
0.0
 11
118.4247492439092
 21
58.10635330691858
 31
0.0
  0
LINE
  5
437
330
1F
100
AcDbEntity
  8
OBRYS
100
AcDbLine
 10
121.6247492439093
 20
58.10635330691858
 30
0.0
 11
122.7747492439093
 21
58.10635330691858
 31
0.0
  0
LINE
  5
438
330
1F
100
AcDbEntity
  8
OBRYS
100
AcDbLine
 10
116.2747492439093
 20
59.10635230691858
 30
0.0
 11
117.2747492439093
 21
58.10635330691858
 31
0.0
  0
LINE
  5
439
330
1F
100
AcDbEntity
  8
OBRYS
100
AcDbLine
 10
116.2747492439093
 20
59.10635230691858
 30
0.0
 11
116.2747492439093
 21
59.10844630691858
 31
0.0
  0
LINE
  5
43A
330
1F
100
AcDbEntity
  8
OBRYS
100
AcDbLine
 10
123.7747492439093
 20
59.10635230691858
 30
0.0
 11
123.7747492439093
 21
59.10844630691858
 31
0.0
  0
LINE
  5
43B
330
1F
100
AcDbEntity
  8
OBRYS
100
AcDbLine
 10
122.7747492439093
 20
58.10635330691858
 30
0.0
 11
123.7747492439093
 21
59.10635230691858
 31
0.0
  0
LINE
  5
43C
330
1F
100
AcDbEntity
  8
OBRYS
100
AcDbLine
 10
120.6247492439093
 20
59.10635230691858
 30
0.0
 11
121.6247492439093
 21
58.10635330691858
 31
0.0
  0
LINE
  5
43D
330
1F
100
AcDbEntity
  8
OBRYS
100
AcDbLine
 10
120.6247492439093
 20
59.10635230691858
 30
0.0
 11
120.6247492439093
 21
59.10844630691858
 31
0.0
  0
LINE
  5
43E
330
1F
100
AcDbEntity
  8
OBRYS
100
AcDbLine
 10
119.2861492439093
 20
72.18242630691859
 30
0.0
 11
119.2929492439092
 21
72.19882630691859
 31
0.0
  0
LINE
  5
43F
330
1F
100
AcDbEntity
  8
OBRYS
100
AcDbLine
 10
116.2747492439093
 20
64.90323730691858
 30
0.0
 11
116.2747492439093
 21
59.10844630691858
 31
0.0
  0
LINE
  5
440
330
1F
100
AcDbEntity
  8
OBRYS
100
AcDbLine
 10
116.2747492439093
 20
72.15344430691857
 30
0.0
 11
116.2747492439093
 21
67.31363430691857
 31
0.0
  0
LINE
  5
441
330
1F
100
AcDbEntity
  8
OBRYS
100
AcDbLine
 10
123.7747492439093
 20
67.31363430691857
 30
0.0
 11
123.7747492439093
 21
72.28421130691859
 31
0.0
  0
LINE
  5
442
330
1F
100
AcDbEntity
  8
OBRYS
100
AcDbLine
 10
123.7747492439093
 20
59.10844630691858
 30
0.0
 11
123.7747492439093
 21
64.90323730691858
 31
0.0
  0
LINE
  5
443
330
1F
100
AcDbEntity
  8
OBRYS
100
AcDbLine
 10
120.6247492439093
 20
59.98084530691858
 30
0.0
 11
120.6247492439093
 21
59.10844630691858
 31
0.0
  0
LINE
  5
444
330
1F
100
AcDbEntity
  8
OBRYS
100
AcDbLine
 10
120.8247492439093
 20
70.90842830691858
 30
0.0
 11
120.8247492439093
 21
61.30844330691858
 31
0.0
  0
LINE
  5
445
330
1F
100
AcDbEntity
  8
OBRYS
100
AcDbLine
 10
119.2247492439093
 20
61.30844330691858
 30
0.0
 11
119.2247492439093
 21
70.90842830691858
 31
0.0
  0
LINE
  5
446
330
1F
100
AcDbEntity
  8
OBRYS
100
AcDbLine
 10
119.4247492439092
 20
59.10844630691858
 30
0.0
 11
119.4247492439092
 21
59.98084530691858
 31
0.0
  0
LINE
  5
447
330
1F
100
AcDbEntity
  8
OBRYS
100
AcDbLine
 10
119.2861492439093
 20
72.18245830691859
 30
0.0
 11
119.2861492439093
 21
72.18242630691859
 31
0.0
  0
LINE
  5
448
330
1F
100
AcDbEntity
  8
OBRYS
100
AcDbLine
 10
119.2929492439092
 20
72.1988583069186
 30
0.0
 11
119.2929492439092
 21
72.19882630691859
 31
0.0
  0
LINE
  5
449
330
1F
100
AcDbEntity
  8
OBRYS
100
AcDbLine
 10
116.1969492439092
 20
65.16894330691858
 30
0.0
 11
116.1969492439092
 21
65.17103730691858
 31
0.0
  0
LINE
  5
44A
330
1F
100
AcDbEntity
  8
OBRYS
100
AcDbLine
 10
123.8525492439093
 20
65.16894330691858
 30
0.0
 11
123.8525492439093
 21
65.17103730691858
 31
0.0
  0
LINE
  5
44B
330
1F
100
AcDbEntity
  8
OBRYS
100
AcDbLine
 10
124.1247552439092
 20
66.10629130691859
 30
0.0
 11
124.1247552439092
 21
66.10838530691859
 31
0.0
  0
LINE
  5
44C
330
1F
100
AcDbEntity
  8
OBRYS
100
AcDbLine
 10
115.9247432439093
 20
66.10838530691859
 30
0.0
 11
115.9247432439093
 21
66.10629130691859
 31
0.0
  0
LINE
  5
44D
330
1F
100
AcDbEntity
  8
OBRYS
100
AcDbLine
 10
119.4025492439092
 20
72.08653230691857
 30
0.0
 11
119.4025492439092
 21
72.08862630691857
 31
0.0
  0
LINE
  5
44E
330
1F
100
AcDbEntity
  8
OBRYS
100
AcDbLine
 10
117.6372862439092
 20
78.92336430691859
 30
0.0
 11
122.4096062439093
 21
78.92336430691859
 31
0.0
  0
LINE
  5
44F
330
1F
100
AcDbEntity
  8
OBRYS
100
AcDbLine
 10
121.1170452439092
 20
111.9939143069186
 30
0.0
 11
121.1170452439092
 21
111.9939143069186
 31
0.0
  0
LINE
  5
450
330
1F
100
AcDbEntity
  8
OBRYS
100
AcDbLine
 10
118.9318852439092
 20
111.9939143069186
 30
0.0
 11
118.9318852439092
 21
111.9939143069186
 31
0.0
  0
LINE
  5
452
330
1F
100
AcDbEntity
  8
OBRYS
100
AcDbLine
 10
115.3747492439093
 20
114.7013343069186
 30
0.0
 11
116.2541082439093
 21
114.7017703069186
 31
0.0
  0
LINE
  5
454
330
1F
100
AcDbEntity
  8
OBRYS
100
AcDbLine
 10
123.795419134593
 20
114.7050809276726
 30
0.0
 11
124.7247492439093
 21
114.7013343069186
 31
0.0
  0
LINE
  5
463
330
1F
100
AcDbEntity
  8
OBRYS
100
AcDbLine
 10
123.7953902439093
 20
114.7017703069186
 30
0.0
 11
123.7993172439093
 21
115.1517703069186
 31
0.0
  0
LINE
  5
464
330
1F
100
AcDbEntity
  8
OBRYS
100
AcDbLine
 10
116.2501812439093
 20
115.1517703069186
 30
0.0
 11
116.2541082439093
 21
114.7017703069186
 31
0.0
  0
ARC
  5
465
330
1F
100
AcDbEntity
  8
OBRYS
100
AcDbCircle
 10
80.51970424390926
 20
77.54606030691858
 30
0.0
 40
0.5
100
AcDbArc
 50
270.0
 51
0.0
  0
ARC
  5
466
330
1F
100
AcDbEntity
  8
OBRYS
100
AcDbCircle
 10
71.61443024390925
 20
72.64606030691857
 30
0.0
 40
0.5
100
AcDbArc
 50
180.0
 51
270.0
  0
ARC
  5
467
330
1F
100
AcDbEntity
  8
OBRYS
100
AcDbCircle
 10
63.91970424390925
 20
114.7013343069186
 30
0.0
 40
0.5
100
AcDbArc
 50
90.0
 51
180.0
  0
ARC
  5
468
330
1F
100
AcDbEntity
  8
OBRYS
100
AcDbCircle
 10
80.01970424390926
 20
114.7013343069186
 30
0.0
 40
0.5
100
AcDbArc
 50
0.0
 51
90.0
  0
ARC
  5
469
330
1F
100
AcDbEntity
  8
OBRYS
100
AcDbCircle
 10
63.91970424390925
 20
84.74699030691858
 30
0.0
 40
0.5
100
AcDbArc
 50
180.0
 51
269.5000000000003
  0
ARC
  5
46A
330
1F
100
AcDbEntity
  8
OBRYS
100
AcDbCircle
 10
-80.61970424390925
 20
104.1513343069186
 30
0.0
 40
0.4
210
0.0
220
0.0
230
-1.0
100
AcDbArc
 50
90.0
 51
180.0
  0
ARC
  5
46B
330
1F
100
AcDbEntity
  8
OBRYS
100
AcDbCircle
 10
-63.31970424390926
 20
100.6513343069186
 30
0.0
 40
0.1
210
0.0
220
0.0
230
-1.0
100
AcDbArc
 50
90.0
 51
180.0
  0
ARC
  5
46C
330
1F
100
AcDbEntity
  8
OBRYS
100
AcDbCircle
 10
-80.61970424390925
 20
109.0513343069186
 30
0.0
 40
0.1
210
0.0
220
0.0
230
-1.0
100
AcDbArc
 50
0.0
 51
90.0
  0
ARC
  5
46D
330
1F
100
AcDbEntity
  8
OBRYS
100
AcDbCircle
 10
-63.31970424390926
 20
106.2513343069186
 30
0.0
 40
0.1
210
0.0
220
0.0
230
-1.0
100
AcDbArc
 50
90.0
 51
180.0
  0
ARC
  5
46E
330
1F
100
AcDbEntity
  8
OBRYS
100
AcDbCircle
 10
-80.61970424390925
 20
103.4513343069186
 30
0.0
 40
0.1
210
0.0
220
0.0
230
-1.0
100
AcDbArc
 50
0.0
 51
90.0
  0
ARC
  5
46F
330
1F
100
AcDbEntity
  8
OBRYS
100
AcDbCircle
 10
-63.31970424390926
 20
101.1513343069186
 30
0.0
 40
0.4
210
0.0
220
0.0
230
-1.0
100
AcDbArc
 50
270.0
 51
0.0
  0
ARC
  5
470
330
1F
100
AcDbEntity
  8
OBRYS
100
AcDbCircle
 10
-63.31970424390926
 20
106.7513343069186
 30
0.0
 40
0.4
210
0.0
220
0.0
230
-1.0
100
AcDbArc
 50
270.0
 51
0.0
  0
ARC
  5
471
330
1F
100
AcDbEntity
  8
OBRYS
100
AcDbCircle
 10
-63.31970424390926
 20
103.9513343069186
 30
0.0
 40
0.4
210
0.0
220
0.0
230
-1.0
100
AcDbArc
 50
270.0
 51
0.0
  0
ARC
  5
472
330
1F
100
AcDbEntity
  8
OBRYS
100
AcDbCircle
 10
-80.61970424390925
 20
106.9513343069186
 30
0.0
 40
0.4
210
0.0
220
0.0
230
-1.0
100
AcDbArc
 50
90.0
 51
180.0
  0
ARC
  5
473
330
1F
100
AcDbEntity
  8
OBRYS
100
AcDbCircle
 10
-80.61970424390925
 20
113.3513343069186
 30
0.0
 40
0.4
210
0.0
220
0.0
230
-1.0
100
AcDbArc
 50
180.0
 51
270.0
  0
ARC
  5
474
330
1F
100
AcDbEntity
  8
OBRYS
100
AcDbCircle
 10
-80.61970424390925
 20
109.5513343069186
 30
0.0
 40
0.4
210
0.0
220
0.0
230
-1.0
100
AcDbArc
 50
180.0
 51
270.0
  0
ARC
  5
475
330
1F
100
AcDbEntity
  8
OBRYS
100
AcDbCircle
 10
-63.31970424390926
 20
109.5513343069186
 30
0.0
 40
0.4
210
0.0
220
0.0
230
-1.0
100
AcDbArc
 50
270.0
 51
0.0
  0
ARC
  5
476
330
1F
100
AcDbEntity
  8
OBRYS
100
AcDbCircle
 10
-63.31970424390926
 20
113.5513343069186
 30
0.0
 40
0.4
210
0.0
220
0.0
230
-1.0
100
AcDbArc
 50
0.0
 51
90.0
  0
ARC
  5
477
330
1F
100
AcDbEntity
  8
OBRYS
100
AcDbCircle
 10
-63.31970424390926
 20
106.9513343069186
 30
0.0
 40
0.4
210
0.0
220
0.0
230
-1.0
100
AcDbArc
 50
0.0
 51
90.0
  0
ARC
  5
478
330
1F
100
AcDbEntity
  8
OBRYS
100
AcDbCircle
 10
75.12497824390925
 20
72.64606030691857
 30
0.0
 40
0.5
100
AcDbArc
 50
270.0
 51
0.0
  0
ARC
  5
479
330
1F
100
AcDbEntity
  8
OBRYS
100
AcDbCircle
 10
69.15567424390926
 20
77.54606030691858
 30
0.0
 40
0.5
100
AcDbArc
 50
180.5000000000013
 51
270.0
  0
ARC
  5
47A
330
1F
100
AcDbEntity
  8
OBRYS
100
AcDbCircle
 10
80.51970424390926
 20
78.7013343069186
 30
0.0
 40
0.5
100
AcDbArc
 50
0.0
 51
90.0
  0
ARC
  5
47B
330
1F
100
AcDbEntity
  8
OBRYS
100
AcDbCircle
 10
64.71970424390926
 20
78.9813343069186
 30
0.0
 40
0.5
100
AcDbArc
 50
180.0
 51
270.0
  0
ARC
  5
47C
330
1F
100
AcDbEntity
  8
OBRYS
100
AcDbCircle
 10
-80.61970424390925
 20
100.6513343069186
 30
0.0
 40
0.1
210
0.0
220
0.0
230
-1.0
100
AcDbArc
 50
0.0
 51
90.0
  0
ARC
  5
47D
330
1F
100
AcDbEntity
  8
OBRYS
100
AcDbCircle
 10
-80.61970424390925
 20
107.4513343069186
 30
0.0
 40
0.1
210
0.0
220
0.0
230
-1.0
100
AcDbArc
 50
270.0
 51
0.0
  0
ARC
  5
47E
330
1F
100
AcDbEntity
  8
OBRYS
100
AcDbCircle
 10
-63.31970424390926
 20
104.6513343069186
 30
0.0
 40
0.1
210
0.0
220
0.0
230
-1.0
100
AcDbArc
 50
180.0
 51
270.0
  0
ARC
  5
47F
330
1F
100
AcDbEntity
  8
OBRYS
100
AcDbCircle
 10
-80.61970424390925
 20
106.2513343069186
 30
0.0
 40
0.1
210
0.0
220
0.0
230
-1.0
100
AcDbArc
 50
0.0
 51
90.0
  0
ARC
  5
480
330
1F
100
AcDbEntity
  8
OBRYS
100
AcDbCircle
 10
63.31970424390926
 20
110.2513343069186
 30
0.0
 40
0.1
100
AcDbArc
 50
270.0
 51
0.0
  0
ARC
  5
481
330
1F
100
AcDbEntity
  8
OBRYS
100
AcDbCircle
 10
-80.61970424390925
 20
112.8513343069186
 30
0.0
 40
0.1
210
0.0
220
0.0
230
-1.0
100
AcDbArc
 50
0.0
 51
90.0
  0
ARC
  5
482
330
1F
100
AcDbEntity
  8
OBRYS
100
AcDbCircle
 10
63.31970424390926
 20
112.8513343069186
 30
0.0
 40
0.1
100
AcDbArc
 50
0.0
 51
90.0
  0
ARC
  5
483
330
1F
100
AcDbEntity
  8
OBRYS
100
AcDbCircle
 10
-63.31970424390926
 20
103.4513343069186
 30
0.0
 40
0.1
210
0.0
220
0.0
230
-1.0
100
AcDbArc
 50
90.0
 51
180.0
  0
ARC
  5
484
330
1F
100
AcDbEntity
  8
OBRYS
100
AcDbCircle
 10
-63.31970424390926
 20
101.8513343069186
 30
0.0
 40
0.1
210
0.0
220
0.0
230
-1.0
100
AcDbArc
 50
180.0
 51
270.0
  0
ARC
  5
485
330
1F
100
AcDbEntity
  8
OBRYS
100
AcDbCircle
 10
-80.61970424390925
 20
101.8513343069186
 30
0.0
 40
0.1
210
0.0
220
0.0
230
-1.0
100
AcDbArc
 50
270.0
 51
0.0
  0
ARC
  5
486
330
1F
100
AcDbEntity
  8
OBRYS
100
AcDbCircle
 10
-80.61970424390925
 20
104.6513343069186
 30
0.0
 40
0.1
210
0.0
220
0.0
230
-1.0
100
AcDbArc
 50
270.0
 51
0.0
  0
ARC
  5
487
330
1F
100
AcDbEntity
  8
OBRYS
100
AcDbCircle
 10
-63.31970424390926
 20
107.4513343069186
 30
0.0
 40
0.1
210
0.0
220
0.0
230
-1.0
100
AcDbArc
 50
180.0
 51
270.0
  0
ARC
  5
488
330
1F
100
AcDbEntity
  8
OBRYS
100
AcDbCircle
 10
80.61970424390925
 20
110.2513343069186
 30
0.0
 40
0.1
100
AcDbArc
 50
180.0
 51
270.0
  0
ARC
  5
489
330
1F
100
AcDbEntity
  8
OBRYS
100
AcDbCircle
 10
-80.61970424390925
 20
101.1513343069186
 30
0.0
 40
0.4
210
0.0
220
0.0
230
-1.0
100
AcDbArc
 50
180.0
 51
270.0
  0
ARC
  5
48A
330
1F
100
AcDbEntity
  8
OBRYS
100
AcDbCircle
 10
-80.61970424390925
 20
113.5513343069186
 30
0.0
 40
0.4
210
0.0
220
0.0
230
-1.0
100
AcDbArc
 50
90.0
 51
180.0
  0
ARC
  5
48B
330
1F
100
AcDbEntity
  8
OBRYS
100
AcDbCircle
 10
-63.31970424390926
 20
113.3513343069186
 30
0.0
 40
0.4
210
0.0
220
0.0
230
-1.0
100
AcDbArc
 50
270.0
 51
0.0
  0
ARC
  5
48C
330
1F
100
AcDbEntity
  8
OBRYS
100
AcDbCircle
 10
-80.61970424390925
 20
101.3513343069186
 30
0.0
 40
0.4
210
0.0
220
0.0
230
-1.0
100
AcDbArc
 50
90.0
 51
180.0
  0
ARC
  5
48D
330
1F
100
AcDbEntity
  8
OBRYS
100
AcDbCircle
 10
-63.31970424390926
 20
101.3513343069186
 30
0.0
 40
0.4
210
0.0
220
0.0
230
-1.0
100
AcDbArc
 50
0.0
 51
90.0
  0
ARC
  5
48E
330
1F
100
AcDbEntity
  8
OBRYS
100
AcDbCircle
 10
-80.61970424390925
 20
106.7513343069186
 30
0.0
 40
0.4
210
0.0
220
0.0
230
-1.0
100
AcDbArc
 50
180.0
 51
270.0
  0
ARC
  5
48F
330
1F
100
AcDbEntity
  8
OBRYS
100
AcDbCircle
 10
-63.31970424390926
 20
109.7513343069186
 30
0.0
 40
0.4
210
0.0
220
0.0
230
-1.0
100
AcDbArc
 50
0.0
 51
90.0
  0
ARC
  5
490
330
1F
100
AcDbEntity
  8
OBRYS
100
AcDbCircle
 10
-80.61970424390925
 20
103.9513343069186
 30
0.0
 40
0.4
210
0.0
220
0.0
230
-1.0
100
AcDbArc
 50
180.0
 51
270.0
  0
ARC
  5
491
330
1F
100
AcDbEntity
  8
OBRYS
100
AcDbCircle
 10
-80.61970424390925
 20
109.7513343069186
 30
0.0
 40
0.4
210
0.0
220
0.0
230
-1.0
100
AcDbArc
 50
90.0
 51
180.0
  0
ARC
  5
492
330
1F
100
AcDbEntity
  8
OBRYS
100
AcDbCircle
 10
-63.31970424390926
 20
104.1513343069186
 30
0.0
 40
0.4
210
0.0
220
0.0
230
-1.0
100
AcDbArc
 50
0.0
 51
90.0
  0
ARC
  5
493
330
1F
100
AcDbEntity
  8
OBRYS
100
AcDbCircle
 10
-63.31970424390926
 20
109.0513343069186
 30
0.0
 40
0.1
210
0.0
220
0.0
230
-1.0
100
AcDbArc
 50
90.0
 51
180.0
  0
ARC
  5
494
330
1F
100
AcDbEntity
  8
OBRYS
100
AcDbCircle
 10
-123.6293842439093
 20
115.1513343069186
 30
0.0
 40
0.05
210
0.0
220
0.0
230
-1.0
100
AcDbArc
 50
90.0
 51
178.9999999999916
  0
ARC
  5
495
330
1F
100
AcDbEntity
  8
OBRYS
100
AcDbCircle
 10
116.4195462439093
 20
115.1513343069186
 30
0.0
 40
0.05
100
AcDbArc
 50
90.0
 51
178.9999999999916
  0
ARC
  5
496
330
1F
100
AcDbEntity
  8
OBRYS
100
AcDbCircle
 10
-123.6747492439092
 20
107.2513343069186
 30
0.0
 40
0.1
210
0.0
220
0.0
230
-1.0
100
AcDbArc
 50
90.0
 51
180.0
  0
ARC
  5
497
330
1F
100
AcDbEntity
  8
OBRYS
100
AcDbCircle
 10
123.6747492439092
 20
103.6513343069186
 30
0.0
 40
0.1
100
AcDbArc
 50
270.0
 51
0.0
  0
ARC
  5
498
330
1F
100
AcDbEntity
  8
OBRYS
100
AcDbCircle
 10
-123.6747492439092
 20
104.4513343069186
 30
0.0
 40
0.1
210
0.0
220
0.0
230
-1.0
100
AcDbArc
 50
90.0
 51
180.0
  0
ARC
  5
499
330
1F
100
AcDbEntity
  8
OBRYS
100
AcDbCircle
 10
123.6747492439092
 20
100.8513343069186
 30
0.0
 40
0.1
100
AcDbArc
 50
270.0
 51
0.0
  0
ARC
  5
49A
330
1F
100
AcDbEntity
  8
OBRYS
100
AcDbCircle
 10
-123.6747492439092
 20
101.6513343069186
 30
0.0
 40
0.1
210
0.0
220
0.0
230
-1.0
100
AcDbArc
 50
90.0
 51
180.0
  0
ARC
  5
49B
330
1F
100
AcDbEntity
  8
OBRYS
100
AcDbCircle
 10
116.3747492439093
 20
101.6513343069186
 30
0.0
 40
0.1
100
AcDbArc
 50
90.0
 51
180.0
  0
ARC
  5
49C
330
1F
100
AcDbEntity
  8
OBRYS
100
AcDbCircle
 10
-116.3747492439093
 20
100.8513343069186
 30
0.0
 40
0.1
210
0.0
220
0.0
230
-1.0
100
AcDbArc
 50
270.0
 51
0.0
  0
ARC
  5
49D
330
1F
100
AcDbEntity
  8
OBRYS
100
AcDbCircle
 10
116.3747492439093
 20
104.4513343069186
 30
0.0
 40
0.1
100
AcDbArc
 50
90.0
 51
180.0
  0
ARC
  5
49E
330
1F
100
AcDbEntity
  8
OBRYS
100
AcDbCircle
 10
-116.3747492439093
 20
103.6513343069186
 30
0.0
 40
0.1
210
0.0
220
0.0
230
-1.0
100
AcDbArc
 50
270.0
 51
0.0
  0
ARC
  5
49F
330
1F
100
AcDbEntity
  8
OBRYS
100
AcDbCircle
 10
116.3747492439093
 20
107.2513343069186
 30
0.0
 40
0.1
100
AcDbArc
 50
90.0
 51
180.0
  0
ARC
  5
4A0
330
1F
100
AcDbEntity
  8
OBRYS
100
AcDbCircle
 10
-116.3747492439093
 20
106.4513343069186
 30
0.0
 40
0.1
210
0.0
220
0.0
230
-1.0
100
AcDbArc
 50
270.0
 51
0.0
  0
ARC
  5
4A1
330
1F
100
AcDbEntity
  8
OBRYS
100
AcDbCircle
 10
116.3747492439093
 20
110.0513343069186
 30
0.0
 40
0.1
100
AcDbArc
 50
90.0
 51
180.0
  0
ARC
  5
4A2
330
1F
100
AcDbEntity
  8
OBRYS
100
AcDbCircle
 10
-116.3747492439093
 20
109.2513343069186
 30
0.0
 40
0.1
210
0.0
220
0.0
230
-1.0
100
AcDbArc
 50
270.0
 51
0.0
  0
ARC
  5
4A3
330
1F
100
AcDbEntity
  8
OBRYS
100
AcDbCircle
 10
116.3747492439093
 20
113.8513343069186
 30
0.0
 40
0.1
100
AcDbArc
 50
90.0
 51
180.0
  0
ARC
  5
4A4
330
1F
100
AcDbEntity
  8
OBRYS
100
AcDbCircle
 10
123.6747492439092
 20
106.4513343069186
 30
0.0
 40
0.1
100
AcDbArc
 50
270.0
 51
0.0
  0
ARC
  5
4A5
330
1F
100
AcDbEntity
  8
OBRYS
100
AcDbCircle
 10
-116.3747492439093
 20
113.0513343069186
 30
0.0
 40
0.1
210
0.0
220
0.0
230
-1.0
100
AcDbArc
 50
270.0
 51
0.0
  0
ARC
  5
4A6
330
1F
100
AcDbEntity
  8
OBRYS
100
AcDbCircle
 10
123.6747492439092
 20
113.8513343069186
 30
0.0
 40
0.1
100
AcDbArc
 50
0.0
 51
90.0
  0
ARC
  5
4A7
330
1F
100
AcDbEntity
  8
OBRYS
100
AcDbCircle
 10
123.6747492439092
 20
109.2513343069186
 30
0.0
 40
0.1
100
AcDbArc
 50
270.0
 51
0.0
  0
ARC
  5
4A8
330
1F
100
AcDbEntity
  8
OBRYS
100
AcDbCircle
 10
-123.6747492439092
 20
110.0513343069186
 30
0.0
 40
0.1
210
0.0
220
0.0
230
-1.0
100
AcDbArc
 50
90.0
 51
180.0
  0
ARC
  5
4A9
330
1F
100
AcDbEntity
  8
OBRYS
100
AcDbCircle
 10
-123.6747492439092
 20
113.0513343069186
 30
0.0
 40
0.1
210
0.0
220
0.0
230
-1.0
100
AcDbArc
 50
180.0
 51
270.0
  0
ARC
  5
4AA
330
1F
100
AcDbEntity
  8
OBRYS
100
AcDbCircle
 10
123.8493152439092
 20
115.1513343069186
 30
0.0
 40
0.05
100
AcDbArc
 50
90.0
 51
179.5000000000019
  0
ARC
  5
4AB
330
1F
100
AcDbEntity
  8
OBRYS
100
AcDbCircle
 10
-124.2247492439093
 20
114.7013343069186
 30
0.0
 40
0.5
210
0.0
220
0.0
230
-1.0
100
AcDbArc
 50
90.0
 51
180.0
  0
ARC
  5
4AC
330
1F
100
AcDbEntity
  8
OBRYS
100
AcDbCircle
 10
-116.2001822439093
 20
115.1513343069186
 30
0.0
 40
0.05
210
0.0
220
0.0
230
-1.0
100
AcDbArc
 50
90.0
 51
179.5000000000019
  0
ARC
  5
4AD
330
1F
100
AcDbEntity
  8
OBRYS
100
AcDbCircle
 10
-115.8747492439093
 20
114.7013343069186
 30
0.0
 40
0.5
210
0.0
220
0.0
230
-1.0
100
AcDbArc
 50
0.0
 51
90.0
  0
ARC
  5
4AE
330
1F
100
AcDbEntity
  8
OBRYS
100
AcDbCircle
 10
124.2247492439093
 20
78.9813343069186
 30
0.0
 40
0.5
100
AcDbArc
 50
270.0
 51
0.0
  0
ARC
  5
4AF
330
1F
100
AcDbEntity
  8
OBRYS
100
AcDbCircle
 10
-115.8747492439093
 20
78.9813343069186
 30
0.0
 40
0.5
210
0.0
220
0.0
230
-1.0
100
AcDbArc
 50
270.0
 51
0.0
  0
ARC
  5
4B0
330
1F
100
AcDbEntity
  8
OBRYS
100
AcDbCircle
 10
-124.2247492439093
 20
77.6918103069186
 30
0.0
 40
0.5
210
0.0
220
0.0
230
-1.0
100
AcDbArc
 50
179.9999960000009
 51
269.0000000000015
  0
ARC
  5
4B1
330
1F
100
AcDbEntity
  8
OBRYS
100
AcDbCircle
 10
115.8747492439093
 20
77.54606030691858
 30
0.0
 40
0.5
100
AcDbArc
 50
179.9999960000009
 51
270.9999999999985
  0
ARC
  5
4B2
330
1F
100
AcDbEntity
  8
OBRYS
100
AcDbCircle
 10
115.8747492439093
 20
72.64606030691857
 30
0.0
 40
0.5
100
AcDbArc
 50
180.0
 51
270.9999999999985
  0
ARC
  5
4B3
330
1F
100
AcDbEntity
  8
OBRYS
100
AcDbCircle
 10
124.2247492439093
 20
72.79181030691859
 30
0.0
 40
0.5
100
AcDbArc
 50
270.9999999999985
 51
0.0
  0
ELLIPSE
  5
4B4
330
1F
100
AcDbEntity
  8
OBRYS
100
AcDbEllipse
 10
69.15439824390926
 20
77.6918103069186
 30
0.0
 11
-0.4999790615176171
 21
-0.004363251168011908
 31
0.0
210
0.0
220
0.0
230
1.0
 40
0.9998480000000002
 41
0.0
 42
1.562078623181759
  0
ELLIPSE
  5
4B5
330
1F
100
AcDbEntity
  8
OBRYS
100
AcDbEllipse
 10
71.76018024390926
 20
72.79181030691859
 30
0.0
 11
-0.353553390593273
 21
0.3535533905932746
 31
0.0
210
0.0
220
0.0
230
1.0
 40
0.999695
 41
0.7855504566450291
 42
2.356042196944794
  0
ELLIPSE
  5
4B6
330
1F
100
AcDbEntity
  8
OBRYS
100
AcDbEllipse
 10
80.51970424390926
 20
77.6918103069186
 30
0.0
 11
-0.5
 21
0.0
 31
0.0
210
0.0
220
0.0
230
1.0
 40
0.999848
 41
1.570796326794897
 42
3.141592653589793
  0
ELLIPSE
  5
4B7
330
1F
100
AcDbEntity
  8
OBRYS
100
AcDbEllipse
 10
74.97922824390926
 20
72.79181030691859
 30
0.0
 11
-0.3535533905932727
 21
-0.3535533905932749
 31
0.0
210
0.0
220
0.0
230
1.0
 40
0.999695
 41
0.785550456645029
 42
2.356042196944764
  0
ELLIPSE
  5
4B8
330
1F
100
AcDbEntity
  8
OBRYS
100
AcDbEllipse
 10
115.8747492439093
 20
84.74699030691858
 30
0.0
 11
0.5
 21
0.0
 31
0.0
210
0.0
220
0.0
230
1.0
 40
0.999962
 41
3.141592653589793
 42
4.712388980384704
  0
ELLIPSE
  5
4B9
330
1F
100
AcDbEntity
  8
OBRYS
100
AcDbEllipse
 10
124.2247492439093
 20
84.74699030691858
 30
0.0
 11
-0.5
 21
0.0
 31
0.0
210
0.0
220
0.0
230
1.0
 40
0.999962
 41
1.570796326794897
 42
3.14159265358979
  0
ELLIPSE
  5
4BF
330
1F
100
AcDbEntity
  8
OBRYS
100
AcDbEllipse
 10
115.7748912439093
 20
64.9032223069186
 30
0.0
 11
0.4998579063102401
 21
0.0
 31
0.0
210
0.0
220
0.0
230
1.0
 40
0.999998
 41
0.0000306666138771
 42
0.5654347148823201
  0
ELLIPSE
  5
4C0
330
1F
100
AcDbEntity
  8
OBRYS
100
AcDbEllipse
 10
117.6747402439093
 20
66.10838530691859
 30
0.0
 11
-1.749997848099173
 21
0.0
 31
0.0
210
0.0
220
0.0
230
1.0
 40
0.999998
 41
5.717932602897531
 42
6.848438011461642
  0
ELLIPSE
  5
4C1
330
1F
100
AcDbEntity
  8
OBRYS
100
AcDbEllipse
 10
115.7747192439093
 20
67.31359930691858
 30
0.0
 11
0.5000300349493784
 21
0.0
 31
0.0
210
0.0
220
0.0
230
1.0
 40
0.999998
 41
5.717850596847266
 42
6.283254645115711
  0
ELLIPSE
  5
4C2
330
1F
100
AcDbEntity
  8
OBRYS
100
AcDbEllipse
 10
124.2747792439093
 20
67.31359930691858
 30
0.0
 11
0.5000300349493835
 21
0.0
 31
0.0
210
0.0
220
0.0
230
1.0
 40
0.999998
 41
3.141523315653671
 42
3.706927363922104
  0
ELLIPSE
  5
4C3
330
1F
100
AcDbEntity
  8
OBRYS
100
AcDbEllipse
 10
122.3747582439093
 20
66.10838530691859
 30
0.0
 11
-1.749997848099173
 21
0.0
 31
0.0
210
0.0
220
0.0
230
1.0
 40
0.999998
 41
2.576339949307737
 42
3.706845357871849
  0
ELLIPSE
  5
4C4
330
1F
100
AcDbEntity
  8
OBRYS
100
AcDbEllipse
 10
124.2746072439093
 20
64.9032223069186
 30
0.0
 11
0.4998579063102345
 21
0.0
 31
0.0
210
0.0
220
0.0
230
1.0
 40
0.999998
 41
2.57615793870747
 42
3.141561986975922
  0
ELLIPSE
  5
4C5
330
1F
100
AcDbEntity
  8
OBRYS
100
AcDbEllipse
 10
121.1247462439093
 20
59.98081230691858
 30
0.0
 11
-0.4999973493168027
 21
0.0
 31
0.0
210
0.0
220
0.0
230
1.0
 40
0.999998
 41
5.984077474740452
 42
6.283119100032822
  0
ELLIPSE
  5
4C6
330
1F
100
AcDbEntity
  8
OBRYS
100
AcDbEllipse
 10
116.8183642439093
 20
61.30842130691858
 30
0.0
 11
4.006384997376701
 21
0.0
 31
0.0
210
0.0
220
0.0
230
1.0
 40
0.9999980000000002
 41
5.984149013645096
 42
6.283190638937462
  0
ELLIPSE
  5
4C7
330
1F
100
AcDbEntity
  8
OBRYS
100
AcDbEllipse
 10
116.8186962439092
 20
70.9084003069186
 30
0.0
 11
4.006053091550947
 21
0.0
 31
0.0
210
0.0
220
0.0
230
1.0
 40
0.999998
 41
0.0000071489130518
 42
0.2990487742054197
  0
ELLIPSE
  5
4C8
330
1F
100
AcDbEntity
  8
OBRYS
100
AcDbEllipse
 10
121.1250782439093
 20
72.23600930691859
 30
0.0
 11
-0.500329254377426
 21
0.0
 31
0.0
210
0.0
220
0.0
230
1.0
 40
0.999998
 41
0.014216970908679
 42
0.2990078543265655
  0
ELLIPSE
  5
4C9
330
1F
100
AcDbEntity
  8
OBRYS
100
AcDbEllipse
 10
118.9244202439093
 20
72.23600930691859
 30
0.0
 11
-0.5003292543774212
 21
0.0
 31
0.0
210
0.0
220
0.0
230
1.0
 40
0.999998
 41
2.842584799263231
 42
3.085449227807427
  0
ELLIPSE
  5
4CA
330
1F
100
AcDbEntity
  8
OBRYS
100
AcDbEllipse
 10
123.2308022439093
 20
70.9084003069186
 30
0.0
 11
4.006053091550966
 21
0.0
 31
0.0
210
0.0
220
0.0
230
1.0
 40
0.999998
 41
2.842543879384375
 42
3.141585504676741
  0
ELLIPSE
  5
4CB
330
1F
100
AcDbEntity
  8
OBRYS
100
AcDbEllipse
 10
123.2311342439093
 20
61.30842130691858
 30
0.0
 11
4.006384997376703
 21
0.0
 31
0.0
210
0.0
220
0.0
230
1.0
 40
0.9999980000000002
 41
3.141587321831917
 42
3.440628947124283
  0
ELLIPSE
  5
4CC
330
1F
100
AcDbEntity
  8
OBRYS
100
AcDbEllipse
 10
118.9247522439093
 20
59.98081230691858
 30
0.0
 11
-0.4999973493168018
 21
0.0
 31
0.0
210
0.0
220
0.0
230
1.0
 40
0.999998
 41
3.141658860736558
 42
3.440700486028923
  0
ELLIPSE
  5
4CD
330
1F
100
AcDbEntity
  8
OBRYS
100
AcDbEllipse
 10
115.7748912439093
 20
64.9011283069186
 30
0.0
 11
0.4998579063102401
 21
0.0
 31
0.0
210
0.0
220
0.0
230
1.0
 40
0.999998
 41
0.0000306666138771
 42
0.5654347148823201
  0
ELLIPSE
  5
4CE
330
1F
100
AcDbEntity
  8
OBRYS
100
AcDbEllipse
 10
124.2746072439093
 20
64.9011283069186
 30
0.0
 11
0.4998579063102345
 21
0.0
 31
0.0
210
0.0
220
0.0
230
1.0
 40
0.999998
 41
2.57615793870747
 42
3.141561986975922
  0
ELLIPSE
  5
4CF
330
1F
100
AcDbEntity
  8
OBRYS
100
AcDbEllipse
 10
122.3747582439093
 20
66.10629130691859
 30
0.0
 11
-1.749997848099173
 21
0.0
 31
0.0
210
0.0
220
0.0
230
1.0
 40
0.999998
 41
2.576339949307737
 42
3.141592847867038
  0
ELLIPSE
  5
4D0
330
1F
100
AcDbEntity
  8
OBRYS
100
AcDbEllipse
 10
117.6747402439093
 20
66.10629130691859
 30
0.0
 11
-1.749997848099173
 21
0.0
 31
0.0
210
0.0
220
0.0
230
1.0
 40
0.999998
 41
6.283185112902343
 42
6.848438011461642
  0
ELLIPSE
  5
4D1
330
1F
100
AcDbEntity
  8
OBRYS
100
AcDbEllipse
 10
118.9244672439092
 20
112.0013323069186
 30
0.0
 11
-0.03535803155654296
 21
0.03535803155654596
 31
0.0
210
0.0
220
0.0
230
-1.0
 40
0.9999239999999999
 41
5.497825219993032
 42
7.068545394366039
  0
ELLIPSE
  5
4D2
330
1F
100
AcDbEntity
  8
OBRYS
100
AcDbEllipse
 10
121.1244632439092
 20
112.0013323069186
 30
0.0
 11
0.03535803155654296
 21
0.03535803155654596
 31
0.0
210
0.0
220
0.0
230
-1.0
 40
0.9999239999999999
 41
5.497825219993125
 42
7.068545394366141
  0
ELLIPSE
  5
4D3
330
1F
100
AcDbEntity
  8
OBRYS
100
AcDbEllipse
 10
118.9244672439092
 20
110.3514603069186
 30
0.0
 11
0.05000190391928686
 21
0.0
 31
0.0
210
0.0
220
0.0
230
-1.0
 40
0.999962
 41
1.570796326794897
 42
3.141592653589793
  0
ELLIPSE
  5
4D4
330
1F
100
AcDbEntity
  8
OBRYS
100
AcDbEllipse
 10
121.1244632439092
 20
110.3514603069186
 30
0.0
 11
-0.05000190391928686
 21
0.0
 31
0.0
210
0.0
220
0.0
230
-1.0
 40
0.999962
 41
3.141592653589793
 42
4.712388980384699
  0
ELLIPSE
  5
4D6
330
1F
100
AcDbEntity
  8
OBRYS
100
AcDbEllipse
 10
122.9134122439092
 20
78.9813343069186
 30
0.0
 11
5.857276822838138E-16
 21
-0.4999999999936419
 31
0.0
210
0.0
220
0.0
230
-1.0
 40
0.005236
 41
4.71238898038469
 42
5.64369874243583
  0
LINE
  5
4D7
330
1F
100
AcDbEntity
  8
OBRYS
100
AcDbLine
 10
72.71436724390925
 20
72.28490930691859
 30
0.0
 11
73.95036824390925
 21
72.2848623069186
 31
0.0
  0
LINE
  5
4D8
330
1F
100
AcDbEntity
  8
OBRYS
100
AcDbLine
 10
80.61970424390925
 20
113.9513343069186
 30
0.0
 11
80.51970424390926
 21
113.9513357957104
 31
0.0
  0
LINE
  5
4D9
330
1F
100
AcDbEntity
  8
OBRYS
100
AcDbLine
 10
63.31970424390926
 20
113.9513343069186
 30
0.0
 11
63.41970424390925
 21
113.9513343069186
 31
0.0
  0
LINE
  5
4DB
330
1F
100
AcDbEntity
  8
OBRYS
100
AcDbLine
 10
115.3747492439093
 20
78.9813343069186
 30
0.0
 11
117.336132040052
 21
78.98129630600057
 31
0.0
  0
LINE
  5
4DC
330
1F
100
AcDbEntity
  8
OBRYS
100
AcDbLine
 10
117.3361706296702
 20
79.48904217355675
 30
0.0
 11
117.6372862439092
 21
78.92336430691859
 31
0.0
  0
LINE
  5
4DD
330
1F
100
AcDbEntity
  8
OBRYS
100
AcDbLine
 10
122.4096062439093
 20
78.92336430691859
 30
0.0
 11
122.7133276818213
 21
79.48945181349853
 31
0.0
  0
ARC
  5
4DE
330
1F
100
AcDbEntity
  8
OBRYS
100
AcDbCircle
 10
123.2133663924309
 20
78.9813343069186
 30
0.0
 40
0.5
100
AcDbArc
 50
180.0043648789714
 51
270.0
  0
ARC
  5
4DF
330
1F
100
AcDbEntity
  8
OBRYS
100
AcDbCircle
 10
116.836132041496
 20
78.9813343069186
 30
0.0
 40
0.5
100
AcDbArc
 50
270.0
 51
359.9956454155566
  0
LINE
  5
4E1
330
1F
100
AcDbEntity
  8
OBRYS
100
AcDbLine
 10
115.3747492439093
 20
84.74699030691858
 30
0.0
 11
115.3747492439093
 21
114.7013343069186
 31
0.0
  0
LINE
  5
4E2
330
1F
100
AcDbEntity
  8
OBRYS
100
AcDbLine
 10
123.7747492439092
 20
101.6513343069186
 30
0.0
 11
123.7747492439092
 21
100.8513343069186
 31
0.0
  0
LINE
  5
4E3
330
1F
100
AcDbEntity
  8
OBRYS
100
AcDbLine
 10
116.2747492439093
 20
100.8513343069186
 30
0.0
 11
116.2747492439093
 21
101.6513343069186
 31
0.0
  0
LINE
  5
4E4
330
1F
100
AcDbEntity
  8
OBRYS
100
AcDbLine
 10
123.7747492439092
 20
104.4513343069186
 30
0.0
 11
123.7747492439092
 21
103.6513343069186
 31
0.0
  0
LINE
  5
4E5
330
1F
100
AcDbEntity
  8
OBRYS
100
AcDbLine
 10
116.2747492439093
 20
103.6513343069186
 30
0.0
 11
116.2747492439093
 21
104.4513343069186
 31
0.0
  0
LINE
  5
4E6
330
1F
100
AcDbEntity
  8
OBRYS
100
AcDbLine
 10
116.2747492439093
 20
106.4513343069186
 30
0.0
 11
116.2747492439093
 21
107.2513343069186
 31
0.0
  0
LINE
  5
4E7
330
1F
100
AcDbEntity
  8
OBRYS
100
AcDbLine
 10
123.7747492439092
 20
107.2513343069186
 30
0.0
 11
123.7747492439092
 21
106.4513343069186
 31
0.0
  0
LINE
  5
4E8
330
1F
100
AcDbEntity
  8
OBRYS
100
AcDbLine
 10
116.2747492439093
 20
109.2513343069186
 30
0.0
 11
116.2747492439093
 21
110.0513343069186
 31
0.0
  0
LINE
  5
4E9
330
1F
100
AcDbEntity
  8
OBRYS
100
AcDbLine
 10
123.7747492439092
 20
110.0513343069186
 30
0.0
 11
123.7747492439092
 21
109.2513343069186
 31
0.0
  0
LINE
  5
4EA
330
1F
100
AcDbEntity
  8
OBRYS
100
AcDbLine
 10
116.2747492439093
 20
113.8513343069186
 30
0.0
 11
116.2747492439093
 21
113.0513343069186
 31
0.0
  0
LINE
  5
4EB
330
1F
100
AcDbEntity
  8
OBRYS
100
AcDbLine
 10
123.7747492439092
 20
113.0513343069186
 30
0.0
 11
123.7747492439092
 21
113.8513343069186
 31
0.0
  0
LINE
  5
4EC
330
1F
100
AcDbEntity
  8
OBRYS
100
AcDbLine
 10
116.2606568178668
 20
113.9513344017775
 30
0.0
 11
116.3747492439093
 21
113.9513343069186
 31
0.0
  0
LINE
  5
4ED
330
1F
100
AcDbEntity
  8
OBRYS
100
AcDbLine
 10
123.7888415523092
 20
113.9513344017775
 30
0.0
 11
123.6747492439092
 21
113.9513343069186
 31
0.0
  0
LINE
  5
4EE
330
1F
100
AcDbEntity
  8
OBRYS
100
AcDbLine
 10
117.3333492439093
 20
58.66344730691858
 30
0.0
 11
117.4449492439093
 21
58.62307830691859
 31
0.0
  0
LINE
  5
4EF
330
1F
100
AcDbEntity
  8
OBRYS
100
AcDbLine
 10
116.4429492439093
 20
59.50167730691859
 30
0.0
 11
116.5168492439093
 21
59.34387730691859
 31
0.0
  0
LINE
  5
4F0
330
1F
100
AcDbEntity
  8
OBRYS
100
AcDbLine
 10
119.2863492439093
 20
60.02547630691859
 30
0.0
 11
119.2959492439093
 21
59.98207630691857
 31
0.0
  0
LINE
  5
4F1
330
1F
100
AcDbEntity
  8
OBRYS
100
AcDbLine
 10
119.1288492439093
 20
60.7387753069186
 30
0.0
 11
119.1029492439093
 21
60.97657530691859
 31
0.0
  0
LINE
  5
4F2
330
1F
100
AcDbEntity
  8
OBRYS
100
AcDbLine
 10
119.1029492439093
 20
71.25815930691857
 30
0.0
 11
119.1296492439093
 21
71.49552730691858
 31
0.0
  0
LINE
  5
4F3
330
1F
100
AcDbEntity
  8
OBRYS
100
AcDbLine
 10
120.7929492439092
 20
59.43917730691859
 30
0.0
 11
120.8713492439093
 21
59.28437730691857
 31
0.0
  0
LINE
  5
4F4
330
1F
100
AcDbEntity
  8
OBRYS
100
AcDbLine
 10
121.7017492439093
 20
58.67504730691857
 30
0.0
 11
121.8147492439093
 21
58.63804730691859
 31
0.0
  0
LINE
  5
4F5
330
1F
100
AcDbEntity
  8
OBRYS
100
AcDbLine
 10
120.7929492439092
 20
60.05247630691858
 30
0.0
 11
120.7997492439092
 21
60.11277630691859
 31
0.0
  0
LINE
  5
4F6
330
1F
100
AcDbEntity
  8
OBRYS
100
AcDbLine
 10
120.9482492439093
 20
60.76457530691857
 30
0.0
 11
120.9749492439093
 21
61.00197530691858
 31
0.0
  0
LINE
  5
4F7
330
1F
100
AcDbEntity
  8
OBRYS
100
AcDbLine
 10
120.9490492439093
 20
71.52132730691858
 30
0.0
 11
120.9749492439093
 21
71.28355930691859
 31
0.0
  0
DIMENSION
  5
4FB
330
1F
100
AcDbEntity
  8
KOTY
100
AcDbDimension
  2
*D1
 10
55.24370895651049
 20
77.04606030691858
 30
0.0
 11
51.92260624390926
 21
96.12369730691859
 31
0.0
 70
   160
  3
STANDARD
100
AcDbAlignedDimension
 13
63.91970424390925
 23
115.2013343069186
 33
0.0
 14
69.15567424390926
 24
77.04606030691858
 34
0.0
 50
90.0
100
AcDbRotatedDimension
1001
ACAD
1000
DSTYLE
1002
{
1070
   287
1070
     5
1070
    74
1070
     0
1070
    73
1070
     0
1070
   271
1070
     0
1070
   278
1070
    44
1070
   140
1040
3.0
1070
    77
1070
     1
1070
   147
1040
1.0
1070
    41
1040
3.0
1070
   279
1070
     2
1002
}
  0
DIMENSION
  5
4FE
330
1F
100
AcDbEntity
  8
KOTY
100
AcDbDimension
  2
*D2
 10
124.7247492439093
 20
122.6825478690897
 30
0.0
 11
120.0497492439092
 21
125.4719623069186
 31
0.0
 70
   160
  3
STANDARD
100
AcDbAlignedDimension
 13
115.3747492439093
 23
114.7013343069186
 33
0.0
 14
124.7247492439093
 24
114.7013343069186
 34
0.0
100
AcDbRotatedDimension
1001
ACAD
1000
DSTYLE
1002
{
1070
   287
1070
     5
1070
   271
1070
     1
1070
   278
1070
    44
1070
   140
1040
3.0
1070
    77
1070
     1
1070
   147
1040
1.0
1070
    41
1040
3.0
1070
   279
1070
     2
1002
}
  0
DIMENSION
  5
52A
330
1F
100
AcDbEntity
  8
KOTY
100
AcDbDimension
  2
*D3
 10
80.51970424390926
 20
122.6825478690897
 30
0.0
 11
71.96970424390926
 21
125.2140478690897
 31
0.0
 70
    32
  1
18
  3
STANDARD
100
AcDbAlignedDimension
 13
63.41970424390925
 23
114.7013343069186
 33
0.0
 14
80.51970424390926
 24
114.7013343069186
 34
0.0
100
AcDbRotatedDimension
1001
ACAD
1000
DSTYLE
1002
{
1070
    77
1070
     1
1070
   271
1070
     0
1070
   278
1070
    44
1070
   140
1040
3.0
1070
   147
1040
1.0
1070
    41
1040
3.0
1002
}
  0
LINE
  5
540
330
1F
100
AcDbEntity
  8
KOTY
100
AcDbLine
 10
69.14315224390926
 20
78.9813343069186
 30
0.0
 11
69.15567424390926
 21
77.04606030691858
 31
0.0
  0
LINE
  5
541
330
1F
100
AcDbEntity
  8
KOTY
100
AcDbLine
 10
69.14315224390926
 20
78.9813343069186
 30
0.0
 11
69.15567424390926
 21
77.04613630691858
 31
0.0
  0
LINE
  5
542
330
1F
100
AcDbEntity
  8
KOTY
100
AcDbLine
 10
69.15567424390926
 20
77.04606030691858
 30
0.0
 11
69.14315224390926
 21
78.9813343069186
 31
0.0
  0
LINE
  5
543
330
1F
100
AcDbEntity
  8
KOTY
100
AcDbLine
 10
69.14315224390926
 20
78.9813343069186
 30
0.0
 11
69.15567424390926
 21
77.04606030691858
 31
0.0
  0
LINE
  5
5A7
330
1F
100
AcDbEntity
  8
OBRYS
100
AcDbLine
 10
69.14315224390926
 20
78.9813343069186
 30
0.0
 11
69.15567424390926
 21
77.04606030691858
 31
0.0
  0
DIMENSION
  5
647
102
{ACAD_REACTORS
102
}
102
{ACAD_XDICTIONARY
360
648
102
}
330
1F
100
AcDbEntity
  8
KOTY
100
AcDbDimension
  2
*D4
 10
46.09908675277348
 20
115.2013343069186
 30
0.0
 11
43.57358675277349
 21
86.65489130691859
 31
0.0
 70
    32
  3
STANDARD
100
AcDbAlignedDimension
 13
72.70762524390926
 23
58.10844830691858
 33
0.0
 14
63.91970424390925
 24
115.2013343069186
 34
0.0
 50
90.0
100
AcDbRotatedDimension
1001
ACAD
1000
DSTYLE
1002
{
1070
   287
1070
     5
1070
   271
1070
     0
1070
   278
1070
    44
1070
   140
1040
3.0
1070
    73
1070
     0
1070
    77
1070
     1
1070
   147
1040
1.0
1070
    41
1040
3.0
1070
   279
1070
     2
1002
}
  0
VIEWPORT
  5
53A
330
58
100
AcDbEntity
 67
     1
  8
0
100
AcDbViewport
 10
0.0
 20
0.0
 30
0.0
 40
8.976
 41
6.936000000000001
 68
     1
 69
     1
1001
ACAD
1000
MVIEW
1002
{
1070
    16
1010
0.0
1020
0.0
1030
0.0
1010
0.0
1020
0.0
1030
1.0
1040
0.0
1040
6.936000000000001
1040
5.25
1040
4.0
1040
50.0
1040
0.0
1040
0.0
1070
     0
1070
   100
1070
     0
1070
     3
1070
     0
1070
     0
1070
     0
1070
     0
1040
0.0
1040
0.0
1040
0.0
1040
0.5
1040
0.5
1040
0.0
1040
0.0
1070
     0
1002
{
1002
}
1002
}
  0
VIEWPORT
  5
53B
330
58
100
AcDbEntity
 67
     1
  8
0
100
AcDbViewport
 10
5.25
 20
4.0
 30
0.0
 40
8.4
 41
6.4
 68
     2
 69
     2
1001
ACAD
1000
MVIEW
1002
{
1070
    16
1010
0.0
1020
0.0
1030
0.0
1010
0.0
1020
0.0
1030
1.0
1040
0.0
1040
70.55657118
1040
87.55492774390926
1040
92.69290780691858
1040
50.0
1040
0.0
1040
0.0
1070
     0
1070
   100
1070
     0
1070
     3
1070
     0
1070
     0
1070
     0
1070
     0
1040
0.0
1040
0.0
1040
0.0
1040
0.5
1040
0.5
1040
0.0
1040
0.0
1070
     0
1002
{
1002
}
1002
}
  0
ENDSEC
  0
SECTION
  2
OBJECTS
  0
DICTIONARY
  5
C
330
0
100
AcDbDictionary
  3
ACAD_DETAILVIEWSTYLE
350
122
  3
ACAD_GROUP
350
D
  3
ACAD_IMAGE_VARS
350
DC
  3
ACAD_MLINESTYLE
350
17
  3
ACAD_SCALELIST
350
5FD
  3
ACAD_SECTIONVIEWSTYLE
350
123
  3
ACDBVARIABLEDICTIONARY
350
66
  3
APPDATA
350
E1
  3
DWGPROPS
350
657
  0
DICTIONARY
  5
526
330
2
100
AcDbDictionary
280
     1
  3
ACAD_LAYERSTATES
360
527
  3
ACLYDICTIONARY
360
5B4
  0
DICTIONARY
  5
648
330
647
100
AcDbDictionary
280
     1
  0
DICTIONARY
  5
122
102
{ACAD_REACTORS
330
C
102
}
330
C
100
AcDbDictionary
  0
DICTIONARY
  5
D
102
{ACAD_REACTORS
330
C
102
}
330
C
100
AcDbDictionary
  0
RASTERVARIABLES
  5
DC
102
{ACAD_REACTORS
330
C
102
}
330
C
100
AcDbRasterVariables
 90
        0
 70
     1
 71
     1
 72
     5
  0
DICTIONARY
  5
17
102
{ACAD_REACTORS
330
C
102
}
330
C
100
AcDbDictionary
  3
STANDARD
350
18
  0
DICTIONARY
  5
5FD
102
{ACAD_REACTORS
330
C
102
}
330
C
100
AcDbDictionary
  0
DICTIONARY
  5
123
102
{ACAD_REACTORS
330
C
102
}
330
C
100
AcDbDictionary
  0
DICTIONARY
  5
66
102
{ACAD_REACTORS
330
C
102
}
330
C
100
AcDbDictionary
  3
DIMASSOC
350
67
  3
HIDETEXT
350
6B
  0
DICTIONARY
  5
E1
102
{ACAD_REACTORS
330
C
102
}
330
C
100
AcDbDictionary
  0
XRECORD
  5
657
102
{ACAD_REACTORS
330
C
102
}
330
C
100
AcDbXrecord
  1
DWGPROPS COOKIE
  2

  3

  4

  6

  7

  8
jaromir.podrabsky
  9

300
=
301
=
302
=
303
=
304
=
305
=
306
=
307
=
308
=
309
=
 40
0.0
 41
2452643.063384259
 42
2457085.406637998
  1

 90
        0
  0
DICTIONARY
  5
527
102
{ACAD_REACTORS
330
526
102
}
330
526
100
AcDbDictionary
  0
DICTIONARY
  5
5B4
102
{ACAD_REACTORS
330
526
102
}
330
526
100
AcDbDictionary
1001
ACAD
1000
<All
  0
MLINESTYLE
  5
18
102
{ACAD_REACTORS
330
17
102
}
330
17
100
AcDbMlineStyle
  2
STANDARD
 70
     0
  3

 62
   256
 51
90.0
 52
90.0
 71
     2
 49
0.5
 62
   256
  6
BYLAYER
 49
-0.5
 62
   256
  6
BYLAYER
  0
DICTIONARYVAR
  5
67
102
{ACAD_REACTORS
330
66
102
}
330
66
100
DictionaryVariables
280
     0
  1
2
  0
DICTIONARYVAR
  5
6B
102
{ACAD_REACTORS
330
66
102
}
330
66
100
DictionaryVariables
280
     0
  1
1
  0
ENDSEC
  0
EOF
