  0
SECTION
  2
HEADER
  9
$ACADVER
  1
AC1014
  9
$ACADMAINTVER
 70
     9
  9
$DWGCODEPAGE
  3
ANSI_1250
  9
$INSBASE
 10
0.0
 20
0.0
 30
0.0
  9
$EXTMIN
 10
1.000000000000000E+20
 20
1.000000000000000E+20
 30
1.000000000000000E+20
  9
$EXTMAX
 10
-1.000000000000000E+20
 20
-1.000000000000000E+20
 30
-1.000000000000000E+20
  9
$LIMMIN
 10
0.0
 20
0.0
  9
$LIMMAX
 10
12.0
 20
9.0
  9
$ORTHOMODE
 70
     0
  9
$REGENMODE
 70
     1
  9
$FILLMODE
 70
     1
  9
$QTEXTMODE
 70
     0
  9
$MIRRTEXT
 70
     0
  9
$DRAGMODE
 70
     2
  9
$LTSCALE
 40
1.0
  9
$OSMODE
 70
 14847
  9
$ATTMODE
 70
     1
  9
$TEXTSIZE
 40
0.2
  9
$TRACEWID
 40
0.05
  9
$TEXTSTYLE
  7
STANDARD
  9
$CLAYER
  8
KOTY
  9
$CELTYPE
  6
BYLAYER
  9
$CECOLOR
 62
   256
  9
$CELTSCALE
 40
1.0
  9
$DELOBJ
 70
     1
  9
$DISPSILH
 70
     0
  9
$DIMSCALE
 40
1.0
  9
$DIMASZ
 40
0.18
  9
$DIMEXO
 40
0.0625
  9
$DIMDLI
 40
0.38
  9
$DIMRND
 40
0.0
  9
$DIMDLE
 40
0.0
  9
$DIMEXE
 40
0.18
  9
$DIMTP
 40
0.0
  9
$DIMTM
 40
0.0
  9
$DIMTXT
 40
0.18
  9
$DIMCEN
 40
0.09
  9
$DIMTSZ
 40
0.0
  9
$DIMTOL
 70
     0
  9
$DIMLIM
 70
     0
  9
$DIMTIH
 70
     1
  9
$DIMTOH
 70
     1
  9
$DIMSE1
 70
     0
  9
$DIMSE2
 70
     0
  9
$DIMTAD
 70
     0
  9
$DIMZIN
 70
     0
  9
$DIMBLK
  1

  9
$DIMASO
 70
     1
  9
$DIMSHO
 70
     1
  9
$DIMPOST
  1

  9
$DIMAPOST
  1

  9
$DIMALT
 70
     0
  9
$DIMALTD
 70
     2
  9
$DIMALTF
 40
25.4
  9
$DIMLFAC
 40
1.0
  9
$DIMTOFL
 70
     0
  9
$DIMTVP
 40
0.0
  9
$DIMTIX
 70
     0
  9
$DIMSOXD
 70
     0
  9
$DIMSAH
 70
     0
  9
$DIMBLK1
  1

  9
$DIMBLK2
  1

  9
$DIMSTYLE
  2
STANDARD
  9
$DIMCLRD
 70
     0
  9
$DIMCLRE
 70
     0
  9
$DIMCLRT
 70
     0
  9
$DIMTFAC
 40
1.0
  9
$DIMGAP
 40
0.09
  9
$DIMJUST
 70
     0
  9
$DIMSD1
 70
     0
  9
$DIMSD2
 70
     0
  9
$DIMTOLJ
 70
     1
  9
$DIMTZIN
 70
     0
  9
$DIMALTZ
 70
     0
  9
$DIMALTTZ
 70
     0
  9
$DIMFIT
 70
     3
  9
$DIMUPT
 70
     0
  9
$DIMUNIT
 70
     2
  9
$DIMDEC
 70
     4
  9
$DIMTDEC
 70
     4
  9
$DIMALTU
 70
     2
  9
$DIMALTTD
 70
     2
  9
$DIMTXSTY
  7
STANDARD
  9
$DIMAUNIT
 70
     0
  9
$LUNITS
 70
     2
  9
$LUPREC
 70
     4
  9
$SKETCHINC
 40
0.1
  9
$FILLETRAD
 40
0.0
  9
$AUNITS
 70
     0
  9
$AUPREC
 70
     0
  9
$MENU
  1
.
  9
$ELEVATION
 40
0.0
  9
$PELEVATION
 40
0.0
  9
$THICKNESS
 40
0.0
  9
$LIMCHECK
 70
     0
  9
$CHAMFERA
 40
0.0
  9
$CHAMFERB
 40
0.0
  9
$CHAMFERC
 40
0.0
  9
$CHAMFERD
 40
0.0
  9
$SKPOLY
 70
     0
  9
$TDCREATE
 40
2452643.146717604
  9
$TDUPDATE
 40
2457646.632323634
  9
$TDINDWG
 40
0.0014504051
  9
$TDUSRTIMER
 40
2457646.547808495
  9
$USRTIMER
 70
     1
  9
$ANGBASE
 50
0.0
  9
$ANGDIR
 70
     0
  9
$PDMODE
 70
     0
  9
$PDSIZE
 40
0.0
  9
$PLINEWID
 40
0.0
  9
$COORDS
 70
     1
  9
$SPLFRAME
 70
     0
  9
$SPLINETYPE
 70
     6
  9
$SPLINESEGS
 70
     8
  9
$ATTDIA
 70
     0
  9
$ATTREQ
 70
     1
  9
$HANDLING
 70
     1
  9
$HANDSEED
  5
21A
  9
$SURFTAB1
 70
     6
  9
$SURFTAB2
 70
     6
  9
$SURFTYPE
 70
     6
  9
$SURFU
 70
     6
  9
$SURFV
 70
     6
  9
$UCSNAME
  2

  9
$UCSORG
 10
0.0
 20
0.0
 30
0.0
  9
$UCSXDIR
 10
1.0
 20
0.0
 30
0.0
  9
$UCSYDIR
 10
0.0
 20
1.0
 30
0.0
  9
$PUCSNAME
  2

  9
$PUCSORG
 10
0.0
 20
0.0
 30
0.0
  9
$PUCSXDIR
 10
1.0
 20
0.0
 30
0.0
  9
$PUCSYDIR
 10
0.0
 20
1.0
 30
0.0
  9
$USERI1
 70
     0
  9
$USERI2
 70
     0
  9
$USERI3
 70
     0
  9
$USERI4
 70
     0
  9
$USERI5
 70
     0
  9
$USERR1
 40
0.0
  9
$USERR2
 40
0.0
  9
$USERR3
 40
0.0
  9
$USERR4
 40
0.0
  9
$USERR5
 40
0.0
  9
$WORLDVIEW
 70
     1
  9
$SHADEDGE
 70
     3
  9
$SHADEDIF
 70
    70
  9
$TILEMODE
 70
     0
  9
$MAXACTVP
 70
    64
  9
$PINSBASE
 10
0.0
 20
0.0
 30
0.0
  9
$PLIMCHECK
 70
     0
  9
$PEXTMIN
 10
1.05
 20
0.6999999999999997
 30
0.0
  9
$PEXTMAX
 10
9.45
 20
6.300000000000001
 30
0.0
  9
$PLIMMIN
 10
-0.25
 20
-0.7499999999999999
  9
$PLIMMAX
 10
10.75
 20
7.75
  9
$UNITMODE
 70
     0
  9
$VISRETAIN
 70
     1
  9
$PLINEGEN
 70
     0
  9
$PSLTSCALE
 70
     1
  9
$TREEDEPTH
 70
  3020
  9
$PICKSTYLE
 70
     1
  9
$CMLSTYLE
  2
STANDARD
  9
$CMLJUST
 70
     0
  9
$CMLSCALE
 40
1.0
  9
$PROXYGRAPHICS
 70
     1
  9
$MEASUREMENT
 70
     0
  0
ENDSEC
  0
SECTION
  2
CLASSES
  0
CLASS
  1
ACDBDICTIONARYWDFLT
  2
AcDbDictionaryWithDefault
  3
ObjectDBX Classes
 90
        0
280
     0
281
     0
  0
CLASS
  1
ACDBPLACEHOLDER
  2
AcDbPlaceHolder
  3
ObjectDBX Classes
 90
        0
280
     0
281
     0
  0
CLASS
  1
LAYOUT
  2
AcDbLayout
  3
ObjectDBX Classes
 90
        0
280
     0
281
     0
  0
CLASS
  1
DICTIONARYVAR
  2
AcDbDictionaryVar
  3
ObjectDBX Classes
 90
        0
280
     0
281
     0
  0
CLASS
  1
TABLESTYLE
  2
AcDbTableStyle
  3
ObjectDBX Classes
 90
     4095
280
     0
281
     0
  0
CLASS
  1
MATERIAL
  2
AcDbMaterial
  3
ObjectDBX Classes
 90
     1153
280
     0
281
     0
  0
CLASS
  1
VISUALSTYLE
  2
AcDbVisualStyle
  3
ObjectDBX Classes
 90
     4095
280
     0
281
     0
  0
CLASS
  1
SCALE
  2
AcDbScale
  3
ObjectDBX Classes
 90
     1153
280
     0
281
     0
  0
CLASS
  1
CELLSTYLEMAP
  2
AcDbCellStyleMap
  3
ObjectDBX Classes
 90
     1152
280
     0
281
     0
  0
CLASS
  1
RASTERVARIABLES
  2
AcDbRasterVariables
  3
ISM
 90
        0
280
     0
281
     0
  0
CLASS
  1
SUN
  2
AcDbSun
  3
SCENEOE
 90
     1153
280
     0
281
     0
  0
CLASS
  1
MLEADERSTYLE
  2
AcDbMLeaderStyle
  3
ACDB_MLEADERSTYLE_CLASS
 90
     4095
280
     0
281
     0
  0
CLASS
  1
DIMASSOC
  2
AcDbDimAssoc
  3
"AcDbDimAssoc|Product Desc:     AcDim ARX App For Dimension|Company:          Autodesk, Inc.|WEB Address:      www.autodesk.com"
 90
        0
280
     0
281
     0
  0
CLASS
  1
XRECORD
  2
AcDbXrecord
  3
ObjectDBX Classes
 90
        0
280
     0
281
     0
  0
CLASS
  1
LWPOLYLINE
  2
AcDbPolyline
  3
ObjectDBX Classes
 90
        0
280
     0
281
     1
  0
CLASS
  1
HATCH
  2
AcDbHatch
  3
ObjectDBX Classes
 90
        0
280
     0
281
     1
  0
ENDSEC
  0
SECTION
  2
TABLES
  0
TABLE
  2
VPORT
  5
8
330
0
100
AcDbSymbolTable
 70
     1
  0
VPORT
  5
94
330
8
100
AcDbSymbolTableRecord
100
AcDbViewportTableRecord
  2
*ACTIVE
 70
     0
 10
0.0
 20
0.0
 11
1.0
 21
1.0
 12
1212.116030497496
 22
445.474022417648
 13
0.0
 23
0.0
 14
0.5
 24
0.5
 15
0.5
 25
0.5
 16
0.0
 26
0.0
 36
1.0
 17
-27.66959356597999
 27
-19.53870295786203
 37
0.0
 40
128.123377050672
 41
1.943696450428397
 42
50.0
 43
0.0
 44
0.0
 50
0.0
 51
0.0
 71
    16
 72
  1000
 73
     1
 74
     3
 75
     0
 76
     0
 77
     0
 78
     0
  0
ENDTAB
  0
TABLE
  2
LTYPE
  5
5
330
0
100
AcDbSymbolTable
 70
     1
  0
LTYPE
  5
14
330
5
100
AcDbSymbolTableRecord
100
AcDbLinetypeTableRecord
  2
BYBLOCK
 70
     0
  3

 72
    65
 73
     0
 40
0.0
  0
LTYPE
  5
15
330
5
100
AcDbSymbolTableRecord
100
AcDbLinetypeTableRecord
  2
BYLAYER
 70
     0
  3
Solid line
 72
    65
 73
     0
 40
0.0
  0
LTYPE
  5
16
330
5
100
AcDbSymbolTableRecord
100
AcDbLinetypeTableRecord
  2
CONTINUOUS
 70
     0
  3
Solid line
 72
    65
 73
     0
 40
0.0
  0
ENDTAB
  0
TABLE
  2
LAYER
  5
2
102
{ACAD_XDICTIONARY
360
1D5
102
}
330
0
100
AcDbSymbolTable
 70
     4
  0
LAYER
  5
10
330
2
100
AcDbSymbolTableRecord
100
AcDbLayerTableRecord
  2
0
 70
     0
 62
     7
  6
CONTINUOUS
  0
LAYER
  5
1D8
330
2
100
AcDbSymbolTableRecord
100
AcDbLayerTableRecord
  2
KOTY
 70
     0
 62
     1
  6
CONTINUOUS
1001
ACAECLAYERSTANDARD
1000

1000

1001
ACCMTRANSPARENCY
1071
 33554687
  0
LAYER
  5
1DA
330
2
100
AcDbSymbolTableRecord
100
AcDbLayerTableRecord
  2
OBRYS
 70
     0
 62
     5
  6
CONTINUOUS
1001
ACAECLAYERSTANDARD
1000

1000

  0
LAYER
  5
1DF
330
2
100
AcDbSymbolTableRecord
100
AcDbLayerTableRecord
  2
DEFPOINTS
 70
     0
 62
     7
  6
CONTINUOUS
  0
ENDTAB
  0
TABLE
  2
STYLE
  5
3
330
0
100
AcDbSymbolTable
 70
     1
  0
STYLE
  5
11
330
3
100
AcDbSymbolTableRecord
100
AcDbTextStyleTableRecord
  2
STANDARD
 70
     0
 40
0.0
 41
1.0
 50
0.0
 71
     0
 42
0.2
  3
arial.ttf
  4

1001
ACAD
1000
Arial
1071
        0
  0
ENDTAB
  0
TABLE
  2
VIEW
  5
6
330
0
100
AcDbSymbolTable
 70
     0
  0
ENDTAB
  0
TABLE
  2
UCS
  5
7
330
0
100
AcDbSymbolTable
 70
     0
  0
ENDTAB
  0
TABLE
  2
APPID
  5
9
330
0
100
AcDbSymbolTable
 70
     3
  0
APPID
  5
12
330
9
100
AcDbSymbolTableRecord
100
AcDbRegAppTableRecord
  2
ACAD
 70
     0
  0
APPID
  5
1D9
330
9
100
AcDbSymbolTableRecord
100
AcDbRegAppTableRecord
  2
ACAECLAYERSTANDARD
 70
     0
  0
APPID
  5
1DB
330
9
100
AcDbSymbolTableRecord
100
AcDbRegAppTableRecord
  2
ACCMTRANSPARENCY
 70
     0
  0
ENDTAB
  0
TABLE
  2
DIMSTYLE
  5
A
330
0
100
AcDbSymbolTable
 70
     1
  0
DIMSTYLE
105
27
102
{ACAD_REACTORS
330
1E3
330
1F3
330
203
102
}
330
A
100
AcDbSymbolTableRecord
100
AcDbDimStyleTableRecord
  2
STANDARD
 70
     0
  3

  4

  5

  6

  7

 40
1.0
 41
0.18
 42
0.0625
 43
0.38
 44
0.18
 45
0.0
 46
0.0
 47
0.0
 48
0.0
140
0.18
141
0.09
142
0.0
143
25.4
144
1.0
145
0.0
146
1.0
147
0.09
 71
     0
 72
     0
 73
     1
 74
     1
 75
     0
 76
     0
 77
     0
 78
     0
170
     0
171
     2
172
     0
173
     0
174
     0
175
     0
176
     0
177
     0
178
     0
270
     2
271
     4
272
     4
273
     2
274
     2
340
11
275
     0
280
     0
281
     0
282
     0
283
     1
284
     0
285
     0
286
     0
287
     3
288
     0
  0
ENDTAB
  0
TABLE
  2
BLOCK_RECORD
  5
1
330
0
100
AcDbSymbolTable
 70
     5
  0
BLOCK_RECORD
  5
1F
330
1
100
AcDbSymbolTableRecord
100
AcDbBlockTableRecord
  2
*MODEL_SPACE
  0
BLOCK_RECORD
  5
58
330
1
100
AcDbSymbolTableRecord
100
AcDbBlockTableRecord
  2
*PAPER_SPACE
  0
BLOCK_RECORD
  5
1E6
330
1
100
AcDbSymbolTableRecord
100
AcDbBlockTableRecord
  2
*D2
  0
BLOCK_RECORD
  5
1F6
330
1
100
AcDbSymbolTableRecord
100
AcDbBlockTableRecord
  2
*D3
  0
BLOCK_RECORD
  5
206
330
1
100
AcDbSymbolTableRecord
100
AcDbBlockTableRecord
  2
*D4
  0
ENDTAB
  0
ENDSEC
  0
SECTION
  2
BLOCKS
  0
BLOCK
  5
20
330
1F
100
AcDbEntity
  8
0
100
AcDbBlockBegin
  2
*MODEL_SPACE
 70
     0
 10
0.0
 20
0.0
 30
0.0
  3
*MODEL_SPACE
  1

  0
ENDBLK
  5
21
330
1F
100
AcDbEntity
  8
0
100
AcDbBlockEnd
  0
BLOCK
  5
5A
330
58
100
AcDbEntity
 67
     1
  8
0
100
AcDbBlockBegin
  2
*PAPER_SPACE
 70
     0
 10
0.0
 20
0.0
 30
0.0
  3
*PAPER_SPACE
  1

  0
ENDBLK
  5
5B
330
58
100
AcDbEntity
 67
     1
  8
0
100
AcDbBlockEnd
  0
BLOCK
  5
1E7
330
1E6
100
AcDbEntity
  8
0
100
AcDbBlockBegin
  2
*D2
 70
     1
 10
0.0
 20
0.0
 30
0.0
  3
*D2
  1
*D2
  0
LINE
  5
1E9
330
1E6
100
AcDbEntity
  8
KOTY
 62
     0
100
AcDbLine
 10
1112.990571288851
 20
478.0144406708458
 30
0.0
 11
1090.558998664641
 21
478.0144406708458
 31
0.0
  0
LINE
  5
1EA
330
1E6
100
AcDbEntity
  8
KOTY
 62
     0
100
AcDbLine
 10
1112.990571288851
 20
394.8144685416316
 30
0.0
 11
1090.558998664641
 21
394.8144685416316
 31
0.0
  0
LINE
  5
1EB
330
1E6
100
AcDbEntity
  8
KOTY
 62
     0
100
AcDbLine
 10
1090.738998664641
 20
474.0144406708458
 30
0.0
 11
1090.738998664641
 21
398.8144685416316
 31
0.0
  0
SOLID
  5
1EC
330
1E6
100
AcDbEntity
  8
KOTY
 62
     0
100
AcDbTrace
 10
1091.405665331307
 20
474.0144406708458
 30
0.0
 11
1090.072331997974
 21
474.0144406708458
 31
0.0
 12
1090.738998664641
 22
478.0144406708458
 32
0.0
 13
1090.738998664641
 23
478.0144406708458
 33
0.0
  0
SOLID
  5
1ED
330
1E6
100
AcDbEntity
  8
KOTY
 62
     0
100
AcDbTrace
 10
1090.072331997974
 20
398.8144685416316
 30
0.0
 11
1091.405665331307
 21
398.8144685416316
 31
0.0
 12
1090.738998664641
 22
394.8144685416316
 32
0.0
 13
1090.738998664641
 23
394.8144685416316
 33
0.0
  0
MTEXT
  5
1EE
330
1E6
100
AcDbEntity
  8
KOTY
 62
     0
100
AcDbMText
 10
1087.696998664641
 20
436.4144546062387
 30
0.0
 40
4.0
 41
0.0
 71
     5
 72
     1
  1
\A1;83
 11
0.0
 21
1.0
 31
0.0
  0
POINT
  5
1EF
330
1E6
100
AcDbEntity
  8
DEFPOINTS
 62
     0
100
AcDbPoint
 10
1113.053071288851
 20
478.0144406708458
 30
0.0
  0
POINT
  5
1F0
330
1E6
100
AcDbEntity
  8
DEFPOINTS
 62
     0
100
AcDbPoint
 10
1113.053071288851
 20
394.8144685416316
 30
0.0
  0
POINT
  5
1F1
330
1E6
100
AcDbEntity
  8
DEFPOINTS
 62
     0
100
AcDbPoint
 10
1090.738998664641
 20
394.8144685416316
 30
0.0
  0
ENDBLK
  5
1E8
330
1E6
100
AcDbEntity
  8
0
100
AcDbBlockEnd
  0
BLOCK
  5
1F7
330
1F6
100
AcDbEntity
  8
0
100
AcDbBlockBegin
  2
*D3
 70
     1
 10
0.0
 20
0.0
 30
0.0
  3
*D3
  1
*D3
  0
LINE
  5
1F9
330
1F6
100
AcDbEntity
  8
KOTY
 62
     0
100
AcDbLine
 10
1112.052959409714
 20
395.751735910992
 30
0.0
 11
1112.052959409714
 21
376.7534091846839
 31
0.0
  0
LINE
  5
1FA
330
1F6
100
AcDbEntity
  8
KOTY
 62
     0
100
AcDbLine
 10
1188.053021734564
 20
394.7519685416316
 30
0.0
 11
1188.053021734564
 21
376.7534091846839
 31
0.0
  0
LINE
  5
1FB
330
1F6
100
AcDbEntity
  8
KOTY
 62
     0
100
AcDbLine
 10
1116.052959409714
 20
376.9334091846839
 30
0.0
 11
1184.053021734564
 21
376.9334091846839
 31
0.0
  0
SOLID
  5
1FC
330
1F6
100
AcDbEntity
  8
KOTY
 62
     0
100
AcDbTrace
 10
1116.052959409714
 20
377.6000758513506
 30
0.0
 11
1116.052959409714
 21
376.2667425180172
 31
0.0
 12
1112.052959409714
 22
376.9334091846839
 32
0.0
 13
1112.052959409714
 23
376.9334091846839
 33
0.0
  0
SOLID
  5
1FD
330
1F6
100
AcDbEntity
  8
KOTY
 62
     0
100
AcDbTrace
 10
1184.053021734564
 20
376.2667425180172
 30
0.0
 11
1184.053021734564
 21
377.6000758513506
 31
0.0
 12
1188.053021734564
 22
376.9334091846839
 32
0.0
 13
1188.053021734564
 23
376.9334091846839
 33
0.0
  0
MTEXT
  5
1FE
330
1F6
100
AcDbEntity
  8
KOTY
 62
     0
100
AcDbMText
 10
1150.052990572139
 20
379.9754091846839
 30
0.0
 40
4.0
 41
0.0
 71
     5
 72
     1
  1
\A1;76
  0
POINT
  5
1FF
330
1F6
100
AcDbEntity
  8
DEFPOINTS
 62
     0
100
AcDbPoint
 10
1112.052959409714
 20
395.814235910992
 30
0.0
  0
POINT
  5
200
330
1F6
100
AcDbEntity
  8
DEFPOINTS
 62
     0
100
AcDbPoint
 10
1188.053021734564
 20
394.8144685416316
 30
0.0
  0
POINT
  5
201
330
1F6
100
AcDbEntity
  8
DEFPOINTS
 62
     0
100
AcDbPoint
 10
1188.053021734564
 20
376.9334091846839
 30
0.0
  0
ENDBLK
  5
1F8
330
1F6
100
AcDbEntity
  8
0
100
AcDbBlockEnd
  0
BLOCK
  5
207
330
206
100
AcDbEntity
  8
0
100
AcDbBlockBegin
  2
*D4
 70
     1
 10
0.0
 20
0.0
 30
0.0
  3
*D4
  1
*D4
  0
LINE
  5
209
330
206
100
AcDbEntity
  8
KOTY
 62
     0
100
AcDbLine
 10
1209.03952374674
 20
411.2019658261229
 30
0.0
 11
1209.03952374674
 21
376.4667230369008
 31
0.0
  0
LINE
  5
20A
330
206
100
AcDbEntity
  8
KOTY
 62
     0
100
AcDbLine
 10
1270.889363795426
 20
394.7519685416316
 30
0.0
 11
1270.889363795426
 21
376.4667230369008
 31
0.0
  0
LINE
  5
20B
330
206
100
AcDbEntity
  8
KOTY
 62
     0
100
AcDbLine
 10
1213.03952374674
 20
376.6467230369008
 30
0.0
 11
1266.889363795426
 21
376.6467230369008
 31
0.0
  0
SOLID
  5
20C
330
206
100
AcDbEntity
  8
KOTY
 62
     0
100
AcDbTrace
 10
1213.03952374674
 20
377.3133897035675
 30
0.0
 11
1213.03952374674
 21
375.9800563702341
 31
0.0
 12
1209.03952374674
 22
376.6467230369008
 32
0.0
 13
1209.03952374674
 23
376.6467230369008
 33
0.0
  0
SOLID
  5
20D
330
206
100
AcDbEntity
  8
KOTY
 62
     0
100
AcDbTrace
 10
1266.889363795426
 20
375.9800563702341
 30
0.0
 11
1266.889363795426
 21
377.3133897035675
 31
0.0
 12
1270.889363795426
 22
376.6467230369008
 32
0.0
 13
1270.889363795426
 23
376.6467230369008
 33
0.0
  0
MTEXT
  5
20E
330
206
100
AcDbEntity
  8
KOTY
 62
     0
100
AcDbMText
 10
1239.964443771083
 20
379.6887230369008
 30
0.0
 40
4.0
 41
0.0
 71
     5
 72
     1
  1
\A1;62
  0
POINT
  5
20F
330
206
100
AcDbEntity
  8
DEFPOINTS
 62
     0
100
AcDbPoint
 10
1209.03952374674
 20
411.2644658261229
 30
0.0
  0
POINT
  5
210
330
206
100
AcDbEntity
  8
DEFPOINTS
 62
     0
100
AcDbPoint
 10
1270.889363795426
 20
394.8144685416316
 30
0.0
  0
POINT
  5
211
330
206
100
AcDbEntity
  8
DEFPOINTS
 62
     0
100
AcDbPoint
 10
1270.889363795426
 20
376.6467230369008
 30
0.0
  0
ENDBLK
  5
208
330
206
100
AcDbEntity
  8
0
100
AcDbBlockEnd
  0
ENDSEC
  0
SECTION
  2
ENTITIES
  0
LINE
  5
18F
102
{ACAD_REACTORS
102
}
330
1F
100
AcDbEntity
  8
OBRYS
100
AcDbLine
 10
1193.05323662047
 20
394.8144685416316
 30
0.0
 11
1113.053071288851
 21
394.8144685416316
 31
0.0
  0
LINE
  5
190
102
{ACAD_REACTORS
102
}
330
1F
100
AcDbEntity
  8
OBRYS
100
AcDbLine
 10
1112.052959409714
 20
395.814235910992
 30
0.0
 11
1113.053071288851
 21
394.8144685416316
 31
0.0
  0
LINE
  5
191
330
1F
100
AcDbEntity
  8
OBRYS
100
AcDbLine
 10
1112.052959409714
 20
477.0145010465976
 30
0.0
 11
1112.052959409714
 21
395.814235910992
 31
0.0
  0
LINE
  5
192
330
1F
100
AcDbEntity
  8
OBRYS
100
AcDbLine
 10
1113.053071288851
 20
478.0144406708458
 30
0.0
 11
1112.052959409714
 21
477.0145010465976
 31
0.0
  0
LINE
  5
193
102
{ACAD_REACTORS
102
}
330
1F
100
AcDbEntity
  8
OBRYS
100
AcDbLine
 10
1113.053071288851
 20
478.0144406708458
 30
0.0
 11
1187.053082110316
 21
478.0144406708458
 31
0.0
  0
LINE
  5
194
330
1F
100
AcDbEntity
  8
OBRYS
100
AcDbLine
 10
1187.053082110316
 20
478.0144406708458
 30
0.0
 11
1188.053021734564
 21
477.0145010465976
 31
0.0
  0
LINE
  5
195
330
1F
100
AcDbEntity
  8
OBRYS
100
AcDbLine
 10
1188.053021734564
 20
477.0145010465976
 30
0.0
 11
1193.05323662047
 21
456.9033983747204
 31
0.0
  0
LINE
  5
196
330
1F
100
AcDbEntity
  8
OBRYS
100
AcDbLine
 10
1193.05323662047
 20
456.9033983747204
 30
0.0
 11
1193.05323662047
 21
451.9143800565282
 31
0.0
  0
LINE
  5
197
330
1F
100
AcDbEntity
  8
OBRYS
100
AcDbLine
 10
1193.05323662047
 20
451.9143800565282
 30
0.0
 11
1191.053012862197
 21
451.9143800565282
 31
0.0
  0
LINE
  5
198
330
1F
100
AcDbEntity
  8
OBRYS
100
AcDbLine
 10
1191.053012862197
 20
451.9143800565282
 30
0.0
 11
1189.053133613701
 21
453.9144315599127
 31
0.0
  0
LINE
  5
199
330
1F
100
AcDbEntity
  8
OBRYS
100
AcDbLine
 10
1189.053133613701
 20
453.9144315599127
 30
0.0
 11
1188.053021734564
 21
453.9144315599127
 31
0.0
  0
LINE
  5
19A
330
1F
100
AcDbEntity
  8
OBRYS
100
AcDbLine
 10
1188.053021734564
 20
453.9144315599127
 30
0.0
 11
1188.053021734564
 21
394.8144685416316
 31
0.0
  0
LINE
  5
19B
330
1F
100
AcDbEntity
  8
OBRYS
100
AcDbLine
 10
1193.05323662047
 20
418.3143416231277
 30
0.0
 11
1188.053021734564
 21
418.3143416231277
 31
0.0
  0
LINE
  5
19C
330
1F
100
AcDbEntity
  8
OBRYS
100
AcDbLine
 10
1193.05323662047
 20
418.3143416231277
 30
0.0
 11
1193.05323662047
 21
394.8144685416316
 31
0.0
  0
LINE
  5
19D
330
1F
100
AcDbEntity
  8
OBRYS
100
AcDbLine
 10
1210.0392911161
 20
463.2644268750208
 30
0.0
 11
1230.83941333957
 21
463.2647713847966
 31
0.0
  0
LINE
  5
19E
102
{ACAD_REACTORS
102
}
330
1F
100
AcDbEntity
  8
OBRYS
100
AcDbLine
 10
1209.03952374674
 20
462.2644872507724
 30
0.0
 11
1209.03952374674
 21
411.2644658261229
 31
0.0
  0
ARC
  5
19F
330
1F
100
AcDbEntity
  8
OBRYS
100
AcDbCircle
 10
1210.039318636207
 20
462.2646319754572
 30
0.0
 40
0.9997948999424735
100
AcDbArc
 50
90.0015771094538
 51
180.0082938147173
  0
LINE
  5
1A0
330
1F
100
AcDbEntity
  8
OBRYS
100
AcDbLine
 10
1210.0392911161
 20
410.2643539469867
 30
0.0
 11
1230.83941333957
 21
410.2643539469867
 31
0.0
  0
ARC
  5
1A1
330
1F
100
AcDbEntity
  8
OBRYS
100
AcDbCircle
 10
1210.03935598473
 20
411.2641862219687
 30
0.0
 40
0.9998322770863486
100
AcDbArc
 50
179.9839771744245
 51
269.9962826777935
  0
LINE
  5
1A2
330
1F
100
AcDbEntity
  8
OBRYS
100
AcDbLine
 10
1230.83941333957
 20
395.1786153746482
 30
0.0
 11
1230.88936725706
 21
395.1786153746482
 31
0.0
  0
LINE
  5
1A3
330
1F
100
AcDbEntity
  8
OBRYS
100
AcDbLine
 10
1230.83941333957
 20
478.3787597587503
 30
0.0
 11
1230.83941333957
 21
395.1786153746482
 31
0.0
  0
LINE
  5
1A4
330
1F
100
AcDbEntity
  8
OBRYS
100
AcDbLine
 10
1230.88936725706
 20
394.8144685416316
 30
0.0
 11
1230.88936725706
 21
478.0144406708458
 31
0.0
  0
LINE
  5
1A5
330
1F
100
AcDbEntity
  8
OBRYS
100
AcDbLine
 10
1270.839409877935
 20
478.3787597587503
 30
0.0
 11
1230.83941333957
 21
478.3787597587503
 31
0.0
  0
LINE
  5
1A6
330
1F
100
AcDbEntity
  8
OBRYS
100
AcDbLine
 10
1230.88936725706
 20
478.0144406708458
 30
0.0
 11
1270.889363795426
 21
478.0144406708458
 31
0.0
  0
LINE
  5
1A7
330
1F
100
AcDbEntity
  8
OBRYS
100
AcDbLine
 10
1270.839409877935
 20
478.3787597587503
 30
0.0
 11
1270.839409877935
 21
478.014268415958
 31
0.0
  0
LINE
  5
1A8
330
1F
100
AcDbEntity
  8
OBRYS
100
AcDbLine
 10
1270.889363795426
 20
394.8144685416316
 30
0.0
 11
1270.889363795426
 21
478.0144406708458
 31
0.0
  0
LINE
  5
1A9
102
{ACAD_REACTORS
102
}
330
1F
100
AcDbEntity
  8
OBRYS
100
AcDbLine
 10
1230.88936725706
 20
394.8144685416316
 30
0.0
 11
1270.889363795426
 21
394.8144685416316
 31
0.0
  0
LINE
  5
1AA
330
1F
100
AcDbEntity
  8
OBRYS
100
AcDbLine
 10
1232.789338670576
 20
477.0145010465976
 30
0.0
 11
1230.88936725706
 21
477.0145010465976
 31
0.0
  0
LINE
  5
1AB
330
1F
100
AcDbEntity
  8
OBRYS
100
AcDbLine
 10
1234.789562428849
 20
477.0145010465976
 30
0.0
 11
1236.589281497608
 21
477.0145010465976
 31
0.0
  0
LINE
  5
1AC
330
1F
100
AcDbEntity
  8
OBRYS
100
AcDbLine
 10
1238.58950525588
 20
477.0145010465976
 30
0.0
 11
1240.389568834415
 21
477.0145010465976
 31
0.0
  0
LINE
  5
1AD
330
1F
100
AcDbEntity
  8
OBRYS
100
AcDbLine
 10
1242.389448082912
 20
477.0145010465976
 30
0.0
 11
1244.189511661447
 21
477.0145010465976
 31
0.0
  0
LINE
  5
1AE
330
1F
100
AcDbEntity
  8
OBRYS
100
AcDbLine
 10
1246.189390909944
 20
477.0145010465976
 30
0.0
 11
1247.989454488479
 21
477.0145010465976
 31
0.0
  0
LINE
  5
1AF
330
1F
100
AcDbEntity
  8
OBRYS
100
AcDbLine
 10
1249.989333736975
 20
477.0145010465976
 30
0.0
 11
1251.78939731551
 21
477.0145010465976
 31
0.0
  0
LINE
  5
1B0
330
1F
100
AcDbEntity
  8
OBRYS
100
AcDbLine
 10
1253.789621073783
 20
477.0145010465976
 30
0.0
 11
1255.589340142542
 21
477.0145010465976
 31
0.0
  0
LINE
  5
1B1
330
1F
100
AcDbEntity
  8
OBRYS
100
AcDbLine
 10
1257.589563900815
 20
477.0145010465976
 30
0.0
 11
1259.38962747935
 21
477.0145010465976
 31
0.0
  0
LINE
  5
1B2
330
1F
100
AcDbEntity
  8
OBRYS
100
AcDbLine
 10
1261.389506727847
 20
477.0145010465976
 30
0.0
 11
1263.189570306381
 21
477.0145010465976
 31
0.0
  0
LINE
  5
1B3
330
1F
100
AcDbEntity
  8
OBRYS
100
AcDbLine
 10
1265.189449554878
 20
477.0145010465976
 30
0.0
 11
1266.989513133413
 21
477.0145010465976
 31
0.0
  0
LINE
  5
1B4
330
1F
100
AcDbEntity
  8
OBRYS
100
AcDbLine
 10
1268.98939238191
 20
477.0145010465976
 30
0.0
 11
1270.889363795426
 21
477.0145010465976
 31
0.0
  0
LINE
  5
1B5
330
1F
100
AcDbEntity
  8
OBRYS
100
AcDbLine
 10
1230.88936725706
 20
395.814235910992
 30
0.0
 11
1232.789338670576
 21
395.814235910992
 31
0.0
  0
LINE
  5
1B6
330
1F
100
AcDbEntity
  8
OBRYS
100
AcDbLine
 10
1234.789562428849
 20
395.814235910992
 30
0.0
 11
1236.589281497608
 21
395.814235910992
 31
0.0
  0
LINE
  5
1B7
330
1F
100
AcDbEntity
  8
OBRYS
100
AcDbLine
 10
1238.58950525588
 20
395.814235910992
 30
0.0
 11
1240.389568834415
 21
395.814235910992
 31
0.0
  0
LINE
  5
1B8
330
1F
100
AcDbEntity
  8
OBRYS
100
AcDbLine
 10
1242.389448082912
 20
395.814235910992
 30
0.0
 11
1244.189511661447
 21
395.814235910992
 31
0.0
  0
LINE
  5
1B9
330
1F
100
AcDbEntity
  8
OBRYS
100
AcDbLine
 10
1246.189390909944
 20
395.814235910992
 30
0.0
 11
1247.989454488479
 21
395.814235910992
 31
0.0
  0
LINE
  5
1BA
330
1F
100
AcDbEntity
  8
OBRYS
100
AcDbLine
 10
1249.989333736975
 20
395.814235910992
 30
0.0
 11
1251.78939731551
 21
395.814235910992
 31
0.0
  0
LINE
  5
1BB
330
1F
100
AcDbEntity
  8
OBRYS
100
AcDbLine
 10
1253.789621073783
 20
395.814235910992
 30
0.0
 11
1255.589340142542
 21
395.814235910992
 31
0.0
  0
LINE
  5
1BC
330
1F
100
AcDbEntity
  8
OBRYS
100
AcDbLine
 10
1257.589563900815
 20
395.814235910992
 30
0.0
 11
1259.38962747935
 21
395.814235910992
 31
0.0
  0
LINE
  5
1BD
330
1F
100
AcDbEntity
  8
OBRYS
100
AcDbLine
 10
1268.98939238191
 20
395.814235910992
 30
0.0
 11
1270.889363795426
 21
395.814235910992
 31
0.0
  0
LINE
  5
1BE
330
1F
100
AcDbEntity
  8
OBRYS
100
AcDbLine
 10
1261.389506727847
 20
395.814235910992
 30
0.0
 11
1263.189570306381
 21
395.814235910992
 31
0.0
  0
LINE
  5
1BF
330
1F
100
AcDbEntity
  8
OBRYS
100
AcDbLine
 10
1265.189449554878
 20
395.814235910992
 30
0.0
 11
1266.989513133413
 21
395.814235910992
 31
0.0
  0
LINE
  5
1C0
330
1F
100
AcDbEntity
  8
OBRYS
100
AcDbLine
 10
1268.98939238191
 20
394.8144685416316
 30
0.0
 11
1268.98939238191
 21
478.0144406708458
 31
0.0
  0
LINE
  5
1C1
330
1F
100
AcDbEntity
  8
OBRYS
100
AcDbLine
 10
1266.989513133413
 20
478.0144406708458
 30
0.0
 11
1266.989513133413
 21
394.8144685416316
 31
0.0
  0
LINE
  5
1C2
330
1F
100
AcDbEntity
  8
OBRYS
100
AcDbLine
 10
1265.189449554878
 20
394.8144685416316
 30
0.0
 11
1265.189449554878
 21
478.0144406708458
 31
0.0
  0
LINE
  5
1C3
330
1F
100
AcDbEntity
  8
OBRYS
100
AcDbLine
 10
1263.189570306381
 20
478.0144406708458
 30
0.0
 11
1263.189570306381
 21
394.8144685416316
 31
0.0
  0
LINE
  5
1C4
330
1F
100
AcDbEntity
  8
OBRYS
100
AcDbLine
 10
1261.389506727847
 20
394.8144685416316
 30
0.0
 11
1261.389506727847
 21
478.0144406708458
 31
0.0
  0
LINE
  5
1C5
330
1F
100
AcDbEntity
  8
OBRYS
100
AcDbLine
 10
1259.38962747935
 20
478.0144406708458
 30
0.0
 11
1259.38962747935
 21
394.8144685416316
 31
0.0
  0
LINE
  5
1C6
330
1F
100
AcDbEntity
  8
OBRYS
100
AcDbLine
 10
1257.589563900815
 20
394.8144685416316
 30
0.0
 11
1257.589563900815
 21
478.0144406708458
 31
0.0
  0
LINE
  5
1C7
330
1F
100
AcDbEntity
  8
OBRYS
100
AcDbLine
 10
1255.589340142542
 20
478.0144406708458
 30
0.0
 11
1255.589340142542
 21
394.8144685416316
 31
0.0
  0
LINE
  5
1C8
330
1F
100
AcDbEntity
  8
OBRYS
100
AcDbLine
 10
1253.789621073783
 20
394.8144685416316
 30
0.0
 11
1253.789621073783
 21
478.0144406708458
 31
0.0
  0
LINE
  5
1C9
330
1F
100
AcDbEntity
  8
OBRYS
100
AcDbLine
 10
1251.78939731551
 20
478.0144406708458
 30
0.0
 11
1251.78939731551
 21
394.8144685416316
 31
0.0
  0
LINE
  5
1CA
330
1F
100
AcDbEntity
  8
OBRYS
100
AcDbLine
 10
1249.989333736975
 20
394.8144685416316
 30
0.0
 11
1249.989333736975
 21
478.0144406708458
 31
0.0
  0
LINE
  5
1CB
330
1F
100
AcDbEntity
  8
OBRYS
100
AcDbLine
 10
1247.989454488479
 20
478.0144406708458
 30
0.0
 11
1247.989454488479
 21
394.8144685416316
 31
0.0
  0
LINE
  5
1CC
330
1F
100
AcDbEntity
  8
OBRYS
100
AcDbLine
 10
1246.189390909944
 20
394.8144685416316
 30
0.0
 11
1246.189390909944
 21
478.0144406708458
 31
0.0
  0
LINE
  5
1CD
330
1F
100
AcDbEntity
  8
OBRYS
100
AcDbLine
 10
1244.189511661447
 20
478.0144406708458
 30
0.0
 11
1244.189511661447
 21
394.8144685416316
 31
0.0
  0
LINE
  5
1CE
330
1F
100
AcDbEntity
  8
OBRYS
100
AcDbLine
 10
1242.389448082912
 20
394.8144685416316
 30
0.0
 11
1242.389448082912
 21
478.0144406708458
 31
0.0
  0
LINE
  5
1CF
330
1F
100
AcDbEntity
  8
OBRYS
100
AcDbLine
 10
1240.389568834415
 20
478.0144406708458
 30
0.0
 11
1240.389568834415
 21
394.8144685416316
 31
0.0
  0
LINE
  5
1D0
330
1F
100
AcDbEntity
  8
OBRYS
100
AcDbLine
 10
1238.58950525588
 20
394.8144685416316
 30
0.0
 11
1238.58950525588
 21
478.0144406708458
 31
0.0
  0
LINE
  5
1D1
330
1F
100
AcDbEntity
  8
OBRYS
100
AcDbLine
 10
1236.589281497608
 20
478.0144406708458
 30
0.0
 11
1236.589281497608
 21
394.8144685416316
 31
0.0
  0
LINE
  5
1D2
330
1F
100
AcDbEntity
  8
OBRYS
100
AcDbLine
 10
1234.789562428849
 20
394.8144685416316
 30
0.0
 11
1234.789562428849
 21
478.0144406708458
 31
0.0
  0
LINE
  5
1D3
330
1F
100
AcDbEntity
  8
OBRYS
100
AcDbLine
 10
1232.789338670576
 20
478.0144406708458
 30
0.0
 11
1232.789338670576
 21
394.8144685416316
 31
0.0
  0
DIMENSION
  5
1E3
102
{ACAD_REACTORS
102
}
102
{ACAD_XDICTIONARY
360
1E4
102
}
330
1F
100
AcDbEntity
  8
KOTY
100
AcDbDimension
  2
*D2
 10
1090.738998664641
 20
394.8144685416316
 30
0.0
 11
1087.696998664641
 21
436.4144546062387
 31
0.0
 70
    32
  3
STANDARD
100
AcDbAlignedDimension
 13
1113.053071288851
 23
478.0144406708458
 33
0.0
 14
1113.053071288851
 24
394.8144685416316
 34
0.0
 50
90.0
100
AcDbRotatedDimension
1001
ACAD
1000
DSTYLE
1002
{
1070
   271
1070
     0
1070
   278
1070
    44
1070
   140
1040
4.0
1070
    73
1070
     0
1070
    77
1070
     1
1070
   147
1040
1.0
1070
    41
1040
4.0
1002
}
  0
DIMENSION
  5
1F3
102
{ACAD_REACTORS
102
}
102
{ACAD_XDICTIONARY
360
1F4
102
}
330
1F
100
AcDbEntity
  8
KOTY
100
AcDbDimension
  2
*D3
 10
1188.053021734564
 20
376.9334091846839
 30
0.0
 11
1150.052990572139
 21
379.9754091846839
 31
0.0
 70
    32
  3
STANDARD
100
AcDbAlignedDimension
 13
1112.052959409714
 23
395.814235910992
 33
0.0
 14
1188.053021734564
 24
394.8144685416316
 34
0.0
100
AcDbRotatedDimension
1001
ACAD
1000
DSTYLE
1002
{
1070
   271
1070
     0
1070
   278
1070
    44
1070
   140
1040
4.0
1070
    73
1070
     0
1070
    77
1070
     1
1070
   147
1040
1.0
1070
    41
1040
4.0
1002
}
  0
DIMENSION
  5
203
102
{ACAD_REACTORS
102
}
102
{ACAD_XDICTIONARY
360
204
102
}
330
1F
100
AcDbEntity
  8
KOTY
100
AcDbDimension
  2
*D4
 10
1270.889363795426
 20
376.6467230369008
 30
0.0
 11
1239.964443771083
 21
379.6887230369008
 31
0.0
 70
    32
  3
STANDARD
100
AcDbAlignedDimension
 13
1209.03952374674
 23
411.2644658261229
 33
0.0
 14
1270.889363795426
 24
394.8144685416316
 34
0.0
100
AcDbRotatedDimension
1001
ACAD
1000
DSTYLE
1002
{
1070
   271
1070
     0
1070
   278
1070
    44
1070
   140
1040
4.0
1070
    73
1070
     0
1070
    77
1070
     1
1070
   147
1040
1.0
1070
    41
1040
4.0
1002
}
  0
VIEWPORT
  5
213
330
58
100
AcDbEntity
 67
     1
  8
0
100
AcDbViewport
 10
5.25
 20
3.5
 30
0.0
 40
12.6
 41
8.4
 68
     1
 69
     1
1001
ACAD
1000
MVIEW
1002
{
1070
    16
1010
0.0
1020
0.0
1030
0.0
1010
0.0
1020
0.0
1030
1.0
1040
0.0
1040
8.4
1040
5.25
1040
3.5
1040
50.0
1040
0.0
1040
0.0
1070
     0
1070
   100
1070
     0
1070
     3
1070
     0
1070
     0
1070
     0
1070
     0
1040
0.0
1040
0.0
1040
0.0
1040
0.5
1040
0.5
1040
0.0
1040
0.0
1070
     0
1002
{
1002
}
1002
}
  0
VIEWPORT
  5
214
330
58
100
AcDbEntity
 67
     1
  8
0
100
AcDbViewport
 10
5.25
 20
3.5
 30
0.0
 40
8.4
 41
5.600000000000001
 68
     2
 69
     2
1001
ACAD
1000
MVIEW
1002
{
1070
    16
1010
0.0
1020
0.0
1030
0.0
1010
0.0
1020
0.0
1030
1.0
1040
0.0
1040
125.9648082889339
1040
1178.268181230033
1040
427.1794080644922
1040
50.0
1040
0.0
1040
0.0
1070
     0
1070
   100
1070
     0
1070
     3
1070
     0
1070
     0
1070
     0
1070
     0
1040
0.0
1040
0.0
1040
0.0
1040
0.5
1040
0.5
1040
0.0
1040
0.0
1070
     0
1002
{
1002
}
1002
}
  0
ENDSEC
  0
SECTION
  2
OBJECTS
  0
DICTIONARY
  5
C
330
0
100
AcDbDictionary
  3
ACAD_DETAILVIEWSTYLE
350
122
  3
ACAD_GROUP
350
D
  3
ACAD_IMAGE_VARS
350
DC
  3
ACAD_MLINESTYLE
350
17
  3
ACAD_SCALELIST
350
B6
  3
ACAD_SECTIONVIEWSTYLE
350
123
  3
ACDBVARIABLEDICTIONARY
350
66
  3
APPDATA
350
E1
  3
DWGPROPS
350
219
  0
DICTIONARY
  5
1D5
330
2
100
AcDbDictionary
280
     1
  3
ACAD_LAYERSTATES
360
1D6
  3
ACLYDICTIONARY
360
1E2
  0
DICTIONARY
  5
1E4
330
1E3
100
AcDbDictionary
280
     1
  0
DICTIONARY
  5
1F4
330
1F3
100
AcDbDictionary
280
     1
  0
DICTIONARY
  5
204
330
203
100
AcDbDictionary
280
     1
  0
DICTIONARY
  5
122
102
{ACAD_REACTORS
330
C
102
}
330
C
100
AcDbDictionary
  0
DICTIONARY
  5
D
102
{ACAD_REACTORS
330
C
102
}
330
C
100
AcDbDictionary
  0
RASTERVARIABLES
  5
DC
102
{ACAD_REACTORS
330
C
102
}
330
C
100
AcDbRasterVariables
 90
        0
 70
     1
 71
     1
 72
     5
  0
DICTIONARY
  5
17
102
{ACAD_REACTORS
330
C
102
}
330
C
100
AcDbDictionary
  3
STANDARD
350
18
  0
DICTIONARY
  5
B6
102
{ACAD_REACTORS
330
C
102
}
330
C
100
AcDbDictionary
  0
DICTIONARY
  5
123
102
{ACAD_REACTORS
330
C
102
}
330
C
100
AcDbDictionary
  0
DICTIONARY
  5
66
102
{ACAD_REACTORS
330
C
102
}
330
C
100
AcDbDictionary
  3
DIMASSOC
350
67
  3
HIDETEXT
350
6B
  0
DICTIONARY
  5
E1
102
{ACAD_REACTORS
330
C
102
}
330
C
100
AcDbDictionary
  0
XRECORD
  5
219
102
{ACAD_REACTORS
330
C
102
}
330
C
100
AcDbXrecord
  1
DWGPROPS COOKIE
  2

  3

  4

  6

  7

  8
jaromir.podrabsky
  9

300
=
301
=
302
=
303
=
304
=
305
=
306
=
307
=
308
=
309
=
 40
0.0
 41
2452643.063384271
 42
2457646.548990301
  1

 90
        0
  0
DICTIONARY
  5
1D6
102
{ACAD_REACTORS
330
1D5
102
}
330
1D5
100
AcDbDictionary
  0
DICTIONARY
  5
1E2
102
{ACAD_REACTORS
330
1D5
102
}
330
1D5
100
AcDbDictionary
1001
ACAD
1000
<All
  0
MLINESTYLE
  5
18
102
{ACAD_REACTORS
330
17
102
}
330
17
100
AcDbMlineStyle
  2
STANDARD
 70
     0
  3

 62
   256
 51
90.0
 52
90.0
 71
     2
 49
0.5
 62
   256
  6
BYLAYER
 49
-0.5
 62
   256
  6
BYLAYER
  0
DICTIONARYVAR
  5
67
102
{ACAD_REACTORS
330
66
102
}
330
66
100
DictionaryVariables
280
     0
  1
2
  0
DICTIONARYVAR
  5
6B
102
{ACAD_REACTORS
330
66
102
}
330
66
100
DictionaryVariables
280
     0
  1
1
  0
ENDSEC
  0
EOF
