  0
SECTION
  2
HEADER
  9
$ACADVER
  1
AC1027
  9
$ACADMAINTVER
 70
     8
  9
$DWGCODEPAGE
  3
ANSI_1250
  9
$REQUIREDVERSIONS
160
                 0
  9
$LASTSAVEDBY
  1
milan.duda
  9
$INSBASE
 10
0.0
 20
0.0
 30
0.0
  9
$EXTMIN
 10
306.4576136542384
 20
122.1358462391053
 30
0.0
  9
$EXTMAX
 10
455.9091869906524
 20
249.8874714153149
 30
0.0
  9
$LIMMIN
 10
0.0
 20
0.0
  9
$LIMMAX
 10
12.0
 20
9.0
  9
$ORTHOMODE
 70
     0
  9
$REGENMODE
 70
     1
  9
$FILLMODE
 70
     1
  9
$QTEXTMODE
 70
     0
  9
$MIRRTEXT
 70
     0
  9
$LTSCALE
 40
1.0
  9
$ATTMODE
 70
     1
  9
$TEXTSIZE
 40
0.2
  9
$TRACEWID
 40
0.05
  9
$TEXTSTYLE
  7
STANDARD
  9
$CLAYER
  8
OBRYS
  9
$CELTYPE
  6
BYLAYER
  9
$CECOLOR
 62
   256
  9
$CELTSCALE
 40
1.0
  9
$DISPSILH
 70
     0
  9
$DIMSCALE
 40
1.0
  9
$DIMASZ
 40
0.18
  9
$DIMEXO
 40
0.0625
  9
$DIMDLI
 40
0.38
  9
$DIMRND
 40
0.0
  9
$DIMDLE
 40
0.0
  9
$DIMEXE
 40
0.18
  9
$DIMTP
 40
0.0
  9
$DIMTM
 40
0.0
  9
$DIMTXT
 40
0.18
  9
$DIMCEN
 40
0.09
  9
$DIMTSZ
 40
0.0
  9
$DIMTOL
 70
     0
  9
$DIMLIM
 70
     0
  9
$DIMTIH
 70
     1
  9
$DIMTOH
 70
     1
  9
$DIMSE1
 70
     0
  9
$DIMSE2
 70
     0
  9
$DIMTAD
 70
     0
  9
$DIMZIN
 70
     0
  9
$DIMBLK
  1

  9
$DIMASO
 70
     1
  9
$DIMSHO
 70
     1
  9
$DIMPOST
  1

  9
$DIMAPOST
  1

  9
$DIMALT
 70
     0
  9
$DIMALTD
 70
     2
  9
$DIMALTF
 40
25.4
  9
$DIMLFAC
 40
1.0
  9
$DIMTOFL
 70
     0
  9
$DIMTVP
 40
0.0
  9
$DIMTIX
 70
     0
  9
$DIMSOXD
 70
     0
  9
$DIMSAH
 70
     0
  9
$DIMBLK1
  1

  9
$DIMBLK2
  1

  9
$DIMSTYLE
  2
STANDARD
  9
$DIMCLRD
 70
     0
  9
$DIMCLRE
 70
     0
  9
$DIMCLRT
 70
     0
  9
$DIMTFAC
 40
1.0
  9
$DIMGAP
 40
0.09
  9
$DIMJUST
 70
     0
  9
$DIMSD1
 70
     0
  9
$DIMSD2
 70
     0
  9
$DIMTOLJ
 70
     1
  9
$DIMTZIN
 70
     0
  9
$DIMALTZ
 70
     0
  9
$DIMALTTZ
 70
     0
  9
$DIMUPT
 70
     0
  9
$DIMDEC
 70
     4
  9
$DIMTDEC
 70
     4
  9
$DIMALTU
 70
     2
  9
$DIMALTTD
 70
     2
  9
$DIMTXSTY
  7
STANDARD
  9
$DIMAUNIT
 70
     0
  9
$DIMADEC
 70
     0
  9
$DIMALTRND
 40
0.0
  9
$DIMAZIN
 70
     0
  9
$DIMDSEP
 70
    46
  9
$DIMATFIT
 70
     3
  9
$DIMFRAC
 70
     0
  9
$DIMLDRBLK
  1

  9
$DIMLUNIT
 70
     2
  9
$DIMLWD
 70
    -2
  9
$DIMLWE
 70
    -2
  9
$DIMTMOVE
 70
     2
  9
$DIMFXL
 40
1.0
  9
$DIMFXLON
 70
     0
  9
$DIMJOGANG
 40
0.7853981633974483
  9
$DIMTFILL
 70
     0
  9
$DIMTFILLCLR
 70
     0
  9
$DIMARCSYM
 70
     0
  9
$DIMLTYPE
  6

  9
$DIMLTEX1
  6

  9
$DIMLTEX2
  6

  9
$DIMTXTDIRECTION
 70
     0
  9
$LUNITS
 70
     2
  9
$LUPREC
 70
     4
  9
$SKETCHINC
 40
0.1
  9
$FILLETRAD
 40
0.0
  9
$AUNITS
 70
     0
  9
$AUPREC
 70
     0
  9
$MENU
  1
.
  9
$ELEVATION
 40
0.0
  9
$PELEVATION
 40
0.0
  9
$THICKNESS
 40
0.0
  9
$LIMCHECK
 70
     0
  9
$CHAMFERA
 40
0.0
  9
$CHAMFERB
 40
0.0
  9
$CHAMFERC
 40
0.0
  9
$CHAMFERD
 40
0.0
  9
$SKPOLY
 70
     0
  9
$TDCREATE
 40
2452643.105050926
  9
$TDUCREATE
 40
2452643.021717593
  9
$TDUPDATE
 40
2457217.563356574
  9
$TDUUPDATE
 40
2457217.480023241
  9
$TDINDWG
 40
0.4335504167
  9
$TDUSRTIMER
 40
2457217.478975868
  9
$USRTIMER
 70
     1
  9
$ANGBASE
 50
0.0
  9
$ANGDIR
 70
     0
  9
$PDMODE
 70
     0
  9
$PDSIZE
 40
0.0
  9
$PLINEWID
 40
0.0
  9
$SPLFRAME
 70
     0
  9
$SPLINETYPE
 70
     6
  9
$SPLINESEGS
 70
     8
  9
$HANDSEED
  5
2751
  9
$SURFTAB1
 70
     6
  9
$SURFTAB2
 70
     6
  9
$SURFTYPE
 70
     6
  9
$SURFU
 70
     6
  9
$SURFV
 70
     6
  9
$UCSBASE
  2

  9
$UCSNAME
  2

  9
$UCSORG
 10
0.0
 20
0.0
 30
0.0
  9
$UCSXDIR
 10
1.0
 20
0.0
 30
0.0
  9
$UCSYDIR
 10
0.0
 20
1.0
 30
0.0
  9
$UCSORTHOREF
  2

  9
$UCSORTHOVIEW
 70
     0
  9
$UCSORGTOP
 10
0.0
 20
0.0
 30
0.0
  9
$UCSORGBOTTOM
 10
0.0
 20
0.0
 30
0.0
  9
$UCSORGLEFT
 10
0.0
 20
0.0
 30
0.0
  9
$UCSORGRIGHT
 10
0.0
 20
0.0
 30
0.0
  9
$UCSORGFRONT
 10
0.0
 20
0.0
 30
0.0
  9
$UCSORGBACK
 10
0.0
 20
0.0
 30
0.0
  9
$PUCSBASE
  2

  9
$PUCSNAME
  2

  9
$PUCSORG
 10
0.0
 20
0.0
 30
0.0
  9
$PUCSXDIR
 10
1.0
 20
0.0
 30
0.0
  9
$PUCSYDIR
 10
0.0
 20
1.0
 30
0.0
  9
$PUCSORTHOREF
  2

  9
$PUCSORTHOVIEW
 70
     0
  9
$PUCSORGTOP
 10
0.0
 20
0.0
 30
0.0
  9
$PUCSORGBOTTOM
 10
0.0
 20
0.0
 30
0.0
  9
$PUCSORGLEFT
 10
0.0
 20
0.0
 30
0.0
  9
$PUCSORGRIGHT
 10
0.0
 20
0.0
 30
0.0
  9
$PUCSORGFRONT
 10
0.0
 20
0.0
 30
0.0
  9
$PUCSORGBACK
 10
0.0
 20
0.0
 30
0.0
  9
$USERI1
 70
     0
  9
$USERI2
 70
     0
  9
$USERI3
 70
     0
  9
$USERI4
 70
     0
  9
$USERI5
 70
     0
  9
$USERR1
 40
0.0
  9
$USERR2
 40
0.0
  9
$USERR3
 40
0.0
  9
$USERR4
 40
0.0
  9
$USERR5
 40
0.0
  9
$WORLDVIEW
 70
     1
  9
$SHADEDGE
 70
     3
  9
$SHADEDIF
 70
    70
  9
$TILEMODE
 70
     0
  9
$MAXACTVP
 70
    64
  9
$PINSBASE
 10
0.0
 20
0.0
 30
0.0
  9
$PLIMCHECK
 70
     0
  9
$PEXTMIN
 10
1.05
 20
0.7999999999999998
 30
0.0
  9
$PEXTMAX
 10
9.45
 20
7.2
 30
0.0
  9
$PLIMMIN
 10
0.8214285714285712
 20
0.1142857142857141
  9
$PLIMMAX
 10
10.87857142857143
 20
7.885714285714286
  9
$UNITMODE
 70
     0
  9
$VISRETAIN
 70
     1
  9
$PLINEGEN
 70
     0
  9
$PSLTSCALE
 70
     1
  9
$TREEDEPTH
 70
  3020
  9
$CMLSTYLE
  2
STANDARD
  9
$CMLJUST
 70
     0
  9
$CMLSCALE
 40
1.0
  9
$PROXYGRAPHICS
 70
     1
  9
$MEASUREMENT
 70
     0
  9
$CELWEIGHT
370
    -1
  9
$ENDCAPS
280
     0
  9
$JOINSTYLE
280
     0
  9
$LWDISPLAY
290
     0
  9
$INSUNITS
 70
     0
  9
$HYPERLINKBASE
  1

  9
$STYLESHEET
  1

  9
$XEDIT
290
     1
  9
$CEPSNTYPE
380
     0
  9
$PSTYLEMODE
290
     1
  9
$FINGERPRINTGUID
  2
{0C2AB6AA-2B40-428F-8177-536484DA5192}
  9
$VERSIONGUID
  2
{FAEB1C32-E019-11D5-929B-00C0DF256EC4}
  9
$EXTNAMES
290
     1
  9
$PSVPSCALE
 40
0.0
  9
$OLESTARTUP
290
     0
  9
$SORTENTS
280
   127
  9
$INDEXCTL
280
     0
  9
$HIDETEXT
280
     1
  9
$XCLIPFRAME
280
     2
  9
$HALOGAP
280
     0
  9
$OBSCOLOR
 70
   257
  9
$OBSLTYPE
280
     0
  9
$INTERSECTIONDISPLAY
280
     0
  9
$INTERSECTIONCOLOR
 70
   257
  9
$DIMASSOC
280
     2
  9
$PROJECTNAME
  1

  9
$CAMERADISPLAY
290
     0
  9
$LENSLENGTH
 40
50.0
  9
$CAMERAHEIGHT
 40
0.0
  9
$STEPSPERSEC
 40
2.0
  9
$STEPSIZE
 40
6.0
  9
$3DDWFPREC
 40
2.0
  9
$PSOLWIDTH
 40
0.25
  9
$PSOLHEIGHT
 40
4.0
  9
$LOFTANG1
 40
1.570796326794897
  9
$LOFTANG2
 40
1.570796326794897
  9
$LOFTMAG1
 40
0.0
  9
$LOFTMAG2
 40
0.0
  9
$LOFTPARAM
 70
     7
  9
$LOFTNORMALS
280
     1
  9
$LATITUDE
 40
37.795
  9
$LONGITUDE
 40
-122.394
  9
$NORTHDIRECTION
 40
0.0
  9
$TIMEZONE
 70
 -8000
  9
$LIGHTGLYPHDISPLAY
280
     1
  9
$TILEMODELIGHTSYNCH
280
     1
  9
$SOLIDHIST
280
     0
  9
$SHOWHIST
280
     1
  9
$DWFFRAME
280
     2
  9
$DGNFRAME
280
     2
  9
$REALWORLDSCALE
290
     1
  9
$INTERFERECOLOR
 62
   256
  9
$CSHADOW
280
     0
  9
$SHADOWPLANELOCATION
 40
0.0
  0
ENDSEC
  0
SECTION
  2
CLASSES
  0
CLASS
  1
ACDBDICTIONARYWDFLT
  2
AcDbDictionaryWithDefault
  3
ObjectDBX Classes
 90
        0
 91
        4
280
     0
281
     0
  0
CLASS
  1
ACDBPLACEHOLDER
  2
AcDbPlaceHolder
  3
ObjectDBX Classes
 90
        0
 91
        1
280
     0
281
     0
  0
CLASS
  1
LAYOUT
  2
AcDbLayout
  3
ObjectDBX Classes
 90
        0
 91
        1
280
     0
281
     0
  0
CLASS
  1
DICTIONARYVAR
  2
AcDbDictionaryVar
  3
ObjectDBX Classes
 90
        0
 91
        4
280
     0
281
     0
  0
CLASS
  1
TABLESTYLE
  2
AcDbTableStyle
  3
ObjectDBX Classes
 90
     4095
 91
        4
280
     0
281
     0
  0
CLASS
  1
MATERIAL
  2
AcDbMaterial
  3
ObjectDBX Classes
 90
     1153
 91
        4
280
     0
281
     0
  0
CLASS
  1
VISUALSTYLE
  2
AcDbVisualStyle
  3
ObjectDBX Classes
 90
     4095
 91
        4
280
     0
281
     0
  0
CLASS
  1
SCALE
  2
AcDbScale
  3
ObjectDBX Classes
 90
     1153
 91
        4
280
     0
281
     0
  0
CLASS
  1
CELLSTYLEMAP
  2
AcDbCellStyleMap
  3
ObjectDBX Classes
 90
     1152
 91
        4
280
     0
281
     0
  0
CLASS
  1
RASTERVARIABLES
  2
AcDbRasterVariables
  3
ISM
 90
        0
 91
        4
280
     0
281
     0
  0
CLASS
  1
SUN
  2
AcDbSun
  3
SCENEOE
 90
     1153
 91
        4
280
     0
281
     0
  0
CLASS
  1
DIMASSOC
  2
AcDbDimAssoc
  3
"AcDbDimAssoc|Product Desc:     AcDim ARX App For Dimension|Company:          Autodesk, Inc.|WEB Address:      www.autodesk.com"
 90
        0
 91
        4
280
     0
281
     0
  0
CLASS
  1
XRECORD
  2
AcDbXrecord
  3
ObjectDBX Classes
 90
        0
 91
        1
280
     0
281
     0
  0
CLASS
  1
LWPOLYLINE
  2
AcDbPolyline
  3
ObjectDBX Classes
 90
        0
 91
        1
280
     0
281
     1
  0
CLASS
  1
HATCH
  2
AcDbHatch
  3
ObjectDBX Classes
 90
        0
 91
        1
280
     0
281
     1
  0
CLASS
  1
MLEADERSTYLE
  2
AcDbMLeaderStyle
  3
ACDB_MLEADERSTYLE_CLASS
 90
     4095
 91
        4
280
     0
281
     0
  0
ENDSEC
  0
SECTION
  2
TABLES
  0
TABLE
  2
VPORT
  5
8
330
0
100
AcDbSymbolTable
 70
     1
  0
VPORT
  5
94
330
8
100
AcDbSymbolTableRecord
100
AcDbViewportTableRecord
  2
*ACTIVE
 70
     0
 10
0.0
 20
0.0
 11
1.0
 21
1.0
 12
469.8063953466332
 22
205.4692511510469
 13
0.0
 23
0.0
 14
0.5
 24
0.5
 15
0.5
 25
0.5
 16
0.0
 26
0.0
 36
1.0
 17
-27.66959356598272
 27
-19.53870295786217
 37
0.0
 40
137.5347746846147
 41
1.938949938949939
 42
50.0
 43
0.0
 44
0.0
 50
0.0
 51
0.0
 71
    16
 72
  1000
 73
     1
 74
     3
 75
     0
 76
     0
 77
     0
 78
     0
281
     0
 65
     1
110
0.0
120
0.0
130
0.0
111
1.0
121
0.0
131
0.0
112
0.0
122
1.0
132
0.0
 79
     0
146
0.0
348
272B
 60
     3
 61
     5
292
     1
282
     1
141
0.0
142
0.0
 63
   256
361
2749
  0
ENDTAB
  0
TABLE
  2
LTYPE
  5
5
330
0
100
AcDbSymbolTable
 70
     1
  0
LTYPE
  5
14
330
5
100
AcDbSymbolTableRecord
100
AcDbLinetypeTableRecord
  2
BYBLOCK
 70
     0
  3

 72
    65
 73
     0
 40
0.0
  0
LTYPE
  5
15
330
5
100
AcDbSymbolTableRecord
100
AcDbLinetypeTableRecord
  2
BYLAYER
 70
     0
  3

 72
    65
 73
     0
 40
0.0
  0
LTYPE
  5
16
330
5
100
AcDbSymbolTableRecord
100
AcDbLinetypeTableRecord
  2
CONTINUOUS
 70
     0
  3
Solid line
 72
    65
 73
     0
 40
0.0
  0
ENDTAB
  0
TABLE
  2
LAYER
  5
2
102
{ACAD_XDICTIONARY
360
1326
102
}
330
0
100
AcDbSymbolTable
 70
     5
  0
LAYER
  5
10
330
2
100
AcDbSymbolTableRecord
100
AcDbLayerTableRecord
  2
0
 70
     0
 62
     7
  6
CONTINUOUS
370
    -3
390
0
347
2742
348
0
  0
LAYER
  5
125
330
2
100
AcDbSymbolTableRecord
100
AcDbLayerTableRecord
  2
1
 70
     0
 62
     7
  6
CONTINUOUS
370
    -3
390
0
347
2742
348
0
  0
LAYER
  5
2D3
330
2
100
AcDbSymbolTableRecord
100
AcDbLayerTableRecord
  2
DEFPOINTS
 70
     0
 62
     7
  6
CONTINUOUS
290
     0
370
    -3
390
0
347
2742
348
0
  0
LAYER
  5
132B
330
2
100
AcDbSymbolTableRecord
100
AcDbLayerTableRecord
  2
OBRYS
 70
     0
 62
     5
  6
CONTINUOUS
370
    -3
390
0
347
2742
348
0
1001
ACAECLAYERSTANDARD
1000

1000

  0
LAYER
  5
132D
330
2
100
AcDbSymbolTableRecord
100
AcDbLayerTableRecord
  2
KOTY
 70
     0
 62
     1
  6
CONTINUOUS
370
    -3
390
0
347
2742
348
0
1001
ACAECLAYERSTANDARD
1000

1000

  0
ENDTAB
  0
TABLE
  2
STYLE
  5
3
330
0
100
AcDbSymbolTable
 70
     2
  0
STYLE
  5
11
330
3
100
AcDbSymbolTableRecord
100
AcDbTextStyleTableRecord
  2
STANDARD
 70
     0
 40
0.0
 41
1.0
 50
0.0
 71
     0
 42
0.2
  3
arial.ttf
  4

1001
ACAD
1000
Arial
1071
        0
  0
STYLE
  5
129
330
3
100
AcDbSymbolTableRecord
100
AcDbTextStyleTableRecord
  2
ARIAL
 70
     0
 40
0.0
 41
1.0
 50
0.0
 71
     0
 42
0.2
  3
Arial
  4

1001
ACAD
1000
Arial
1071
        0
  0
ENDTAB
  0
TABLE
  2
VIEW
  5
6
330
0
100
AcDbSymbolTable
 70
     0
  0
ENDTAB
  0
TABLE
  2
UCS
  5
7
330
0
100
AcDbSymbolTable
 70
     0
  0
ENDTAB
  0
TABLE
  2
APPID
  5
9
330
0
100
AcDbSymbolTable
 70
     2
  0
APPID
  5
12
330
9
100
AcDbSymbolTableRecord
100
AcDbRegAppTableRecord
  2
ACAD
 70
     0
  0
APPID
  5
132C
330
9
100
AcDbSymbolTableRecord
100
AcDbRegAppTableRecord
  2
ACAECLAYERSTANDARD
 70
     0
  0
ENDTAB
  0
TABLE
  2
DIMSTYLE
  5
A
330
0
100
AcDbSymbolTable
 70
     1
100
AcDbDimStyleTable
  0
DIMSTYLE
105
27
102
{ACAD_REACTORS
330
1330
330
1340
330
1350
330
1360
330
1370
330
1380
330
26DA
102
}
330
A
100
AcDbSymbolTableRecord
100
AcDbDimStyleTableRecord
  2
STANDARD
 70
     0
178
     0
340
11
  0
ENDTAB
  0
TABLE
  2
BLOCK_RECORD
  5
1
330
0
100
AcDbSymbolTable
 70
    16
  0
BLOCK_RECORD
  5
1F
330
1
100
AcDbSymbolTableRecord
100
AcDbBlockTableRecord
  2
*MODEL_SPACE
340
2724
 70
     0
280
     1
281
     0
  0
BLOCK_RECORD
  5
26EA
330
1
100
AcDbSymbolTableRecord
100
AcDbBlockTableRecord
  2
*PAPER_SPACE
340
2725
 70
     0
280
     1
281
     0
  0
BLOCK_RECORD
  5
296
330
1
100
AcDbSymbolTableRecord
100
AcDbBlockTableRecord
  2
DIMNDRAFT3D1
340
0
 70
     0
280
     1
281
     0
  0
BLOCK_RECORD
  5
2A0
330
1
100
AcDbSymbolTableRecord
100
AcDbBlockTableRecord
  2
DIMNDRAFT3D2
340
0
 70
     0
280
     1
281
     0
  0
BLOCK_RECORD
  5
2AA
330
1
100
AcDbSymbolTableRecord
100
AcDbBlockTableRecord
  2
DIMNDRAFT3D3
340
0
 70
     0
280
     1
281
     0
  0
BLOCK_RECORD
  5
2B4
330
1
100
AcDbSymbolTableRecord
100
AcDbBlockTableRecord
  2
DIMNDRAFT3D55
340
0
 70
     0
280
     1
281
     0
  0
BLOCK_RECORD
  5
2BE
330
1
100
AcDbSymbolTableRecord
100
AcDbBlockTableRecord
  2
DIMNDRAFT3D11
340
0
 70
     0
280
     1
281
     0
  0
BLOCK_RECORD
  5
2C8
330
1
100
AcDbSymbolTableRecord
100
AcDbBlockTableRecord
  2
DIMNDRAFT3D12
340
0
 70
     0
280
     1
281
     0
  0
BLOCK_RECORD
  5
B7F
330
1
100
AcDbSymbolTableRecord
100
AcDbBlockTableRecord
  2
DIMNDRAFT3D16
340
0
 70
     0
280
     1
281
     0
  0
BLOCK_RECORD
  5
1333
330
1
100
AcDbSymbolTableRecord
100
AcDbBlockTableRecord
  2
*D7
340
0
 70
     0
280
     1
281
     0
  0
BLOCK_RECORD
  5
1343
330
1
100
AcDbSymbolTableRecord
100
AcDbBlockTableRecord
  2
*D8
340
0
 70
     0
280
     1
281
     0
  0
BLOCK_RECORD
  5
1353
330
1
100
AcDbSymbolTableRecord
100
AcDbBlockTableRecord
  2
*D9
340
0
 70
     0
280
     1
281
     0
  0
BLOCK_RECORD
  5
1363
330
1
100
AcDbSymbolTableRecord
100
AcDbBlockTableRecord
  2
*D10
340
0
 70
     0
280
     1
281
     0
  0
BLOCK_RECORD
  5
1373
330
1
100
AcDbSymbolTableRecord
100
AcDbBlockTableRecord
  2
*D11
340
0
 70
     0
280
     1
281
     0
  0
BLOCK_RECORD
  5
1383
330
1
100
AcDbSymbolTableRecord
100
AcDbBlockTableRecord
  2
*D12
340
0
 70
     0
280
     1
281
     0
  0
BLOCK_RECORD
  5
198F
330
1
100
AcDbSymbolTableRecord
100
AcDbBlockTableRecord
  2
DIMNDRAFT3D6
340
0
 70
     0
280
     1
281
     0
  0
BLOCK_RECORD
  5
236A
330
1
100
AcDbSymbolTableRecord
100
AcDbBlockTableRecord
  2
DIMNDRAFT3D15
340
0
 70
     0
280
     1
281
     0
  0
BLOCK_RECORD
  5
26DD
330
1
100
AcDbSymbolTableRecord
100
AcDbBlockTableRecord
  2
*D15
340
0
 70
     0
280
     1
281
     0
  0
ENDTAB
  0
ENDSEC
  0
SECTION
  2
BLOCKS
  0
BLOCK
  5
20
330
1F
100
AcDbEntity
  8
0
100
AcDbBlockBegin
  2
*MODEL_SPACE
 70
     0
 10
0.0
 20
0.0
 30
0.0
  3
*MODEL_SPACE
  1
*MODEL_SPACE
  0
ENDBLK
  5
21
330
1F
100
AcDbEntity
  8
0
100
AcDbBlockEnd
  0
BLOCK
  5
26EC
330
26EA
100
AcDbEntity
 67
     1
  8
0
100
AcDbBlockBegin
  2
*PAPER_SPACE
 70
     0
 10
0.0
 20
0.0
 30
0.0
  3
*PAPER_SPACE
  1
*PAPER_SPACE
  0
ENDBLK
  5
26ED
330
26EA
100
AcDbEntity
 67
     1
  8
0
100
AcDbBlockEnd
  0
BLOCK
  5
297
330
296
100
AcDbEntity
  8
0
100
AcDbBlockBegin
  2
DIMNDRAFT3D1
 70
     0
 10
0.0
 20
0.0
 30
0.0
  3
DIMNDRAFT3D1
  1
DimnDraft3D1
  0
LINE
  5
298
330
296
100
AcDbEntity
  8
1
  6
Continuous
 62
    18
100
AcDbLine
 10
32.49685266666667
 20
53.453898
 30
0.0
 11
32.49685266666667
 21
0.0
 31
0.0
  0
LINE
  5
299
330
296
100
AcDbEntity
  8
1
  6
Continuous
 62
    18
100
AcDbLine
 10
98.79685266666667
 20
57.3539
 30
0.0
 11
98.79685266666667
 21
0.0
 31
0.0
  0
LINE
  5
29A
330
296
100
AcDbEntity
  8
1
  6
Continuous
 62
    18
100
AcDbLine
 10
35.99685266666667
 20
1.0
 30
0.0
 11
95.29685266666667
 21
1.0
 31
0.0
  0
SOLID
  5
29B
330
296
100
AcDbEntity
  8
1
 62
    18
100
AcDbTrace
 10
35.99685266666667
 20
1.583333333333333
 30
0.0
 11
35.99685266666667
 21
0.4166666666666666
 31
0.0
 12
32.49685266666667
 22
1.0
 32
0.0
 13
32.49685266666667
 23
1.0
 33
0.0
  0
SOLID
  5
29C
330
296
100
AcDbEntity
  8
1
 62
    18
100
AcDbTrace
 10
95.29685266666667
 20
0.4166666666666666
 30
0.0
 11
95.29685266666667
 21
1.583333333333333
 31
0.0
 12
98.79685266666667
 22
1.0
 32
0.0
 13
98.79685266666667
 23
1.0
 33
0.0
  0
MTEXT
  5
29D
330
296
100
AcDbEntity
  8
1
 62
    18
100
AcDbMText
 10
65.64685266666666
 20
6.0525
 30
0.0
 40
5.0
 41
0.0
 46
0.0
 71
     5
 72
     1
  1
\A1;\C18;66
  7
ARIAL
 73
     1
 44
1.0
  0
POINT
  5
2D4
330
296
100
AcDbEntity
  8
DEFPOINTS
 62
     0
100
AcDbPoint
 10
32.49685266666667
 20
53.453898
 30
0.0
  0
POINT
  5
2D5
330
296
100
AcDbEntity
  8
DEFPOINTS
 62
     0
100
AcDbPoint
 10
98.79685266666667
 20
57.3539
 30
0.0
  0
POINT
  5
2D6
330
296
100
AcDbEntity
  8
DEFPOINTS
 62
     0
100
AcDbPoint
 10
98.79685266666667
 20
1.0
 30
0.0
  0
ENDBLK
  5
29E
330
296
100
AcDbEntity
  8
0
100
AcDbBlockEnd
  0
BLOCK
  5
2A1
330
2A0
100
AcDbEntity
  8
0
100
AcDbBlockBegin
  2
DIMNDRAFT3D2
 70
     0
 10
0.0
 20
0.0
 30
0.0
  3
DIMNDRAFT3D2
  1
DimnDraft3D2
  0
LINE
  5
2A2
330
2A0
100
AcDbEntity
  8
1
  6
Continuous
 62
    18
100
AcDbLine
 10
60.90518166666666
 20
120.653898
 30
0.0
 11
6.706473666666674
 21
120.653898
 31
0.0
  0
LINE
  5
2A3
330
2A0
100
AcDbEntity
  8
1
  6
Continuous
 62
    18
100
AcDbLine
 10
60.90518166666666
 20
30.853898
 30
0.0
 11
6.706473666666668
 21
30.853898
 31
0.0
  0
LINE
  5
2A4
330
2A0
100
AcDbEntity
  8
1
  6
Continuous
 62
    18
100
AcDbLine
 10
7.706473666666674
 20
117.153898
 30
0.0
 11
7.706473666666668
 21
34.353898
 31
0.0
  0
SOLID
  5
2A5
330
2A0
100
AcDbEntity
  8
1
 62
    18
100
AcDbTrace
 10
8.289807000000007
 20
117.153898
 30
0.0
 11
7.123140333333341
 21
117.153898
 31
0.0
 12
7.706473666666674
 22
120.653898
 32
0.0
 13
7.706473666666674
 23
120.653898
 33
0.0
  0
SOLID
  5
2A6
330
2A0
100
AcDbEntity
  8
1
 62
    18
100
AcDbTrace
 10
7.123140333333335
 20
34.353898
 30
0.0
 11
8.289807000000001
 21
34.353898
 31
0.0
 12
7.706473666666668
 22
30.853898
 32
0.0
 13
7.706473666666668
 23
30.853898
 33
0.0
  0
MTEXT
  5
2A7
330
2A0
100
AcDbEntity
  8
1
 62
    18
100
AcDbMText
 10
2.653973666666676
 20
75.753898
 30
0.0
 40
5.0
 41
0.0
 46
0.0
 71
     5
 72
     1
  1
\A1;\C18;90
  7
ARIAL
 11
5.934376969043154E-17
 21
1.0
 31
0.0
 73
     1
 44
1.0
  0
POINT
  5
2D7
330
2A0
100
AcDbEntity
  8
DEFPOINTS
 62
     0
100
AcDbPoint
 10
60.90518166666666
 20
120.653898
 30
0.0
  0
POINT
  5
2D8
330
2A0
100
AcDbEntity
  8
DEFPOINTS
 62
     0
100
AcDbPoint
 10
60.90518166666666
 20
30.853898
 30
0.0
  0
POINT
  5
2D9
330
2A0
100
AcDbEntity
  8
DEFPOINTS
 62
     0
100
AcDbPoint
 10
7.706473666666671
 20
30.853898
 30
0.0
  0
ENDBLK
  5
2A8
330
2A0
100
AcDbEntity
  8
0
100
AcDbBlockEnd
  0
BLOCK
  5
2AB
330
2AA
100
AcDbEntity
  8
0
100
AcDbBlockBegin
  2
DIMNDRAFT3D3
 70
     0
 10
0.0
 20
0.0
 30
0.0
  3
DIMNDRAFT3D3
  1
DimnDraft3D3
  0
LINE
  5
2AC
330
2AA
100
AcDbEntity
  8
1
  6
Continuous
 62
    18
100
AcDbLine
 10
32.69685266666667
 20
98.253898
 30
0.0
 11
18.32787566666667
 21
98.253898
 31
0.0
  0
LINE
  5
2AD
330
2AA
100
AcDbEntity
  8
1
  6
Continuous
 62
    18
100
AcDbLine
 10
32.69685266666667
 20
53.25389800000001
 30
0.0
 11
18.32787566666666
 21
53.25389800000001
 31
0.0
  0
LINE
  5
2AE
330
2AA
100
AcDbEntity
  8
1
  6
Continuous
 62
    18
100
AcDbLine
 10
19.32787566666667
 20
94.753898
 30
0.0
 11
19.32787566666666
 21
56.75389800000001
 31
0.0
  0
SOLID
  5
2AF
330
2AA
100
AcDbEntity
  8
1
 62
    18
100
AcDbTrace
 10
19.911209
 20
94.753898
 30
0.0
 11
18.74454233333334
 21
94.753898
 31
0.0
 12
19.32787566666667
 22
98.253898
 32
0.0
 13
19.32787566666667
 23
98.253898
 33
0.0
  0
SOLID
  5
2B0
330
2AA
100
AcDbEntity
  8
1
 62
    18
100
AcDbTrace
 10
18.74454233333333
 20
56.75389800000001
 30
0.0
 11
19.911209
 21
56.75389800000001
 31
0.0
 12
19.32787566666666
 22
53.25389800000001
 32
0.0
 13
19.32787566666666
 23
53.25389800000001
 33
0.0
  0
MTEXT
  5
2B1
330
2AA
100
AcDbEntity
  8
1
 62
    18
100
AcDbMText
 10
14.28537566666666
 20
75.753898
 30
0.0
 40
5.0
 41
0.0
 46
0.0
 71
     5
 72
     1
  1
\A1;\C18;45
  7
ARIAL
 11
7.894919286223336E-17
 21
1.0
 31
0.0
 73
     1
 44
1.0
  0
POINT
  5
2DA
330
2AA
100
AcDbEntity
  8
DEFPOINTS
 62
     0
100
AcDbPoint
 10
32.69685266666667
 20
98.253898
 30
0.0
  0
POINT
  5
2DB
330
2AA
100
AcDbEntity
  8
DEFPOINTS
 62
     0
100
AcDbPoint
 10
32.69685266666667
 20
53.25389800000001
 30
0.0
  0
POINT
  5
2DC
330
2AA
100
AcDbEntity
  8
DEFPOINTS
 62
     0
100
AcDbPoint
 10
19.32787566666667
 20
53.25389800000001
 30
0.0
  0
ENDBLK
  5
2B2
330
2AA
100
AcDbEntity
  8
0
100
AcDbBlockEnd
  0
BLOCK
  5
2B5
330
2B4
100
AcDbEntity
  8
0
100
AcDbBlockBegin
  2
DIMNDRAFT3D55
 70
     0
 10
0.0
 20
0.0
 30
0.0
  3
DIMNDRAFT3D55
  1
DimnDraft3D55
  0
LINE
  5
2B6
330
2B4
100
AcDbEntity
  8
1
  6
Continuous
 62
    18
100
AcDbLine
 10
119.777952
 20
103.078986
 30
0.0
 11
138.244735
 21
103.078986
 31
0.0
  0
LINE
  5
2B7
330
2B4
100
AcDbEntity
  8
1
  6
Continuous
 62
    18
100
AcDbLine
 10
121.104381
 20
196.47525
 30
0.0
 11
138.244735
 21
196.47525
 31
0.0
  0
LINE
  5
2B8
330
2B4
100
AcDbEntity
  8
1
  6
Continuous
 62
    18
100
AcDbLine
 10
137.244735
 20
103.078986
 30
0.0
 11
137.244735
 21
196.47525
 31
0.0
  0
SOLID
  5
2B9
330
2B4
100
AcDbEntity
  8
1
  6
Continuous
 62
    18
100
AcDbTrace
 10
137.244735
 20
103.078986
 30
0.0
 11
136.306912
 21
106.578982
 31
0.0
 12
138.182557
 22
106.578989
 32
0.0
 13
137.244735
 23
103.078986
 33
0.0
  0
SOLID
  5
2BA
330
2B4
100
AcDbEntity
  8
1
  6
Continuous
 62
    18
100
AcDbTrace
 10
137.244735
 20
196.47525
 30
0.0
 11
138.182557
 21
192.975254
 31
0.0
 12
136.306912
 22
192.975247
 32
0.0
 13
137.244735
 23
196.47525
 33
0.0
  0
MTEXT
  5
2BB
330
2B4
100
AcDbEntity
  8
1
  6
Continuous
 62
    18
100
AcDbMText
 10
136.224928
 20
147.392398
 30
0.0
 40
5.0
 41
0.0
 46
0.0
 71
     7
 72
     5
  1
\W1.0000;94
  7
ARIAL
 11
6.123233995736766E-17
 21
1.0
 31
0.0
 73
     1
 44
1.0
  0
ENDBLK
  5
2BC
330
2B4
100
AcDbEntity
  8
0
100
AcDbBlockEnd
  0
BLOCK
  5
2BF
330
2BE
100
AcDbEntity
  8
0
100
AcDbBlockBegin
  2
DIMNDRAFT3D11
 70
     0
 10
0.0
 20
0.0
 30
0.0
  3
DIMNDRAFT3D11
  1
DimnDraft3D11
  0
LINE
  5
2C0
330
2BE
100
AcDbEntity
  8
1
  6
Continuous
 62
    18
100
AcDbLine
 10
98.79685266666667
 20
57.3539
 30
0.0
 11
98.79685266666667
 21
11.670469
 31
0.0
  0
LINE
  5
2C1
330
2BE
100
AcDbEntity
  8
1
  6
Continuous
 62
    18
100
AcDbLine
 10
54.79685266666667
 20
34.469133
 30
0.0
 11
54.79685266666667
 21
11.670469
 31
0.0
  0
LINE
  5
2C2
330
2BE
100
AcDbEntity
  8
1
  6
Continuous
 62
    18
100
AcDbLine
 10
95.29685266666667
 20
12.670469
 30
0.0
 11
58.29685266666667
 21
12.670469
 31
0.0
  0
SOLID
  5
2C3
330
2BE
100
AcDbEntity
  8
1
 62
    18
100
AcDbTrace
 10
95.29685266666667
 20
12.08713566666666
 30
0.0
 11
95.29685266666667
 21
13.25380233333333
 31
0.0
 12
98.79685266666667
 22
12.670469
 32
0.0
 13
98.79685266666667
 23
12.670469
 33
0.0
  0
SOLID
  5
2C4
330
2BE
100
AcDbEntity
  8
1
 62
    18
100
AcDbTrace
 10
58.29685266666667
 20
13.25380233333333
 30
0.0
 11
58.29685266666667
 21
12.08713566666666
 31
0.0
 12
54.79685266666667
 22
12.670469
 32
0.0
 13
54.79685266666667
 23
12.670469
 33
0.0
  0
MTEXT
  5
2C5
330
2BE
100
AcDbEntity
  8
1
 62
    18
100
AcDbMText
 10
76.79685266666667
 20
17.670469
 30
0.0
 40
5.0
 41
0.0
 46
0.0
 71
     5
 72
     1
  1
\A1;\C18;44
  7
ARIAL
 73
     1
 44
1.0
  0
POINT
  5
2DD
330
2BE
100
AcDbEntity
  8
DEFPOINTS
 62
     0
100
AcDbPoint
 10
98.79685266666667
 20
57.3539
 30
0.0
  0
POINT
  5
2DE
330
2BE
100
AcDbEntity
  8
DEFPOINTS
 62
     0
100
AcDbPoint
 10
54.79685266666667
 20
34.469133
 30
0.0
  0
POINT
  5
2DF
330
2BE
100
AcDbEntity
  8
DEFPOINTS
 62
     0
100
AcDbPoint
 10
54.79685266666667
 20
12.670469
 30
0.0
  0
ENDBLK
  5
2C6
330
2BE
100
AcDbEntity
  8
0
100
AcDbBlockEnd
  0
BLOCK
  5
2C9
330
2C8
100
AcDbEntity
  8
0
100
AcDbBlockBegin
  2
DIMNDRAFT3D12
 70
     0
 10
0.0
 20
0.0
 30
0.0
  3
DIMNDRAFT3D12
  1
DimnDraft3D12
  0
LINE
  5
2CA
330
2C8
100
AcDbEntity
  8
1
  6
Continuous
 62
    18
100
AcDbLine
 10
104.2968526666667
 20
109.653898
 30
0.0
 11
104.2968526666667
 21
135.067356
 31
0.0
  0
LINE
  5
2CB
330
2C8
100
AcDbEntity
  8
1
  6
Continuous
 62
    18
100
AcDbLine
 10
32.49685266666667
 20
98.05389799999999
 30
0.0
 11
32.49685266666667
 21
135.067356
 31
0.0
  0
LINE
  5
2CC
330
2C8
100
AcDbEntity
  8
1
  6
Continuous
 62
    18
100
AcDbLine
 10
100.7968526666667
 20
134.067356
 30
0.0
 11
35.99685266666667
 21
134.067356
 31
0.0
  0
SOLID
  5
2CD
330
2C8
100
AcDbEntity
  8
1
 62
    18
100
AcDbTrace
 10
100.7968526666667
 20
133.4840226666667
 30
0.0
 11
100.7968526666667
 21
134.6506893333334
 31
0.0
 12
104.2968526666667
 22
134.067356
 32
0.0
 13
104.2968526666667
 23
134.067356
 33
0.0
  0
SOLID
  5
2CE
330
2C8
100
AcDbEntity
  8
1
 62
    18
100
AcDbTrace
 10
35.99685266666667
 20
134.6506893333334
 30
0.0
 11
35.99685266666667
 21
133.4840226666667
 31
0.0
 12
32.49685266666667
 22
134.067356
 32
0.0
 13
32.49685266666667
 23
134.067356
 33
0.0
  0
MTEXT
  5
2CF
330
2C8
100
AcDbEntity
  8
1
 62
    18
100
AcDbMText
 10
68.39685266666666
 20
139.077356
 30
0.0
 40
5.0
 41
0.0
 46
0.0
 71
     5
 72
     1
  1
\A1;\C18;72
  7
ARIAL
 73
     1
 44
1.0
  0
POINT
  5
2E0
330
2C8
100
AcDbEntity
  8
DEFPOINTS
 62
     0
100
AcDbPoint
 10
104.2968526666667
 20
109.653898
 30
0.0
  0
POINT
  5
2E1
330
2C8
100
AcDbEntity
  8
DEFPOINTS
 62
     0
100
AcDbPoint
 10
32.49685266666667
 20
98.05389799999999
 30
0.0
  0
POINT
  5
2E2
330
2C8
100
AcDbEntity
  8
DEFPOINTS
 62
     0
100
AcDbPoint
 10
32.49685266666667
 20
134.067356
 30
0.0
  0
ENDBLK
  5
2D0
330
2C8
100
AcDbEntity
  8
0
100
AcDbBlockEnd
  0
BLOCK
  5
B80
330
B7F
100
AcDbEntity
  8
0
100
AcDbBlockBegin
  2
DIMNDRAFT3D16
 70
     0
 10
0.0
 20
0.0
 30
0.0
  3
DIMNDRAFT3D16
  1
DimnDraft3D16
  0
LINE
  5
B81
330
B7F
100
AcDbEntity
  8
1
  6
Continuous
 62
    18
100
AcDbLine
 10
0.0000000525732275
 20
34.469133
 30
0.0
 11
0.0000000525732275
 21
0.0
 31
0.0
  0
LINE
  5
B82
330
B7F
100
AcDbEntity
  8
1
  6
Continuous
 62
    18
100
AcDbLine
 10
53.80000005257318
 20
34.469133
 30
0.0
 11
53.80000005257318
 21
0.0
 31
0.0
  0
LINE
  5
B83
330
B7F
100
AcDbEntity
  8
1
  6
Continuous
 62
    18
100
AcDbLine
 10
3.500000052573228
 20
1.0
 30
0.0
 11
50.30000005257318
 21
1.0
 31
0.0
  0
SOLID
  5
B84
330
B7F
100
AcDbEntity
  8
1
 62
    18
100
AcDbTrace
 10
3.500000052573228
 20
1.583333333333333
 30
0.0
 11
3.500000052573228
 21
0.4166666666666666
 31
0.0
 12
0.0000000525732275
 22
1.0
 32
0.0
 13
0.0000000525732275
 23
1.0
 33
0.0
  0
SOLID
  5
B85
330
B7F
100
AcDbEntity
  8
1
 62
    18
100
AcDbTrace
 10
50.30000005257318
 20
0.4166666666666666
 30
0.0
 11
50.30000005257318
 21
1.583333333333333
 31
0.0
 12
53.80000005257318
 22
1.0
 32
0.0
 13
53.80000005257318
 23
1.0
 33
0.0
  0
MTEXT
  5
B86
330
B7F
100
AcDbEntity
  8
1
 62
    18
100
AcDbMText
 10
31.49089805257324
 20
6.0425
 30
0.0
 40
5.0
 41
0.0
 46
0.0
 71
     5
 72
     1
  1
\A1;\C18;54
  7
ARIAL
 73
     1
 44
1.0
  0
POINT
  5
B8A
330
B7F
100
AcDbEntity
  8
DEFPOINTS
 62
     0
100
AcDbPoint
 10
0.0000000525732275
 20
34.469133
 30
0.0
  0
POINT
  5
B8B
330
B7F
100
AcDbEntity
  8
DEFPOINTS
 62
     0
100
AcDbPoint
 10
53.80000005257318
 20
34.469133
 30
0.0
  0
POINT
  5
B8C
330
B7F
100
AcDbEntity
  8
DEFPOINTS
 62
     0
100
AcDbPoint
 10
53.80000005257318
 20
1.0
 30
0.0
  0
ENDBLK
  5
B87
330
B7F
100
AcDbEntity
  8
0
100
AcDbBlockEnd
  0
BLOCK
  5
1334
330
1333
100
AcDbEntity
  8
0
100
AcDbBlockBegin
  2
*D7
 70
     1
 10
0.0
 20
0.0
 30
0.0
  3
*D7
  1
*D17
  0
LINE
  5
1336
330
1333
100
AcDbEntity
  8
KOTY
 62
     0
100
AcDbLine
 10
331.7600189177886
 20
213.2201939706726
 30
0.0
 11
331.7600189177886
 21
246.0494714153149
 31
0.0
  0
LINE
  5
1337
330
1333
100
AcDbEntity
  8
KOTY
 62
     0
100
AcDbLine
 10
403.5600189177886
 20
224.8201939706726
 30
0.0
 11
403.5600189177886
 21
246.0494714153149
 31
0.0
  0
LINE
  5
1338
330
1333
100
AcDbEntity
  8
KOTY
 62
     0
100
AcDbLine
 10
334.7600189177886
 20
245.8694714153149
 30
0.0
 11
400.5600189177886
 21
245.8694714153149
 31
0.0
  0
SOLID
  5
1339
330
1333
100
AcDbEntity
  8
KOTY
 62
     0
100
AcDbTrace
 10
334.7600189177886
 20
246.3694714153149
 30
0.0
 11
334.7600189177886
 21
245.3694714153149
 31
0.0
 12
331.7600189177886
 22
245.8694714153149
 32
0.0
 13
331.7600189177886
 23
245.8694714153149
 33
0.0
  0
SOLID
  5
133A
330
1333
100
AcDbEntity
  8
KOTY
 62
     0
100
AcDbTrace
 10
400.5600189177886
 20
245.3694714153149
 30
0.0
 11
400.5600189177886
 21
246.3694714153149
 31
0.0
 12
403.5600189177886
 22
245.8694714153149
 32
0.0
 13
403.5600189177886
 23
245.8694714153149
 33
0.0
  0
MTEXT
  5
133B
330
1333
100
AcDbEntity
  8
KOTY
 62
     0
100
AcDbMText
 10
367.6600189177885
 20
248.3754714153149
 30
0.0
 40
3.0
 41
0.0
 46
0.0
 71
     5
 72
     1
  1
\A1;72
 73
     1
 44
1.0
  0
POINT
  5
133C
330
1333
100
AcDbEntity
  8
DEFPOINTS
 62
     0
100
AcDbPoint
 10
331.7600189177886
 20
213.1576939706726
 30
0.0
  0
POINT
  5
133D
330
1333
100
AcDbEntity
  8
DEFPOINTS
 62
     0
100
AcDbPoint
 10
403.5600189177886
 20
224.7576939706726
 30
0.0
  0
POINT
  5
133E
330
1333
100
AcDbEntity
  8
DEFPOINTS
 62
     0
100
AcDbPoint
 10
403.5600189177886
 20
245.8694714153149
 30
0.0
  0
ENDBLK
  5
1335
330
1333
100
AcDbEntity
  8
0
100
AcDbBlockEnd
  0
BLOCK
  5
1344
330
1343
100
AcDbEntity
  8
0
100
AcDbBlockBegin
  2
*D8
 70
     1
 10
0.0
 20
0.0
 30
0.0
  3
*D8
  1
*D18
  0
LINE
  5
1346
330
1343
100
AcDbEntity
  8
KOTY
 62
     0
100
AcDbLine
 10
331.8975189177886
 20
168.3576939706726
 30
0.0
 11
320.293941592266
 21
168.3576939706726
 31
0.0
  0
LINE
  5
1347
330
1343
100
AcDbEntity
  8
KOTY
 62
     0
100
AcDbLine
 10
331.8975189177886
 20
213.3576939706726
 30
0.0
 11
320.293941592266
 21
213.3576939706726
 31
0.0
  0
LINE
  5
1348
330
1343
100
AcDbEntity
  8
KOTY
 62
     0
100
AcDbLine
 10
320.473941592266
 20
171.3576939706726
 30
0.0
 11
320.473941592266
 21
210.3576939706726
 31
0.0
  0
SOLID
  5
1349
330
1343
100
AcDbEntity
  8
KOTY
 62
     0
100
AcDbTrace
 10
319.973941592266
 20
171.3576939706726
 30
0.0
 11
320.973941592266
 21
171.3576939706726
 31
0.0
 12
320.473941592266
 22
168.3576939706726
 32
0.0
 13
320.473941592266
 23
168.3576939706726
 33
0.0
  0
SOLID
  5
134A
330
1343
100
AcDbEntity
  8
KOTY
 62
     0
100
AcDbTrace
 10
320.973941592266
 20
210.3576939706726
 30
0.0
 11
319.973941592266
 21
210.3576939706726
 31
0.0
 12
320.473941592266
 22
213.3576939706726
 32
0.0
 13
320.473941592266
 23
213.3576939706726
 33
0.0
  0
MTEXT
  5
134B
330
1343
100
AcDbEntity
  8
KOTY
 62
     0
100
AcDbMText
 10
317.948441592266
 20
190.8576939706726
 30
0.0
 40
3.0
 41
0.0
 46
0.0
 71
     5
 72
     1
  1
\A1;45
 11
0.0
 21
1.0
 31
0.0
 73
     1
 44
1.0
  0
POINT
  5
134C
330
1343
100
AcDbEntity
  8
DEFPOINTS
 62
     0
100
AcDbPoint
 10
331.9600189177886
 20
168.3576939706726
 30
0.0
  0
POINT
  5
134D
330
1343
100
AcDbEntity
  8
DEFPOINTS
 62
     0
100
AcDbPoint
 10
331.9600189177886
 20
213.3576939706726
 30
0.0
  0
POINT
  5
134E
330
1343
100
AcDbEntity
  8
DEFPOINTS
 62
     0
100
AcDbPoint
 10
320.473941592266
 20
213.3576939706726
 30
0.0
  0
ENDBLK
  5
1345
330
1343
100
AcDbEntity
  8
0
100
AcDbBlockEnd
  0
BLOCK
  5
1354
330
1353
100
AcDbEntity
  8
0
100
AcDbBlockBegin
  2
*D9
 70
     1
 10
0.0
 20
0.0
 30
0.0
  3
*D9
  1
*D19
  0
LINE
  5
1356
330
1353
100
AcDbEntity
  8
KOTY
 62
     0
100
AcDbLine
 10
360.1058479177885
 20
145.9576939706726
 30
0.0
 11
310.3466136542384
 21
145.9576939706726
 31
0.0
  0
LINE
  5
1357
330
1353
100
AcDbEntity
  8
KOTY
 62
     0
100
AcDbLine
 10
360.1058479177885
 20
235.7576939706726
 30
0.0
 11
310.3466136542384
 21
235.7576939706726
 31
0.0
  0
LINE
  5
1358
330
1353
100
AcDbEntity
  8
KOTY
 62
     0
100
AcDbLine
 10
310.5266136542384
 20
148.9576939706726
 30
0.0
 11
310.5266136542384
 21
232.7576939706726
 31
0.0
  0
SOLID
  5
1359
330
1353
100
AcDbEntity
  8
KOTY
 62
     0
100
AcDbTrace
 10
310.0266136542384
 20
148.9576939706726
 30
0.0
 11
311.0266136542384
 21
148.9576939706726
 31
0.0
 12
310.5266136542384
 22
145.9576939706726
 32
0.0
 13
310.5266136542384
 23
145.9576939706726
 33
0.0
  0
SOLID
  5
135A
330
1353
100
AcDbEntity
  8
KOTY
 62
     0
100
AcDbTrace
 10
311.0266136542384
 20
232.7576939706726
 30
0.0
 11
310.0266136542384
 21
232.7576939706726
 31
0.0
 12
310.5266136542384
 22
235.7576939706726
 32
0.0
 13
310.5266136542384
 23
235.7576939706726
 33
0.0
  0
MTEXT
  5
135B
330
1353
100
AcDbEntity
  8
KOTY
 62
     0
100
AcDbMText
 10
307.9951136542384
 20
190.8576939706726
 30
0.0
 40
3.0
 41
0.0
 46
0.0
 71
     5
 72
     1
  1
\A1;90
 11
0.0
 21
1.0
 31
0.0
 73
     1
 44
1.0
  0
POINT
  5
135C
330
1353
100
AcDbEntity
  8
DEFPOINTS
 62
     0
100
AcDbPoint
 10
360.1683479177885
 20
145.9576939706726
 30
0.0
  0
POINT
  5
135D
330
1353
100
AcDbEntity
  8
DEFPOINTS
 62
     0
100
AcDbPoint
 10
360.1683479177885
 20
235.7576939706726
 30
0.0
  0
POINT
  5
135E
330
1353
100
AcDbEntity
  8
DEFPOINTS
 62
     0
100
AcDbPoint
 10
310.5266136542384
 20
235.7576939706726
 30
0.0
  0
ENDBLK
  5
1355
330
1353
100
AcDbEntity
  8
0
100
AcDbBlockEnd
  0
BLOCK
  5
1364
330
1363
100
AcDbEntity
  8
0
100
AcDbBlockBegin
  2
*D10
 70
     1
 10
0.0
 20
0.0
 30
0.0
  3
*D10
  1
*D20
  0
LINE
  5
1366
330
1363
100
AcDbEntity
  8
KOTY
 62
     0
100
AcDbLine
 10
331.7600189177886
 20
168.4951939706726
 30
0.0
 11
331.7600189177886
 21
122.4558462391053
 31
0.0
  0
LINE
  5
1367
330
1363
100
AcDbEntity
  8
KOTY
 62
     0
100
AcDbLine
 10
398.0600189177886
 20
172.3951959706726
 30
0.0
 11
398.0600189177886
 21
122.4558462391053
 31
0.0
  0
LINE
  5
1368
330
1363
100
AcDbEntity
  8
KOTY
 62
     0
100
AcDbLine
 10
334.7600189177886
 20
122.6358462391053
 30
0.0
 11
395.0600189177886
 21
122.6358462391053
 31
0.0
  0
SOLID
  5
1369
330
1363
100
AcDbEntity
  8
KOTY
 62
     0
100
AcDbTrace
 10
334.7600189177886
 20
123.1358462391053
 30
0.0
 11
334.7600189177886
 21
122.1358462391053
 31
0.0
 12
331.7600189177886
 22
122.6358462391053
 32
0.0
 13
331.7600189177886
 23
122.6358462391053
 33
0.0
  0
SOLID
  5
136A
330
1363
100
AcDbEntity
  8
KOTY
 62
     0
100
AcDbTrace
 10
395.0600189177886
 20
122.1358462391053
 30
0.0
 11
395.0600189177886
 21
123.1358462391053
 31
0.0
 12
398.0600189177886
 22
122.6358462391053
 32
0.0
 13
398.0600189177886
 23
122.6358462391053
 33
0.0
  0
MTEXT
  5
136B
330
1363
100
AcDbEntity
  8
KOTY
 62
     0
100
AcDbMText
 10
364.9100189177885
 20
125.1673462391053
 30
0.0
 40
3.0
 41
0.0
 46
0.0
 71
     5
 72
     1
  1
\A1;66
 73
     1
 44
1.0
  0
POINT
  5
136C
330
1363
100
AcDbEntity
  8
DEFPOINTS
 62
     0
100
AcDbPoint
 10
331.7600189177886
 20
168.5576939706726
 30
0.0
  0
POINT
  5
136D
330
1363
100
AcDbEntity
  8
DEFPOINTS
 62
     0
100
AcDbPoint
 10
398.0600189177886
 20
172.4576959706726
 30
0.0
  0
POINT
  5
136E
330
1363
100
AcDbEntity
  8
DEFPOINTS
 62
     0
100
AcDbPoint
 10
398.0600189177886
 20
122.6358462391053
 30
0.0
  0
ENDBLK
  5
1365
330
1363
100
AcDbEntity
  8
0
100
AcDbBlockEnd
  0
BLOCK
  5
1374
330
1373
100
AcDbEntity
  8
0
100
AcDbBlockBegin
  2
*D11
 70
     1
 10
0.0
 20
0.0
 30
0.0
  3
*D11
  1
*D21
  0
LINE
  5
1376
330
1373
100
AcDbEntity
  8
KOTY
 62
     0
100
AcDbLine
 10
354.0600189177886
 20
149.5104289706726
 30
0.0
 11
354.0600189177886
 21
133.9706929986001
 31
0.0
  0
LINE
  5
1377
330
1373
100
AcDbEntity
  8
KOTY
 62
     0
100
AcDbLine
 10
398.0600189177886
 20
172.3951959706726
 30
0.0
 11
398.0600189177886
 21
133.9706929986001
 31
0.0
  0
LINE
  5
1378
330
1373
100
AcDbEntity
  8
KOTY
 62
     0
100
AcDbLine
 10
357.0600189177886
 20
134.1506929986001
 30
0.0
 11
395.0600189177886
 21
134.1506929986001
 31
0.0
  0
SOLID
  5
1379
330
1373
100
AcDbEntity
  8
KOTY
 62
     0
100
AcDbTrace
 10
357.0600189177886
 20
134.6506929986001
 30
0.0
 11
357.0600189177886
 21
133.6506929986001
 31
0.0
 12
354.0600189177886
 22
134.1506929986001
 32
0.0
 13
354.0600189177886
 23
134.1506929986001
 33
0.0
  0
SOLID
  5
137A
330
1373
100
AcDbEntity
  8
KOTY
 62
     0
100
AcDbTrace
 10
395.0600189177886
 20
133.6506929986001
 30
0.0
 11
395.0600189177886
 21
134.6506929986001
 31
0.0
 12
398.0600189177886
 22
134.1506929986001
 32
0.0
 13
398.0600189177886
 23
134.1506929986001
 33
0.0
  0
MTEXT
  5
137B
330
1373
100
AcDbEntity
  8
KOTY
 62
     0
100
AcDbMText
 10
376.0600189177886
 20
136.6506929986001
 30
0.0
 40
3.0
 41
0.0
 46
0.0
 71
     5
 72
     1
  1
\A1;44
 73
     1
 44
1.0
  0
POINT
  5
137C
330
1373
100
AcDbEntity
  8
DEFPOINTS
 62
     0
100
AcDbPoint
 10
354.0600189177886
 20
149.5729289706726
 30
0.0
  0
POINT
  5
137D
330
1373
100
AcDbEntity
  8
DEFPOINTS
 62
     0
100
AcDbPoint
 10
398.0600189177886
 20
172.4576959706726
 30
0.0
  0
POINT
  5
137E
330
1373
100
AcDbEntity
  8
DEFPOINTS
 62
     0
100
AcDbPoint
 10
398.0600189177886
 20
134.1506929986001
 30
0.0
  0
ENDBLK
  5
1375
330
1373
100
AcDbEntity
  8
0
100
AcDbBlockEnd
  0
BLOCK
  5
1384
330
1383
100
AcDbEntity
  8
0
100
AcDbBlockBegin
  2
*D12
 70
     1
 10
0.0
 20
0.0
 30
0.0
  3
*D12
  1
*D22
  0
LINE
  5
1386
330
1383
100
AcDbEntity
  8
KOTY
 62
     0
100
AcDbLine
 10
401.9989469177885
 20
235.7576939706726
 30
0.0
 11
412.9227093336444
 21
235.7576939706726
 31
0.0
  0
LINE
  5
1387
330
1383
100
AcDbEntity
  8
KOTY
 62
     0
100
AcDbLine
 10
402.5394312988689
 20
142.361432319528
 30
0.0
 11
412.9227093336444
 21
142.361432319528
 31
0.0
  0
LINE
  5
1388
330
1383
100
AcDbEntity
  8
KOTY
 62
     0
100
AcDbLine
 10
412.7427093336444
 20
232.7576939706726
 30
0.0
 11
412.7427093336444
 21
145.361432319528
 31
0.0
  0
SOLID
  5
1389
330
1383
100
AcDbEntity
  8
KOTY
 62
     0
100
AcDbTrace
 10
413.2427093336444
 20
232.7576939706726
 30
0.0
 11
412.2427093336444
 21
232.7576939706726
 31
0.0
 12
412.7427093336444
 22
235.7576939706726
 32
0.0
 13
412.7427093336444
 23
235.7576939706726
 33
0.0
  0
SOLID
  5
138A
330
1383
100
AcDbEntity
  8
KOTY
 62
     0
100
AcDbTrace
 10
412.2427093336444
 20
145.361432319528
 30
0.0
 11
413.2427093336444
 21
145.361432319528
 31
0.0
 12
412.7427093336444
 22
142.361432319528
 32
0.0
 13
412.7427093336444
 23
142.361432319528
 33
0.0
  0
MTEXT
  5
138B
330
1383
100
AcDbEntity
  8
KOTY
 62
     0
100
AcDbMText
 10
410.2112093336444
 20
189.0595631451003
 30
0.0
 40
3.0
 41
0.0
 46
0.0
 71
     5
 72
     1
  1
\A1;94
 11
0.0
 21
1.0
 31
0.0
 73
     1
 44
1.0
  0
POINT
  5
138C
330
1383
100
AcDbEntity
  8
DEFPOINTS
 62
     0
100
AcDbPoint
 10
401.9364469177885
 20
235.7576939706726
 30
0.0
  0
POINT
  5
138D
330
1383
100
AcDbEntity
  8
DEFPOINTS
 62
     0
100
AcDbPoint
 10
402.4769312988689
 20
142.361432319528
 30
0.0
  0
POINT
  5
138E
330
1383
100
AcDbEntity
  8
DEFPOINTS
 62
     0
100
AcDbPoint
 10
412.7427093336444
 20
142.361432319528
 30
0.0
  0
ENDBLK
  5
1385
330
1383
100
AcDbEntity
  8
0
100
AcDbBlockEnd
  0
BLOCK
  5
1990
330
198F
100
AcDbEntity
  8
0
100
AcDbBlockBegin
  2
DIMNDRAFT3D6
 70
     0
 10
0.0
 20
0.0
 30
0.0
  3
DIMNDRAFT3D6
  1
DimnDraft3D6
  0
LINE
  5
1991
330
198F
100
AcDbEntity
  8
1
  6
Continuous
 62
    18
100
AcDbLine
 10
0.0000000525732275
 20
34.469133
 30
0.0
 11
0.0000000525732275
 21
0.0
 31
0.0
  0
LINE
  5
1992
330
198F
100
AcDbEntity
  8
1
  6
Continuous
 62
    18
100
AcDbLine
 10
35.80000005257318
 20
34.469133
 30
0.0
 11
35.80000005257318
 21
0.0
 31
0.0
  0
LINE
  5
1993
330
198F
100
AcDbEntity
  8
1
  6
Continuous
 62
    18
100
AcDbLine
 10
3.500000052573228
 20
1.0
 30
0.0
 11
32.30000005257318
 21
1.0
 31
0.0
  0
SOLID
  5
1994
330
198F
100
AcDbEntity
  8
1
 62
    18
100
AcDbTrace
 10
3.500000052573228
 20
1.583333333333333
 30
0.0
 11
3.500000052573228
 21
0.4166666666666666
 31
0.0
 12
0.0000000525732275
 22
1.0
 32
0.0
 13
0.0000000525732275
 23
1.0
 33
0.0
  0
SOLID
  5
1995
330
198F
100
AcDbEntity
  8
1
 62
    18
100
AcDbTrace
 10
32.30000005257318
 20
0.4166666666666666
 30
0.0
 11
32.30000005257318
 21
1.583333333333333
 31
0.0
 12
35.80000005257318
 22
1.0
 32
0.0
 13
35.80000005257318
 23
1.0
 33
0.0
  0
MTEXT
  5
1996
330
198F
100
AcDbEntity
  8
1
 62
    18
100
AcDbMText
 10
15.39764705257323
 20
6.0525
 30
0.0
 40
5.0
 41
0.0
 46
0.0
 71
     5
 72
     1
  1
\A1;\C18;36
  7
ARIAL
 73
     1
 44
1.0
  0
POINT
  5
199A
330
198F
100
AcDbEntity
  8
DEFPOINTS
 62
     0
100
AcDbPoint
 10
0.0000000525732275
 20
34.469133
 30
0.0
  0
POINT
  5
199B
330
198F
100
AcDbEntity
  8
DEFPOINTS
 62
     0
100
AcDbPoint
 10
35.80000005257318
 20
34.469133
 30
0.0
  0
POINT
  5
199C
330
198F
100
AcDbEntity
  8
DEFPOINTS
 62
     0
100
AcDbPoint
 10
35.80000005257318
 20
1.0
 30
0.0
  0
ENDBLK
  5
1997
330
198F
100
AcDbEntity
  8
0
100
AcDbBlockEnd
  0
BLOCK
  5
236B
330
236A
100
AcDbEntity
  8
0
100
AcDbBlockBegin
  2
DIMNDRAFT3D15
 70
     0
 10
0.0
 20
0.0
 30
0.0
  3
DIMNDRAFT3D15
  1
DimnDraft3D15
  0
LINE
  5
236C
330
236A
100
AcDbEntity
  8
1
  6
Continuous
 62
    18
100
AcDbLine
 10
0.0000000525731707
 20
34.469133
 30
0.0
 11
0.0000000525731707
 21
0.0
 31
0.0
  0
LINE
  5
236D
330
236A
100
AcDbEntity
  8
1
  6
Continuous
 62
    18
100
AcDbLine
 10
17.80000005257318
 20
34.469133
 30
0.0
 11
17.80000005257318
 21
0.0
 31
0.0
  0
LINE
  5
236E
330
236A
100
AcDbEntity
  8
1
  6
Continuous
 62
    18
100
AcDbLine
 10
3.500000052573171
 20
1.0
 30
0.0
 11
14.30000005257318
 21
1.0
 31
0.0
  0
SOLID
  5
236F
330
236A
100
AcDbEntity
  8
1
 62
    18
100
AcDbTrace
 10
3.500000052573171
 20
1.583333333333333
 30
0.0
 11
3.500000052573171
 21
0.4166666666666666
 31
0.0
 12
0.0000000525731707
 22
1.0
 32
0.0
 13
0.0000000525731707
 23
1.0
 33
0.0
  0
SOLID
  5
2370
330
236A
100
AcDbEntity
  8
1
 62
    18
100
AcDbTrace
 10
14.30000005257318
 20
0.4166666666666666
 30
0.0
 11
14.30000005257318
 21
1.583333333333333
 31
0.0
 12
17.80000005257318
 22
1.0
 32
0.0
 13
17.80000005257318
 23
1.0
 33
0.0
  0
MTEXT
  5
2371
330
236A
100
AcDbEntity
  8
1
 62
    18
100
AcDbMText
 10
8.224907052573172
 20
6.0525
 30
0.0
 40
5.0
 41
0.0
 46
0.0
 71
     5
 72
     1
  1
\A1;\C18;18
  7
ARIAL
 73
     1
 44
1.0
  0
POINT
  5
2375
330
236A
100
AcDbEntity
  8
DEFPOINTS
 62
     0
100
AcDbPoint
 10
0.0000000525731707
 20
34.469133
 30
0.0
  0
POINT
  5
2376
330
236A
100
AcDbEntity
  8
DEFPOINTS
 62
     0
100
AcDbPoint
 10
17.80000005257318
 20
34.469133
 30
0.0
  0
POINT
  5
2377
330
236A
100
AcDbEntity
  8
DEFPOINTS
 62
     0
100
AcDbPoint
 10
17.80000005257318
 20
1.0
 30
0.0
  0
ENDBLK
  5
2372
330
236A
100
AcDbEntity
  8
0
100
AcDbBlockEnd
  0
BLOCK
  5
26DE
330
26DD
100
AcDbEntity
  8
0
100
AcDbBlockBegin
  2
*D15
 70
     1
 10
0.0
 20
0.0
 30
0.0
  3
*D15
  1
*D26
  0
LINE
  5
26E0
330
26DD
100
AcDbEntity
  8
KOTY
 62
     0
100
AcDbLine
 10
438.1091869906524
 20
146.0951929706726
 30
0.0
 11
438.1091869906524
 21
122.4558462391053
 31
0.0
  0
LINE
  5
26E1
330
26DD
100
AcDbEntity
  8
KOTY
 62
     0
100
AcDbLine
 10
455.9091869906524
 20
146.0951929706726
 30
0.0
 11
455.9091869906524
 21
122.4558462391053
 31
0.0
  0
LINE
  5
26E2
330
26DD
100
AcDbEntity
  8
KOTY
 62
     0
100
AcDbLine
 10
441.1091869906524
 20
122.6358462391053
 30
0.0
 11
452.9091869906524
 21
122.6358462391053
 31
0.0
  0
SOLID
  5
26E3
330
26DD
100
AcDbEntity
  8
KOTY
 62
     0
100
AcDbTrace
 10
441.1091869906524
 20
123.1358462391053
 30
0.0
 11
441.1091869906524
 21
122.1358462391053
 31
0.0
 12
438.1091869906524
 22
122.6358462391053
 32
0.0
 13
438.1091869906524
 23
122.6358462391053
 33
0.0
  0
SOLID
  5
26E4
330
26DD
100
AcDbEntity
  8
KOTY
 62
     0
100
AcDbTrace
 10
452.9091869906524
 20
122.1358462391053
 30
0.0
 11
452.9091869906524
 21
123.1358462391053
 31
0.0
 12
455.9091869906524
 22
122.6358462391053
 32
0.0
 13
455.9091869906524
 23
122.6358462391053
 33
0.0
  0
MTEXT
  5
26E5
330
26DD
100
AcDbEntity
  8
KOTY
 62
     0
100
AcDbMText
 10
447.0091869906524
 20
125.1673462391053
 30
0.0
 40
3.0
 41
0.0
 46
0.0
 71
     5
 72
     1
  1
\A1;18
 73
     1
 44
1.0
  0
POINT
  5
26E6
330
26DD
100
AcDbEntity
  8
DEFPOINTS
 62
     0
100
AcDbPoint
 10
438.1091869906524
 20
146.1576929706726
 30
0.0
  0
POINT
  5
26E7
330
26DD
100
AcDbEntity
  8
DEFPOINTS
 62
     0
100
AcDbPoint
 10
455.9091869906524
 20
146.1576929706726
 30
0.0
  0
POINT
  5
26E8
330
26DD
100
AcDbEntity
  8
DEFPOINTS
 62
     0
100
AcDbPoint
 10
455.9091869906524
 20
122.6358462391053
 30
0.0
  0
ENDBLK
  5
26DF
330
26DD
100
AcDbEntity
  8
0
100
AcDbBlockEnd
  0
ENDSEC
  0
SECTION
  2
ENTITIES
  0
LINE
  5
2E4
330
1F
100
AcDbEntity
  8
OBRYS
  6
Continuous
100
AcDbLine
 10
355.0314049177886
 20
149.7049199706726
 30
0.0
 11
354.9303099177886
 21
149.7632869706726
 31
0.0
  0
LINE
  5
2EA
330
1F
100
AcDbEntity
  8
OBRYS
  6
Continuous
100
AcDbLine
 10
400.8104482467792
 20
145.9493173339249
 30
0.0
 11
400.8100179177886
 21
142.5614299706726
 31
0.0
  0
LINE
  5
2F2
330
1F
100
AcDbEntity
  8
OBRYS
  6
Continuous
100
AcDbLine
 10
398.0600179177886
 20
142.5614299706726
 30
0.0
 11
398.0604483635999
 21
145.9498841291911
 31
0.0
  0
LINE
  5
312
330
1F
100
AcDbEntity
  8
OBRYS
  6
Continuous
100
AcDbLine
 10
354.1600189177885
 20
232.3156639706726
 30
0.0
 11
354.7963379177885
 21
232.6830429706726
 31
0.0
  0
LINE
  5
316
330
1F
100
AcDbEntity
  8
OBRYS
  6
Continuous
100
AcDbLine
 10
354.6636739177886
 20
149.8025649706726
 30
0.0
 11
355.1629769177886
 21
150.6673819706726
 31
0.0
  0
LINE
  5
319
330
1F
100
AcDbEntity
  8
OBRYS
  6
Continuous
100
AcDbLine
 10
354.0600189177886
 20
149.5729289706726
 30
0.0
 11
354.0600189177886
 21
168.3576939706726
 31
0.0
  0
LINE
  5
31C
330
1F
100
AcDbEntity
  8
OBRYS
  6
Continuous
100
AcDbLine
 10
354.0600189177886
 20
213.3576939706726
 30
0.0
 11
354.0600189177886
 21
232.1424589706726
 31
0.0
  0
LINE
  5
31D
330
1F
100
AcDbEntity
  8
OBRYS
  6
Continuous
100
AcDbLine
 10
360.1683479177885
 20
235.7576939706726
 30
0.0
 11
401.9364469177885
 21
235.7576939706726
 31
0.0
  0
LINE
  5
31E
330
1F
100
AcDbEntity
  8
OBRYS
  6
Continuous
100
AcDbLine
 10
403.0598279177885
 20
151.3533359706726
 30
0.0
 11
403.0600219177886
 21
172.2576959706726
 31
0.0
  0
LINE
  5
322
330
1F
100
AcDbEntity
  8
OBRYS
  6
Continuous
100
AcDbLine
 10
403.3600189177886
 20
206.6076939706726
 30
0.0
 11
400.4435869177886
 21
206.6076939706726
 31
0.0
  0
LINE
  5
328
330
1F
100
AcDbEntity
  8
OBRYS
  6
Continuous
100
AcDbLine
 10
354.7963379177885
 20
149.0323449706726
 30
0.0
 11
354.1600189177885
 21
149.3997239706726
 31
0.0
  0
LINE
  5
329
330
1F
100
AcDbEntity
  8
OBRYS
  6
Continuous
100
AcDbLine
 10
331.9600189177886
 20
213.3576939706726
 30
0.0
 11
354.0600189177886
 21
213.3576939706726
 31
0.0
  0
LINE
  5
32C
330
1F
100
AcDbEntity
  8
OBRYS
  6
Continuous
100
AcDbLine
 10
403.5600189177886
 20
224.7576939706726
 30
0.0
 11
403.5600189177886
 21
206.8076939706726
 31
0.0
  0
LINE
  5
335
330
1F
100
AcDbEntity
  8
OBRYS
  6
Continuous
100
AcDbLine
 10
355.0966869177886
 20
149.5525649706726
 30
0.0
 11
354.6636739177886
 21
149.8025649706726
 31
0.0
  0
LINE
  5
338
330
1F
100
AcDbEntity
  8
OBRYS
  6
Continuous
100
AcDbLine
 10
360.0683479177886
 20
145.9844889706726
 30
0.0
 11
359.3854719177885
 21
146.3787479706726
 31
0.0
  0
LINE
  5
339
330
1F
100
AcDbEntity
  8
OBRYS
  6
Continuous
100
AcDbLine
 10
398.0600189177886
 20
172.4576959706726
 30
0.0
 11
402.8600219177886
 21
172.4576959706726
 31
0.0
  0
LINE
  5
342
330
1F
100
AcDbEntity
  8
OBRYS
  6
Continuous
100
AcDbLine
 10
355.1629769177886
 20
150.6673819706726
 30
0.0
 11
356.8077369177886
 21
149.7177789706726
 31
0.0
  0
LINE
  5
346
330
1F
100
AcDbEntity
  8
OBRYS
  6
Continuous
100
AcDbLine
 10
402.63240814749
 20
145.9489418145463
 30
0.0
 11
360.1683479177885
 21
145.9576939706726
 31
0.0
  0
LINE
  5
349
330
1F
100
AcDbEntity
  8
OBRYS
  6
Continuous
100
AcDbLine
 10
360.6181352347754
 20
147.5137837876596
 30
0.0
 11
360.1188329177886
 21
146.6489669706726
 31
0.0
  0
LINE
  5
34C
330
1F
100
AcDbEntity
  8
OBRYS
  6
Continuous
100
AcDbLine
 10
360.1188329177886
 20
146.6489669706726
 30
0.0
 11
359.6858199177885
 21
146.8989669706726
 31
0.0
  0
LINE
  5
34F
330
1F
100
AcDbEntity
  8
OBRYS
  6
Continuous
100
AcDbLine
 10
359.8521629177886
 20
146.9216539706726
 30
0.0
 11
359.9532569177886
 21
146.8632869706726
 31
0.0
  0
LINE
  5
351
330
1F
100
AcDbEntity
  8
OBRYS
  6
Continuous
100
AcDbLine
 10
355.9425219177886
 20
150.1026469706726
 30
0.0
 11
355.3303099177886
 21
150.4561069706726
 31
0.0
  0
LINE
  5
355
330
1F
100
AcDbEntity
  8
OBRYS
  6
Continuous
100
AcDbLine
 10
359.3531499177886
 20
235.1880999706726
 30
0.0
 11
359.5883329177885
 21
234.8522239706726
 31
0.0
  0
LINE
  5
356
330
1F
100
AcDbEntity
  8
OBRYS
  6
Continuous
100
AcDbLine
 10
356.8077359177886
 20
231.9976089706726
 30
0.0
 11
355.1629769177886
 21
231.0480059706726
 31
0.0
  0
LINE
  5
35D
330
1F
100
AcDbEntity
  8
OBRYS
  6
Continuous
100
AcDbLine
 10
354.6636739177886
 20
231.9128229706726
 30
0.0
 11
355.0966869177886
 21
232.1628229706726
 31
0.0
  0
LINE
  5
35F
330
1F
100
AcDbEntity
  8
OBRYS
  6
Continuous
100
AcDbLine
 10
359.6858199177885
 20
146.8989669706726
 30
0.0
 11
359.3854719177885
 21
146.3787479706726
 31
0.0
  0
LINE
  5
360
330
1F
100
AcDbEntity
  8
OBRYS
  6
Continuous
100
AcDbLine
 10
354.0600189177886
 20
220.4141699706726
 30
0.0
 11
354.0600189177886
 21
220.4141809706726
 31
0.0
  0
LINE
  5
361
330
1F
100
AcDbEntity
  8
OBRYS
  6
Continuous
100
AcDbLine
 10
358.9733749177886
 20
148.4633869706726
 30
0.0
 11
360.6181352347741
 21
147.5137837876604
 31
0.0
  0
LINE
  5
362
330
1F
100
AcDbEntity
  8
OBRYS
  6
Continuous
100
AcDbLine
 10
355.9467529177886
 20
149.2996129706726
 30
0.0
 11
356.0923699177886
 21
149.5623129706726
 31
0.0
  0
LINE
  5
366
330
1F
100
AcDbEntity
  8
OBRYS
  6
Continuous
100
AcDbLine
 10
354.9393809177886
 20
232.6398089706726
 30
0.0
 11
355.1126659177886
 21
232.2681969706726
 31
0.0
  0
LINE
  5
368
330
1F
100
AcDbEntity
  8
OBRYS
  6
Continuous
100
AcDbLine
 10
355.9425219177886
 20
231.6127419706726
 30
0.0
 11
355.3303099177886
 21
231.2592809706726
 31
0.0
  0
LINE
  5
369
330
1F
100
AcDbEntity
  8
OBRYS
  6
Continuous
100
AcDbLine
 10
354.7963379177885
 20
149.0323449706726
 30
0.0
 11
355.0966869177886
 21
149.5525649706726
 31
0.0
  0
LINE
  5
36A
330
1F
100
AcDbEntity
  8
OBRYS
  6
Continuous
100
AcDbLine
 10
360.1188329177886
 20
235.0664209706726
 30
0.0
 11
360.6181346546731
 21
234.2016038187628
 31
0.0
  0
LINE
  5
36C
330
1F
100
AcDbEntity
  8
OBRYS
  6
Continuous
100
AcDbLine
 10
359.6858199177885
 20
234.8164209706726
 30
0.0
 11
360.1188329177886
 21
235.0664209706726
 31
0.0
  0
LINE
  5
36D
330
1F
100
AcDbEntity
  8
OBRYS
  6
Continuous
100
AcDbLine
 10
354.0600189177886
 20
230.3512079706726
 30
0.0
 11
354.0600189177886
 21
230.3512179706726
 31
0.0
  0
LINE
  5
372
330
1F
100
AcDbEntity
  8
OBRYS
  6
Continuous
100
AcDbLine
 10
355.9467529177886
 20
232.4157749706726
 30
0.0
 11
356.0923699177886
 21
232.1530759706726
 31
0.0
  0
LINE
  5
375
330
1F
100
AcDbEntity
  8
OBRYS
  6
Continuous
100
AcDbLine
 10
355.0966869177886
 20
232.1628229706726
 30
0.0
 11
354.7963379177885
 21
232.6830429706726
 31
0.0
  0
LINE
  5
377
330
1F
100
AcDbEntity
  8
OBRYS
  6
Continuous
100
AcDbLine
 10
359.3854719177885
 20
235.3366399706726
 30
0.0
 11
359.6858199177885
 21
234.8164209706726
 31
0.0
  0
LINE
  5
378
330
1F
100
AcDbEntity
  8
OBRYS
  6
Continuous
100
AcDbLine
 10
360.6181349177886
 20
234.2016039706726
 30
0.0
 11
358.9733739177885
 21
233.2520009706726
 31
0.0
  0
LINE
  5
37D
330
1F
100
AcDbEntity
  8
OBRYS
  6
Continuous
100
AcDbLine
 10
359.0434829177885
 20
147.5117149706726
 30
0.0
 11
359.1981789177886
 21
147.7691729706726
 31
0.0
  0
LINE
  5
37F
330
1F
100
AcDbEntity
  8
OBRYS
  6
Continuous
100
AcDbLine
 10
354.9393809177886
 20
149.0755789706726
 30
0.0
 11
355.1126659177886
 21
149.4471909706726
 31
0.0
  0
LINE
  5
381
330
1F
100
AcDbEntity
  8
OBRYS
  6
Continuous
100
AcDbLine
 10
359.8521629177886
 20
234.7937339706726
 30
0.0
 11
359.9532569177886
 21
234.8521009706726
 31
0.0
  0
LINE
  5
385
330
1F
100
AcDbEntity
  8
OBRYS
  6
Continuous
100
AcDbLine
 10
359.3531499177886
 20
146.5272889706726
 30
0.0
 11
359.5883329177885
 21
146.8631639706726
 31
0.0
  0
LINE
  5
388
330
1F
100
AcDbEntity
  8
OBRYS
  6
Continuous
100
AcDbLine
 10
355.0314049177886
 20
232.0104679706726
 30
0.0
 11
354.9303099177886
 21
231.9521009706726
 31
0.0
  0
LINE
  5
38B
330
1F
100
AcDbEntity
  8
OBRYS
  6
Continuous
100
AcDbLine
 10
359.0434829177885
 20
234.2036729706726
 30
0.0
 11
359.1981789177886
 21
233.9462149706726
 31
0.0
  0
LINE
  5
38F
330
1F
100
AcDbEntity
  8
OBRYS
  6
Continuous
100
AcDbLine
 10
359.7410459177886
 20
233.8058199706726
 30
0.0
 11
360.3532569177886
 21
234.1592809706726
 31
0.0
  0
LINE
  5
390
330
1F
100
AcDbEntity
  8
OBRYS
  6
Continuous
100
AcDbLine
 10
355.1629769177886
 20
231.0480069706726
 30
0.0
 11
354.6636749659613
 21
231.912823575835
 31
0.0
  0
LINE
  5
398
330
1F
100
AcDbEntity
  8
OBRYS
  6
Continuous
100
AcDbLine
 10
400.2703819177885
 20
206.7076939706726
 30
0.0
 11
399.2600189177886
 21
208.4576939706726
 31
0.0
  0
LINE
  5
399
330
1F
100
AcDbEntity
  8
OBRYS
  6
Continuous
100
AcDbLine
 10
399.2600189177886
 20
208.4576939706726
 30
0.0
 11
398.0600189177886
 21
208.4576939706726
 31
0.0
  0
LINE
  5
3A5
330
1F
100
AcDbEntity
  8
OBRYS
  6
Continuous
100
AcDbLine
 10
398.0600189177886
 20
208.4576939706726
 30
0.0
 11
398.0600189177886
 21
172.4576959706726
 31
0.0
  0
LINE
  5
3AD
330
1F
100
AcDbEntity
  8
OBRYS
  6
Continuous
100
AcDbLine
 10
402.1347359177886
 20
235.5837989706726
 30
0.0
 11
403.5600189177886
 21
224.7576939706726
 31
0.0
  0
LINE
  5
3AF
330
1F
100
AcDbEntity
  8
OBRYS
  6
Continuous
100
AcDbLine
 10
331.7600189177886
 20
168.5576939706726
 30
0.0
 11
331.7600189177886
 21
213.1576939706726
 31
0.0
  0
LINE
  5
3B0
330
1F
100
AcDbEntity
  8
OBRYS
  6
Continuous
100
AcDbLine
 10
354.0600189177886
 20
168.3576939706726
 30
0.0
 11
331.9600189177886
 21
168.3576939706726
 31
0.0
  0
LINE
  5
3B1
330
1F
100
AcDbEntity
  8
OBRYS
  6
Continuous
100
AcDbLine
 10
359.3854717960643
 20
235.3366401815056
 30
0.0
 11
360.0683479177886
 21
235.7308989706726
 31
0.0
  0
LINE
  5
3B5
330
1F
100
AcDbEntity
  8
OBRYS
  6
Continuous
100
AcDbLine
 10
359.7410459177886
 20
147.9095679706726
 30
0.0
 11
360.3532569177886
 21
147.5561069706726
 31
0.0
  0
LINE
  5
3B9
330
1F
100
AcDbEntity
  8
OBRYS
  6
Continuous
100
AcDbLine
 10
403.0598279177885
 20
151.3533359706726
 30
0.0
 11
402.6755839177886
 21
142.5527059706726
 31
0.0
  0
LINE
  5
3BF
330
1F
100
AcDbEntity
  8
OBRYS
  6
Continuous
100
AcDbLine
 10
402.4757739177886
 20
142.3614289706726
 30
0.0
 11
398.2600179177886
 21
142.3614299706726
 31
0.0
  0
ARC
  5
3F1
330
1F
100
AcDbEntity
  8
OBRYS
  6
Continuous
100
AcDbCircle
 10
-356.1216769177886
 20
232.5127369706726
 30
0.0
 40
0.2
210
0.0
220
0.0
230
-1.0
100
AcDbArc
 50
331.0000000000053
 51
52.06319899999484
  0
ARC
  5
3F2
330
1F
100
AcDbEntity
  8
OBRYS
  6
Continuous
100
AcDbCircle
 10
359.5410459177886
 20
147.5631579706726
 30
0.0
 40
0.4
100
AcDbArc
 50
59.99999999999422
 51
148.9999999999991
  0
CIRCLE
  5
3F3
330
1F
100
AcDbEntity
  8
OBRYS
  6
Continuous
100
AcDbCircle
 10
394.5600189177886
 20
165.8576939706726
 30
0.0
 40
2.0
  0
ARC
  5
3F4
330
1F
100
AcDbEntity
  8
OBRYS
  6
Continuous
100
AcDbCircle
 10
355.7425219177886
 20
149.7562369706726
 30
0.0
 40
0.4
100
AcDbArc
 50
330.9999999999942
 51
59.99999999999925
  0
ARC
  5
3F5
330
1F
100
AcDbEntity
  8
OBRYS
  6
Continuous
100
AcDbCircle
 10
-358.8720489177886
 20
147.6147229706726
 30
0.0
 40
0.2
210
0.0
220
0.0
230
-1.0
100
AcDbArc
 50
210.9999999999925
 51
292.0631989999935
  0
ARC
  5
3F6
330
1F
100
AcDbEntity
  8
OBRYS
  6
Continuous
100
AcDbCircle
 10
-356.1216769177886
 20
149.2026509706726
 30
0.0
 40
0.2
210
0.0
220
0.0
230
-1.0
100
AcDbArc
 50
307.9368010000052
 51
28.99999999999473
  0
ARC
  5
3F7
330
1F
100
AcDbEntity
  8
OBRYS
  6
Continuous
100
AcDbCircle
 10
-354.9314049177885
 20
149.5317149706726
 30
0.0
 40
0.2
210
0.0
220
0.0
230
-1.0
100
AcDbArc
 50
120.0000000000038
 51
204.9999999999952
  0
ARC
  5
3F8
330
1F
100
AcDbEntity
  8
OBRYS
  6
Continuous
100
AcDbCircle
 10
400.6100179177886
 20
142.5614299706726
 30
0.0
 40
0.2
100
AcDbArc
 50
270.0
 51
0.0
  0
ARC
  5
3F9
330
1F
100
AcDbEntity
  8
OBRYS
  6
Continuous
100
AcDbCircle
 10
355.1206419177886
 20
148.9910559706726
 30
0.0
 40
0.2
100
AcDbArc
 50
155.0000000000048
 51
228.9900279999968
  0
ARC
  5
3FA
330
1F
100
AcDbEntity
  8
OBRYS
  6
Continuous
100
AcDbCircle
 10
400.4435869177886
 20
206.8076939706726
 30
0.0
 40
0.2
100
AcDbArc
 50
209.9999999999855
 51
270.0
  0
CIRCLE
  5
3FB
330
1F
100
AcDbEntity
  8
OBRYS
  6
Continuous
100
AcDbCircle
 10
-394.5600189177886
 20
215.8576939706726
 30
0.0
 40
0.7749999999999984
210
0.0
220
0.0
230
-1.0
  0
CIRCLE
  5
3FC
330
1F
100
AcDbEntity
  8
OBRYS
  6
Continuous
100
AcDbCircle
 10
-359.0600189177886
 20
217.3576939706726
 30
0.0
 40
0.7749999999999984
210
0.0
220
0.0
230
-1.0
  0
ARC
  5
3FD
330
1F
100
AcDbEntity
  8
OBRYS
  6
Continuous
100
AcDbCircle
 10
355.1303099177886
 20
150.1096969706726
 30
0.0
 40
0.4
100
AcDbArc
 50
60.00000000000129
 51
98.783576548096
  0
CIRCLE
  5
3FE
330
1F
100
AcDbEntity
  8
OBRYS
  6
Continuous
100
AcDbCircle
 10
-359.0600189177886
 20
164.3576939706726
 30
0.0
 40
0.7749999999999984
210
0.0
220
0.0
230
-1.0
  0
ARC
  5
3FF
330
1F
100
AcDbEntity
  8
OBRYS
  6
Continuous
100
AcDbCircle
 10
-358.8720489177886
 20
234.1006649706726
 30
0.0
 40
0.2
210
0.0
220
0.0
230
-1.0
100
AcDbArc
 50
67.93680100000643
 51
149.0000000000075
  0
ARC
  5
400
330
1F
100
AcDbEntity
  8
OBRYS
  6
Continuous
100
AcDbCircle
 10
-363.1917839177886
 20
158.2725789706726
 30
0.0
 40
11.7
210
0.0
220
0.0
230
-1.0
100
AcDbArc
 50
292.063199
 51
307.9368009999999
  0
ARC
  5
401
330
1F
100
AcDbEntity
  8
OBRYS
  6
Continuous
100
AcDbCircle
 10
355.1206419177886
 20
232.7243319706726
 30
0.0
 40
0.2
100
AcDbArc
 50
131.0099720000032
 51
204.9999999999952
  0
ARC
  5
402
330
1F
100
AcDbEntity
  8
OBRYS
  6
Continuous
100
AcDbCircle
 10
-359.7521629177886
 20
234.9669399706726
 30
0.0
 40
0.2
210
0.0
220
0.0
230
-1.0
100
AcDbArc
 50
239.9999999999922
 51
325.0000000000006
  0
ARC
  5
403
330
1F
100
AcDbEntity
  8
OBRYS
  6
Continuous
100
AcDbCircle
 10
402.63240814749
 20
146.1489418145463
 30
0.0
 40
0.2
100
AcDbArc
 50
270.0
 51
357.4999929999992
  0
ARC
  5
404
330
1F
100
AcDbEntity
  8
OBRYS
  6
Continuous
100
AcDbCircle
 10
360.1532569177887
 20
234.5056909706725
 30
0.0
 40
0.3999999999998904
100
AcDbArc
 50
299.9999999999978
 51
338.783632531472
  0
ARC
  5
405
330
1F
100
AcDbEntity
  8
OBRYS
  6
Continuous
100
AcDbCircle
 10
359.1893199177886
 20
235.0733839706726
 30
0.0
 40
0.2
100
AcDbArc
 50
34.99999999999923
 51
108.9900280000045
  0
ARC
  5
406
330
1F
100
AcDbEntity
  8
OBRYS
  6
Continuous
100
AcDbCircle
 10
359.1893199177886
 20
146.6420039706726
 30
0.0
 40
0.2
100
AcDbArc
 50
251.0099719999955
 51
325.0000000000006
  0
ARC
  5
407
330
1F
100
AcDbEntity
  8
OBRYS
  6
Continuous
100
AcDbCircle
 10
355.1303099177883
 20
231.6056909706728
 30
0.0
 40
0.3999999999997067
100
AcDbArc
 50
119.9999999999848
 51
158.7834454599002
  0
ARC
  5
408
330
1F
100
AcDbEntity
  8
OBRYS
  6
Continuous
100
AcDbCircle
 10
-354.9314049177885
 20
232.1836729706726
 30
0.0
 40
0.2
210
0.0
220
0.0
230
-1.0
100
AcDbArc
 50
155.0000000000048
 51
239.9999999999963
  0
ARC
  5
409
330
1F
100
AcDbEntity
  8
OBRYS
  6
Continuous
100
AcDbCircle
 10
-359.7521629177886
 20
146.7484489706726
 30
0.0
 40
0.2
210
0.0
220
0.0
230
-1.0
100
AcDbArc
 50
34.99999999999923
 51
120.0000000000078
  0
ARC
  5
40A
330
1F
100
AcDbEntity
  8
OBRYS
  6
Continuous
100
AcDbCircle
 10
363.1917839177886
 20
158.2725789706726
 30
0.0
 40
12.5
100
AcDbArc
 50
228.990028
 51
251.0099719999999
  0
CIRCLE
  5
40B
330
1F
100
AcDbEntity
  8
OBRYS
  6
Continuous
100
AcDbCircle
 10
359.0600189177886
 20
164.3576939706726
 30
0.0
 40
1.999999999999945
  0
ARC
  5
40C
330
1F
100
AcDbEntity
  8
OBRYS
  6
Continuous
100
AcDbCircle
 10
-363.1917839177886
 20
223.4428089706726
 30
0.0
 40
11.7
210
0.0
220
0.0
230
-1.0
100
AcDbArc
 50
52.06319899999987
 51
67.93680100000003
  0
CIRCLE
  5
40D
330
1F
100
AcDbEntity
  8
OBRYS
  6
Continuous
100
AcDbCircle
 10
-394.5600189177886
 20
165.8576939706726
 30
0.0
 40
0.7749999999999984
210
0.0
220
0.0
230
-1.0
  0
ARC
  5
40E
330
1F
100
AcDbEntity
  8
OBRYS
  6
Continuous
100
AcDbCircle
 10
363.1917839177886
 20
223.4428089706726
 30
0.0
 40
12.5
100
AcDbArc
 50
108.9900280000002
 51
131.0099720000001
  0
ARC
  5
410
330
1F
100
AcDbEntity
  8
OBRYS
  6
Continuous
100
AcDbCircle
 10
359.5410459177886
 20
234.1522309706726
 30
0.0
 40
0.4
100
AcDbArc
 50
211.0000000000009
 51
300.0000000000078
  0
ARC
  5
411
330
1F
100
AcDbEntity
  8
OBRYS
  6
Continuous
100
AcDbCircle
 10
-360.1683479177885
 20
146.1576939706726
 30
0.0
 40
0.2
210
0.0
220
0.0
230
-1.0
100
AcDbArc
 50
270.0
 51
299.9999999999896
  0
ARC
  5
412
330
1F
100
AcDbEntity
  8
OBRYS
  6
Continuous
100
AcDbCircle
 10
355.7425219177886
 20
231.9591519706726
 30
0.0
 40
0.4
100
AcDbArc
 50
300.0000000000008
 51
29.00000000000581
  0
ARC
  5
413
330
1F
100
AcDbEntity
  8
OBRYS
  6
Continuous
100
AcDbCircle
 10
-402.8600219177886
 20
172.2576959706726
 30
0.0
 40
0.2
210
0.0
220
0.0
230
-1.0
100
AcDbArc
 50
90.00000300000094
 51
180.0000069999968
  0
CIRCLE
  5
414
330
1F
100
AcDbEntity
  8
OBRYS
  6
Continuous
100
AcDbCircle
 10
359.0600189177886
 20
217.3576939706726
 30
0.0
 40
2.000000000000085
  0
ARC
  5
415
330
1F
100
AcDbEntity
  8
OBRYS
  6
Continuous
100
AcDbCircle
 10
-401.9364469177885
 20
235.5576939706726
 30
0.0
 40
0.2
210
0.0
220
0.0
230
-1.0
100
AcDbArc
 50
90.0
 51
172.4999999999986
  0
ARC
  5
416
330
1F
100
AcDbEntity
  8
OBRYS
  6
Continuous
100
AcDbCircle
 10
-398.2600179177886
 20
142.5614299706726
 30
0.0
 40
0.2
210
0.0
220
0.0
230
-1.0
100
AcDbArc
 50
270.0
 51
0.0
  0
CIRCLE
  5
417
330
1F
100
AcDbEntity
  8
OBRYS
  6
Continuous
100
AcDbCircle
 10
-394.5600189177886
 20
215.8576939706726
 30
0.0
 40
2.2
210
0.0
220
0.0
230
-1.0
  0
ARC
  5
418
330
1F
100
AcDbEntity
  8
OBRYS
  6
Continuous
100
AcDbCircle
 10
-354.2600189177886
 20
232.1424589706726
 30
0.0
 40
0.2
210
0.0
220
0.0
230
-1.0
100
AcDbArc
 50
0.0
 51
60.00000000001037
  0
ARC
  5
419
330
1F
100
AcDbEntity
  8
OBRYS
  6
Continuous
100
AcDbCircle
 10
402.4757739177886
 20
142.5614289706726
 30
0.0
 40
0.2
100
AcDbArc
 50
270.0
 51
357.4999999999987
  0
ARC
  5
41A
330
1F
100
AcDbEntity
  8
OBRYS
  6
Continuous
100
AcDbCircle
 10
331.9600189177886
 20
213.1576939706726
 30
0.0
 40
0.2
100
AcDbArc
 50
90.0
 51
180.0
  0
ARC
  5
41B
330
1F
100
AcDbEntity
  8
OBRYS
  6
Continuous
100
AcDbCircle
 10
403.3600189177886
 20
206.8076939706726
 30
0.0
 40
0.2
100
AcDbArc
 50
270.0
 51
0.0
  0
CIRCLE
  5
41D
330
1F
100
AcDbEntity
  8
OBRYS
  6
Continuous
100
AcDbCircle
 10
-359.0600189177886
 20
217.3576939706726
 30
0.0
 40
2.200000000000085
210
0.0
220
0.0
230
-1.0
  0
ARC
  5
41E
330
1F
100
AcDbEntity
  8
OBRYS
  6
Continuous
100
AcDbCircle
 10
354.2600189177886
 20
149.5729289706726
 30
0.0
 40
0.2
100
AcDbArc
 50
180.0
 51
240.0000000000063
  0
ARC
  5
41F
330
1F
100
AcDbEntity
  8
OBRYS
  6
Continuous
100
AcDbCircle
 10
-331.9600189177886
 20
168.5576939706726
 30
0.0
 40
0.2
210
0.0
220
0.0
230
-1.0
100
AcDbArc
 50
270.0
 51
0.0
  0
CIRCLE
  5
420
330
1F
100
AcDbEntity
  8
OBRYS
  6
Continuous
100
AcDbCircle
 10
-359.0600189177886
 20
164.3576939706726
 30
0.0
 40
2.199999999999945
210
0.0
220
0.0
230
-1.0
  0
CIRCLE
  5
421
330
1F
100
AcDbEntity
  8
OBRYS
  6
Continuous
100
AcDbCircle
 10
394.5600189177886
 20
215.8576939706726
 30
0.0
 40
2.0
  0
CIRCLE
  5
422
330
1F
100
AcDbEntity
  8
OBRYS
  6
Continuous
100
AcDbCircle
 10
-394.5600189177886
 20
165.8576939706726
 30
0.0
 40
2.2
210
0.0
220
0.0
230
-1.0
  0
ARC
  5
423
330
1F
100
AcDbEntity
  8
OBRYS
  6
Continuous
100
AcDbCircle
 10
-360.1683479177885
 20
235.5576939706726
 30
0.0
 40
0.2
210
0.0
220
0.0
230
-1.0
100
AcDbArc
 50
60.00000000001037
 51
90.0
  0
ARC
  5
424
330
1F
100
AcDbEntity
  8
OBRYS
  6
Continuous
100
AcDbCircle
 10
360.1532569177886
 20
147.2096969706725
 30
0.0
 40
0.3999999999999435
100
AcDbArc
 50
239.9999999999972
 51
278.7837235102699
  0
ARC
  5
1285
330
1F
100
AcDbEntity
  8
OBRYS
  6
Continuous
100
AcDbCircle
 10
355.1452900921807
 20
150.1270279937481
 30
0.0
 40
0.4225211530185476
100
AcDbArc
 50
202.9013451573865
 51
239.4158462699124
  0
ARC
  5
1286
330
1F
100
AcDbEntity
  8
OBRYS
  6
Continuous
100
AcDbCircle
 10
360.1532569177885
 20
147.2096969706725
 30
0.0
 40
0.4000000000000968
100
AcDbArc
 50
21.21626705880043
 51
59.99999999998921
  0
ARC
  5
1287
330
1F
100
AcDbEntity
  8
OBRYS
100
AcDbCircle
 10
358.3942296848468
 20
149.960143474439
 30
0.0
 40
1.604898704782981
100
AcDbArc
 50
188.6857780788603
 51
291.1532309743595
  0
ARC
  5
1288
330
1F
100
AcDbEntity
  8
OBRYS
  6
Continuous
100
AcDbCircle
 10
355.1303099177886
 20
231.6056909706726
 30
0.0
 40
0.4
100
AcDbArc
 50
261.2157102266676
 51
300.0000000000008
  0
ARC
  5
1289
330
1F
100
AcDbEntity
  8
OBRYS
100
AcDbCircle
 10
358.3942255953215
 20
231.7552455810674
 30
0.0
 40
1.604895471901022
100
AcDbArc
 50
68.84675922006521
 51
171.3142578848525
  0
ARC
  5
128A
330
1F
100
AcDbEntity
  8
OBRYS
  6
Continuous
100
AcDbCircle
 10
360.1532569177886
 20
234.5056909706726
 30
0.0
 40
0.4
100
AcDbArc
 50
81.21630003364423
 51
119.9999999999967
  0
DIMENSION
  5
1330
330
1F
100
AcDbEntity
  8
KOTY
100
AcDbDimension
280
     0
  2
*D7
 10
403.5600189177886
 20
245.8694714153149
 30
0.0
 11
367.6600189177885
 21
248.3754714153149
 31
0.0
 70
    32
 71
     5
 42
-1.0
 73
     0
 74
     0
 75
     0
  3
STANDARD
100
AcDbAlignedDimension
 13
331.7600189177886
 23
213.1576939706726
 33
0.0
 14
403.5600189177886
 24
224.7576939706726
 34
0.0
100
AcDbRotatedDimension
1001
ACAD
1000
DSTYLE
1002
{
1070
   271
1070
     0
1070
   278
1070
    44
1070
   140
1040
3.0
1070
    73
1070
     0
1070
    77
1070
     1
1070
   147
1040
1.0
1070
    41
1040
3.0
1002
}
  0
DIMENSION
  5
1340
330
1F
100
AcDbEntity
  8
KOTY
100
AcDbDimension
280
     0
  2
*D8
 10
320.473941592266
 20
213.3576939706726
 30
0.0
 11
317.948441592266
 21
190.8576939706726
 31
0.0
 70
    32
 71
     5
 42
-1.0
 73
     0
 74
     0
 75
     0
  3
STANDARD
100
AcDbAlignedDimension
 13
331.9600189177886
 23
168.3576939706726
 33
0.0
 14
331.9600189177886
 24
213.3576939706726
 34
0.0
 50
90.0
100
AcDbRotatedDimension
1001
ACAD
1000
DSTYLE
1002
{
1070
   271
1070
     0
1070
   278
1070
    44
1070
   140
1040
3.0
1070
    73
1070
     0
1070
    77
1070
     1
1070
   147
1040
1.0
1070
    41
1040
3.0
1002
}
  0
DIMENSION
  5
1350
330
1F
100
AcDbEntity
  8
KOTY
100
AcDbDimension
280
     0
  2
*D9
 10
310.5266136542384
 20
235.7576939706726
 30
0.0
 11
307.9951136542384
 21
190.8576939706726
 31
0.0
 70
    32
 71
     5
 42
-1.0
 73
     0
 74
     0
 75
     0
  3
STANDARD
100
AcDbAlignedDimension
 13
360.1683479177885
 23
145.9576939706726
 33
0.0
 14
360.1683479177885
 24
235.7576939706726
 34
0.0
 50
90.0
100
AcDbRotatedDimension
1001
ACAD
1000
DSTYLE
1002
{
1070
   271
1070
     0
1070
   278
1070
    44
1070
   140
1040
3.0
1070
    73
1070
     0
1070
    77
1070
     1
1070
   147
1040
1.0
1070
    41
1040
3.0
1002
}
  0
DIMENSION
  5
1360
330
1F
100
AcDbEntity
  8
KOTY
100
AcDbDimension
280
     0
  2
*D10
 10
398.0600189177886
 20
122.6358462391053
 30
0.0
 11
364.9100189177885
 21
125.1673462391053
 31
0.0
 70
    32
 71
     5
 42
-1.0
 73
     0
 74
     0
 75
     0
  3
STANDARD
100
AcDbAlignedDimension
 13
331.7600189177886
 23
168.5576939706726
 33
0.0
 14
398.0600189177886
 24
172.4576959706726
 34
0.0
100
AcDbRotatedDimension
1001
ACAD
1000
DSTYLE
1002
{
1070
   271
1070
     0
1070
   278
1070
    44
1070
   140
1040
3.0
1070
    73
1070
     0
1070
    77
1070
     1
1070
   147
1040
1.0
1070
    41
1040
3.0
1002
}
  0
DIMENSION
  5
1370
330
1F
100
AcDbEntity
  8
KOTY
100
AcDbDimension
280
     0
  2
*D11
 10
398.0600189177886
 20
134.1506929986001
 30
0.0
 11
376.0600189177886
 21
136.6506929986001
 31
0.0
 70
    32
 71
     5
 42
-1.0
 73
     0
 74
     0
 75
     0
  3
STANDARD
100
AcDbAlignedDimension
 13
354.0600189177886
 23
149.5729289706726
 33
0.0
 14
398.0600189177886
 24
172.4576959706726
 34
0.0
100
AcDbRotatedDimension
1001
ACAD
1000
DSTYLE
1002
{
1070
   271
1070
     0
1070
   278
1070
    44
1070
   140
1040
3.0
1070
    73
1070
     0
1070
    77
1070
     1
1070
   147
1040
1.0
1070
    41
1040
3.0
1002
}
  0
DIMENSION
  5
1380
330
1F
100
AcDbEntity
  8
KOTY
100
AcDbDimension
280
     0
  2
*D12
 10
412.7427093336444
 20
142.361432319528
 30
0.0
 11
410.2112093336444
 21
189.0595631451003
 31
0.0
 70
    32
  1
94
 71
     5
 42
-1.0
 73
     0
 74
     0
 75
     0
  3
STANDARD
100
AcDbAlignedDimension
 13
401.9364469177885
 23
235.7576939706726
 33
0.0
 14
402.4769312988689
 24
142.361432319528
 34
0.0
 50
90.0
100
AcDbRotatedDimension
1001
ACAD
1000
DSTYLE
1002
{
1070
   271
1070
     3
1070
   278
1070
    44
1070
   140
1040
3.0
1070
    73
1070
     0
1070
    77
1070
     1
1070
   147
1040
1.0
1070
    41
1040
3.0
1002
}
  0
LINE
  5
2383
330
1F
100
AcDbEntity
  8
OBRYS
  6
Continuous
100
AcDbLine
 10
451.7591869906524
 20
227.3007979706726
 30
0.0
 11
451.7591869906524
 21
223.6645879706726
 31
0.0
  0
LINE
  5
2387
330
1F
100
AcDbEntity
  8
OBRYS
  6
Continuous
100
AcDbLine
 10
455.9091869906524
 20
235.2733829706726
 30
0.0
 11
438.1091869906523
 21
235.2733829706726
 31
0.0
  0
LINE
  5
239D
330
1F
100
AcDbEntity
  8
OBRYS
  6
Continuous
100
AcDbLine
 10
439.0245219906524
 20
153.0326929706726
 30
0.0
 11
439.0245219906524
 21
159.6827479706726
 31
0.0
  0
LINE
  5
23A1
330
1F
100
AcDbEntity
  8
OBRYS
  6
Continuous
100
AcDbLine
 10
440.2791599906524
 20
160.9380109706726
 30
0.0
 11
453.7392149906524
 21
160.9380109706726
 31
0.0
  0
LINE
  5
23A2
330
1F
100
AcDbEntity
  8
OBRYS
  6
Continuous
100
AcDbLine
 10
446.6091869906523
 20
227.3007979706726
 30
0.0
 11
446.6091869906523
 21
223.6645879706726
 31
0.0
  0
LINE
  5
23A3
330
1F
100
AcDbEntity
  8
OBRYS
  6
Continuous
100
AcDbLine
 10
454.9938529906524
 20
159.6826929706726
 30
0.0
 11
454.9938529906524
 21
153.0326379706726
 31
0.0
  0
LINE
  5
23A7
330
1F
100
AcDbEntity
  8
OBRYS
  6
Continuous
100
AcDbLine
 10
438.1091869906523
 20
146.4420029706726
 30
0.0
 11
455.9091869906524
 21
146.4420029706726
 31
0.0
  0
LINE
  5
23AA
330
1F
100
AcDbEntity
  8
OBRYS
  6
Continuous
100
AcDbLine
 10
446.6091869906523
 20
154.4145745586873
 30
0.0
 11
446.6091869906523
 21
158.0508113826579
 31
0.0
  0
LINE
  5
23B0
330
1F
100
AcDbEntity
  8
OBRYS
  6
Continuous
100
AcDbLine
 10
453.7392149906524
 20
151.7773759706726
 30
0.0
 11
440.2791599906524
 21
151.7773759706726
 31
0.0
  0
LINE
  5
23B2
330
1F
100
AcDbEntity
  8
OBRYS
  6
Continuous
100
AcDbLine
 10
452.5591869906524
 20
227.3007979706726
 30
0.0
 11
452.5591869906524
 21
223.6645879706726
 31
0.0
  0
LINE
  5
23B5
330
1F
100
AcDbEntity
  8
OBRYS
  6
Continuous
100
AcDbLine
 10
447.4091869906524
 20
227.3007979706726
 30
0.0
 11
447.4091869906524
 21
223.6645879706726
 31
0.0
  0
LINE
  5
23BC
330
1F
100
AcDbEntity
  8
OBRYS
  6
Continuous
100
AcDbLine
 10
447.4091869906524
 20
154.4145745586873
 30
0.0
 11
447.4091869906524
 21
158.0508113826579
 31
0.0
  0
LINE
  5
23CA
330
1F
100
AcDbEntity
  8
OBRYS
  6
Continuous
100
AcDbLine
 10
447.0091869906524
 20
146.4420019706726
 30
0.0
 11
447.0091874906524
 21
145.9576929706726
 31
0.0
  0
LINE
  5
23CC
330
1F
100
AcDbEntity
  8
OBRYS
  6
Continuous
100
AcDbLine
 10
439.0245219906524
 20
222.0326929706726
 30
0.0
 11
439.0245219906524
 21
228.6827479706726
 31
0.0
  0
LINE
  5
23D4
330
1F
100
AcDbEntity
  8
OBRYS
  6
Continuous
100
AcDbLine
 10
451.7591869906524
 20
154.4145745586873
 30
0.0
 11
451.7591869906524
 21
158.0508113826579
 31
0.0
  0
LINE
  5
23DB
330
1F
100
AcDbEntity
  8
OBRYS
  6
Continuous
100
AcDbLine
 10
440.2791599906524
 20
229.9380109706726
 30
0.0
 11
453.7392149906524
 21
229.9380109706726
 31
0.0
  0
LINE
  5
23E2
330
1F
100
AcDbEntity
  8
OBRYS
  6
Continuous
100
AcDbLine
 10
452.5591869906524
 20
154.4145745586873
 30
0.0
 11
452.5591869906524
 21
158.0508113826579
 31
0.0
  0
LINE
  5
23F0
330
1F
100
AcDbEntity
  8
OBRYS
  6
Continuous
100
AcDbLine
 10
454.9938529906524
 20
228.6826929706726
 30
0.0
 11
454.9938529906524
 21
222.0326379706726
 31
0.0
  0
LINE
  5
23F3
330
1F
100
AcDbEntity
  8
OBRYS
  6
Continuous
100
AcDbLine
 10
447.0091869906524
 20
235.7576929706726
 30
0.0
 11
447.0091869906524
 21
235.2733839706726
 31
0.0
  0
LINE
  5
23F6
330
1F
100
AcDbEntity
  8
OBRYS
  6
Continuous
100
AcDbLine
 10
453.7392149906524
 20
220.7773759706726
 30
0.0
 11
440.2791599906524
 21
220.7773759706726
 31
0.0
  0
LINE
  5
240F
330
1F
100
AcDbEntity
  8
OBRYS
  6
Continuous
100
AcDbLine
 10
455.9091869906524
 20
149.0326929706726
 30
0.0
 11
438.1091869906524
 21
149.0326929706726
 31
0.0
  0
LINE
  5
241C
330
1F
100
AcDbEntity
  8
OBRYS
  6
Continuous
100
AcDbLine
 10
455.9091869906524
 20
235.5576929706726
 30
0.0
 11
455.9091869906524
 21
146.1576929706726
 31
0.0
  0
LINE
  5
2424
330
1F
100
AcDbEntity
  8
OBRYS
  6
Continuous
100
AcDbLine
 10
455.0591869906524
 20
221.9826929706726
 30
0.0
 11
455.0591869906524
 21
228.7826929706726
 31
0.0
  0
LINE
  5
243E
330
1F
100
AcDbEntity
  8
OBRYS
  6
Continuous
100
AcDbLine
 10
440.2478429906524
 20
151.6597579706726
 30
0.0
 11
453.7719927869942
 21
151.671067044672
 31
0.0
  0
LINE
  5
2444
330
1F
100
AcDbEntity
  8
OBRYS
  6
Continuous
100
AcDbLine
 10
438.1091869906523
 20
232.3156629706726
 30
0.0
 11
455.9091869906524
 21
232.3156629706726
 31
0.0
  0
LINE
  5
244D
330
1F
100
AcDbEntity
  8
OBRYS
  6
Continuous
100
AcDbLine
 10
438.9591869906524
 20
228.7939889706726
 30
0.0
 11
438.9591869906524
 21
221.9713979706726
 31
0.0
  0
LINE
  5
244E
330
1F
100
AcDbEntity
  8
OBRYS
  6
Continuous
100
AcDbLine
 10
453.7719929737065
 20
230.0826298948339
 30
0.0
 11
440.2478429906524
 21
230.0939389706726
 31
0.0
  0
LINE
  5
2450
330
1F
100
AcDbEntity
  8
OBRYS
  6
Continuous
100
AcDbLine
 10
453.7719929737065
 20
161.0326298948339
 30
0.0
 11
440.2478429906524
 21
161.0439389706726
 31
0.0
  0
LINE
  5
2452
330
1F
100
AcDbEntity
  8
OBRYS
  6
Continuous
100
AcDbLine
 10
438.9591869906524
 20
159.7439889706726
 30
0.0
 11
438.9591869906524
 21
152.9597089706726
 31
0.0
  0
LINE
  5
2453
330
1F
100
AcDbEntity
  8
OBRYS
  6
Continuous
100
AcDbLine
 10
447.0091869906524
 20
232.6793334706726
 30
0.0
 11
447.0088978550709
 21
230.0882852857972
 31
0.0
  0
LINE
  5
2457
330
1F
100
AcDbEntity
  8
OBRYS
  6
Continuous
100
AcDbLine
 10
447.0091869906524
 20
168.2029629706726
 30
0.0
 11
447.0091869906524
 21
161.3840529706726
 31
0.0
  0
LINE
  5
2460
330
1F
100
AcDbEntity
  8
OBRYS
  6
Continuous
100
AcDbLine
 10
447.0091869906524
 20
220.3313339706726
 30
0.0
 11
447.0091869906524
 21
213.4600579706726
 31
0.0
  0
LINE
  5
246A
330
1F
100
AcDbEntity
  8
OBRYS
  6
Continuous
100
AcDbLine
 10
438.1091869906523
 20
232.6830419706726
 30
0.0
 11
455.9091869906524
 21
232.6756249706726
 31
0.0
  0
LINE
  5
246F
330
1F
100
AcDbEntity
  8
OBRYS
  6
Continuous
100
AcDbLine
 10
438.1091869906524
 20
146.1576929706726
 30
0.0
 11
438.1091869906523
 21
235.5576929706726
 31
0.0
  0
LINE
  5
2476
330
1F
100
AcDbEntity
  8
OBRYS
  6
Continuous
100
AcDbLine
 10
455.9091869906524
 20
149.3997229706726
 30
0.0
 11
438.1091869906524
 21
149.3997229706726
 31
0.0
  0
LINE
  5
2490
330
1F
100
AcDbEntity
  8
OBRYS
  6
Continuous
100
AcDbLine
 10
447.0091869906524
 20
213.3576929706726
 30
0.0
 11
447.0089551498663
 21
220.6771007034586
 31
0.0
  0
LINE
  5
24A3
330
1F
100
AcDbEntity
  8
OBRYS
  6
Continuous
100
AcDbLine
 10
455.0591869906524
 20
152.9710039706726
 30
0.0
 11
455.0591869906524
 21
159.7326929706726
 31
0.0
  0
LINE
  5
24A9
330
1F
100
AcDbEntity
  8
OBRYS
  6
Continuous
100
AcDbLine
 10
447.0099179821794
 20
161.0382844327532
 30
0.0
 11
447.0091869906524
 21
168.3576929706726
 31
0.0
  0
LINE
  5
24EF
330
1F
100
AcDbEntity
  8
OBRYS
  6
Continuous
100
AcDbLine
 10
450.1506089906524
 20
168.3576929706726
 30
0.0
 11
450.1506089906524
 21
188.0292659706726
 31
0.0
  0
LINE
  5
24F7
330
1F
100
AcDbEntity
  8
OBRYS
  6
Continuous
100
AcDbLine
 10
452.9677659906524
 20
213.3576929706726
 30
0.0
 11
452.9677659906524
 21
192.6861199706726
 31
0.0
  0
LINE
  5
24FA
330
1F
100
AcDbEntity
  8
OBRYS
  6
Continuous
100
AcDbLine
 10
452.3648219906524
 20
191.2304849706726
 30
0.0
 11
450.5363949906524
 21
189.4020579706726
 31
0.0
  0
LINE
  5
2501
330
1F
100
AcDbEntity
  8
OBRYS
  6
Continuous
100
AcDbLine
 10
450.6656839906524
 20
189.2727689706726
 30
0.0
 11
452.4941119906524
 21
191.1011959706726
 31
0.0
  0
LINE
  5
250C
330
1F
100
AcDbEntity
  8
OBRYS
  6
Continuous
100
AcDbLine
 10
449.9677659906524
 20
188.0292659706726
 30
0.0
 11
449.9677659906524
 21
168.3576929706726
 31
0.0
  0
LINE
  5
2526
330
1F
100
AcDbEntity
  8
OBRYS
  6
Continuous
100
AcDbLine
 10
453.1506089906524
 20
192.6861199706726
 30
0.0
 11
453.1506089906524
 21
213.3576929706726
 31
0.0
  0
LINE
  5
252A
330
1F
100
AcDbEntity
  8
OBRYS
  6
Continuous
100
AcDbLine
 10
438.1091869906523
 20
213.3576929706726
 30
0.0
 11
455.9091869906524
 21
213.3576929706726
 31
0.0
  0
LINE
  5
2532
330
1F
100
AcDbEntity
  8
OBRYS
  6
Continuous
100
AcDbLine
 10
441.4591869906524
 20
227.3007979706726
 30
0.0
 11
441.4591869906524
 21
223.6645879706726
 31
0.0
  0
LINE
  5
2536
330
1F
100
AcDbEntity
  8
OBRYS
  6
Continuous
100
AcDbLine
 10
443.4526899906524
 20
191.3426169706726
 30
0.0
 11
441.6242629906524
 21
189.5141899706726
 31
0.0
  0
LINE
  5
2538
330
1F
100
AcDbEntity
  8
OBRYS
  6
Continuous
100
AcDbLine
 10
441.4591869906524
 20
154.4408400517771
 30
0.0
 11
441.4591869906524
 21
158.0769659706726
 31
0.0
  0
LINE
  5
253B
330
1F
100
AcDbEntity
  8
OBRYS
  6
Continuous
100
AcDbLine
 10
440.2478429906524
 20
220.6714469706726
 30
0.0
 11
453.7719929737065
 21
220.6827560465113
 31
0.0
  0
LINE
  5
253F
330
1F
100
AcDbEntity
  8
OBRYS
  6
Continuous
100
AcDbLine
 10
440.9171559906524
 20
190.2212969706726
 30
0.0
 11
442.7455829906525
 21
192.0497239706726
 31
0.0
  0
LINE
  5
2541
330
1F
100
AcDbEntity
  8
OBRYS
  6
Continuous
100
AcDbLine
 10
441.0091869906524
 20
188.0292659706726
 30
0.0
 11
441.0091869906524
 21
168.3576929706726
 31
0.0
  0
LINE
  5
2544
330
1F
100
AcDbEntity
  8
OBRYS
  6
Continuous
100
AcDbLine
 10
455.9091869906524
 20
168.3576929706726
 30
0.0
 11
438.1091869906524
 21
168.3576929706726
 31
0.0
  0
LINE
  5
254A
330
1F
100
AcDbEntity
  8
OBRYS
  6
Continuous
100
AcDbLine
 10
440.0091869906524
 20
168.3576929706726
 30
0.0
 11
440.0091869906524
 21
188.0292659706726
 31
0.0
  0
LINE
  5
254B
330
1F
100
AcDbEntity
  8
OBRYS
  6
Continuous
100
AcDbLine
 10
447.0099178888233
 20
151.6654125076723
 30
0.0
 11
447.0091869906524
 21
149.0326929706726
 31
0.0
  0
LINE
  5
254F
330
1F
100
AcDbEntity
  8
OBRYS
  6
Continuous
100
AcDbLine
 10
443.0091869906524
 20
192.6861199706726
 30
0.0
 11
443.0091869906524
 21
213.3576929706726
 31
0.0
  0
LINE
  5
255A
330
1F
100
AcDbEntity
  8
OBRYS
  6
Continuous
100
AcDbLine
 10
444.0091869906524
 20
213.3576929706726
 30
0.0
 11
444.0091869906524
 21
192.6861199706726
 31
0.0
  0
LINE
  5
255B
330
1F
100
AcDbEntity
  8
OBRYS
  6
Continuous
100
AcDbLine
 10
442.2591869906524
 20
227.3007979706726
 30
0.0
 11
442.2591869906524
 21
223.6645879706726
 31
0.0
  0
LINE
  5
255E
330
1F
100
AcDbEntity
  8
OBRYS
  6
Continuous
100
AcDbLine
 10
442.2591869906524
 20
154.4407559706726
 30
0.0
 11
442.2591869906524
 21
158.0769659706726
 31
0.0
  0
CIRCLE
  5
2589
330
1F
100
AcDbEntity
  8
OBRYS
  6
Continuous
100
AcDbCircle
 10
-447.0091869906524
 20
156.2326929706726
 30
0.0
 40
2.22438312745364
210
0.0
220
0.0
230
-1.0
  0
CIRCLE
  5
258C
330
1F
100
AcDbEntity
  8
OBRYS
  6
Continuous
100
AcDbCircle
 10
-441.8591869906523
 20
156.2326929706726
 30
0.0
 40
2.22438312745364
210
0.0
220
0.0
230
-1.0
  0
CIRCLE
  5
2598
330
1F
100
AcDbEntity
  8
OBRYS
  6
Continuous
100
AcDbCircle
 10
452.1591869906524
 20
156.2326929706726
 30
0.0
 40
2.22438312745364
  0
CIRCLE
  5
2599
330
1F
100
AcDbEntity
  8
OBRYS
  6
Continuous
100
AcDbCircle
 10
452.1591869906524
 20
156.2326929706726
 30
0.0
 40
2.38153927364106
  0
ARC
  5
259B
330
1F
100
AcDbEntity
  8
OBRYS
  6
Continuous
100
AcDbCircle
 10
-442.1091869906523
 20
192.6861199706726
 30
0.0
 40
1.9
210
0.0
220
0.0
230
-1.0
100
AcDbArc
 50
180.0
 51
224.9999999999987
  0
ARC
  5
25A2
330
1F
100
AcDbEntity
  8
OBRYS
  6
Continuous
100
AcDbCircle
 10
442.1091869906523
 20
192.6861199706726
 30
0.0
 40
0.8999999999999869
100
AcDbArc
 50
315.0000000000026
 51
0.0
  0
CIRCLE
  5
25A4
330
1F
100
AcDbEntity
  8
OBRYS
  6
Continuous
100
AcDbCircle
 10
441.8591869906523
 20
156.2326929706726
 30
0.0
 40
2.38153927364106
  0
CIRCLE
  5
25A5
330
1F
100
AcDbEntity
  8
OBRYS
  6
Continuous
100
AcDbCircle
 10
447.0091869906524
 20
156.2326929706726
 30
0.0
 40
2.38153927364106
  0
ARC
  5
25A6
330
1F
100
AcDbEntity
  8
OBRYS
  6
Continuous
100
AcDbCircle
 10
443.1091869906523
 20
188.0292659706726
 30
0.0
 40
2.1
100
AcDbArc
 50
134.9999999999967
 51
180.0
  0
ARC
  5
25B1
330
1F
100
AcDbEntity
  8
OBRYS
  6
Continuous
100
AcDbCircle
 10
-443.1091869906523
 20
188.0292659706726
 30
0.0
 40
3.1
210
0.0
220
0.0
230
-1.0
100
AcDbArc
 50
0.0
 51
45.00000000000223
  0
CIRCLE
  5
25B7
330
1F
100
AcDbEntity
  8
OBRYS
  6
Continuous
100
AcDbCircle
 10
441.8591869906523
 20
225.4826929706726
 30
0.0
 40
2.38153927364106
  0
CIRCLE
  5
25BB
330
1F
100
AcDbEntity
  8
OBRYS
  6
Continuous
100
AcDbCircle
 10
441.8591869906523
 20
225.4826929706726
 30
0.0
 40
2.22438312745364
  0
ARC
  5
25C1
330
1F
100
AcDbEntity
  8
OBRYS
  6
Continuous
100
AcDbCircle
 10
440.2591869906524
 20
228.7939889706726
 30
0.0
 40
1.3
100
AcDbArc
 50
90.50000000000055
 51
180.0
  0
ARC
  5
25C4
330
1F
100
AcDbEntity
  8
OBRYS
  6
Continuous
100
AcDbCircle
 10
440.2591869906524
 20
152.9597089706726
 30
0.0
 40
1.3
100
AcDbArc
 50
180.0
 51
269.4999999999994
  0
CIRCLE
  5
25C6
330
1F
100
AcDbEntity
  8
OBRYS
  6
Continuous
100
AcDbCircle
 10
447.0091869906524
 20
225.4826929706726
 30
0.0
 40
2.38153927364106
  0
CIRCLE
  5
25C9
330
1F
100
AcDbEntity
  8
OBRYS
  6
Continuous
100
AcDbCircle
 10
452.1591869906524
 20
225.4826929706726
 30
0.0
 40
2.38153927364106
  0
CIRCLE
  5
25CA
330
1F
100
AcDbEntity
  8
OBRYS
  6
Continuous
100
AcDbCircle
 10
-447.0091869906524
 20
225.4826929706726
 30
0.0
 40
2.22438312745364
210
0.0
220
0.0
230
-1.0
  0
ARC
  5
25CB
330
1F
100
AcDbEntity
  8
OBRYS
  6
Continuous
100
AcDbCircle
 10
440.2591869906524
 20
221.9713979706726
 30
0.0
 40
1.3
100
AcDbArc
 50
180.0
 51
269.4999999999994
  0
ARC
  5
25D0
330
1F
100
AcDbEntity
  8
OBRYS
  6
Continuous
100
AcDbCircle
 10
440.2591869906524
 20
159.7439889706726
 30
0.0
 40
1.3
100
AcDbArc
 50
90.50000000000055
 51
180.0
  0
ARC
  5
25D2
330
1F
100
AcDbEntity
  8
OBRYS
  6
Continuous
100
AcDbCircle
 10
438.3091869906524
 20
235.5576929706726
 30
0.0
 40
0.2
100
AcDbArc
 50
90.0
 51
180.0
  0
CIRCLE
  5
25DB
330
1F
100
AcDbEntity
  8
OBRYS
  6
Continuous
100
AcDbCircle
 10
-452.1591869906524
 20
225.4826929706726
 30
0.0
 40
2.22438312745364
210
0.0
220
0.0
230
-1.0
  0
ARC
  5
25E1
330
1F
100
AcDbEntity
  8
OBRYS
  6
Continuous
100
AcDbCircle
 10
-438.3091869906524
 20
146.1576929706726
 30
0.0
 40
0.2
210
0.0
220
0.0
230
-1.0
100
AcDbArc
 50
270.0
 51
0.0
  0
ARC
  5
25E3
330
1F
100
AcDbEntity
  8
OBRYS
  6
Continuous
100
AcDbCircle
 10
455.7091869906524
 20
235.5576929706726
 30
0.0
 40
0.2
100
AcDbArc
 50
0.0
 51
90.0
  0
ARC
  5
25E6
330
1F
100
AcDbEntity
  8
OBRYS
  6
Continuous
100
AcDbCircle
 10
-455.7091869906524
 20
146.1576929706726
 30
0.0
 40
0.2
210
0.0
220
0.0
230
-1.0
100
AcDbArc
 50
180.0
 51
270.0
  0
ARC
  5
25E7
330
1F
100
AcDbEntity
  8
OBRYS
  6
Continuous
100
AcDbCircle
 10
453.7591869906524
 20
152.9710039706726
 30
0.0
 40
1.299999999999983
100
AcDbArc
 50
270.0
 51
0.0
  0
ARC
  5
25E8
330
1F
100
AcDbEntity
  8
OBRYS
  6
Continuous
100
AcDbCircle
 10
453.7591869906524
 20
228.7826929706726
 30
0.0
 40
1.300000000000001
100
AcDbArc
 50
0.0
 51
90.0
  0
ARC
  5
25EA
330
1F
100
AcDbEntity
  8
OBRYS
  6
Continuous
100
AcDbCircle
 10
453.7591869906524
 20
159.7326929706726
 30
0.0
 40
1.300000000000001
100
AcDbArc
 50
0.0
 51
90.0
  0
ARC
  5
25ED
330
1F
100
AcDbEntity
  8
OBRYS
  6
Continuous
100
AcDbCircle
 10
453.7591869906524
 20
221.9826929706726
 30
0.0
 40
1.300000000000011
100
AcDbArc
 50
270.0
 51
0.0
  0
ARC
  5
25F1
330
1F
100
AcDbEntity
  8
OBRYS
  6
Continuous
100
AcDbCircle
 10
-450.9091869906524
 20
192.6861199706726
 30
0.0
 40
2.058578643762688
210
0.0
220
0.0
230
-1.0
100
AcDbArc
 50
180.0
 51
225.0000000000006
  0
ARC
  5
25FB
330
1F
100
AcDbEntity
  8
OBRYS
  6
Continuous
100
AcDbCircle
 10
-451.9091869906524
 20
188.0292659706726
 30
0.0
 40
1.758578643762689
210
0.0
220
0.0
230
-1.0
100
AcDbArc
 50
0.0
 51
45.0
  0
ARC
  5
2602
330
1F
100
AcDbEntity
  8
OBRYS
  6
Continuous
100
AcDbCircle
 10
451.9091869906524
 20
188.0292659706726
 30
0.0
 40
1.941421356237309
100
AcDbArc
 50
135.0000000000018
 51
180.0
  0
ARC
  5
2604
330
1F
100
AcDbEntity
  8
OBRYS
  6
Continuous
100
AcDbCircle
 10
450.9091869906524
 20
192.6861199706726
 30
0.0
 40
2.241421356237308
100
AcDbArc
 50
315.000000000001
 51
0.0
  0
LINE
  5
26C6
330
1F
100
AcDbEntity
  8
OBRYS
  6
Continuous
100
AcDbLine
 10
452.7090893866167
 20
143.9576149706726
 30
0.0
 11
452.7090893866167
 21
145.9576829706726
 31
0.0
  0
LINE
  5
26C7
330
1F
100
AcDbEntity
  8
OBRYS
  6
Continuous
100
AcDbLine
 10
441.3090893866166
 20
143.9576149706726
 30
0.0
 11
452.7090893866167
 21
143.9576149706726
 31
0.0
  0
LINE
  5
26C8
330
1F
100
AcDbEntity
  8
OBRYS
  6
Continuous
100
AcDbLine
 10
441.3090893866166
 20
145.9576829706726
 30
0.0
 11
441.3090893866166
 21
143.9576149706726
 31
0.0
  0
LINE
  5
26C9
330
1F
100
AcDbEntity
  8
OBRYS
  6
Continuous
100
AcDbLine
 10
450.8090893866166
 20
142.3613479706726
 30
0.0
 11
450.8090893866166
 21
142.3613489706726
 31
0.0
  0
LINE
  5
26CA
330
1F
100
AcDbEntity
  8
OBRYS
  6
Continuous
100
AcDbLine
 10
443.2090893866167
 20
142.3613489706726
 30
0.0
 11
443.2090893866167
 21
142.3613479706726
 31
0.0
  0
LINE
  5
26CB
330
1F
100
AcDbEntity
  8
OBRYS
  6
Continuous
100
AcDbLine
 10
449.2915113866166
 20
143.9576149706726
 30
0.0
 11
449.2847233866166
 21
145.9576589706726
 31
0.0
  0
LINE
  5
26CC
330
1F
100
AcDbEntity
  8
OBRYS
  6
Continuous
100
AcDbLine
 10
454.2090893866167
 20
145.9576929706726
 30
0.0
 11
454.2090893866167
 21
143.8613489706726
 31
0.0
  0
LINE
  5
26CD
330
1F
100
AcDbEntity
  8
OBRYS
  6
Continuous
100
AcDbLine
 10
452.7090893866167
 20
142.3613489706726
 30
0.0
 11
441.3090893866166
 21
142.3613489706726
 31
0.0
  0
LINE
  5
26CE
330
1F
100
AcDbEntity
  8
OBRYS
  6
Continuous
100
AcDbLine
 10
443.2090893866167
 20
142.3613479706726
 30
0.0
 11
450.8090893866166
 21
142.3613479706726
 31
0.0
  0
LINE
  5
26CF
330
1F
100
AcDbEntity
  8
OBRYS
  6
Continuous
100
AcDbLine
 10
441.1090893866166
 20
143.7576149706726
 30
0.0
 11
441.1090893866166
 21
145.9576759706726
 31
0.0
  0
LINE
  5
26D0
330
1F
100
AcDbEntity
  8
OBRYS
  6
Continuous
100
AcDbLine
 10
452.9090893866166
 20
145.9576759706726
 30
0.0
 11
452.9090893866166
 21
143.7576149706726
 31
0.0
  0
LINE
  5
26D1
330
1F
100
AcDbEntity
  8
OBRYS
  6
Continuous
100
AcDbLine
 10
439.8090893866166
 20
143.8613489706726
 30
0.0
 11
439.8090893866166
 21
145.9576929706726
 31
0.0
  0
LINE
  5
26D2
330
1F
100
AcDbEntity
  8
OBRYS
  6
Continuous
100
AcDbLine
 10
452.9090893866166
 20
143.7576149706726
 30
0.0
 11
441.1090893866166
 21
143.7576149706726
 31
0.0
  0
LINE
  5
26D3
330
1F
100
AcDbEntity
  8
OBRYS
  6
Continuous
100
AcDbLine
 10
444.7266683866166
 20
143.9576149706726
 30
0.0
 11
444.7334553866167
 21
145.9576589706726
 31
0.0
  0
ARC
  5
26D4
330
1F
100
AcDbEntity
  8
OBRYS
  6
Continuous
100
AcDbCircle
 10
441.3090893866166
 20
143.8613489706726
 30
0.0
 40
1.5
100
AcDbArc
 50
180.0
 51
270.0
  0
ARC
  5
26D5
330
1F
100
AcDbEntity
  8
OBRYS
  6
Continuous
100
AcDbCircle
 10
-452.7090893866167
 20
143.8613489706726
 30
0.0
 40
1.5
210
0.0
220
0.0
230
-1.0
100
AcDbArc
 50
180.0
 51
270.0
  0
LINE
  5
26D6
330
1F
100
AcDbEntity
  8
OBRYS
100
AcDbLine
 10
455.7091869906524
 20
145.9576929706726
 30
0.0
 11
438.3091869906524
 21
145.9576929706726
 31
0.0
  0
LINE
  5
26D9
330
1F
100
AcDbEntity
  8
OBRYS
100
AcDbLine
 10
455.7091869906524
 20
235.7576929706726
 30
0.0
 11
438.3091869906524
 21
235.7576929706726
 31
0.0
  0
DIMENSION
  5
26DA
330
1F
100
AcDbEntity
  8
KOTY
100
AcDbDimension
280
     0
  2
*D15
 10
455.9091869906524
 20
122.6358462391053
 30
0.0
 11
447.0091869906524
 21
125.1673462391053
 31
0.0
 70
    32
 71
     5
 42
-1.0
 73
     0
 74
     0
 75
     0
  3
STANDARD
100
AcDbAlignedDimension
 13
438.1091869906524
 23
146.1576929706726
 33
0.0
 14
455.9091869906524
 24
146.1576929706726
 34
0.0
100
AcDbRotatedDimension
1001
ACAD
1000
DSTYLE
1002
{
1070
   271
1070
     0
1070
   278
1070
    44
1070
   140
1040
3.0
1070
    73
1070
     0
1070
    77
1070
     1
1070
   147
1040
1.0
1070
    41
1040
3.0
1070
   279
1070
     2
1002
}
  0
ARC
  5
26F1
330
1F
100
AcDbEntity
  8
OBRYS
100
AcDbCircle
 10
440.2797767729429
 20
153.0326306029814
 30
0.0
 40
1.255254783839914
100
AcDbArc
 50
179.9971532428845
 51
269.9718471309546
  0
ARC
  5
26F2
330
1F
100
AcDbEntity
  8
OBRYS
100
AcDbCircle
 10
440.2797780054802
 20
159.6827551079617
 30
0.0
 40
1.255256014848099
100
AcDbArc
 50
90.02820910023262
 51
180.0003257793938
  0
ARC
  5
26F3
330
1F
100
AcDbEntity
  8
OBRYS
100
AcDbCircle
 10
453.7385964198467
 20
159.6827545507674
 30
0.0
 40
1.255256572316227
100
AcDbArc
 50
359.9971891965246
 51
89.97176553486017
  0
ARC
  5
26F4
330
1F
100
AcDbEntity
  8
OBRYS
100
AcDbCircle
 10
453.7385976375061
 20
153.0326311720256
 30
0.0
 40
1.255255353164693
100
AcDbArc
 50
270.0281789128319
 51
0.0003103223411304
  0
CIRCLE
  5
26F5
330
1F
100
AcDbEntity
  8
OBRYS
100
AcDbCircle
 10
441.8591869906523
 20
156.2588609706726
 30
0.0
 40
1.861586901282045
  0
CIRCLE
  5
26F7
330
1F
100
AcDbEntity
  8
OBRYS
100
AcDbCircle
 10
447.0091869906524
 20
156.2326929706726
 30
0.0
 40
1.8616
  0
CIRCLE
  5
26F8
330
1F
100
AcDbEntity
  8
OBRYS
100
AcDbCircle
 10
452.1591869906524
 20
156.2326929706726
 30
0.0
 40
1.8616
  0
ARC
  5
26F9
330
1F
100
AcDbEntity
  8
OBRYS
100
AcDbCircle
 10
440.2797780054811
 20
228.6827551079608
 30
0.0
 40
1.255256014849008
100
AcDbArc
 50
90.02820910027408
 51
180.000325779351
  0
ARC
  5
26FA
330
1F
100
AcDbEntity
  8
OBRYS
100
AcDbCircle
 10
440.2797767729421
 20
222.0326306029806
 30
0.0
 40
1.255254783839118
100
AcDbArc
 50
179.9971532428495
 51
269.9718471309909
  0
ARC
  5
26FB
330
1F
100
AcDbEntity
  8
OBRYS
100
AcDbCircle
 10
453.7385986549385
 20
222.032630155099
 30
0.0
 40
1.255254335738236
100
AcDbArc
 50
270.0281324952089
 51
0.0003567399593704
  0
ARC
  5
26FC
330
1F
100
AcDbEntity
  8
OBRYS
100
AcDbCircle
 10
453.7385964198463
 20
228.682754550767
 30
0.0
 40
1.255256572316568
100
AcDbArc
 50
359.9971891965415
 51
89.97176553484462
  0
CIRCLE
  5
26FD
330
1F
100
AcDbEntity
  8
OBRYS
100
AcDbCircle
 10
441.8591869906523
 20
225.4826929706726
 30
0.0
 40
1.861586901282073
  0
CIRCLE
  5
26FE
330
1F
100
AcDbEntity
  8
OBRYS
100
AcDbCircle
 10
447.0091869906524
 20
225.4826929706726
 30
0.0
 40
1.8616
  0
CIRCLE
  5
26FF
330
1F
100
AcDbEntity
  8
OBRYS
100
AcDbCircle
 10
452.1591869906524
 20
225.4826929706726
 30
0.0
 40
1.8616
  0
VIEWPORT
  5
26EE
330
26EA
100
AcDbEntity
 67
     1
  8
0
100
AcDbViewport
 10
0.0
 20
0.0
 30
0.0
 40
10.25828571428572
 41
7.926857142857144
 68
     2
 69
     1
 12
5.850000000000001
 22
4.0
 13
0.0
 23
0.0
 14
0.5
 24
0.5
 15
0.0
 25
0.0
 16
0.0
 26
0.0
 36
1.0
 17
0.0
 27
0.0
 37
0.0
 42
50.0
 43
0.0
 44
0.0
 45
7.926857142857144
 50
0.0
 51
0.0
 72
   100
 90
   557152
  1

281
     0
 71
     1
 74
     0
110
0.0
120
0.0
130
0.0
111
1.0
121
0.0
131
0.0
112
0.0
122
1.0
132
0.0
 79
     0
146
0.0
170
     0
 61
     5
348
272B
292
     1
282
     1
141
0.0
142
0.0
 63
   256
361
2747
  0
VIEWPORT
  5
26EF
330
26EA
100
AcDbEntity
 67
     1
  8
0
100
AcDbViewport
 10
5.25
 20
4.0
 30
0.0
 40
8.4
 41
6.4
 68
     1
 69
     2
 12
381.1834003487319
 22
186.0116588272101
 13
0.0
 23
0.0
 14
0.5
 24
0.5
 15
0.0
 25
0.0
 16
0.0
 26
0.0
 36
1.0
 17
0.0
 27
0.0
 37
0.0
 42
50.0
 43
0.0
 44
0.0
 45
130.3066576797338
 50
0.0
 51
0.0
 72
   100
 90
   557152
  1

281
     0
 71
     1
 74
     0
110
0.0
120
0.0
130
0.0
111
1.0
121
0.0
131
0.0
112
0.0
122
1.0
132
0.0
 79
     0
146
0.0
170
     0
 61
     5
348
272B
292
     1
282
     1
141
0.0
142
0.0
 63
   256
361
2748
  0
ENDSEC
  0
SECTION
  2
OBJECTS
  0
DICTIONARY
  5
C
330
0
100
AcDbDictionary
281
     1
  3
ACAD_DETAILVIEWSTYLE
350
122
  3
ACAD_GROUP
350
D
  3
ACAD_IMAGE_VARS
350
DC
  3
ACAD_LAYOUT
350
2723
  3
ACAD_MATERIAL
350
273F
  3
ACAD_MLEADERSTYLE
350
2745
  3
ACAD_MLINESTYLE
350
17
  3
ACAD_SCALELIST
350
2701
  3
ACAD_SECTIONVIEWSTYLE
350
123
  3
ACAD_TABLESTYLE
350
2743
  3
ACAD_VISUALSTYLE
350
2726
  3
ACDB_RECOMPOSE_DATA
350
2750
  3
ACDBVARIABLEDICTIONARY
350
66
  3
APPDATA
350
E1
  0
SUN
  5
2749
330
94
100
AcDbSun
 90
        1
290
     0
 63
     7
421
 16777215
 40
1.0
291
     1
 91
  2455826
 92
 54000000
292
     0
 70
     2
 71
   256
280
     1
  0
DICTIONARY
  5
1326
330
2
100
AcDbDictionary
280
     1
281
     1
  3
ACAD_LAYERSTATES
360
1329
  3
ACLYDICTIONARY
360
132E
  0
SUN
  5
2747
330
26EE
100
AcDbSun
 90
        1
290
     0
 63
     7
421
 16777215
 40
1.0
291
     1
 91
  2455826
 92
 54000000
292
     0
 70
     2
 71
   256
280
     1
  0
SUN
  5
2748
330
26EF
100
AcDbSun
 90
        1
290
     0
 63
     7
421
 16777215
 40
1.0
291
     1
 91
  2455826
 92
 54000000
292
     0
 70
     2
 71
   256
280
     1
  0
DICTIONARY
  5
122
102
{ACAD_REACTORS
330
C
102
}
330
C
100
AcDbDictionary
281
     1
  0
DICTIONARY
  5
D
102
{ACAD_REACTORS
330
C
102
}
330
C
100
AcDbDictionary
281
     1
  0
RASTERVARIABLES
  5
DC
102
{ACAD_REACTORS
330
C
102
}
330
C
100
AcDbRasterVariables
 90
        0
 70
     1
 71
     1
 72
     5
  0
DICTIONARY
  5
2723
102
{ACAD_REACTORS
330
C
102
}
330
C
100
AcDbDictionary
281
     1
  3
List 1
350
2725
  3
Model
350
2724
  0
DICTIONARY
  5
273F
102
{ACAD_REACTORS
330
C
102
}
330
C
100
AcDbDictionary
281
     1
  3
ByBlock
350
2741
  3
ByLayer
350
2740
  3
Global
350
2742
  0
DICTIONARY
  5
2745
102
{ACAD_REACTORS
330
C
102
}
330
C
100
AcDbDictionary
281
     1
  3
Standard
350
2746
  0
DICTIONARY
  5
17
102
{ACAD_REACTORS
330
C
102
}
330
C
100
AcDbDictionary
281
     1
  3
STANDARD
350
18
  0
DICTIONARY
  5
2701
102
{ACAD_REACTORS
330
C
102
}
330
C
100
AcDbDictionary
281
     1
  3
A0
350
2702
  3
A1
350
2703
  3
A2
350
2704
  3
A3
350
2705
  3
A4
350
2706
  3
A5
350
2707
  3
A6
350
2708
  3
A7
350
2709
  3
A8
350
270A
  3
A9
350
270B
  3
B0
350
270C
  3
B1
350
270D
  3
B2
350
270E
  3
B3
350
270F
  3
B4
350
2710
  3
B5
350
2711
  3
B6
350
2712
  3
B7
350
2713
  3
B8
350
2714
  3
B9
350
2715
  3
C0
350
2716
  3
C1
350
2717
  3
C2
350
2718
  3
C3
350
2719
  3
C4
350
271A
  3
C5
350
271B
  3
C6
350
271C
  3
C7
350
271D
  3
C8
350
271E
  3
C9
350
271F
  3
D0
350
2720
  3
D1
350
2721
  3
D2
350
2722
  0
DICTIONARY
  5
123
102
{ACAD_REACTORS
330
C
102
}
330
C
100
AcDbDictionary
281
     1
  0
DICTIONARY
  5
2743
102
{ACAD_REACTORS
330
C
102
}
330
C
100
AcDbDictionary
281
     1
  3
Standard
350
2744
  0
DICTIONARY
  5
2726
102
{ACAD_REACTORS
330
C
102
}
330
C
100
AcDbDictionary
281
     1
  3
2dWireframe
350
272B
  3
Basic
350
272E
  3
Brighten
350
2732
  3
ColorChange
350
2736
  3
Conceptual
350
2730
  3
Dim
350
2731
  3
EdgeColorOff
350
2739
  3
Facepattern
350
2735
  3
Flat
350
2727
  3
FlatWithEdges
350
2728
  3
Gouraud
350
2729
  3
GouraudWithEdges
350
272A
  3
Hidden
350
272D
  3
JitterOff
350
2737
  3
Linepattern
350
2734
  3
OverhangOff
350
2738
  3
Realistic
350
272F
  3
Shaded
350
273E
  3
Shaded with edges
350
273D
  3
Shades of Gray
350
273A
  3
Sketchy
350
273B
  3
Thicken
350
2733
  3
Wireframe
350
272C
  3
X-Ray
350
273C
  0
XRECORD
  5
2750
102
{ACAD_REACTORS
330
C
102
}
330
C
100
AcDbXrecord
280
     1
 90
        1
330
2744
  0
DICTIONARY
  5
66
102
{ACAD_REACTORS
330
C
102
}
330
C
100
AcDbDictionary
281
     1
  3
CANNOSCALE
350
274A
  3
CMLEADERSTYLE
350
274C
  3
CTABLESTYLE
350
274B
  3
DIMASSOC
350
67
  3
HIDETEXT
350
6B
  3
MSLTSCALE
350
274D
  0
DICTIONARY
  5
E1
102
{ACAD_REACTORS
330
C
102
}
330
C
100
AcDbDictionary
281
     1
  0
DICTIONARY
  5
1329
102
{ACAD_REACTORS
330
1326
102
}
330
1326
100
AcDbDictionary
281
     1
  0
DICTIONARY
  5
132E
102
{ACAD_REACTORS
330
1326
102
}
330
1326
100
AcDbDictionary
281
     1
1001
ACAD
1000
<All
  0
LAYOUT
  5
2725
102
{ACAD_REACTORS
330
2723
102
}
330
2723
100
AcDbPlotSettings
  1

  2
none_device
  4
ANSI_A_(11.00_x_8.50_Inches)
  6

 40
6.35
 41
19.05
 42
6.35
 43
19.05
 44
279.4
 45
215.9
 46
0.0
 47
0.0
 48
0.0
 49
0.0
140
0.0
141
0.0
142
1.0
143
0.9142857142857145
 70
   688
 72
     0
 73
     0
 74
     1
  7

 75
     0
 76
     0
 77
     2
 78
   300
147
1.09375
148
-26.66999999999999
149
-20.31999999999999
100
AcDbLayout
  1
List 1
 70
     1
 71
     1
 10
0.8214285714285712
 20
0.1142857142857141
 11
10.87857142857143
 21
7.885714285714286
 12
0.0
 22
0.0
 32
0.0
 14
1.05
 24
0.7999999999999998
 34
0.0
 15
9.45
 25
7.2
 35
0.0
146
0.0
 13
0.0
 23
0.0
 33
0.0
 16
1.0
 26
0.0
 36
0.0
 17
0.0
 27
1.0
 37
0.0
 76
     0
330
26EA
331
26EF
  0
LAYOUT
  5
2724
102
{ACAD_REACTORS
330
2723
102
}
330
2723
100
AcDbPlotSettings
  1

  2
none_device
  4
Letter_(8.50_x_11.00_Inches)
  6

 40
6.35
 41
6.35
 42
6.35
 43
6.35
 44
215.9
 45
279.4
 46
0.0
 47
0.0
 48
0.0
 49
0.0
140
0.0
141
0.0
142
1.0
143
24.71984444260727
 70
  1712
 72
     0
 73
     0
 74
     0
  7

 75
     0
 76
     0
 77
     2
 78
   300
147
0.0404533289973457
148
-8047.898576793856
149
-3096.864828551883
100
AcDbLayout
  1
Model
 70
     1
 71
     0
 10
0.0
 20
0.0
 11
12.0
 21
9.0
 12
0.0
 22
0.0
 32
0.0
 14
306.4576136542384
 24
122.1358462391053
 34
0.0
 15
455.9091869906524
 25
249.8874714153149
 35
0.0
146
0.0
 13
0.0
 23
0.0
 33
0.0
 16
1.0
 26
0.0
 36
0.0
 17
0.0
 27
1.0
 37
0.0
 76
     0
330
1F
331
94
  0
MATERIAL
  5
2741
102
{ACAD_REACTORS
330
273F
102
}
330
273F
100
AcDbMaterial
  1
ByBlock
 72
     1
 94
      127
  0
MATERIAL
  5
2740
102
{ACAD_REACTORS
330
273F
102
}
330
273F
100
AcDbMaterial
  1
ByLayer
 72
     1
 94
      127
  0
MATERIAL
  5
2742
102
{ACAD_REACTORS
330
273F
102
}
330
273F
100
AcDbMaterial
  1
Global
 72
     1
 94
      127
  0
MLEADERSTYLE
  5
2746
102
{ACAD_REACTORS
330
2745
102
}
330
2745
100
AcDbMLeaderStyle
179
     2
170
     2
171
     1
172
     0
 90
        2
 40
0.0
 41
0.0
173
     1
 91
-1056964608
340
14
 92
       -2
290
     1
 42
0.09
291
     1
 43
0.36
  3
Standard
341
0
 44
0.18
300

342
11
174
     1
178
     6
175
     1
176
     0
 93
-1056964608
 45
0.18
292
     0
297
     0
 46
0.18
343
0
 94
-1056964608
 47
1.0
 49
1.0
140
1.0
293
     1
141
0.0
294
     1
177
     0
142
1.0
295
     0
296
     0
143
0.125
271
     0
272
     9
273
     9
298
     0
  0
MLINESTYLE
  5
18
102
{ACAD_REACTORS
330
17
102
}
330
17
100
AcDbMlineStyle
  2
STANDARD
 70
     0
  3

 62
   256
 51
90.0
 52
90.0
 71
     2
 49
0.5
 62
   256
  6
BYLAYER
 49
-0.5
 62
   256
  6
BYLAYER
  0
SCALE
  5
2702
102
{ACAD_REACTORS
330
2701
102
}
330
2701
100
AcDbScale
 70
     0
300
1:1
140
1.0
141
1.0
290
     1
  0
SCALE
  5
2703
102
{ACAD_REACTORS
330
2701
102
}
330
2701
100
AcDbScale
 70
     0
300
1:2
140
1.0
141
2.0
290
     0
  0
SCALE
  5
2704
102
{ACAD_REACTORS
330
2701
102
}
330
2701
100
AcDbScale
 70
     0
300
1:4
140
1.0
141
4.0
290
     0
  0
SCALE
  5
2705
102
{ACAD_REACTORS
330
2701
102
}
330
2701
100
AcDbScale
 70
     0
300
1:5
140
1.0
141
5.0
290
     0
  0
SCALE
  5
2706
102
{ACAD_REACTORS
330
2701
102
}
330
2701
100
AcDbScale
 70
     0
300
1:8
140
1.0
141
8.0
290
     0
  0
SCALE
  5
2707
102
{ACAD_REACTORS
330
2701
102
}
330
2701
100
AcDbScale
 70
     0
300
1:10
140
1.0
141
10.0
290
     0
  0
SCALE
  5
2708
102
{ACAD_REACTORS
330
2701
102
}
330
2701
100
AcDbScale
 70
     0
300
1:16
140
1.0
141
16.0
290
     0
  0
SCALE
  5
2709
102
{ACAD_REACTORS
330
2701
102
}
330
2701
100
AcDbScale
 70
     0
300
1:20
140
1.0
141
20.0
290
     0
  0
SCALE
  5
270A
102
{ACAD_REACTORS
330
2701
102
}
330
2701
100
AcDbScale
 70
     0
300
1:30
140
1.0
141
30.0
290
     0
  0
SCALE
  5
270B
102
{ACAD_REACTORS
330
2701
102
}
330
2701
100
AcDbScale
 70
     0
300
1:40
140
1.0
141
40.0
290
     0
  0
SCALE
  5
270C
102
{ACAD_REACTORS
330
2701
102
}
330
2701
100
AcDbScale
 70
     0
300
1:50
140
1.0
141
50.0
290
     0
  0
SCALE
  5
270D
102
{ACAD_REACTORS
330
2701
102
}
330
2701
100
AcDbScale
 70
     0
300
1:100
140
1.0
141
100.0
290
     0
  0
SCALE
  5
270E
102
{ACAD_REACTORS
330
2701
102
}
330
2701
100
AcDbScale
 70
     0
300
2:1
140
2.0
141
1.0
290
     0
  0
SCALE
  5
270F
102
{ACAD_REACTORS
330
2701
102
}
330
2701
100
AcDbScale
 70
     0
300
4:1
140
4.0
141
1.0
290
     0
  0
SCALE
  5
2710
102
{ACAD_REACTORS
330
2701
102
}
330
2701
100
AcDbScale
 70
     0
300
8:1
140
8.0
141
1.0
290
     0
  0
SCALE
  5
2711
102
{ACAD_REACTORS
330
2701
102
}
330
2701
100
AcDbScale
 70
     0
300
10:1
140
10.0
141
1.0
290
     0
  0
SCALE
  5
2712
102
{ACAD_REACTORS
330
2701
102
}
330
2701
100
AcDbScale
 70
     0
300
100:1
140
100.0
141
1.0
290
     0
  0
SCALE
  5
2713
102
{ACAD_REACTORS
330
2701
102
}
330
2701
100
AcDbScale
 70
     0
300
1/128" = 1'-0"
140
0.0078125
141
12.0
290
     0
  0
SCALE
  5
2714
102
{ACAD_REACTORS
330
2701
102
}
330
2701
100
AcDbScale
 70
     0
300
1/64" = 1'-0"
140
0.015625
141
12.0
290
     0
  0
SCALE
  5
2715
102
{ACAD_REACTORS
330
2701
102
}
330
2701
100
AcDbScale
 70
     0
300
1/32" = 1'-0"
140
0.03125
141
12.0
290
     0
  0
SCALE
  5
2716
102
{ACAD_REACTORS
330
2701
102
}
330
2701
100
AcDbScale
 70
     0
300
1/16" = 1'-0"
140
0.0625
141
12.0
290
     0
  0
SCALE
  5
2717
102
{ACAD_REACTORS
330
2701
102
}
330
2701
100
AcDbScale
 70
     0
300
3/32" = 1'-0"
140
0.09375
141
12.0
290
     0
  0
SCALE
  5
2718
102
{ACAD_REACTORS
330
2701
102
}
330
2701
100
AcDbScale
 70
     0
300
1/8" = 1'-0"
140
0.125
141
12.0
290
     0
  0
SCALE
  5
2719
102
{ACAD_REACTORS
330
2701
102
}
330
2701
100
AcDbScale
 70
     0
300
3/16" = 1'-0"
140
0.1875
141
12.0
290
     0
  0
SCALE
  5
271A
102
{ACAD_REACTORS
330
2701
102
}
330
2701
100
AcDbScale
 70
     0
300
1/4" = 1'-0"
140
0.25
141
12.0
290
     0
  0
SCALE
  5
271B
102
{ACAD_REACTORS
330
2701
102
}
330
2701
100
AcDbScale
 70
     0
300
3/8" = 1'-0"
140
0.375
141
12.0
290
     0
  0
SCALE
  5
271C
102
{ACAD_REACTORS
330
2701
102
}
330
2701
100
AcDbScale
 70
     0
300
1/2" = 1'-0"
140
0.5
141
12.0
290
     0
  0
SCALE
  5
271D
102
{ACAD_REACTORS
330
2701
102
}
330
2701
100
AcDbScale
 70
     0
300
3/4" = 1'-0"
140
0.75
141
12.0
290
     0
  0
SCALE
  5
271E
102
{ACAD_REACTORS
330
2701
102
}
330
2701
100
AcDbScale
 70
     0
300
1" = 1'-0"
140
1.0
141
12.0
290
     0
  0
SCALE
  5
271F
102
{ACAD_REACTORS
330
2701
102
}
330
2701
100
AcDbScale
 70
     0
300
1-1/2" = 1'-0"
140
1.5
141
12.0
290
     0
  0
SCALE
  5
2720
102
{ACAD_REACTORS
330
2701
102
}
330
2701
100
AcDbScale
 70
     0
300
3" = 1'-0"
140
3.0
141
12.0
290
     0
  0
SCALE
  5
2721
102
{ACAD_REACTORS
330
2701
102
}
330
2701
100
AcDbScale
 70
     0
300
6" = 1'-0"
140
6.0
141
12.0
290
     0
  0
SCALE
  5
2722
102
{ACAD_REACTORS
330
2701
102
}
330
2701
100
AcDbScale
 70
     0
300
1'-0" = 1'-0"
140
12.0
141
12.0
290
     0
  0
TABLESTYLE
  5
2744
102
{ACAD_REACTORS
330
2743
102
}
102
{ACAD_XDICTIONARY
360
274E
102
}
330
2743
100
AcDbTableStyle
  3
Standard
 70
     0
 71
     0
 40
0.06
 41
0.06
280
     0
281
     0
  7
STANDARD
140
0.18
170
     2
 62
     0
 63
   257
283
     0
 90
        4
 91
        0
  1

274
    -2
284
     1
 64
     0
275
    -2
285
     1
 65
     0
276
    -2
286
     1
 66
     0
277
    -2
287
     1
 67
     0
278
    -2
288
     1
 68
     0
279
    -2
289
     1
 69
     0
  7
STANDARD
140
0.25
170
     5
 62
     0
 63
   257
283
     0
 90
        4
 91
        0
  1

274
    -2
284
     1
 64
     0
275
    -2
285
     1
 65
     0
276
    -2
286
     1
 66
     0
277
    -2
287
     1
 67
     0
278
    -2
288
     1
 68
     0
279
    -2
289
     1
 69
     0
  7
STANDARD
140
0.18
170
     5
 62
     0
 63
   257
283
     0
 90
        4
 91
        0
  1

274
    -2
284
     1
 64
     0
275
    -2
285
     1
 65
     0
276
    -2
286
     1
 66
     0
277
    -2
287
     1
 67
     0
278
    -2
288
     1
 68
     0
279
    -2
289
     1
 69
     0
  0
VISUALSTYLE
  5
272B
102
{ACAD_REACTORS
330
2726
102
}
330
2726
100
AcDbVisualStyle
  2
2dWireframe
 70
     4
177
     3
291
     0
 70
    58
 90
        0
176
     1
 90
        2
176
     1
 90
        0
176
     1
 90
        0
176
     1
 40
0.6
176
     1
 40
30.0
176
     1
 62
     7
420
 16777215
176
     1
 90
        1
176
     1
 90
        4
176
     1
 62
     7
176
     1
 62
   257
176
     1
 90
        1
176
     1
 90
        1
176
     1
 40
1.0
176
     1
 90
        0
176
     1
 62
   257
176
     1
 40
1.0
176
     1
 90
        1
176
     1
 90
        6
176
     1
 90
        2
176
     1
 62
     7
176
     1
 90
        5
176
     1
 90
        0
176
     1
 90
        0
176
     1
290
     0
176
     1
 90
        1
176
     1
 40
0.0
176
     1
 90
        0
176
     1
290
     1
176
     1
290
     1
176
     1
290
     0
176
     1
290
     0
176
     1
290
     0
176
     1
290
     0
176
     1
290
     0
176
     1
290
     0
176
     1
290
     0
176
     1
 90
       50
176
     1
 40
0.0
176
     1
 40
1.0
176
     1
 90
        0
176
     1
 62
    18
420
        0
176
     1
 90
       50
176
     1
 90
        3
176
     1
 62
     5
420
      255
176
     1
290
     0
176
     1
 90
       50
176
     1
 90
       50
176
     1
 90
       50
176
     1
290
     0
176
     1
 90
       50
176
     1
 62
   256
176
     0
 40
1.0
176
     0
 90
        2
176
     1
  1
strokes_ogs.tif
176
     1
290
     0
176
     1
 40
1.0
176
     1
 40
1.0
176
     1
  0
VISUALSTYLE
  5
272E
102
{ACAD_REACTORS
330
2726
102
}
330
2726
100
AcDbVisualStyle
  2
Basic
 70
     7
177
     3
291
     1
 70
    58
 90
        1
176
     1
 90
        0
176
     1
 90
        1
176
     1
 90
        0
176
     1
 40
0.6
176
     1
 40
30.0
176
     1
 62
     7
420
 16777215
176
     1
 90
        0
176
     1
 90
        4
176
     1
 62
     7
176
     1
 62
   257
176
     1
 90
        1
176
     1
 90
        1
176
     1
 40
1.0
176
     1
 90
        8
176
     1
 62
     7
176
     1
 40
1.0
176
     1
 90
        1
176
     1
 90
        6
176
     1
 90
        2
176
     1
 62
     7
176
     1
 90
        5
176
     1
 90
        0
176
     1
 90
        0
176
     1
290
     0
176
     1
 90
        1
176
     1
 40
0.0
176
     1
 90
        0
176
     1
290
     0
176
     1
290
     1
176
     1
290
     1
176
     1
290
     0
176
     1
290
     0
176
     1
290
     0
176
     1
290
     0
176
     1
290
     0
176
     1
290
     0
176
     1
 90
       50
176
     1
 40
0.0
176
     1
 40
1.0
176
     1
 90
        0
176
     1
 62
    18
420
        0
176
     1
 90
       50
176
     1
 90
        3
176
     1
 62
     5
420
      255
176
     1
290
     0
176
     1
 90
       50
176
     1
 90
       50
176
     1
 90
       50
176
     1
290
     0
176
     1
 90
       50
176
     1
 62
   256
176
     0
 40
1.0
176
     0
 90
        2
176
     1
  1
strokes_ogs.tif
176
     1
290
     0
176
     1
 40
1.0
176
     1
 40
1.0
176
     1
  0
VISUALSTYLE
  5
2732
102
{ACAD_REACTORS
330
2726
102
}
330
2726
100
AcDbVisualStyle
  2
Brighten
 70
    12
177
     3
291
     1
 70
    58
 90
        2
176
     1
 90
        2
176
     1
 90
        0
176
     1
 90
        0
176
     1
 40
0.6
176
     1
 40
30.0
176
     1
 62
     7
420
 16777215
176
     1
 90
        1
176
     1
 90
        4
176
     1
 62
     7
176
     1
 62
   257
176
     1
 90
        1
176
     1
 90
        1
176
     1
 40
1.0
176
     1
 90
        8
176
     1
 62
     7
176
     1
 40
1.0
176
     1
 90
        1
176
     1
 90
        6
176
     1
 90
        2
176
     1
 62
     7
176
     1
 90
        5
176
     1
 90
        0
176
     1
 90
        0
176
     1
290
     0
176
     1
 90
        1
176
     1
 40
50.0
176
     1
 90
        0
176
     1
290
     0
176
     1
290
     1
176
     1
290
     1
176
     1
290
     0
176
     1
290
     0
176
     1
290
     0
176
     1
290
     0
176
     1
290
     0
176
     1
290
     0
176
     1
 90
       50
176
     1
 40
0.0
176
     1
 40
1.0
176
     1
 90
        0
176
     1
 62
    18
420
        0
176
     1
 90
       50
176
     1
 90
        3
176
     1
 62
     5
420
      255
176
     1
290
     0
176
     1
 90
       50
176
     1
 90
       50
176
     1
 90
       50
176
     1
290
     0
176
     1
 90
       50
176
     1
 62
   256
176
     0
 40
1.0
176
     0
 90
        2
176
     1
  1
strokes_ogs.tif
176
     1
290
     0
176
     1
 40
1.0
176
     1
 40
1.0
176
     1
  0
VISUALSTYLE
  5
2736
102
{ACAD_REACTORS
330
2726
102
}
330
2726
100
AcDbVisualStyle
  2
ColorChange
 70
    16
177
     3
291
     1
 70
    58
 90
        2
176
     1
 90
        2
176
     1
 90
        3
176
     1
 90
        0
176
     1
 40
0.6
176
     1
 40
30.0
176
     1
 62
     8
420
  8421504
176
     1
 90
        1
176
     1
 90
        4
176
     1
 62
     7
176
     1
 62
   257
176
     1
 90
        1
176
     1
 90
        1
176
     1
 40
1.0
176
     1
 90
        8
176
     1
 62
     8
420
  8421504
176
     1
 40
1.0
176
     1
 90
        1
176
     1
 90
        6
176
     1
 90
        2
176
     1
 62
     7
176
     1
 90
        5
176
     1
 90
        0
176
     1
 90
        0
176
     1
290
     0
176
     1
 90
        1
176
     1
 40
0.0
176
     1
 90
        0
176
     1
290
     0
176
     1
290
     1
176
     1
290
     1
176
     1
290
     0
176
     1
290
     0
176
     1
290
     0
176
     1
290
     0
176
     1
290
     0
176
     1
290
     0
176
     1
 90
       50
176
     1
 40
0.0
176
     1
 40
1.0
176
     1
 90
        0
176
     1
 62
    18
420
        0
176
     1
 90
       50
176
     1
 90
        3
176
     1
 62
     5
420
      255
176
     1
290
     0
176
     1
 90
       50
176
     1
 90
       50
176
     1
 90
       50
176
     1
290
     0
176
     1
 90
       50
176
     1
 62
   256
176
     0
 40
1.0
176
     0
 90
        2
176
     1
  1
strokes_ogs.tif
176
     1
290
     0
176
     1
 40
1.0
176
     1
 40
1.0
176
     1
  0
VISUALSTYLE
  5
2730
102
{ACAD_REACTORS
330
2726
102
}
330
2726
100
AcDbVisualStyle
  2
Conceptual
 70
     9
177
     3
291
     0
 70
    58
 90
        3
176
     1
 90
        2
176
     1
 90
        0
176
     1
 90
        0
176
     1
 40
0.6
176
     1
 40
30.0
176
     1
 62
     7
420
 16777215
176
     1
 90
        2
176
     1
 90
        2
176
     1
 62
     7
176
     1
 62
   257
176
     1
 90
        1
176
     1
 90
        1
176
     1
 40
179.0
176
     1
 90
        8
176
     1
 62
     7
176
     1
 40
1.0
176
     1
 90
        1
176
     1
 90
        6
176
     1
 90
        2
176
     1
 62
     7
176
     1
 90
        3
176
     1
 90
        0
176
     1
 90
        0
176
     1
290
     0
176
     1
 90
        1
176
     1
 40
0.0
176
     1
 90
        0
176
     1
290
     0
176
     1
290
     1
176
     1
290
     1
176
     1
290
     0
176
     1
290
     0
176
     1
290
     0
176
     1
290
     0
176
     1
290
     0
176
     1
290
     0
176
     1
 90
       50
176
     1
 40
0.0
176
     1
 40
1.0
176
     1
 90
        0
176
     1
 62
    18
420
        0
176
     1
 90
       50
176
     1
 90
        3
176
     1
 62
     5
420
      255
176
     1
290
     0
176
     1
 90
       50
176
     1
 90
       50
176
     1
 90
       50
176
     1
290
     0
176
     1
 90
       50
176
     1
 62
   256
176
     0
 40
1.0
176
     0
 90
        2
176
     1
  1
strokes_ogs.tif
176
     1
290
     0
176
     1
 40
1.0
176
     1
 40
1.0
176
     1
  0
VISUALSTYLE
  5
2731
102
{ACAD_REACTORS
330
2726
102
}
330
2726
100
AcDbVisualStyle
  2
Dim
 70
    11
177
     3
291
     1
 70
    58
 90
        2
176
     1
 90
        2
176
     1
 90
        0
176
     1
 90
        0
176
     1
 40
0.6
176
     1
 40
30.0
176
     1
 62
     7
420
 16777215
176
     1
 90
        1
176
     1
 90
        4
176
     1
 62
     7
176
     1
 62
   257
176
     1
 90
        1
176
     1
 90
        1
176
     1
 40
1.0
176
     1
 90
        8
176
     1
 62
     7
176
     1
 40
1.0
176
     1
 90
        1
176
     1
 90
        6
176
     1
 90
        2
176
     1
 62
     7
176
     1
 90
        5
176
     1
 90
        0
176
     1
 90
        0
176
     1
290
     0
176
     1
 90
        1
176
     1
 40
-50.0
176
     1
 90
        0
176
     1
290
     0
176
     1
290
     1
176
     1
290
     1
176
     1
290
     0
176
     1
290
     0
176
     1
290
     0
176
     1
290
     0
176
     1
290
     0
176
     1
290
     0
176
     1
 90
       50
176
     1
 40
0.0
176
     1
 40
1.0
176
     1
 90
        0
176
     1
 62
    18
420
        0
176
     1
 90
       50
176
     1
 90
        3
176
     1
 62
     5
420
      255
176
     1
290
     0
176
     1
 90
       50
176
     1
 90
       50
176
     1
 90
       50
176
     1
290
     0
176
     1
 90
       50
176
     1
 62
   256
176
     0
 40
1.0
176
     0
 90
        2
176
     1
  1
strokes_ogs.tif
176
     1
290
     0
176
     1
 40
1.0
176
     1
 40
1.0
176
     1
  0
VISUALSTYLE
  5
2739
102
{ACAD_REACTORS
330
2726
102
}
330
2726
100
AcDbVisualStyle
  2
EdgeColorOff
 70
    22
177
     3
291
     1
 70
    58
 90
        2
176
     0
 90
        2
176
     0
 90
        0
176
     0
 90
        0
176
     0
 40
0.6
176
     0
 40
30.0
176
     0
 62
     7
420
 16777215
176
     0
 90
        1
176
     0
 90
        4
176
     0
 62
     7
176
     0
 62
   257
176
     0
 90
        1
176
     0
 90
        1
176
     0
 40
1.0
176
     0
 90
        8
176
     2
 62
     7
176
     0
 40
1.0
176
     0
 90
        1
176
     0
 90
        6
176
     0
 90
        2
176
     0
 62
     7
176
     0
 90
        5
176
     0
 90
        0
176
     0
 90
        0
176
     0
290
     0
176
     0
 90
        1
176
     0
 40
0.0
176
     0
 90
        0
176
     0
290
     0
176
     0
290
     1
176
     0
290
     1
176
     0
290
     0
176
     0
290
     0
176
     0
290
     0
176
     0
290
     0
176
     0
290
     0
176
     0
290
     0
176
     0
 90
       50
176
     0
 40
0.0
176
     0
 40
1.0
176
     0
 90
        0
176
     0
 62
    18
420
        0
176
     0
 90
       50
176
     0
 90
        3
176
     0
 62
     5
420
      255
176
     0
290
     0
176
     0
 90
       50
176
     0
 90
       50
176
     0
 90
       50
176
     0
290
     0
176
     0
 90
       50
176
     0
 62
   256
176
     0
 40
1.0
176
     0
 90
        2
176
     0
  1
strokes_ogs.tif
176
     0
290
     0
176
     0
 40
1.0
176
     0
 40
1.0
176
     0
  0
VISUALSTYLE
  5
2735
102
{ACAD_REACTORS
330
2726
102
}
330
2726
100
AcDbVisualStyle
  2
Facepattern
 70
    15
177
     3
291
     1
 70
    58
 90
        2
176
     1
 90
        2
176
     1
 90
        0
176
     1
 90
        0
176
     1
 40
0.6
176
     1
 40
30.0
176
     1
 62
     7
420
 16777215
176
     1
 90
        1
176
     1
 90
        4
176
     1
 62
     7
176
     1
 62
   257
176
     1
 90
        1
176
     1
 90
        1
176
     1
 40
1.0
176
     1
 90
        8
176
     1
 62
     7
176
     1
 40
1.0
176
     1
 90
        1
176
     1
 90
        6
176
     1
 90
        2
176
     1
 62
     7
176
     1
 90
        5
176
     1
 90
        0
176
     1
 90
        0
176
     1
290
     0
176
     1
 90
        1
176
     1
 40
0.0
176
     1
 90
        0
176
     1
290
     0
176
     1
290
     1
176
     1
290
     1
176
     1
290
     0
176
     1
290
     0
176
     1
290
     0
176
     1
290
     0
176
     1
290
     0
176
     1
290
     0
176
     1
 90
       50
176
     1
 40
0.0
176
     1
 40
1.0
176
     1
 90
        0
176
     1
 62
    18
420
        0
176
     1
 90
       50
176
     1
 90
        3
176
     1
 62
     5
420
      255
176
     1
290
     0
176
     1
 90
       50
176
     1
 90
       50
176
     1
 90
       50
176
     1
290
     0
176
     1
 90
       50
176
     1
 62
   256
176
     0
 40
1.0
176
     0
 90
        2
176
     1
  1
strokes_ogs.tif
176
     1
290
     0
176
     1
 40
1.0
176
     1
 40
1.0
176
     1
  0
VISUALSTYLE
  5
2727
102
{ACAD_REACTORS
330
2726
102
}
330
2726
100
AcDbVisualStyle
  2
Flat
 70
     0
177
     3
291
     1
 70
    58
 90
        2
176
     1
 90
        1
176
     1
 90
        1
176
     1
 90
        2
176
     1
 40
0.6
176
     1
 40
30.0
176
     1
 62
     7
420
 16777215
176
     1
 90
        0
176
     1
 90
        0
176
     1
 62
     7
176
     1
 62
   257
176
     1
 90
        1
176
     1
 90
        1
176
     1
 40
1.0
176
     1
 90
        8
176
     1
 62
     7
176
     1
 40
1.0
176
     1
 90
        1
176
     1
 90
        6
176
     1
 90
        2
176
     1
 62
     7
176
     1
 90
        5
176
     1
 90
        0
176
     1
 90
        0
176
     1
290
     0
176
     1
 90
       13
176
     1
 40
0.0
176
     1
 90
        0
176
     1
290
     0
176
     1
290
     1
176
     1
290
     1
176
     1
290
     0
176
     1
290
     0
176
     1
290
     0
176
     1
290
     0
176
     1
290
     0
176
     1
290
     0
176
     1
 90
       50
176
     1
 40
0.0
176
     1
 40
1.0
176
     1
 90
        0
176
     1
 62
    18
420
        0
176
     1
 90
       50
176
     1
 90
        3
176
     1
 62
     5
420
      255
176
     1
290
     0
176
     1
 90
       50
176
     1
 90
       50
176
     1
 90
       50
176
     1
290
     0
176
     1
 90
       50
176
     1
 62
   256
176
     0
 40
1.0
176
     0
 90
        2
176
     1
  1
strokes_ogs.tif
176
     1
290
     0
176
     1
 40
1.0
176
     1
 40
1.0
176
     1
  0
VISUALSTYLE
  5
2728
102
{ACAD_REACTORS
330
2726
102
}
330
2726
100
AcDbVisualStyle
  2
FlatWithEdges
 70
     1
177
     3
291
     1
 70
    58
 90
        2
176
     1
 90
        1
176
     1
 90
        1
176
     1
 90
        2
176
     1
 40
0.6
176
     1
 40
30.0
176
     1
 62
     7
420
 16777215
176
     1
 90
        1
176
     1
 90
        0
176
     1
 62
     7
176
     1
 62
   257
176
     1
 90
        1
176
     1
 90
        1
176
     1
 40
1.0
176
     1
 90
        0
176
     1
 62
   257
176
     1
 40
1.0
176
     1
 90
        1
176
     1
 90
        6
176
     1
 90
        2
176
     1
 62
     7
176
     1
 90
        5
176
     1
 90
        0
176
     1
 90
        0
176
     1
290
     0
176
     1
 90
       13
176
     1
 40
0.0
176
     1
 90
        0
176
     1
290
     0
176
     1
290
     1
176
     1
290
     1
176
     1
290
     0
176
     1
290
     0
176
     1
290
     0
176
     1
290
     0
176
     1
290
     0
176
     1
290
     0
176
     1
 90
       50
176
     1
 40
0.0
176
     1
 40
1.0
176
     1
 90
        0
176
     1
 62
    18
420
        0
176
     1
 90
       50
176
     1
 90
        3
176
     1
 62
     5
420
      255
176
     1
290
     0
176
     1
 90
       50
176
     1
 90
       50
176
     1
 90
       50
176
     1
290
     0
176
     1
 90
       50
176
     1
 62
   256
176
     0
 40
1.0
176
     0
 90
        2
176
     1
  1
strokes_ogs.tif
176
     1
290
     0
176
     1
 40
1.0
176
     1
 40
1.0
176
     1
  0
VISUALSTYLE
  5
2729
102
{ACAD_REACTORS
330
2726
102
}
330
2726
100
AcDbVisualStyle
  2
Gouraud
 70
     2
177
     3
291
     1
 70
    58
 90
        2
176
     1
 90
        2
176
     1
 90
        1
176
     1
 90
        2
176
     1
 40
0.6
176
     1
 40
30.0
176
     1
 62
     7
420
 16777215
176
     1
 90
        0
176
     1
 90
        0
176
     1
 62
     7
176
     1
 62
   257
176
     1
 90
        1
176
     1
 90
        1
176
     1
 40
1.0
176
     1
 90
        0
176
     1
 62
     7
176
     1
 40
1.0
176
     1
 90
        1
176
     1
 90
        6
176
     1
 90
        2
176
     1
 62
     7
176
     1
 90
        5
176
     1
 90
        0
176
     1
 90
        0
176
     1
290
     0
176
     1
 90
       13
176
     1
 40
0.0
176
     1
 90
        0
176
     1
290
     0
176
     1
290
     1
176
     1
290
     1
176
     1
290
     0
176
     1
290
     0
176
     1
290
     0
176
     1
290
     0
176
     1
290
     0
176
     1
290
     0
176
     1
 90
       50
176
     1
 40
0.0
176
     1
 40
1.0
176
     1
 90
        0
176
     1
 62
    18
420
        0
176
     1
 90
       50
176
     1
 90
        3
176
     1
 62
     5
420
      255
176
     1
290
     0
176
     1
 90
       50
176
     1
 90
       50
176
     1
 90
       50
176
     1
290
     0
176
     1
 90
       50
176
     1
 62
   256
176
     0
 40
1.0
176
     0
 90
        2
176
     1
  1
strokes_ogs.tif
176
     1
290
     0
176
     1
 40
1.0
176
     1
 40
1.0
176
     1
  0
VISUALSTYLE
  5
272A
102
{ACAD_REACTORS
330
2726
102
}
330
2726
100
AcDbVisualStyle
  2
GouraudWithEdges
 70
     3
177
     3
291
     1
 70
    58
 90
        2
176
     1
 90
        2
176
     1
 90
        1
176
     1
 90
        2
176
     1
 40
0.6
176
     1
 40
30.0
176
     1
 62
     7
420
 16777215
176
     1
 90
        1
176
     1
 90
        0
176
     1
 62
     7
176
     1
 62
   257
176
     1
 90
        1
176
     1
 90
        1
176
     1
 40
1.0
176
     1
 90
        0
176
     1
 62
   257
176
     1
 40
1.0
176
     1
 90
        1
176
     1
 90
        6
176
     1
 90
        2
176
     1
 62
     7
176
     1
 90
        5
176
     1
 90
        0
176
     1
 90
        0
176
     1
290
     0
176
     1
 90
       13
176
     1
 40
0.0
176
     1
 90
        0
176
     1
290
     0
176
     1
290
     1
176
     1
290
     1
176
     1
290
     0
176
     1
290
     0
176
     1
290
     0
176
     1
290
     0
176
     1
290
     0
176
     1
290
     0
176
     1
 90
       50
176
     1
 40
0.0
176
     1
 40
1.0
176
     1
 90
        0
176
     1
 62
    18
420
        0
176
     1
 90
       50
176
     1
 90
        3
176
     1
 62
     5
420
      255
176
     1
290
     0
176
     1
 90
       50
176
     1
 90
       50
176
     1
 90
       50
176
     1
290
     0
176
     1
 90
       50
176
     1
 62
   256
176
     0
 40
1.0
176
     0
 90
        2
176
     1
  1
strokes_ogs.tif
176
     1
290
     0
176
     1
 40
1.0
176
     1
 40
1.0
176
     1
  0
VISUALSTYLE
  5
272D
102
{ACAD_REACTORS
330
2726
102
}
330
2726
100
AcDbVisualStyle
  2
Hidden
 70
     6
177
     3
291
     0
 70
    58
 90
        1
176
     1
 90
        2
176
     1
 90
        2
176
     1
 90
        0
176
     1
 40
0.6
176
     1
 40
30.0
176
     1
 62
     7
420
 16777215
176
     1
 90
        2
176
     1
 90
        2
176
     1
 62
     7
176
     1
 62
   257
176
     1
 90
        2
176
     1
 90
        1
176
     1
 40
40.0
176
     1
 90
        0
176
     1
 62
   257
176
     1
 40
1.0
176
     1
 90
        1
176
     1
 90
        6
176
     1
 90
        2
176
     1
 62
     7
176
     1
 90
        3
176
     1
 90
        0
176
     1
 90
        0
176
     1
290
     0
176
     1
 90
        1
176
     1
 40
0.0
176
     1
 90
        0
176
     1
290
     0
176
     1
290
     1
176
     1
290
     1
176
     1
290
     0
176
     1
290
     0
176
     1
290
     0
176
     1
290
     0
176
     1
290
     0
176
     1
290
     0
176
     1
 90
       50
176
     1
 40
0.0
176
     1
 40
1.0
176
     1
 90
        0
176
     1
 62
    18
420
        0
176
     1
 90
       50
176
     1
 90
        3
176
     1
 62
     5
420
      255
176
     1
290
     0
176
     1
 90
       50
176
     1
 90
       50
176
     1
 90
       50
176
     1
290
     0
176
     1
 90
       50
176
     1
 62
   256
176
     0
 40
1.0
176
     0
 90
        2
176
     1
  1
strokes_ogs.tif
176
     1
290
     0
176
     1
 40
1.0
176
     1
 40
1.0
176
     1
  0
VISUALSTYLE
  5
2737
102
{ACAD_REACTORS
330
2726
102
}
330
2726
100
AcDbVisualStyle
  2
JitterOff
 70
    20
177
     3
291
     1
 70
    58
 90
        2
176
     0
 90
        2
176
     0
 90
        0
176
     0
 90
        0
176
     0
 40
0.6
176
     0
 40
30.0
176
     0
 62
     7
420
 16777215
176
     0
 90
        1
176
     0
 90
        4
176
     0
 62
     7
176
     0
 62
   257
176
     0
 90
        1
176
     0
 90
        1
176
     0
 40
1.0
176
     0
 90
       10
176
     2
 62
     7
176
     0
 40
1.0
176
     0
 90
        1
176
     0
 90
        6
176
     0
 90
        2
176
     0
 62
     7
176
     0
 90
        5
176
     0
 90
        0
176
     0
 90
        0
176
     0
290
     0
176
     0
 90
        1
176
     0
 40
0.0
176
     0
 90
        0
176
     0
290
     0
176
     0
290
     1
176
     0
290
     1
176
     0
290
     0
176
     0
290
     0
176
     0
290
     0
176
     0
290
     0
176
     0
290
     0
176
     0
290
     0
176
     0
 90
       50
176
     0
 40
0.0
176
     0
 40
1.0
176
     0
 90
        0
176
     0
 62
    18
420
        0
176
     0
 90
       50
176
     0
 90
        3
176
     0
 62
     5
420
      255
176
     0
290
     0
176
     0
 90
       50
176
     0
 90
       50
176
     0
 90
       50
176
     0
290
     0
176
     0
 90
       50
176
     0
 62
   256
176
     0
 40
1.0
176
     0
 90
        2
176
     0
  1
strokes_ogs.tif
176
     0
290
     0
176
     0
 40
1.0
176
     0
 40
1.0
176
     0
  0
VISUALSTYLE
  5
2734
102
{ACAD_REACTORS
330
2726
102
}
330
2726
100
AcDbVisualStyle
  2
Linepattern
 70
    14
177
     3
291
     1
 70
    58
 90
        2
176
     1
 90
        2
176
     1
 90
        0
176
     1
 90
        0
176
     1
 40
0.6
176
     1
 40
30.0
176
     1
 62
     7
420
 16777215
176
     1
 90
        1
176
     1
 90
        4
176
     1
 62
     7
176
     1
 62
   257
176
     1
 90
        7
176
     1
 90
        7
176
     1
 40
1.0
176
     1
 90
        8
176
     1
 62
     7
176
     1
 40
1.0
176
     1
 90
        1
176
     1
 90
        6
176
     1
 90
        2
176
     1
 62
     7
176
     1
 90
        5
176
     1
 90
        0
176
     1
 90
        0
176
     1
290
     0
176
     1
 90
        1
176
     1
 40
0.0
176
     1
 90
        0
176
     1
290
     0
176
     1
290
     1
176
     1
290
     1
176
     1
290
     0
176
     1
290
     0
176
     1
290
     0
176
     1
290
     0
176
     1
290
     0
176
     1
290
     0
176
     1
 90
       50
176
     1
 40
0.0
176
     1
 40
1.0
176
     1
 90
        0
176
     1
 62
    18
420
        0
176
     1
 90
       50
176
     1
 90
        3
176
     1
 62
     5
420
      255
176
     1
290
     0
176
     1
 90
       50
176
     1
 90
       50
176
     1
 90
       50
176
     1
290
     0
176
     1
 90
       50
176
     1
 62
   256
176
     0
 40
1.0
176
     0
 90
        2
176
     1
  1
strokes_ogs.tif
176
     1
290
     0
176
     1
 40
1.0
176
     1
 40
1.0
176
     1
  0
VISUALSTYLE
  5
2738
102
{ACAD_REACTORS
330
2726
102
}
330
2726
100
AcDbVisualStyle
  2
OverhangOff
 70
    21
177
     3
291
     1
 70
    58
 90
        2
176
     0
 90
        2
176
     0
 90
        0
176
     0
 90
        0
176
     0
 40
0.6
176
     0
 40
30.0
176
     0
 62
     7
420
 16777215
176
     0
 90
        1
176
     0
 90
        4
176
     0
 62
     7
176
     0
 62
   257
176
     0
 90
        1
176
     0
 90
        1
176
     0
 40
1.0
176
     0
 90
        9
176
     2
 62
     7
176
     0
 40
1.0
176
     0
 90
        1
176
     0
 90
        6
176
     0
 90
        2
176
     0
 62
     7
176
     0
 90
        5
176
     0
 90
        0
176
     0
 90
        0
176
     0
290
     0
176
     0
 90
        1
176
     0
 40
0.0
176
     0
 90
        0
176
     0
290
     0
176
     0
290
     1
176
     0
290
     1
176
     0
290
     0
176
     0
290
     0
176
     0
290
     0
176
     0
290
     0
176
     0
290
     0
176
     0
290
     0
176
     0
 90
       50
176
     0
 40
0.0
176
     0
 40
1.0
176
     0
 90
        0
176
     0
 62
    18
420
        0
176
     0
 90
       50
176
     0
 90
        3
176
     0
 62
     5
420
      255
176
     0
290
     0
176
     0
 90
       50
176
     0
 90
       50
176
     0
 90
       50
176
     0
290
     0
176
     0
 90
       50
176
     0
 62
   256
176
     0
 40
1.0
176
     0
 90
        2
176
     0
  1
strokes_ogs.tif
176
     0
290
     0
176
     0
 40
1.0
176
     0
 40
1.0
176
     0
  0
VISUALSTYLE
  5
272F
102
{ACAD_REACTORS
330
2726
102
}
330
2726
100
AcDbVisualStyle
  2
Realistic
 70
     8
177
     3
291
     0
 70
    58
 90
        2
176
     1
 90
        3
176
     1
 90
        0
176
     1
 90
        2
176
     1
 40
0.6
176
     1
 40
30.0
176
     1
 62
     7
420
 16777215
176
     1
 90
        0
176
     1
 90
        0
176
     1
 62
     7
176
     1
 62
   257
176
     1
 90
        1
176
     1
 90
        1
176
     1
 40
1.0
176
     1
 90
        8
176
     1
 62
   257
176
     1
 40
1.0
176
     1
 90
        1
176
     1
 90
        6
176
     1
 90
        2
176
     1
 62
     7
176
     1
 90
        3
176
     1
 90
        0
176
     1
 90
        0
176
     1
290
     0
176
     1
 90
       13
176
     1
 40
0.0
176
     1
 90
        0
176
     1
290
     0
176
     1
290
     1
176
     1
290
     1
176
     1
290
     0
176
     1
290
     0
176
     1
290
     0
176
     1
290
     0
176
     1
290
     0
176
     1
290
     0
176
     1
 90
       50
176
     1
 40
0.0
176
     1
 40
1.0
176
     1
 90
        0
176
     1
 62
    18
420
        0
176
     1
 90
       50
176
     1
 90
        3
176
     1
 62
     5
420
      255
176
     1
290
     0
176
     1
 90
       50
176
     1
 90
       50
176
     1
 90
       50
176
     1
290
     0
176
     1
 90
       50
176
     1
 62
   256
176
     0
 40
1.0
176
     0
 90
        2
176
     1
  1
strokes_ogs.tif
176
     1
290
     0
176
     1
 40
1.0
176
     1
 40
1.0
176
     1
  0
VISUALSTYLE
  5
273E
102
{ACAD_REACTORS
330
2726
102
}
330
2726
100
AcDbVisualStyle
  2
Shaded
 70
    27
177
     3
291
     0
 70
    58
 90
        2
176
     1
 90
        2
176
     1
 90
        1
176
     1
 90
        2
176
     1
 40
0.6
176
     1
 40
30.0
176
     1
 62
     7
420
 16777215
176
     1
 90
        0
176
     1
 90
        4
176
     1
 62
     7
176
     1
 62
   257
176
     1
 90
        1
176
     1
 90
        1
176
     1
 40
1.0
176
     1
 90
        8
176
     1
 62
   257
176
     1
 40
1.0
176
     1
 90
        1
176
     1
 90
        6
176
     1
 90
        2
176
     1
 62
     8
420
  7895160
176
     1
 90
        3
176
     1
 90
        0
176
     1
 90
        0
176
     1
290
     0
176
     1
 90
        5
176
     1
 40
0.0
176
     1
 90
        0
176
     1
290
     0
176
     1
290
     1
176
     1
290
     1
176
     1
290
     0
176
     1
290
     0
176
     1
290
     0
176
     1
290
     0
176
     1
290
     0
176
     1
290
     0
176
     1
 90
       50
176
     1
 40
0.0
176
     1
 40
1.0
176
     1
 90
        0
176
     1
 62
    18
420
        0
176
     1
 90
       50
176
     1
 90
        3
176
     1
 62
     5
420
      255
176
     1
290
     0
176
     1
 90
       50
176
     1
 90
       50
176
     1
 90
       50
176
     1
290
     0
176
     1
 90
       50
176
     1
 62
   256
176
     0
 40
1.0
176
     0
 90
        2
176
     1
  1
strokes_ogs.tif
176
     1
290
     0
176
     1
 40
1.0
176
     1
 40
1.0
176
     1
  0
VISUALSTYLE
  5
273D
102
{ACAD_REACTORS
330
2726
102
}
330
2726
100
AcDbVisualStyle
  2
Shaded with edges
 70
    26
177
     3
291
     0
 70
    58
 90
        2
176
     1
 90
        2
176
     1
 90
        1
176
     1
 90
        2
176
     1
 40
0.6
176
     1
 40
30.0
176
     1
 62
     7
420
 16777215
176
     1
 90
        1
176
     1
 90
       10
176
     1
 62
     7
176
     1
 62
   257
176
     1
 90
        2
176
     1
 90
        1
176
     1
 40
1.0
176
     1
 90
        8
176
     1
 62
   257
176
     1
 40
1.0
176
     1
 90
        1
176
     1
 90
        6
176
     1
 90
        2
176
     1
 62
     7
176
     1
 90
        3
176
     1
 90
        0
176
     1
 90
        0
176
     1
290
     0
176
     1
 90
        5
176
     1
 40
0.0
176
     1
 90
        0
176
     1
290
     0
176
     1
290
     1
176
     1
290
     1
176
     1
290
     0
176
     1
290
     0
176
     1
290
     0
176
     1
290
     0
176
     1
290
     0
176
     1
290
     0
176
     1
 90
       50
176
     1
 40
0.0
176
     1
 40
1.0
176
     1
 90
        0
176
     1
 62
    18
420
        0
176
     1
 90
       50
176
     1
 90
        3
176
     1
 62
     5
420
      255
176
     1
290
     0
176
     1
 90
       50
176
     1
 90
       50
176
     1
 90
       50
176
     1
290
     0
176
     1
 90
       50
176
     1
 62
   256
176
     0
 40
1.0
176
     0
 90
        2
176
     1
  1
strokes_ogs.tif
176
     1
290
     0
176
     1
 40
1.0
176
     1
 40
1.0
176
     1
  0
VISUALSTYLE
  5
273A
102
{ACAD_REACTORS
330
2726
102
}
330
2726
100
AcDbVisualStyle
  2
Shades of Gray
 70
    23
177
     3
291
     0
 70
    58
 90
        2
176
     1
 90
        2
176
     1
 90
        3
176
     1
 90
        0
176
     1
 40
0.6
176
     1
 40
30.0
176
     1
 62
     7
420
 16777215
176
     1
 90
        2
176
     1
 90
        2
176
     1
 62
     7
176
     1
 62
     7
176
     1
 90
        1
176
     1
 90
        1
176
     1
 40
40.0
176
     1
 90
        8
176
     1
 62
     7
176
     1
 40
1.0
176
     1
 90
        1
176
     1
 90
        6
176
     1
 90
        2
176
     1
 62
     7
176
     1
 90
        3
176
     1
 90
        0
176
     1
 90
        0
176
     1
290
     0
176
     1
 90
        1
176
     1
 40
0.0
176
     1
 90
        0
176
     1
290
     0
176
     1
290
     1
176
     1
290
     1
176
     1
290
     0
176
     1
290
     0
176
     1
290
     0
176
     1
290
     0
176
     1
290
     0
176
     1
290
     0
176
     1
 90
       50
176
     1
 40
0.0
176
     1
 40
1.0
176
     1
 90
        0
176
     1
 62
    18
420
        0
176
     1
 90
       50
176
     1
 90
        3
176
     1
 62
     5
420
      255
176
     1
290
     0
176
     1
 90
       50
176
     1
 90
       50
176
     1
 90
       50
176
     1
290
     0
176
     1
 90
       50
176
     1
 62
   256
176
     0
 40
1.0
176
     0
 90
        2
176
     1
  1
strokes_ogs.tif
176
     1
290
     0
176
     1
 40
1.0
176
     1
 40
1.0
176
     1
  0
VISUALSTYLE
  5
273B
102
{ACAD_REACTORS
330
2726
102
}
330
2726
100
AcDbVisualStyle
  2
Sketchy
 70
    24
177
     3
291
     0
 70
    58
 90
        1
176
     1
 90
        2
176
     1
 90
        2
176
     1
 90
        0
176
     1
 40
0.6
176
     1
 40
30.0
176
     1
 62
     7
420
 16777215
176
     1
 90
        2
176
     1
 90
        2
176
     1
 62
     7
176
     1
 62
     7
176
     1
 90
        1
176
     1
 90
        1
176
     1
 40
40.0
176
     1
 90
       11
176
     1
 62
     7
176
     1
 40
1.0
176
     1
 90
        1
176
     1
 90
        6
176
     1
 90
        2
176
     1
 62
     7
176
     1
 90
        6
176
     1
 90
        0
176
     1
 90
        0
176
     1
290
     0
176
     1
 90
        1
176
     1
 40
0.0
176
     1
 90
        0
176
     1
290
     0
176
     1
290
     1
176
     1
290
     1
176
     1
290
     0
176
     1
290
     0
176
     1
290
     0
176
     1
290
     0
176
     1
290
     0
176
     1
290
     0
176
     1
 90
       50
176
     1
 40
0.0
176
     1
 40
1.0
176
     1
 90
        0
176
     1
 62
    18
420
        0
176
     1
 90
       50
176
     1
 90
        3
176
     1
 62
     5
420
      255
176
     1
290
     0
176
     1
 90
       50
176
     1
 90
       50
176
     1
 90
       50
176
     1
290
     0
176
     1
 90
       50
176
     1
 62
   256
176
     0
 40
1.0
176
     0
 90
        2
176
     1
  1
strokes_ogs.tif
176
     1
290
     0
176
     1
 40
1.0
176
     1
 40
1.0
176
     1
  0
VISUALSTYLE
  5
2733
102
{ACAD_REACTORS
330
2726
102
}
330
2726
100
AcDbVisualStyle
  2
Thicken
 70
    13
177
     3
291
     1
 70
    58
 90
        2
176
     1
 90
        2
176
     1
 90
        0
176
     1
 90
        0
176
     1
 40
0.6
176
     1
 40
30.0
176
     1
 62
     7
420
 16777215
176
     1
 90
        1
176
     1
 90
        4
176
     1
 62
     7
176
     1
 62
   257
176
     1
 90
        1
176
     1
 90
        1
176
     1
 40
1.0
176
     1
 90
       12
176
     1
 62
     7
176
     1
 40
1.0
176
     1
 90
        1
176
     1
 90
        6
176
     1
 90
        2
176
     1
 62
     7
176
     1
 90
        5
176
     1
 90
        0
176
     1
 90
        0
176
     1
290
     0
176
     1
 90
        1
176
     1
 40
0.0
176
     1
 90
        0
176
     1
290
     0
176
     1
290
     1
176
     1
290
     1
176
     1
290
     0
176
     1
290
     0
176
     1
290
     0
176
     1
290
     0
176
     1
290
     0
176
     1
290
     0
176
     1
 90
       50
176
     1
 40
0.0
176
     1
 40
1.0
176
     1
 90
        0
176
     1
 62
    18
420
        0
176
     1
 90
       50
176
     1
 90
        3
176
     1
 62
     5
420
      255
176
     1
290
     0
176
     1
 90
       50
176
     1
 90
       50
176
     1
 90
       50
176
     1
290
     0
176
     1
 90
       50
176
     1
 62
   256
176
     0
 40
1.0
176
     0
 90
        2
176
     1
  1
strokes_ogs.tif
176
     1
290
     0
176
     1
 40
1.0
176
     1
 40
1.0
176
     1
  0
VISUALSTYLE
  5
272C
102
{ACAD_REACTORS
330
2726
102
}
330
2726
100
AcDbVisualStyle
  2
Wireframe
 70
     5
177
     3
291
     0
 70
    58
 90
        0
176
     1
 90
        2
176
     1
 90
        0
176
     1
 90
        0
176
     1
 40
0.6
176
     1
 40
30.0
176
     1
 62
     7
420
 16777215
176
     1
 90
        1
176
     1
 90
        4
176
     1
 62
     7
176
     1
 62
   257
176
     1
 90
        1
176
     1
 90
        1
176
     1
 40
1.0
176
     1
 90
        0
176
     1
 62
   257
176
     1
 40
1.0
176
     1
 90
        1
176
     1
 90
        6
176
     1
 90
        2
176
     1
 62
     7
176
     1
 90
        3
176
     1
 90
        0
176
     1
 90
        0
176
     1
290
     0
176
     1
 90
        1
176
     1
 40
0.0
176
     1
 90
        0
176
     1
290
     0
176
     1
290
     1
176
     1
290
     1
176
     1
290
     0
176
     1
290
     0
176
     1
290
     0
176
     1
290
     0
176
     1
290
     0
176
     1
290
     0
176
     1
 90
       50
176
     1
 40
0.0
176
     1
 40
1.0
176
     1
 90
        0
176
     1
 62
    18
420
        0
176
     1
 90
       50
176
     1
 90
        3
176
     1
 62
     5
420
      255
176
     1
290
     0
176
     1
 90
       50
176
     1
 90
       50
176
     1
 90
       50
176
     1
290
     0
176
     1
 90
       50
176
     1
 62
   256
176
     0
 40
1.0
176
     0
 90
        2
176
     1
  1
strokes_ogs.tif
176
     1
290
     0
176
     1
 40
1.0
176
     1
 40
1.0
176
     1
  0
VISUALSTYLE
  5
273C
102
{ACAD_REACTORS
330
2726
102
}
330
2726
100
AcDbVisualStyle
  2
X-Ray
 70
    25
177
     3
291
     0
 70
    58
 90
        2
176
     1
 90
        2
176
     1
 90
        1
176
     1
 90
        1
176
     1
 40
0.5
176
     1
 40
30.0
176
     1
 62
     7
420
 16777215
176
     1
 90
        1
176
     1
 90
        0
176
     1
 62
     7
176
     1
 62
   257
176
     1
 90
        1
176
     1
 90
        1
176
     1
 40
1.0
176
     1
 90
        8
176
     1
 62
     7
176
     1
 40
1.0
176
     1
 90
        1
176
     1
 90
        6
176
     1
 90
        2
176
     1
 62
     7
176
     1
 90
        3
176
     1
 90
        0
176
     1
 90
        0
176
     1
290
     0
176
     1
 90
       13
176
     1
 40
0.0
176
     1
 90
        0
176
     1
290
     0
176
     1
290
     1
176
     1
290
     1
176
     1
290
     0
176
     1
290
     0
176
     1
290
     0
176
     1
290
     0
176
     1
290
     0
176
     1
290
     0
176
     1
 90
       50
176
     1
 40
0.0
176
     1
 40
1.0
176
     1
 90
        0
176
     1
 62
    18
420
        0
176
     1
 90
       50
176
     1
 90
        3
176
     1
 62
     5
420
      255
176
     1
290
     0
176
     1
 90
       50
176
     1
 90
       50
176
     1
 90
       50
176
     1
290
     0
176
     1
 90
       50
176
     1
 62
   256
176
     0
 40
1.0
176
     0
 90
        2
176
     1
  1
strokes_ogs.tif
176
     1
290
     0
176
     1
 40
1.0
176
     1
 40
1.0
176
     1
  0
DICTIONARYVAR
  5
274A
102
{ACAD_REACTORS
330
66
102
}
330
66
100
DictionaryVariables
280
     0
  1
1:1
  0
DICTIONARYVAR
  5
274C
102
{ACAD_REACTORS
330
66
102
}
330
66
100
DictionaryVariables
280
     0
  1
Standard
  0
DICTIONARYVAR
  5
274B
102
{ACAD_REACTORS
330
66
102
}
330
66
100
DictionaryVariables
280
     0
  1
Standard
  0
DICTIONARYVAR
  5
67
102
{ACAD_REACTORS
330
66
102
}
330
66
100
DictionaryVariables
280
     0
  1
2
  0
DICTIONARYVAR
  5
6B
102
{ACAD_REACTORS
330
66
102
}
330
66
100
DictionaryVariables
280
     0
  1
1
  0
DICTIONARYVAR
  5
274D
102
{ACAD_REACTORS
330
66
102
}
330
66
100
DictionaryVariables
280
     0
  1
0
  0
DICTIONARY
  5
274E
330
2744
100
AcDbDictionary
280
     1
281
     1
  3
ACAD_ROUNDTRIP_2008_TABLESTYLE_CELLSTYLEMAP
360
274F
  0
CELLSTYLEMAP
  5
274F
102
{ACAD_REACTORS
330
274E
102
}
330
274E
100
AcDbCellStyleMap
 90
        3
300
CELLSTYLE
  1
TABLEFORMAT_BEGIN
 90
        5
170
     1
 91
        0
 92
    32768
 62
   257
 93
        1
300
CONTENTFORMAT
  1
CONTENTFORMAT_BEGIN
 90
        0
 91
        0
 92
        4
 93
        0
300

 40
0.0
140
1.0
 94
        5
 62
     0
340
11
144
0.25
309
CONTENTFORMAT_END
171
     1
301
MARGIN
  1
CELLMARGIN_BEGIN
 40
0.06
 40
0.06
 40
0.06
 40
0.06
 40
0.06
 40
0.06
309
CELLMARGIN_END
 94
        6
 95
        1
302
GRIDFORMAT
  1
GRIDFORMAT_BEGIN
 90
        0
 91
        1
 62
     0
 92
       -2
340
14
 93
        0
 40
0.045
309
GRIDFORMAT_END
 95
        2
302
GRIDFORMAT
  1
GRIDFORMAT_BEGIN
 90
        0
 91
        1
 62
     0
 92
       -2
340
14
 93
        0
 40
0.045
309
GRIDFORMAT_END
 95
        4
302
GRIDFORMAT
  1
GRIDFORMAT_BEGIN
 90
        0
 91
        1
 62
     0
 92
       -2
340
14
 93
        0
 40
0.045
309
GRIDFORMAT_END
 95
        8
302
GRIDFORMAT
  1
GRIDFORMAT_BEGIN
 90
        0
 91
        1
 62
     0
 92
       -2
340
14
 93
        0
 40
0.045
309
GRIDFORMAT_END
 95
       16
302
GRIDFORMAT
  1
GRIDFORMAT_BEGIN
 90
        0
 91
        1
 62
     0
 92
       -2
340
14
 93
        0
 40
0.045
309
GRIDFORMAT_END
 95
       32
302
GRIDFORMAT
  1
GRIDFORMAT_BEGIN
 90
        0
 91
        1
 62
     0
 92
       -2
340
14
 93
        0
 40
0.045
309
GRIDFORMAT_END
309
TABLEFORMAT_END
  1
CELLSTYLE_BEGIN
 90
        1
 91
        1
300
_TITLE
309
CELLSTYLE_END
300
CELLSTYLE
  1
TABLEFORMAT_BEGIN
 90
        5
170
     1
 91
        0
 92
        0
 62
   257
 93
        1
300
CONTENTFORMAT
  1
CONTENTFORMAT_BEGIN
 90
        0
 91
        0
 92
        4
 93
        0
300

 40
0.0
140
1.0
 94
        5
 62
     0
340
11
144
0.18
309
CONTENTFORMAT_END
171
     1
301
MARGIN
  1
CELLMARGIN_BEGIN
 40
0.06
 40
0.06
 40
0.06
 40
0.06
 40
0.06
 40
0.06
309
CELLMARGIN_END
 94
        6
 95
        1
302
GRIDFORMAT
  1
GRIDFORMAT_BEGIN
 90
        0
 91
        1
 62
     0
 92
       -2
340
14
 93
        0
 40
0.045
309
GRIDFORMAT_END
 95
        2
302
GRIDFORMAT
  1
GRIDFORMAT_BEGIN
 90
        0
 91
        1
 62
     0
 92
       -2
340
14
 93
        0
 40
0.045
309
GRIDFORMAT_END
 95
        4
302
GRIDFORMAT
  1
GRIDFORMAT_BEGIN
 90
        0
 91
        1
 62
     0
 92
       -2
340
14
 93
        0
 40
0.045
309
GRIDFORMAT_END
 95
        8
302
GRIDFORMAT
  1
GRIDFORMAT_BEGIN
 90
        0
 91
        1
 62
     0
 92
       -2
340
14
 93
        0
 40
0.045
309
GRIDFORMAT_END
 95
       16
302
GRIDFORMAT
  1
GRIDFORMAT_BEGIN
 90
        0
 91
        1
 62
     0
 92
       -2
340
14
 93
        0
 40
0.045
309
GRIDFORMAT_END
 95
       32
302
GRIDFORMAT
  1
GRIDFORMAT_BEGIN
 90
        0
 91
        1
 62
     0
 92
       -2
340
14
 93
        0
 40
0.045
309
GRIDFORMAT_END
309
TABLEFORMAT_END
  1
CELLSTYLE_BEGIN
 90
        2
 91
        1
300
_HEADER
309
CELLSTYLE_END
300
CELLSTYLE
  1
TABLEFORMAT_BEGIN
 90
        5
170
     1
 91
        0
 92
        0
 62
   257
 93
        1
300
CONTENTFORMAT
  1
CONTENTFORMAT_BEGIN
 90
        0
 91
        0
 92
        4
 93
        0
300

 40
0.0
140
1.0
 94
        2
 62
     0
340
11
144
0.18
309
CONTENTFORMAT_END
171
     1
301
MARGIN
  1
CELLMARGIN_BEGIN
 40
0.06
 40
0.06
 40
0.06
 40
0.06
 40
0.06
 40
0.06
309
CELLMARGIN_END
 94
        6
 95
        1
302
GRIDFORMAT
  1
GRIDFORMAT_BEGIN
 90
        0
 91
        1
 62
     0
 92
       -2
340
14
 93
        0
 40
0.045
309
GRIDFORMAT_END
 95
        2
302
GRIDFORMAT
  1
GRIDFORMAT_BEGIN
 90
        0
 91
        1
 62
     0
 92
       -2
340
14
 93
        0
 40
0.045
309
GRIDFORMAT_END
 95
        4
302
GRIDFORMAT
  1
GRIDFORMAT_BEGIN
 90
        0
 91
        1
 62
     0
 92
       -2
340
14
 93
        0
 40
0.045
309
GRIDFORMAT_END
 95
        8
302
GRIDFORMAT
  1
GRIDFORMAT_BEGIN
 90
        0
 91
        1
 62
     0
 92
       -2
340
14
 93
        0
 40
0.045
309
GRIDFORMAT_END
 95
       16
302
GRIDFORMAT
  1
GRIDFORMAT_BEGIN
 90
        0
 91
        1
 62
     0
 92
       -2
340
14
 93
        0
 40
0.045
309
GRIDFORMAT_END
 95
       32
302
GRIDFORMAT
  1
GRIDFORMAT_BEGIN
 90
        0
 91
        1
 62
     0
 92
       -2
340
14
 93
        0
 40
0.045
309
GRIDFORMAT_END
309
TABLEFORMAT_END
  1
CELLSTYLE_BEGIN
 90
        3
 91
        2
300
_DATA
309
CELLSTYLE_END
  0
ENDSEC
  0
EOF
