  0
SECTION
  2
HEADER
  9
$ACADVER
  1
AC1014
  9
$ACADMAINTVER
 70
     9
  9
$DWGCODEPAGE
  3
ANSI_1250
  9
$INSBASE
 10
0.0
 20
0.0
 30
0.0
  9
$EXTMIN
 10
43.35150020120162
 20
33.48885617292432
 30
0.0
  9
$EXTMAX
 10
199.3655639233477
 20
158.7428386637213
 30
0.0
  9
$LIMMIN
 10
0.0
 20
0.0
  9
$LIMMAX
 10
12.0
 20
9.0
  9
$ORTHOMODE
 70
     0
  9
$REGENMODE
 70
     1
  9
$FILLMODE
 70
     1
  9
$QTEXTMODE
 70
     0
  9
$MIRRTEXT
 70
     0
  9
$DRAGMODE
 70
     2
  9
$LTSCALE
 40
1.0
  9
$OSMODE
 70
 15359
  9
$ATTMODE
 70
     1
  9
$TEXTSIZE
 40
0.2
  9
$TRACEWID
 40
0.05
  9
$TEXTSTYLE
  7
STANDARD
  9
$CLAYER
  8
0
  9
$CELTYPE
  6
BYLAYER
  9
$CECOLOR
 62
   256
  9
$CELTSCALE
 40
1.0
  9
$DELOBJ
 70
     1
  9
$DISPSILH
 70
     0
  9
$DIMSCALE
 40
1.0
  9
$DIMASZ
 40
0.18
  9
$DIMEXO
 40
0.0625
  9
$DIMDLI
 40
0.38
  9
$DIMRND
 40
0.0
  9
$DIMDLE
 40
0.0
  9
$DIMEXE
 40
0.18
  9
$DIMTP
 40
0.0
  9
$DIMTM
 40
0.0
  9
$DIMTXT
 40
0.18
  9
$DIMCEN
 40
0.09
  9
$DIMTSZ
 40
0.0
  9
$DIMTOL
 70
     0
  9
$DIMLIM
 70
     0
  9
$DIMTIH
 70
     1
  9
$DIMTOH
 70
     1
  9
$DIMSE1
 70
     0
  9
$DIMSE2
 70
     0
  9
$DIMTAD
 70
     0
  9
$DIMZIN
 70
     0
  9
$DIMBLK
  1

  9
$DIMASO
 70
     1
  9
$DIMSHO
 70
     1
  9
$DIMPOST
  1

  9
$DIMAPOST
  1

  9
$DIMALT
 70
     0
  9
$DIMALTD
 70
     2
  9
$DIMALTF
 40
25.4
  9
$DIMLFAC
 40
1.0
  9
$DIMTOFL
 70
     0
  9
$DIMTVP
 40
0.0
  9
$DIMTIX
 70
     0
  9
$DIMSOXD
 70
     0
  9
$DIMSAH
 70
     0
  9
$DIMBLK1
  1

  9
$DIMBLK2
  1

  9
$DIMSTYLE
  2
STANDARD
  9
$DIMCLRD
 70
     0
  9
$DIMCLRE
 70
     0
  9
$DIMCLRT
 70
     0
  9
$DIMTFAC
 40
1.0
  9
$DIMGAP
 40
0.09
  9
$DIMJUST
 70
     0
  9
$DIMSD1
 70
     0
  9
$DIMSD2
 70
     0
  9
$DIMTOLJ
 70
     1
  9
$DIMTZIN
 70
     0
  9
$DIMALTZ
 70
     0
  9
$DIMALTTZ
 70
     0
  9
$DIMFIT
 70
     5
  9
$DIMUPT
 70
     0
  9
$DIMUNIT
 70
     2
  9
$DIMDEC
 70
     4
  9
$DIMTDEC
 70
     4
  9
$DIMALTU
 70
     2
  9
$DIMALTTD
 70
     2
  9
$DIMTXSTY
  7
STANDARD
  9
$DIMAUNIT
 70
     0
  9
$LUNITS
 70
     2
  9
$LUPREC
 70
     4
  9
$SKETCHINC
 40
0.1
  9
$FILLETRAD
 40
0.0
  9
$AUNITS
 70
     0
  9
$AUPREC
 70
     0
  9
$MENU
  1
.
  9
$ELEVATION
 40
0.0
  9
$PELEVATION
 40
0.0
  9
$THICKNESS
 40
0.0
  9
$LIMCHECK
 70
     0
  9
$CHAMFERA
 40
0.0
  9
$CHAMFERB
 40
0.0
  9
$CHAMFERC
 40
0.0
  9
$CHAMFERD
 40
0.0
  9
$SKPOLY
 70
     0
  9
$TDCREATE
 40
2452643.105050926
  9
$TDUPDATE
 40
2457070.300792014
  9
$TDINDWG
 40
0.0405937384
  9
$TDUSRTIMER
 40
2457070.257979537
  9
$USRTIMER
 70
     1
  9
$ANGBASE
 50
0.0
  9
$ANGDIR
 70
     0
  9
$PDMODE
 70
     0
  9
$PDSIZE
 40
0.0
  9
$PLINEWID
 40
0.0
  9
$COORDS
 70
     2
  9
$SPLFRAME
 70
     0
  9
$SPLINETYPE
 70
     6
  9
$SPLINESEGS
 70
     8
  9
$ATTDIA
 70
     0
  9
$ATTREQ
 70
     1
  9
$HANDLING
 70
     1
  9
$HANDSEED
  5
8F9
  9
$SURFTAB1
 70
     6
  9
$SURFTAB2
 70
     6
  9
$SURFTYPE
 70
     6
  9
$SURFU
 70
     6
  9
$SURFV
 70
     6
  9
$UCSNAME
  2

  9
$UCSORG
 10
0.0
 20
0.0
 30
0.0
  9
$UCSXDIR
 10
1.0
 20
0.0
 30
0.0
  9
$UCSYDIR
 10
0.0
 20
1.0
 30
0.0
  9
$PUCSNAME
  2

  9
$PUCSORG
 10
0.0
 20
0.0
 30
0.0
  9
$PUCSXDIR
 10
1.0
 20
0.0
 30
0.0
  9
$PUCSYDIR
 10
0.0
 20
1.0
 30
0.0
  9
$USERI1
 70
     0
  9
$USERI2
 70
     0
  9
$USERI3
 70
     0
  9
$USERI4
 70
     0
  9
$USERI5
 70
     0
  9
$USERR1
 40
0.0
  9
$USERR2
 40
0.0
  9
$USERR3
 40
0.0
  9
$USERR4
 40
0.0
  9
$USERR5
 40
0.0
  9
$WORLDVIEW
 70
     1
  9
$SHADEDGE
 70
     3
  9
$SHADEDIF
 70
    70
  9
$TILEMODE
 70
     0
  9
$MAXACTVP
 70
    64
  9
$PINSBASE
 10
0.0
 20
0.0
 30
0.0
  9
$PLIMCHECK
 70
     0
  9
$PEXTMIN
 10
1.05
 20
0.7999999999999998
 30
0.0
  9
$PEXTMAX
 10
9.45
 20
7.2
 30
0.0
  9
$PLIMMIN
 10
0.8500000000000006
 20
0.5999999999999998
  9
$PLIMMAX
 10
9.650000000000002
 20
7.4
  9
$UNITMODE
 70
     0
  9
$VISRETAIN
 70
     1
  9
$PLINEGEN
 70
     0
  9
$PSLTSCALE
 70
     1
  9
$TREEDEPTH
 70
  3020
  9
$PICKSTYLE
 70
     0
  9
$CMLSTYLE
  2
STANDARD
  9
$CMLJUST
 70
     0
  9
$CMLSCALE
 40
1.0
  9
$PROXYGRAPHICS
 70
     1
  9
$MEASUREMENT
 70
     0
  0
ENDSEC
  0
SECTION
  2
CLASSES
  0
CLASS
  1
ACDBDICTIONARYWDFLT
  2
AcDbDictionaryWithDefault
  3
ObjectDBX Classes
 90
        0
280
     0
281
     0
  0
CLASS
  1
ACDBPLACEHOLDER
  2
AcDbPlaceHolder
  3
ObjectDBX Classes
 90
        0
280
     0
281
     0
  0
CLASS
  1
LAYOUT
  2
AcDbLayout
  3
ObjectDBX Classes
 90
        0
280
     0
281
     0
  0
CLASS
  1
DICTIONARYVAR
  2
AcDbDictionaryVar
  3
ObjectDBX Classes
 90
        0
280
     0
281
     0
  0
CLASS
  1
TABLESTYLE
  2
AcDbTableStyle
  3
ObjectDBX Classes
 90
     4095
280
     0
281
     0
  0
CLASS
  1
MATERIAL
  2
AcDbMaterial
  3
ObjectDBX Classes
 90
     1153
280
     0
281
     0
  0
CLASS
  1
VISUALSTYLE
  2
AcDbVisualStyle
  3
ObjectDBX Classes
 90
     4095
280
     0
281
     0
  0
CLASS
  1
SCALE
  2
AcDbScale
  3
ObjectDBX Classes
 90
     1153
280
     0
281
     0
  0
CLASS
  1
CELLSTYLEMAP
  2
AcDbCellStyleMap
  3
ObjectDBX Classes
 90
     1152
280
     0
281
     0
  0
CLASS
  1
RASTERVARIABLES
  2
AcDbRasterVariables
  3
ISM
 90
        0
280
     0
281
     0
  0
CLASS
  1
SUN
  2
AcDbSun
  3
SCENEOE
 90
     1153
280
     0
281
     0
  0
CLASS
  1
DIMASSOC
  2
AcDbDimAssoc
  3
"AcDbDimAssoc|Product Desc:     AcDim ARX App For Dimension|Company:          Autodesk, Inc.|WEB Address:      www.autodesk.com"
 90
        0
280
     0
281
     0
  0
CLASS
  1
XRECORD
  2
AcDbXrecord
  3
ObjectDBX Classes
 90
        0
280
     0
281
     0
  0
CLASS
  1
LWPOLYLINE
  2
AcDbPolyline
  3
ObjectDBX Classes
 90
        0
280
     0
281
     1
  0
CLASS
  1
HATCH
  2
AcDbHatch
  3
ObjectDBX Classes
 90
        0
280
     0
281
     1
  0
ENDSEC
  0
SECTION
  2
TABLES
  0
TABLE
  2
VPORT
  5
8
330
0
100
AcDbSymbolTable
 70
     1
  0
VPORT
  5
94
330
8
100
AcDbSymbolTableRecord
100
AcDbViewportTableRecord
  2
*ACTIVE
 70
     0
 10
0.0
 20
0.0
 11
1.0
 21
1.0
 12
151.3840597004071
 22
126.3414400043013
 13
0.0
 23
0.0
 14
0.5
 24
0.5
 15
0.5
 25
0.5
 16
0.0
 26
0.0
 36
1.0
 17
-27.66959356597968
 27
-19.53870295786189
 37
0.0
 40
158.4174619851939
 41
1.13768115942029
 42
50.0
 43
0.0
 44
0.0
 50
0.0
 51
0.0
 71
    16
 72
  1000
 73
     1
 74
     3
 75
     0
 76
     0
 77
     0
 78
     0
  0
ENDTAB
  0
TABLE
  2
LTYPE
  5
5
330
0
100
AcDbSymbolTable
 70
     1
  0
LTYPE
  5
14
330
5
100
AcDbSymbolTableRecord
100
AcDbLinetypeTableRecord
  2
BYBLOCK
 70
     0
  3

 72
    65
 73
     0
 40
0.0
  0
LTYPE
  5
15
330
5
100
AcDbSymbolTableRecord
100
AcDbLinetypeTableRecord
  2
BYLAYER
 70
     0
  3

 72
    65
 73
     0
 40
0.0
  0
LTYPE
  5
16
330
5
100
AcDbSymbolTableRecord
100
AcDbLinetypeTableRecord
  2
CONTINUOUS
 70
     0
  3
Solid line
 72
    65
 73
     0
 40
0.0
  0
ENDTAB
  0
TABLE
  2
LAYER
  5
2
102
{ACAD_XDICTIONARY
360
84A
102
}
330
0
100
AcDbSymbolTable
 70
     6
  0
LAYER
  5
10
330
2
100
AcDbSymbolTableRecord
100
AcDbLayerTableRecord
  2
0
 70
     0
 62
     7
  6
CONTINUOUS
  0
LAYER
  5
125
330
2
100
AcDbSymbolTableRecord
100
AcDbLayerTableRecord
  2
DEFPOINTS
 70
     0
 62
     7
  6
CONTINUOUS
  0
LAYER
  5
126
330
2
100
AcDbSymbolTableRecord
100
AcDbLayerTableRecord
  2
OBRYS
 70
     0
 62
     5
  6
CONTINUOUS
1001
ACAECLAYERSTANDARD
1000

1000

  0
LAYER
  5
129
330
2
100
AcDbSymbolTableRecord
100
AcDbLayerTableRecord
  2
POPISKY
 70
     0
 62
   250
  6
CONTINUOUS
1001
ACAECLAYERSTANDARD
1000

1000

  0
LAYER
  5
12A
330
2
100
AcDbSymbolTableRecord
100
AcDbLayerTableRecord
  2
KOTY
 70
     0
 62
     1
  6
CONTINUOUS
1001
ACAECLAYERSTANDARD
1000

1000

  0
LAYER
  5
77F
330
2
100
AcDbSymbolTableRecord
100
AcDbLayerTableRecord
  2
1
 70
     0
 62
     7
  6
CONTINUOUS
  0
ENDTAB
  0
TABLE
  2
STYLE
  5
3
330
0
100
AcDbSymbolTable
 70
     1
  0
STYLE
  5
11
330
3
100
AcDbSymbolTableRecord
100
AcDbTextStyleTableRecord
  2
STANDARD
 70
     0
 40
0.0
 41
1.0
 50
0.0
 71
     0
 42
0.2
  3
arial.ttf
  4

1001
ACAD
1000
Arial
1071
        0
  0
ENDTAB
  0
TABLE
  2
VIEW
  5
6
330
0
100
AcDbSymbolTable
 70
     0
  0
ENDTAB
  0
TABLE
  2
UCS
  5
7
330
0
100
AcDbSymbolTable
 70
     0
  0
ENDTAB
  0
TABLE
  2
APPID
  5
9
330
0
100
AcDbSymbolTable
 70
     2
  0
APPID
  5
12
330
9
100
AcDbSymbolTableRecord
100
AcDbRegAppTableRecord
  2
ACAD
 70
     0
  0
APPID
  5
128
330
9
100
AcDbSymbolTableRecord
100
AcDbRegAppTableRecord
  2
ACAECLAYERSTANDARD
 70
     0
  0
ENDTAB
  0
TABLE
  2
DIMSTYLE
  5
A
330
0
100
AcDbSymbolTable
 70
     1
  0
DIMSTYLE
105
27
102
{ACAD_REACTORS
330
6B4
330
6B7
330
6BA
330
6BD
330
6C0
330
6C3
330
6C6
330
6C9
330
8A0
102
}
330
A
100
AcDbSymbolTableRecord
100
AcDbDimStyleTableRecord
  2
STANDARD
 70
     0
  3

  4

  5

  6

  7

 40
1.0
 41
0.18
 42
0.0625
 43
0.38
 44
0.18
 45
0.0
 46
0.0
 47
0.0
 48
0.0
140
0.18
141
0.09
142
0.0
143
25.4
144
1.0
145
0.0
146
1.0
147
0.09
 71
     0
 72
     0
 73
     1
 74
     1
 75
     0
 76
     0
 77
     0
 78
     0
170
     0
171
     2
172
     0
173
     0
174
     0
175
     0
176
     0
177
     0
178
     0
270
     2
271
     4
272
     4
273
     2
274
     2
340
11
275
     0
280
     0
281
     0
282
     0
283
     1
284
     0
285
     0
286
     0
287
     3
288
     0
  0
ENDTAB
  0
TABLE
  2
BLOCK_RECORD
  5
1
330
0
100
AcDbSymbolTable
 70
    12
  0
BLOCK_RECORD
  5
1F
330
1
100
AcDbSymbolTableRecord
100
AcDbBlockTableRecord
  2
*MODEL_SPACE
  0
BLOCK_RECORD
  5
58
330
1
100
AcDbSymbolTableRecord
100
AcDbBlockTableRecord
  2
*PAPER_SPACE
  0
BLOCK_RECORD
  5
5D
330
1
100
AcDbSymbolTableRecord
100
AcDbBlockTableRecord
  2
*PAPER_SPACE0
  0
BLOCK_RECORD
  5
6CC
330
1
100
AcDbSymbolTableRecord
100
AcDbBlockTableRecord
  2
*D1
  0
BLOCK_RECORD
  5
6D8
330
1
100
AcDbSymbolTableRecord
100
AcDbBlockTableRecord
  2
*D2
  0
BLOCK_RECORD
  5
6E4
330
1
100
AcDbSymbolTableRecord
100
AcDbBlockTableRecord
  2
*D3
  0
BLOCK_RECORD
  5
6F0
330
1
100
AcDbSymbolTableRecord
100
AcDbBlockTableRecord
  2
*D4
  0
BLOCK_RECORD
  5
6FC
330
1
100
AcDbSymbolTableRecord
100
AcDbBlockTableRecord
  2
*D5
  0
BLOCK_RECORD
  5
708
330
1
100
AcDbSymbolTableRecord
100
AcDbBlockTableRecord
  2
*D6
  0
BLOCK_RECORD
  5
714
330
1
100
AcDbSymbolTableRecord
100
AcDbBlockTableRecord
  2
*D7
  0
BLOCK_RECORD
  5
720
330
1
100
AcDbSymbolTableRecord
100
AcDbBlockTableRecord
  2
*D8
  0
BLOCK_RECORD
  5
82D
330
1
100
AcDbSymbolTableRecord
100
AcDbBlockTableRecord
  2
*D9
  0
BLOCK_RECORD
  5
83D
330
1
100
AcDbSymbolTableRecord
100
AcDbBlockTableRecord
  2
*D10
  0
BLOCK_RECORD
  5
8A3
330
1
100
AcDbSymbolTableRecord
100
AcDbBlockTableRecord
  2
*D11
  0
ENDTAB
  0
ENDSEC
  0
SECTION
  2
BLOCKS
  0
BLOCK
  5
20
330
1F
100
AcDbEntity
  8
0
100
AcDbBlockBegin
  2
*MODEL_SPACE
 70
     0
 10
0.0
 20
0.0
 30
0.0
  3
*MODEL_SPACE
  1

  0
ENDBLK
  5
21
330
1F
100
AcDbEntity
  8
0
100
AcDbBlockEnd
  0
BLOCK
  5
5A
330
58
100
AcDbEntity
 67
     1
  8
0
100
AcDbBlockBegin
  2
*PAPER_SPACE
 70
     0
 10
0.0
 20
0.0
 30
0.0
  3
*PAPER_SPACE
  1

  0
ENDBLK
  5
5B
330
58
100
AcDbEntity
 67
     1
  8
0
100
AcDbBlockEnd
  0
BLOCK
  5
5F
330
5D
100
AcDbEntity
  8
0
100
AcDbBlockBegin
  2
*PAPER_SPACE0
 70
     0
 10
0.0
 20
0.0
 30
0.0
  3
*PAPER_SPACE0
  1
*Paper_Space0
  0
ENDBLK
  5
60
330
5D
100
AcDbEntity
  8
0
100
AcDbBlockEnd
  0
BLOCK
  5
6CD
330
6CC
100
AcDbEntity
  8
0
100
AcDbBlockBegin
  2
*D1
 70
     1
 10
0.0
 20
0.0
 30
0.0
  3
*D1
  1
*D10
  0
LINE
  5
6CF
330
6CC
100
AcDbEntity
  8
KOTY
 62
     0
100
AcDbLine
 10
138.8254929233425
 20
112.5992889072416
 30
0.0
 11
138.8254929233425
 21
112.4707822667585
 31
0.0
  0
LINE
  5
6D0
330
6CC
100
AcDbEntity
  8
KOTY
 62
     0
100
AcDbLine
 10
119.1254929233425
 20
112.5882822667586
 30
0.0
 11
119.1254929233425
 21
112.4707822667585
 31
0.0
  0
LINE
  5
6D1
330
6CC
100
AcDbEntity
  8
KOTY
 62
     0
100
AcDbLine
 10
135.8254929233425
 20
112.6507822667586
 30
0.0
 11
122.1254929233425
 21
112.6507822667586
 31
0.0
  0
SOLID
  5
6D2
330
6CC
100
AcDbEntity
  8
KOTY
 62
     0
100
AcDbTrace
 10
135.8254929233425
 20
112.1507822667586
 30
0.0
 11
135.8254929233425
 21
113.1507822667586
 31
0.0
 12
138.8254929233425
 22
112.6507822667586
 32
0.0
 13
138.8254929233425
 23
112.6507822667586
 33
0.0
  0
SOLID
  5
6D3
330
6CC
100
AcDbEntity
  8
KOTY
 62
     0
100
AcDbTrace
 10
122.1254929233425
 20
113.1507822667586
 30
0.0
 11
122.1254929233425
 21
112.1507822667586
 31
0.0
 12
119.1254929233425
 22
112.6507822667586
 32
0.0
 13
119.1254929233425
 23
112.6507822667586
 33
0.0
  0
MTEXT
  5
6D4
330
6CC
100
AcDbEntity
  8
KOTY
 62
     0
100
AcDbMText
 10
128.9754929233425
 20
115.1822822667585
 30
0.0
 40
3.0
 41
0.0
 71
     5
 72
     1
  1
\A1;20
  0
POINT
  5
6D5
330
6CC
100
AcDbEntity
  8
DEFPOINTS
 62
     0
100
AcDbPoint
 10
138.8254929233425
 20
112.6617889072416
 30
0.0
  0
POINT
  5
6D6
330
6CC
100
AcDbEntity
  8
DEFPOINTS
 62
     0
100
AcDbPoint
 10
119.1254929233425
 20
112.6507822667586
 30
0.0
  0
POINT
  5
6D7
330
6CC
100
AcDbEntity
  8
DEFPOINTS
 62
     0
100
AcDbPoint
 10
119.1254929233425
 20
112.6507822667586
 30
0.0
  0
ENDBLK
  5
6CE
330
6CC
100
AcDbEntity
  8
0
100
AcDbBlockEnd
  0
BLOCK
  5
6D9
330
6D8
100
AcDbEntity
  8
0
100
AcDbBlockBegin
  2
*D2
 70
     1
 10
0.0
 20
0.0
 30
0.0
  3
*D2
  1
*D11
  0
LINE
  5
6DB
330
6D8
100
AcDbEntity
  8
KOTY
 62
     0
100
AcDbLine
 10
73.76299292334247
 20
136.3428386637213
 30
0.0
 11
61.05696400830629
 21
136.3428386637213
 31
0.0
  0
LINE
  5
6DC
330
6D8
100
AcDbEntity
  8
KOTY
 62
     0
100
AcDbLine
 10
73.76299292334247
 20
91.3428386637213
 30
0.0
 11
61.05696400830629
 21
91.3428386637213
 31
0.0
  0
LINE
  5
6DD
330
6D8
100
AcDbEntity
  8
KOTY
 62
     0
100
AcDbLine
 10
61.23696400830629
 20
133.3428386637213
 30
0.0
 11
61.23696400830629
 21
94.3428386637213
 31
0.0
  0
SOLID
  5
6DE
330
6D8
100
AcDbEntity
  8
KOTY
 62
     0
100
AcDbTrace
 10
61.73696400830629
 20
133.3428386637213
 30
0.0
 11
60.73696400830629
 21
133.3428386637213
 31
0.0
 12
61.23696400830629
 22
136.3428386637213
 32
0.0
 13
61.23696400830629
 23
136.3428386637213
 33
0.0
  0
SOLID
  5
6DF
330
6D8
100
AcDbEntity
  8
KOTY
 62
     0
100
AcDbTrace
 10
60.73696400830629
 20
94.3428386637213
 30
0.0
 11
61.73696400830629
 21
94.3428386637213
 31
0.0
 12
61.23696400830629
 22
91.3428386637213
 32
0.0
 13
61.23696400830629
 23
91.3428386637213
 33
0.0
  0
MTEXT
  5
6E0
330
6D8
100
AcDbEntity
  8
KOTY
 62
     0
100
AcDbMText
 10
58.71146400830629
 20
113.8428386637213
 30
0.0
 40
3.0
 41
0.0
 71
     5
 72
     1
  1
\A1;45
 11
0.0
 21
1.0
 31
0.0
  0
POINT
  5
6E1
330
6D8
100
AcDbEntity
  8
DEFPOINTS
 62
     0
100
AcDbPoint
 10
73.82549292334247
 20
136.3428386637213
 30
0.0
  0
POINT
  5
6E2
330
6D8
100
AcDbEntity
  8
DEFPOINTS
 62
     0
100
AcDbPoint
 10
73.82549292334247
 20
91.3428386637213
 30
0.0
  0
POINT
  5
6E3
330
6D8
100
AcDbEntity
  8
DEFPOINTS
 62
     0
100
AcDbPoint
 10
61.23696400830629
 20
91.3428386637213
 30
0.0
  0
ENDBLK
  5
6DA
330
6D8
100
AcDbEntity
  8
0
100
AcDbBlockEnd
  0
BLOCK
  5
6E5
330
6E4
100
AcDbEntity
  8
0
100
AcDbBlockBegin
  2
*D3
 70
     1
 10
0.0
 20
0.0
 30
0.0
  3
*D3
  1
*D12
  0
LINE
  5
6E7
330
6E4
100
AcDbEntity
  8
KOTY
 62
     0
100
AcDbLine
 10
119.5031569233425
 20
158.7428386637213
 30
0.0
 11
47.24050020120161
 21
158.7428386637213
 31
0.0
  0
LINE
  5
6E8
330
6E4
100
AcDbEntity
  8
KOTY
 62
     0
100
AcDbLine
 10
119.5031569233425
 20
68.94283866372129
 30
0.0
 11
47.2405002012016
 21
68.94283866372129
 31
0.0
  0
LINE
  5
6E9
330
6E4
100
AcDbEntity
  8
KOTY
 62
     0
100
AcDbLine
 10
47.42050020120161
 20
155.7428386637213
 30
0.0
 11
47.4205002012016
 21
71.94283866372129
 31
0.0
  0
SOLID
  5
6EA
330
6E4
100
AcDbEntity
  8
KOTY
 62
     0
100
AcDbTrace
 10
47.92050020120161
 20
155.7428386637213
 30
0.0
 11
46.92050020120161
 21
155.7428386637213
 31
0.0
 12
47.42050020120161
 22
158.7428386637213
 32
0.0
 13
47.42050020120161
 23
158.7428386637213
 33
0.0
  0
SOLID
  5
6EB
330
6E4
100
AcDbEntity
  8
KOTY
 62
     0
100
AcDbTrace
 10
46.9205002012016
 20
71.94283866372129
 30
0.0
 11
47.9205002012016
 21
71.94283866372129
 31
0.0
 12
47.4205002012016
 22
68.94283866372129
 32
0.0
 13
47.4205002012016
 23
68.94283866372129
 33
0.0
  0
MTEXT
  5
6EC
330
6E4
100
AcDbEntity
  8
KOTY
 62
     0
100
AcDbMText
 10
44.88900020120161
 20
113.8428386637213
 30
0.0
 40
3.0
 41
0.0
 71
     5
 72
     1
  1
\A1;90
 11
7.912502625390869E-17
 21
1.0
 31
0.0
  0
POINT
  5
6ED
330
6E4
100
AcDbEntity
  8
DEFPOINTS
 62
     0
100
AcDbPoint
 10
119.5656569233425
 20
158.7428386637213
 30
0.0
  0
POINT
  5
6EE
330
6E4
100
AcDbEntity
  8
DEFPOINTS
 62
     0
100
AcDbPoint
 10
119.5656569233425
 20
68.94283866372129
 30
0.0
  0
POINT
  5
6EF
330
6E4
100
AcDbEntity
  8
DEFPOINTS
 62
     0
100
AcDbPoint
 10
47.4205002012016
 20
68.94283866372129
 30
0.0
  0
ENDBLK
  5
6E6
330
6E4
100
AcDbEntity
  8
0
100
AcDbBlockEnd
  0
BLOCK
  5
6F1
330
6F0
100
AcDbEntity
  8
0
100
AcDbBlockBegin
  2
*D4
 70
     1
 10
0.0
 20
0.0
 30
0.0
  3
*D4
  1
*D13
  0
LINE
  5
6F3
330
6F0
100
AcDbEntity
  8
KOTY
 62
     0
100
AcDbLine
 10
181.5655639233425
 20
69.08033866372129
 30
0.0
 11
181.5655639233425
 21
57.35316973650949
 31
0.0
  0
LINE
  5
6F4
330
6F0
100
AcDbEntity
  8
KOTY
 62
     0
100
AcDbLine
 10
199.3655639233424
 20
69.08033866372129
 30
0.0
 11
199.3655639233424
 21
57.35316973650949
 31
0.0
  0
LINE
  5
6F5
330
6F0
100
AcDbEntity
  8
KOTY
 62
     0
100
AcDbLine
 10
184.5655639233425
 20
57.53316973650949
 30
0.0
 11
196.3655639233424
 21
57.53316973650949
 31
0.0
  0
SOLID
  5
6F6
330
6F0
100
AcDbEntity
  8
KOTY
 62
     0
100
AcDbTrace
 10
184.5655639233425
 20
58.03316973650949
 30
0.0
 11
184.5655639233425
 21
57.03316973650949
 31
0.0
 12
181.5655639233425
 22
57.53316973650949
 32
0.0
 13
181.5655639233425
 23
57.53316973650949
 33
0.0
  0
SOLID
  5
6F7
330
6F0
100
AcDbEntity
  8
KOTY
 62
     0
100
AcDbTrace
 10
196.3655639233424
 20
57.03316973650949
 30
0.0
 11
196.3655639233424
 21
58.03316973650949
 31
0.0
 12
199.3655639233424
 22
57.53316973650949
 32
0.0
 13
199.3655639233424
 23
57.53316973650949
 33
0.0
  0
MTEXT
  5
6F8
330
6F0
100
AcDbEntity
  8
KOTY
 62
     0
100
AcDbMText
 10
190.4655639233425
 20
60.06466973650949
 30
0.0
 40
3.0
 41
0.0
 71
     5
 72
     1
  1
\A1;18
  0
POINT
  5
6F9
330
6F0
100
AcDbEntity
  8
DEFPOINTS
 62
     0
100
AcDbPoint
 10
181.5655639233425
 20
69.14283866372129
 30
0.0
  0
POINT
  5
6FA
330
6F0
100
AcDbEntity
  8
DEFPOINTS
 62
     0
100
AcDbPoint
 10
199.3655639233424
 20
69.14283866372129
 30
0.0
  0
POINT
  5
6FB
330
6F0
100
AcDbEntity
  8
DEFPOINTS
 62
     0
100
AcDbPoint
 10
199.3655639233424
 20
57.53316973650949
 30
0.0
  0
ENDBLK
  5
6F2
330
6F0
100
AcDbEntity
  8
0
100
AcDbBlockEnd
  0
BLOCK
  5
6FD
330
6FC
100
AcDbEntity
  8
0
100
AcDbBlockBegin
  2
*D5
 70
     1
 10
0.0
 20
0.0
 30
0.0
  3
*D5
  1
*D14
  0
LINE
  5
6FF
330
6FC
100
AcDbEntity
  8
KOTY
 62
     0
100
AcDbLine
 10
72.52549292334245
 20
91.63826266372129
 30
0.0
 11
72.52549292334245
 21
33.80885617292432
 31
0.0
  0
LINE
  5
700
330
6FC
100
AcDbEntity
  8
KOTY
 62
     0
100
AcDbLine
 10
144.5254929233425
 20
64.68584366372129
 30
0.0
 11
144.5254929233425
 21
33.80885617292432
 31
0.0
  0
LINE
  5
701
330
6FC
100
AcDbEntity
  8
KOTY
 62
     0
100
AcDbLine
 10
75.52549292334245
 20
33.98885617292432
 30
0.0
 11
141.5254929233425
 21
33.98885617292432
 31
0.0
  0
SOLID
  5
702
330
6FC
100
AcDbEntity
  8
KOTY
 62
     0
100
AcDbTrace
 10
75.52549292334245
 20
34.48885617292432
 30
0.0
 11
75.52549292334245
 21
33.48885617292432
 31
0.0
 12
72.52549292334245
 22
33.98885617292432
 32
0.0
 13
72.52549292334245
 23
33.98885617292432
 33
0.0
  0
SOLID
  5
703
330
6FC
100
AcDbEntity
  8
KOTY
 62
     0
100
AcDbTrace
 10
141.5254929233425
 20
33.48885617292432
 30
0.0
 11
141.5254929233425
 21
34.48885617292432
 31
0.0
 12
144.5254929233425
 22
33.98885617292432
 32
0.0
 13
144.5254929233425
 23
33.98885617292432
 33
0.0
  0
MTEXT
  5
704
330
6FC
100
AcDbEntity
  8
KOTY
 62
     0
100
AcDbMText
 10
108.5254929233425
 20
36.49485617292432
 30
0.0
 40
3.0
 41
0.0
 71
     5
 72
     1
  1
\A1;72
  0
POINT
  5
705
330
6FC
100
AcDbEntity
  8
DEFPOINTS
 62
     0
100
AcDbPoint
 10
72.52549292334245
 20
91.70076266372129
 30
0.0
  0
POINT
  5
706
330
6FC
100
AcDbEntity
  8
DEFPOINTS
 62
     0
100
AcDbPoint
 10
144.5254929233425
 20
64.74834366372129
 30
0.0
  0
POINT
  5
707
330
6FC
100
AcDbEntity
  8
DEFPOINTS
 62
     0
100
AcDbPoint
 10
144.5254929233425
 20
33.98885617292432
 30
0.0
  0
ENDBLK
  5
6FE
330
6FC
100
AcDbEntity
  8
0
100
AcDbBlockEnd
  0
BLOCK
  5
709
330
708
100
AcDbEntity
  8
0
100
AcDbBlockBegin
  2
*D6
 70
     1
 10
0.0
 20
0.0
 30
0.0
  3
*D6
  1
*D15
  0
LINE
  5
70B
330
708
100
AcDbEntity
  8
KOTY
 62
     0
100
AcDbLine
 10
72.52549292334245
 20
91.63826266372129
 30
0.0
 11
72.52549292334245
 21
45.32906261490457
 31
0.0
  0
LINE
  5
70C
330
708
100
AcDbEntity
  8
KOTY
 62
     0
100
AcDbLine
 10
138.8254929233425
 20
95.37548734600185
 30
0.0
 11
138.8254929233425
 21
45.32906261490457
 31
0.0
  0
LINE
  5
70D
330
708
100
AcDbEntity
  8
KOTY
 62
     0
100
AcDbLine
 10
75.52549292334245
 20
45.50906261490457
 30
0.0
 11
135.8254929233425
 21
45.50906261490457
 31
0.0
  0
SOLID
  5
70E
330
708
100
AcDbEntity
  8
KOTY
 62
     0
100
AcDbTrace
 10
75.52549292334245
 20
46.00906261490457
 30
0.0
 11
75.52549292334245
 21
45.00906261490457
 31
0.0
 12
72.52549292334245
 22
45.50906261490457
 32
0.0
 13
72.52549292334245
 23
45.50906261490457
 33
0.0
  0
SOLID
  5
70F
330
708
100
AcDbEntity
  8
KOTY
 62
     0
100
AcDbTrace
 10
135.8254929233425
 20
45.00906261490457
 30
0.0
 11
135.8254929233425
 21
46.00906261490457
 31
0.0
 12
138.8254929233425
 22
45.50906261490457
 32
0.0
 13
138.8254929233425
 23
45.50906261490457
 33
0.0
  0
MTEXT
  5
710
330
708
100
AcDbEntity
  8
KOTY
 62
     0
100
AcDbMText
 10
105.6754929233425
 20
48.04056261490457
 30
0.0
 40
3.0
 41
0.0
 71
     5
 72
     1
  1
\A1;66
  0
POINT
  5
711
330
708
100
AcDbEntity
  8
DEFPOINTS
 62
     0
100
AcDbPoint
 10
72.52549292334245
 20
91.70076266372129
 30
0.0
  0
POINT
  5
712
330
708
100
AcDbEntity
  8
DEFPOINTS
 62
     0
100
AcDbPoint
 10
138.8254929233425
 20
95.43798734600185
 30
0.0
  0
POINT
  5
713
330
708
100
AcDbEntity
  8
DEFPOINTS
 62
     0
100
AcDbPoint
 10
138.8254929233425
 20
45.50906261490457
 30
0.0
  0
ENDBLK
  5
70A
330
708
100
AcDbEntity
  8
0
100
AcDbBlockEnd
  0
BLOCK
  5
715
330
714
100
AcDbEntity
  8
0
100
AcDbBlockBegin
  2
*D7
 70
     1
 10
0.0
 20
0.0
 30
0.0
  3
*D7
  1
*D16
  0
LINE
  5
717
330
714
100
AcDbEntity
  8
KOTY
 62
     0
100
AcDbLine
 10
94.32549292334247
 20
80.70105766372129
 30
0.0
 11
94.32549292334247
 21
57.35316973650949
 31
0.0
  0
LINE
  5
718
330
714
100
AcDbEntity
  8
KOTY
 62
     0
100
AcDbLine
 10
138.8254929233425
 20
95.37548734600185
 30
0.0
 11
138.8254929233425
 21
57.35316973650949
 31
0.0
  0
LINE
  5
719
330
714
100
AcDbEntity
  8
KOTY
 62
     0
100
AcDbLine
 10
97.32549292334247
 20
57.53316973650949
 30
0.0
 11
135.8254929233425
 21
57.53316973650949
 31
0.0
  0
SOLID
  5
71A
330
714
100
AcDbEntity
  8
KOTY
 62
     0
100
AcDbTrace
 10
97.32549292334247
 20
58.03316973650949
 30
0.0
 11
97.32549292334247
 21
57.03316973650949
 31
0.0
 12
94.32549292334247
 22
57.53316973650949
 32
0.0
 13
94.32549292334247
 23
57.53316973650949
 33
0.0
  0
SOLID
  5
71B
330
714
100
AcDbEntity
  8
KOTY
 62
     0
100
AcDbTrace
 10
135.8254929233425
 20
57.03316973650949
 30
0.0
 11
135.8254929233425
 21
58.03316973650949
 31
0.0
 12
138.8254929233425
 22
57.53316973650949
 32
0.0
 13
138.8254929233425
 23
57.53316973650949
 33
0.0
  0
MTEXT
  5
71C
330
714
100
AcDbEntity
  8
KOTY
 62
     0
100
AcDbMText
 10
116.5754929233425
 20
60.03316973650949
 30
0.0
 40
3.0
 41
0.0
 71
     5
 72
     1
  1
\A1;44
  0
POINT
  5
71D
330
714
100
AcDbEntity
  8
DEFPOINTS
 62
     0
100
AcDbPoint
 10
94.32549292334247
 20
80.76355766372129
 30
0.0
  0
POINT
  5
71E
330
714
100
AcDbEntity
  8
DEFPOINTS
 62
     0
100
AcDbPoint
 10
138.8254929233425
 20
95.43798734600185
 30
0.0
  0
POINT
  5
71F
330
714
100
AcDbEntity
  8
DEFPOINTS
 62
     0
100
AcDbPoint
 10
138.8254929233425
 20
57.53316973650949
 30
0.0
  0
ENDBLK
  5
716
330
714
100
AcDbEntity
  8
0
100
AcDbBlockEnd
  0
BLOCK
  5
721
330
720
100
AcDbEntity
  8
0
100
AcDbBlockBegin
  2
*D8
 70
     1
 10
0.0
 20
0.0
 30
0.0
  3
*D8
  1
*D17
  0
LINE
  5
723
330
720
100
AcDbEntity
  8
KOTY
 62
     0
100
AcDbLine
 10
138.8254929233425
 20
95.37548734600185
 30
0.0
 11
138.8254929233425
 21
57.35316973650949
 31
0.0
  0
LINE
  5
724
330
720
100
AcDbEntity
  8
KOTY
 62
     0
100
AcDbLine
 10
144.5254929233425
 20
64.68584366372129
 30
0.0
 11
144.5254929233425
 21
57.35316973650949
 31
0.0
  0
LINE
  5
725
330
720
100
AcDbEntity
  8
KOTY
 62
     0
100
AcDbLine
 10
135.8254929233425
 20
57.53316973650949
 30
0.0
 11
132.8254929233425
 21
57.53316973650949
 31
0.0
  0
LINE
  5
726
330
720
100
AcDbEntity
  8
KOTY
 62
     0
100
AcDbLine
 10
147.5254929233425
 20
57.53316973650949
 30
0.0
 11
150.5254929233425
 21
57.53316973650949
 31
0.0
  0
SOLID
  5
727
330
720
100
AcDbEntity
  8
KOTY
 62
     0
100
AcDbTrace
 10
135.8254929233425
 20
57.03316973650949
 30
0.0
 11
135.8254929233425
 21
58.03316973650949
 31
0.0
 12
138.8254929233425
 22
57.53316973650949
 32
0.0
 13
138.8254929233425
 23
57.53316973650949
 33
0.0
  0
SOLID
  5
728
330
720
100
AcDbEntity
  8
KOTY
 62
     0
100
AcDbTrace
 10
147.5254929233425
 20
58.03316973650949
 30
0.0
 11
147.5254929233425
 21
57.03316973650949
 31
0.0
 12
144.5254929233425
 22
57.53316973650949
 32
0.0
 13
144.5254929233425
 23
57.53316973650949
 33
0.0
  0
MTEXT
  5
729
330
720
100
AcDbEntity
  8
KOTY
 62
     0
100
AcDbMText
 10
141.6754929233425
 20
60.06466973650949
 30
0.0
 40
3.0
 41
0.0
 71
     5
 72
     1
  1
\A1;6
  0
POINT
  5
72A
330
720
100
AcDbEntity
  8
DEFPOINTS
 62
     0
100
AcDbPoint
 10
138.8254929233425
 20
95.43798734600185
 30
0.0
  0
POINT
  5
72B
330
720
100
AcDbEntity
  8
DEFPOINTS
 62
     0
100
AcDbPoint
 10
144.5254929233425
 20
64.74834366372129
 30
0.0
  0
POINT
  5
72C
330
720
100
AcDbEntity
  8
DEFPOINTS
 62
     0
100
AcDbPoint
 10
144.5254929233425
 20
57.53316973650949
 30
0.0
  0
ENDBLK
  5
722
330
720
100
AcDbEntity
  8
0
100
AcDbBlockEnd
  0
BLOCK
  5
82E
330
82D
100
AcDbEntity
  8
0
100
AcDbBlockBegin
  2
*D9
 70
     1
 10
0.0
 20
0.0
 30
0.0
  3
*D9
  1
*D11
  0
LINE
  5
830
330
82D
100
AcDbEntity
  8
0
 62
     0
100
AcDbLine
 10
185.4655576938974
 20
68.88033866372129
 30
0.0
 11
185.4655576938974
 21
67.74988001315148
 31
0.0
  0
LINE
  5
831
330
82D
100
AcDbEntity
  8
0
 62
     0
100
AcDbLine
 10
181.5655639233425
 20
69.08033866372129
 30
0.0
 11
181.5655639233425
 21
67.74988001315148
 31
0.0
  0
LINE
  5
832
330
82D
100
AcDbEntity
  8
0
 62
     0
100
AcDbLine
 10
185.2855576938974
 20
67.92988001315149
 30
0.0
 11
183.97834080862
 21
67.92988001315149
 31
0.0
  0
LINE
  5
833
330
82D
100
AcDbEntity
  8
0
 62
     0
100
AcDbLine
 10
181.7455639233425
 20
67.92988001315149
 30
0.0
 11
183.05278080862
 21
67.92988001315149
 31
0.0
  0
SOLID
  5
834
330
82D
100
AcDbEntity
  8
0
 62
     0
100
AcDbTrace
 10
185.2855576938974
 20
67.89988001315149
 30
0.0
 11
185.2855576938974
 21
67.95988001315149
 31
0.0
 12
185.4655576938974
 22
67.92988001315149
 32
0.0
 13
185.4655576938974
 23
67.92988001315149
 33
0.0
  0
SOLID
  5
835
330
82D
100
AcDbEntity
  8
0
 62
     0
100
AcDbTrace
 10
181.7455639233425
 20
67.95988001315149
 30
0.0
 11
181.7455639233425
 21
67.89988001315149
 31
0.0
 12
181.5655639233425
 22
67.92988001315149
 32
0.0
 13
181.5655639233425
 23
67.92988001315149
 33
0.0
  0
MTEXT
  5
836
330
82D
100
AcDbEntity
  8
0
 62
     0
100
AcDbMText
 10
183.51556080862
 20
67.92988001315149
 30
0.0
 40
0.18
 41
0.0
 71
     5
 72
     1
  1
\A1;3.9000
  0
POINT
  5
837
330
82D
100
AcDbEntity
  8
DEFPOINTS
 62
     0
100
AcDbPoint
 10
185.4655576938974
 20
68.94283866372129
 30
0.0
  0
POINT
  5
838
330
82D
100
AcDbEntity
  8
DEFPOINTS
 62
     0
100
AcDbPoint
 10
181.5655639233425
 20
69.14283866372129
 30
0.0
  0
POINT
  5
839
330
82D
100
AcDbEntity
  8
DEFPOINTS
 62
     0
100
AcDbPoint
 10
181.5655639233425
 20
67.92988001315149
 30
0.0
  0
ENDBLK
  5
82F
330
82D
100
AcDbEntity
  8
0
100
AcDbBlockEnd
  0
BLOCK
  5
83E
330
83D
100
AcDbEntity
  8
0
100
AcDbBlockBegin
  2
*D10
 70
     1
 10
0.0
 20
0.0
 30
0.0
  3
*D10
  1
*D12
  0
LINE
  5
840
330
83D
100
AcDbEntity
  8
0
 62
     0
100
AcDbLine
 10
195.4655576938974
 20
68.88033866372129
 30
0.0
 11
195.4655576938974
 21
67.94549828275322
 31
0.0
  0
LINE
  5
841
330
83D
100
AcDbEntity
  8
0
 62
     0
100
AcDbLine
 10
199.3655639233424
 20
69.08033866372129
 30
0.0
 11
199.3655639233424
 21
67.94549828275322
 31
0.0
  0
LINE
  5
842
330
83D
100
AcDbEntity
  8
0
 62
     0
100
AcDbLine
 10
195.6455576938974
 20
68.12549828275323
 30
0.0
 11
196.9527808086199
 21
68.12549828275323
 31
0.0
  0
LINE
  5
843
330
83D
100
AcDbEntity
  8
0
 62
     0
100
AcDbLine
 10
199.1855639233424
 20
68.12549828275323
 30
0.0
 11
197.8783408086199
 21
68.12549828275323
 31
0.0
  0
SOLID
  5
844
330
83D
100
AcDbEntity
  8
0
 62
     0
100
AcDbTrace
 10
195.6455576938974
 20
68.15549828275323
 30
0.0
 11
195.6455576938974
 21
68.09549828275323
 31
0.0
 12
195.4655576938974
 22
68.12549828275323
 32
0.0
 13
195.4655576938974
 23
68.12549828275323
 33
0.0
  0
SOLID
  5
845
330
83D
100
AcDbEntity
  8
0
 62
     0
100
AcDbTrace
 10
199.1855639233424
 20
68.09549828275323
 30
0.0
 11
199.1855639233424
 21
68.15549828275323
 31
0.0
 12
199.3655639233424
 22
68.12549828275323
 32
0.0
 13
199.3655639233424
 23
68.12549828275323
 33
0.0
  0
MTEXT
  5
846
330
83D
100
AcDbEntity
  8
0
 62
     0
100
AcDbMText
 10
197.4155608086199
 20
68.12549828275323
 30
0.0
 40
0.18
 41
0.0
 71
     5
 72
     1
  1
\A1;3.9000
  0
POINT
  5
847
330
83D
100
AcDbEntity
  8
DEFPOINTS
 62
     0
100
AcDbPoint
 10
195.4655576938974
 20
68.94283866372129
 30
0.0
  0
POINT
  5
848
330
83D
100
AcDbEntity
  8
DEFPOINTS
 62
     0
100
AcDbPoint
 10
199.3655639233424
 20
69.14283866372129
 30
0.0
  0
POINT
  5
849
330
83D
100
AcDbEntity
  8
DEFPOINTS
 62
     0
100
AcDbPoint
 10
199.3655639233424
 20
68.12549828275323
 30
0.0
  0
ENDBLK
  5
83F
330
83D
100
AcDbEntity
  8
0
100
AcDbBlockEnd
  0
BLOCK
  5
8A4
330
8A3
100
AcDbEntity
  8
0
100
AcDbBlockBegin
  2
*D11
 70
     1
 10
0.0
 20
0.0
 30
0.0
  3
*D11
  1
*D11
  0
LINE
  5
8A6
330
8A3
100
AcDbEntity
  8
KOTY
 62
     0
100
AcDbLine
 10
142.9644199233425
 20
158.7428386637212
 30
0.0
 11
154.8462672274972
 21
158.7428386637212
 31
0.0
  0
LINE
  5
8A7
330
8A3
100
AcDbEntity
  8
KOTY
 62
     0
100
AcDbLine
 10
144.5879929233425
 20
64.74834366372129
 30
0.0
 11
154.8462672274972
 21
64.74834366372129
 31
0.0
  0
LINE
  5
8A8
330
8A3
100
AcDbEntity
  8
KOTY
 62
     0
100
AcDbLine
 10
154.6662672274972
 20
155.7428386637212
 30
0.0
 11
154.6662672274972
 21
67.74834366372129
 31
0.0
  0
SOLID
  5
8A9
330
8A3
100
AcDbEntity
  8
KOTY
 62
     0
100
AcDbTrace
 10
155.1662672274972
 20
155.7428386637212
 30
0.0
 11
154.1662672274972
 21
155.7428386637212
 31
0.0
 12
154.6662672274972
 22
158.7428386637212
 32
0.0
 13
154.6662672274972
 23
158.7428386637212
 33
0.0
  0
SOLID
  5
8AA
330
8A3
100
AcDbEntity
  8
KOTY
 62
     0
100
AcDbTrace
 10
154.1662672274972
 20
67.74834366372129
 30
0.0
 11
155.1662672274972
 21
67.74834366372129
 31
0.0
 12
154.6662672274972
 22
64.74834366372129
 32
0.0
 13
154.6662672274972
 23
64.74834366372129
 33
0.0
  0
MTEXT
  5
8AB
330
8A3
100
AcDbEntity
  8
KOTY
 62
     0
100
AcDbMText
 10
152.1347672274972
 20
111.7455911637213
 30
0.0
 40
3.0
 41
0.0
 71
     5
 72
     1
  1
\A1;94
 11
0.0
 21
1.0
 31
0.0
  0
POINT
  5
8AC
330
8A3
100
AcDbEntity
  8
DEFPOINTS
 62
     0
100
AcDbPoint
 10
142.9019199233425
 20
158.7428386637212
 30
0.0
  0
POINT
  5
8AD
330
8A3
100
AcDbEntity
  8
DEFPOINTS
 62
     0
100
AcDbPoint
 10
144.5254929233425
 20
64.74834366372129
 30
0.0
  0
POINT
  5
8AE
330
8A3
100
AcDbEntity
  8
DEFPOINTS
 62
     0
100
AcDbPoint
 10
154.6662672274972
 20
64.74834366372129
 30
0.0
  0
ENDBLK
  5
8A5
330
8A3
100
AcDbEntity
  8
0
100
AcDbBlockEnd
  0
ENDSEC
  0
SECTION
  2
ENTITIES
  0
LINE
  5
43E
330
1F
100
AcDbEntity
  8
OBRYS
  6
CONTINUOUS
100
AcDbLine
 10
118.5468899233425
 20
157.7587236637213
 30
0.0
 11
118.4407669233425
 21
158.1547806637213
 31
0.0
  0
LINE
  5
43F
330
1F
100
AcDbEntity
  8
OBRYS
  6
CONTINUOUS
100
AcDbLine
 10
118.5540219233425
 20
69.97488566372128
 30
0.0
 11
118.4478979233425
 21
69.57882866372128
 31
0.0
  0
LINE
  5
442
330
1F
100
AcDbEntity
  8
OBRYS
  6
CONTINUOUS
100
AcDbLine
 10
116.7754929233425
 20
95.52451166372128
 30
0.0
 11
116.7754929233424
 21
91.54283866372106
 31
0.0
  0
LINE
  5
443
330
1F
100
AcDbEntity
  8
OBRYS
  6
CONTINUOUS
100
AcDbLine
 10
73.82549292334247
 20
91.3428386637213
 30
0.0
 11
73.82549292334247
 21
136.3428386637213
 31
0.0
  0
LINE
  5
444
330
1F
100
AcDbEntity
  8
OBRYS
  6
CONTINUOUS
100
AcDbLine
 10
114.6754929233425
 20
111.5974406637213
 30
0.0
 11
117.6429239233425
 21
111.3378236637213
 31
0.0
  0
LINE
  5
445
330
1F
100
AcDbEntity
  8
OBRYS
  6
CONTINUOUS
100
AcDbLine
 10
114.6754929233425
 20
112.6343786637213
 30
0.0
 11
114.6754929233425
 21
111.5974406637213
 31
0.0
  0
LINE
  5
446
330
1F
100
AcDbEntity
  8
OBRYS
  6
CONTINUOUS
100
AcDbLine
 10
114.6754929233425
 20
115.0512996637213
 30
0.0
 11
115.7254829233425
 21
114.8472026637213
 31
0.0
  0
LINE
  5
447
330
1F
100
AcDbEntity
  8
OBRYS
  6
CONTINUOUS
100
AcDbLine
 10
115.7254829233425
 20
114.8472026637213
 30
0.0
 11
116.7254929233425
 21
114.8428386637213
 31
0.0
  0
LINE
  5
448
330
1F
100
AcDbEntity
  8
OBRYS
  6
CONTINUOUS
100
AcDbLine
 10
116.7754929233425
 20
132.1611666637213
 30
0.0
 11
117.6289829233425
 21
132.1462696637213
 31
0.0
  0
LINE
  5
449
330
1F
100
AcDbEntity
  8
OBRYS
  6
CONTINUOUS
100
AcDbLine
 10
115.7254829233425
 20
112.8384756637213
 30
0.0
 11
114.6754929233425
 21
112.6343786637213
 31
0.0
  0
LINE
  5
44A
330
1F
100
AcDbEntity
  8
OBRYS
  6
CONTINUOUS
100
AcDbLine
 10
118.8289829233425
 20
120.8603546637213
 30
0.0
 11
117.8254929233425
 21
120.8428386637213
 31
0.0
  0
LINE
  5
44B
330
1F
100
AcDbEntity
  8
OBRYS
  6
CONTINUOUS
100
AcDbLine
 10
119.0254929233425
 20
129.1253536637213
 30
0.0
 11
119.0254929233425
 21
121.0603246637213
 31
0.0
  0
LINE
  5
44C
330
1F
100
AcDbEntity
  8
OBRYS
  6
CONTINUOUS
100
AcDbLine
 10
117.8254929233425
 20
129.3428386637213
 30
0.0
 11
118.8289829233425
 21
129.3253226637213
 31
0.0
  0
LINE
  5
44D
330
1F
100
AcDbEntity
  8
OBRYS
  6
CONTINUOUS
100
AcDbLine
 10
117.8254929233425
 20
106.8428386637213
 30
0.0
 11
118.8289829233425
 21
106.8253226637213
 31
0.0
  0
LINE
  5
44E
330
1F
100
AcDbEntity
  8
OBRYS
  6
CONTINUOUS
100
AcDbLine
 10
117.6429239233425
 20
116.3478546637213
 30
0.0
 11
114.6754929233425
 21
116.0882376637213
 31
0.0
  0
LINE
  5
44F
330
1F
100
AcDbEntity
  8
OBRYS
  6
CONTINUOUS
100
AcDbLine
 10
118.8289829233425
 20
98.3603546637213
 30
0.0
 11
117.8254929233425
 21
98.3428386637213
 31
0.0
  0
LINE
  5
450
330
1F
100
AcDbEntity
  8
OBRYS
  6
CONTINUOUS
100
AcDbLine
 10
116.7254929233425
 20
114.8428386637213
 30
0.0
 11
116.7254929233425
 21
112.8428386637213
 31
0.0
  0
LINE
  5
451
330
1F
100
AcDbEntity
  8
OBRYS
  6
CONTINUOUS
100
AcDbLine
 10
119.0254929233425
 20
106.6253536637213
 30
0.0
 11
119.0254929233425
 21
98.56032466372127
 31
0.0
  0
LINE
  5
452
330
1F
100
AcDbEntity
  8
OBRYS
  6
CONTINUOUS
100
AcDbLine
 10
116.7754929233425
 20
136.0953976637213
 30
0.0
 11
116.7754929233425
 21
132.1611666637213
 31
0.0
  0
LINE
  5
453
330
1F
100
AcDbEntity
  8
OBRYS
  6
CONTINUOUS
100
AcDbLine
 10
114.6754929233425
 20
116.0882376637213
 30
0.0
 11
114.6754929233425
 21
115.0512996637213
 31
0.0
  0
LINE
  5
454
330
1F
100
AcDbEntity
  8
OBRYS
  6
CONTINUOUS
100
AcDbLine
 10
117.6289829233425
 20
95.53940866372128
 30
0.0
 11
116.7754929233425
 21
95.52451166372128
 31
0.0
  0
LINE
  5
455
330
1F
100
AcDbEntity
  8
OBRYS
  6
CONTINUOUS
100
AcDbLine
 10
116.7254929233425
 20
112.8428386637213
 30
0.0
 11
115.7254829233425
 21
112.8384756637213
 31
0.0
  0
LINE
  5
456
330
1F
100
AcDbEntity
  8
OBRYS
  6
CONTINUOUS
100
AcDbLine
 10
72.71502592334247
 20
136.1846416637213
 30
0.0
 11
73.82549292334247
 21
136.2428386637213
 31
0.0
  0
LINE
  5
457
330
1F
100
AcDbEntity
  8
OBRYS
  6
CONTINUOUS
100
AcDbLine
 10
73.82549292334247
 20
91.44283866372129
 30
0.0
 11
72.71502592334247
 21
91.5010366637213
 31
0.0
  0
LINE
  5
458
330
1F
100
AcDbEntity
  8
OBRYS
  6
CONTINUOUS
100
AcDbLine
 10
72.52549292334245
 20
91.70076266372129
 30
0.0
 11
72.52549292334245
 21
135.9849156637213
 31
0.0
  0
LINE
  5
459
330
1F
100
AcDbEntity
  8
OBRYS
  6
CONTINUOUS
100
AcDbLine
 10
116.5754929233425
 20
91.3428386637213
 30
0.0
 11
73.82549292334247
 21
91.3428386637213
 31
0.0
  0
LINE
  5
45A
330
1F
100
AcDbEntity
  8
OBRYS
  6
CONTINUOUS
100
AcDbLine
 10
73.82549292334247
 20
136.3428386637213
 30
0.0
 11
116.5754929233425
 21
136.3428386637213
 31
0.0
  0
LINE
  5
45B
330
1F
100
AcDbEntity
  8
OBRYS
  6
CONTINUOUS
100
AcDbLine
 10
116.7754929233425
 20
136.1428386637213
 30
0.0
 11
116.7754929233425
 21
136.0953976637213
 31
0.0
  0
LINE
  5
45C
330
1F
100
AcDbEntity
  8
OBRYS
  6
CONTINUOUS
100
AcDbLine
 10
114.6256529233425
 20
104.6466796637213
 30
0.0
 11
116.9255079233425
 21
104.6468546637213
 31
0.0
  0
LINE
  5
45D
330
1F
100
AcDbEntity
  8
OBRYS
  6
CONTINUOUS
100
AcDbLine
 10
116.9255079233425
 20
100.5468236637213
 30
0.0
 11
114.6256529233425
 21
100.5469986637213
 31
0.0
  0
LINE
  5
45E
330
1F
100
AcDbEntity
  8
OBRYS
  6
CONTINUOUS
100
AcDbLine
 10
114.6256529233425
 20
123.0429986637213
 30
0.0
 11
114.6256529233425
 21
127.1386796637213
 31
0.0
  0
LINE
  5
45F
330
1F
100
AcDbEntity
  8
OBRYS
  6
CONTINUOUS
100
AcDbLine
 10
114.6256529233425
 20
127.1386796637213
 30
0.0
 11
116.9255079233425
 21
127.1388546637213
 31
0.0
  0
LINE
  5
460
330
1F
100
AcDbEntity
  8
OBRYS
  6
CONTINUOUS
100
AcDbLine
 10
116.9255079233425
 20
123.0428236637213
 30
0.0
 11
114.6256529233425
 21
123.0429986637213
 31
0.0
  0
LINE
  5
461
330
1F
100
AcDbEntity
  8
OBRYS
  6
CONTINUOUS
100
AcDbLine
 10
116.9255079233425
 20
104.6468546637213
 30
0.0
 11
116.9255079233425
 21
100.5468236637213
 31
0.0
  0
LINE
  5
462
330
1F
100
AcDbEntity
  8
OBRYS
  6
CONTINUOUS
100
AcDbLine
 10
114.6256529233425
 20
100.5469986637213
 30
0.0
 11
114.6256529233425
 21
104.6466796637213
 31
0.0
  0
LINE
  5
463
330
1F
100
AcDbEntity
  8
OBRYS
  6
CONTINUOUS
100
AcDbLine
 10
116.9255079233425
 20
127.1388546637213
 30
0.0
 11
116.9255079233425
 21
123.0428236637213
 31
0.0
  0
LINE
  5
464
330
1F
100
AcDbEntity
  8
OBRYS
  6
CONTINUOUS
100
AcDbLine
 10
144.5254929233425
 20
95.04580166372128
 30
0.0
 11
144.5254929233425
 21
64.74834366372129
 31
0.0
  0
LINE
  5
465
330
1F
100
AcDbEntity
  8
OBRYS
  6
CONTINUOUS
100
AcDbLine
 10
138.6254879233425
 20
95.44497166372128
 30
0.0
 11
144.3324729233425
 21
95.24567966372129
 31
0.0
  0
LINE
  5
466
330
1F
100
AcDbEntity
  8
OBRYS
  6
CONTINUOUS
100
AcDbLine
 10
144.3254929233425
 20
72.94372666372129
 30
0.0
 11
137.6656389233424
 21
72.94372666372129
 31
0.0
  0
LINE
  5
467
330
1F
100
AcDbEntity
  8
OBRYS
  6
CONTINUOUS
100
AcDbLine
 10
138.6254929233424
 20
95.49547066372128
 30
0.0
 11
136.8481839233424
 21
95.49547066372128
 31
0.0
  0
LINE
  5
468
330
1F
100
AcDbEntity
  8
OBRYS
  6
CONTINUOUS
100
AcDbLine
 10
134.8254929233425
 20
107.4687266637213
 30
0.0
 11
136.5754929233425
 21
107.4687266637213
 31
0.0
  0
LINE
  5
469
330
1F
100
AcDbEntity
  8
OBRYS
  6
CONTINUOUS
100
AcDbLine
 10
141.7754929233425
 20
139.3396736637213
 30
0.0
 11
141.7754929233425
 21
137.2977806637213
 31
0.0
  0
LINE
  5
46A
330
1F
100
AcDbEntity
  8
OBRYS
  6
CONTINUOUS
100
AcDbLine
 10
135.0254929233425
 20
91.4687266637213
 30
0.0
 11
133.3254929233425
 21
91.4687266637213
 31
0.0
  0
LINE
  5
46B
330
1F
100
AcDbEntity
  8
OBRYS
  6
CONTINUOUS
100
AcDbLine
 10
141.2085059233424
 20
150.5437266637213
 30
0.0
 11
141.2085059233424
 21
148.6065656637213
 31
0.0
  0
LINE
  5
46C
330
1F
100
AcDbEntity
  8
OBRYS
  6
CONTINUOUS
100
AcDbLine
 10
133.3254929233425
 20
82.4687266637213
 30
0.0
 11
135.0254929233425
 21
82.4687266637213
 31
0.0
  0
LINE
  5
46D
330
1F
100
AcDbEntity
  8
OBRYS
  6
CONTINUOUS
100
AcDbLine
 10
134.8254929233425
 20
122.2187266637213
 30
0.0
 11
136.5754929233425
 21
122.2187266637213
 31
0.0
  0
LINE
  5
46E
330
1F
100
AcDbEntity
  8
OBRYS
  6
CONTINUOUS
100
AcDbLine
 10
141.7754929233425
 20
137.2977806637213
 30
0.0
 11
140.0254929233425
 21
137.2977806637213
 31
0.0
  0
LINE
  5
46F
330
1F
100
AcDbEntity
  8
OBRYS
  6
CONTINUOUS
100
AcDbLine
 10
136.5754929233425
 20
105.4687266637213
 30
0.0
 11
136.5754929233425
 21
107.4687266637213
 31
0.0
  0
LINE
  5
470
330
1F
100
AcDbEntity
  8
OBRYS
  6
CONTINUOUS
100
AcDbLine
 10
136.5754929233425
 20
120.2187266637213
 30
0.0
 11
134.8254929233425
 21
120.2187266637213
 31
0.0
  0
LINE
  5
471
330
1F
100
AcDbEntity
  8
OBRYS
  6
CONTINUOUS
100
AcDbLine
 10
135.0254929233425
 20
93.41872666372129
 30
0.0
 11
135.0254929233425
 21
91.4687266637213
 31
0.0
  0
LINE
  5
472
330
1F
100
AcDbEntity
  8
OBRYS
  6
CONTINUOUS
100
AcDbLine
 10
140.0254929233425
 20
150.5437266637213
 30
0.0
 11
141.7754929233425
 21
150.5437266637213
 31
0.0
  0
LINE
  5
473
330
1F
100
AcDbEntity
  8
OBRYS
  6
CONTINUOUS
100
AcDbLine
 10
136.0085059233425
 20
107.4687266637213
 30
0.0
 11
136.0085059233425
 21
105.4687266637213
 31
0.0
  0
LINE
  5
474
330
1F
100
AcDbEntity
  8
OBRYS
  6
CONTINUOUS
100
AcDbLine
 10
134.4585059233424
 20
93.41872666372129
 30
0.0
 11
134.4585059233424
 21
91.4687266637213
 31
0.0
  0
LINE
  5
475
330
1F
100
AcDbEntity
  8
OBRYS
  6
CONTINUOUS
100
AcDbLine
 10
141.7754929233425
 20
139.3396736637213
 30
0.0
 11
140.0254929233425
 21
139.3396736637213
 31
0.0
  0
LINE
  5
476
330
1F
100
AcDbEntity
  8
OBRYS
  6
CONTINUOUS
100
AcDbLine
 10
135.0254929233425
 20
80.46872666372128
 30
0.0
 11
133.3254929233425
 21
80.46872666372128
 31
0.0
  0
LINE
  5
477
330
1F
100
AcDbEntity
  8
OBRYS
  6
CONTINUOUS
100
AcDbLine
 10
136.5754929233425
 20
105.4687266637213
 30
0.0
 11
134.8254929233425
 21
105.4687266637213
 31
0.0
  0
LINE
  5
478
330
1F
100
AcDbEntity
  8
OBRYS
  6
CONTINUOUS
100
AcDbLine
 10
141.7754929233425
 20
148.6065656637213
 30
0.0
 11
140.0254929233425
 21
148.6065656637213
 31
0.0
  0
LINE
  5
479
330
1F
100
AcDbEntity
  8
OBRYS
  6
CONTINUOUS
100
AcDbLine
 10
136.5754929233425
 20
122.2187266637213
 30
0.0
 11
136.5754929233425
 21
120.2187266637213
 31
0.0
  0
LINE
  5
47A
330
1F
100
AcDbEntity
  8
OBRYS
  6
CONTINUOUS
100
AcDbLine
 10
141.7754929233425
 20
148.6065656637213
 30
0.0
 11
141.7754929233425
 21
150.5437266637213
 31
0.0
  0
LINE
  5
47B
330
1F
100
AcDbEntity
  8
OBRYS
  6
CONTINUOUS
100
AcDbLine
 10
141.2085059233424
 20
139.3396736637213
 30
0.0
 11
141.2085059233424
 21
137.2977806637213
 31
0.0
  0
LINE
  5
47C
330
1F
100
AcDbEntity
  8
OBRYS
  6
CONTINUOUS
100
AcDbLine
 10
135.0254929233425
 20
93.41872666372129
 30
0.0
 11
133.3254929233425
 21
93.41872666372129
 31
0.0
  0
LINE
  5
47D
330
1F
100
AcDbEntity
  8
OBRYS
  6
CONTINUOUS
100
AcDbLine
 10
136.0085059233425
 20
122.2187266637213
 30
0.0
 11
136.0085059233425
 21
120.2187266637213
 31
0.0
  0
LINE
  5
47E
330
1F
100
AcDbEntity
  8
OBRYS
  6
CONTINUOUS
100
AcDbLine
 10
134.4585059233424
 20
82.4687266637213
 30
0.0
 11
134.4585059233424
 21
80.46872666372128
 31
0.0
  0
LINE
  5
47F
330
1F
100
AcDbEntity
  8
OBRYS
  6
CONTINUOUS
100
AcDbLine
 10
135.0254929233425
 20
82.4687266637213
 30
0.0
 11
135.0254929233425
 21
80.46872666372128
 31
0.0
  0
LINE
  5
480
330
1F
100
AcDbEntity
  8
OBRYS
  6
CONTINUOUS
100
AcDbLine
 10
133.3254929233425
 20
80.46872666372128
 30
0.0
 11
133.3254929233425
 21
82.4687266637213
 31
0.0
  0
LINE
  5
481
330
1F
100
AcDbEntity
  8
OBRYS
  6
CONTINUOUS
100
AcDbLine
 10
133.3254929233425
 20
91.4687266637213
 30
0.0
 11
133.3254929233425
 21
93.41872666372129
 31
0.0
  0
LINE
  5
482
330
1F
100
AcDbEntity
  8
OBRYS
  6
CONTINUOUS
100
AcDbLine
 10
140.0254929233425
 20
137.2977806637213
 30
0.0
 11
140.0254929233425
 21
139.3396736637213
 31
0.0
  0
LINE
  5
483
330
1F
100
AcDbEntity
  8
OBRYS
  6
CONTINUOUS
100
AcDbLine
 10
140.0254929233425
 20
148.6065656637213
 30
0.0
 11
140.0254929233425
 21
150.5437266637213
 31
0.0
  0
LINE
  5
484
330
1F
100
AcDbEntity
  8
OBRYS
  6
CONTINUOUS
100
AcDbLine
 10
134.8254929233425
 20
105.4687266637213
 30
0.0
 11
134.8254929233425
 21
107.4687266637213
 31
0.0
  0
LINE
  5
485
330
1F
100
AcDbEntity
  8
OBRYS
  6
CONTINUOUS
100
AcDbLine
 10
134.8254929233425
 20
120.2187266637213
 30
0.0
 11
134.8254929233425
 21
122.2187266637213
 31
0.0
  0
LINE
  5
486
330
1F
100
AcDbEntity
  8
OBRYS
  6
CONTINUOUS
100
AcDbLine
 10
144.3289829233425
 20
129.6566056637213
 30
0.0
 11
141.5432501903771
 21
129.6079811034704
 31
0.0
  0
LINE
  5
487
330
1F
100
AcDbEntity
  8
OBRYS
  6
CONTINUOUS
100
AcDbLine
 10
138.8254929233425
 20
126.4000896637213
 30
0.0
 11
138.8254929233425
 21
126.4437266637213
 31
0.0
  0
LINE
  5
488
330
1F
100
AcDbEntity
  8
OBRYS
  6
CONTINUOUS
100
AcDbLine
 10
140.3789184492051
 20
131.4699538425406
 30
0.0
 11
141.3665729233425
 21
129.7079656637213
 31
0.0
  0
LINE
  5
489
330
1F
100
AcDbEntity
  8
OBRYS
  6
CONTINUOUS
100
AcDbLine
 10
137.6254929233424
 20
72.92655566372129
 30
0.0
 11
130.7719029233425
 21
68.96963366372128
 31
0.0
  0
LINE
  5
48A
330
1F
100
AcDbEntity
  8
OBRYS
  6
CONTINUOUS
100
AcDbLine
 10
113.4056715682686
 20
156.7616420622431
 30
0.0
 11
113.0456909233425
 21
156.6981676637213
 31
0.0
  0
LINE
  5
48B
330
1F
100
AcDbEntity
  8
OBRYS
  6
CONTINUOUS
100
AcDbLine
 10
112.9240169233425
 20
156.5243996637213
 30
0.0
 11
113.0509659233425
 21
155.8044386637213
 31
0.0
  0
LINE
  5
48C
330
1F
100
AcDbEntity
  8
OBRYS
  6
CONTINUOUS
100
AcDbLine
 10
113.2247339233425
 20
155.6827646637213
 30
0.0
 11
114.9708099233425
 21
155.9906456637213
 31
0.0
  0
LINE
  5
48D
330
1F
100
AcDbEntity
  8
OBRYS
  6
CONTINUOUS
100
AcDbLine
 10
117.4180999233425
 20
156.4221686637213
 30
0.0
 11
119.1641759233425
 21
156.7300486637213
 31
0.0
  0
LINE
  5
48E
330
1F
100
AcDbEntity
  8
OBRYS
  6
CONTINUOUS
100
AcDbLine
 10
119.2858499233425
 20
156.9038166637213
 30
0.0
 11
119.1589009233425
 21
157.6237776637213
 31
0.0
  0
LINE
  5
48F
330
1F
100
AcDbEntity
  8
OBRYS
  6
CONTINUOUS
100
AcDbLine
 10
118.9851329233425
 20
157.7454516637213
 30
0.0
 11
118.6251525230133
 21
157.6819773060663
 31
0.0
  0
LINE
  5
490
330
1F
100
AcDbEntity
  8
OBRYS
  6
CONTINUOUS
100
AcDbLine
 10
118.9851329233425
 20
69.94022666372129
 30
0.0
 11
118.6251922426303
 21
70.00364467392667
 31
0.0
  0
LINE
  5
491
330
1F
100
AcDbEntity
  8
OBRYS
  6
CONTINUOUS
100
AcDbLine
 10
119.2858499233425
 20
70.78186166372129
 30
0.0
 11
119.1589009233425
 21
70.06190066372129
 31
0.0
  0
LINE
  5
492
330
1F
100
AcDbEntity
  8
OBRYS
  6
CONTINUOUS
100
AcDbLine
 10
117.4180999233425
 20
71.2635096637213
 30
0.0
 11
119.1641759233425
 21
70.95562966372128
 31
0.0
  0
LINE
  5
493
330
1F
100
AcDbEntity
  8
OBRYS
  6
CONTINUOUS
100
AcDbLine
 10
113.2247339233425
 20
72.00291366372129
 30
0.0
 11
114.9708099233425
 21
71.69503266372129
 31
0.0
  0
LINE
  5
494
330
1F
100
AcDbEntity
  8
OBRYS
  6
CONTINUOUS
100
AcDbLine
 10
112.9240169233425
 20
71.16127866372129
 30
0.0
 11
113.0509659233425
 21
71.88123966372129
 31
0.0
  0
LINE
  5
495
330
1F
100
AcDbEntity
  8
OBRYS
  6
CONTINUOUS
100
AcDbLine
 10
113.4056715682686
 20
70.92403626519949
 30
0.0
 11
113.0456909233425
 21
70.98751066372128
 31
0.0
  0
LINE
  5
496
330
1F
100
AcDbEntity
  8
OBRYS
  6
CONTINUOUS
100
AcDbLine
 10
101.0751966199821
 20
80.30363850977909
 30
0.0
 11
101.4351329233425
 21
80.24022666372129
 31
0.0
  0
LINE
  5
497
330
1F
100
AcDbEntity
  8
OBRYS
  6
CONTINUOUS
100
AcDbLine
 10
101.6089009233425
 20
80.36190066372129
 30
0.0
 11
101.7358499233425
 21
81.08186166372128
 31
0.0
  0
LINE
  5
498
330
1F
100
AcDbEntity
  8
OBRYS
  6
CONTINUOUS
100
AcDbLine
 10
101.6141759233425
 20
81.2556296637213
 30
0.0
 11
99.86809992334246
 21
81.56350966372129
 31
0.0
  0
LINE
  5
499
330
1F
100
AcDbEntity
  8
OBRYS
  6
CONTINUOUS
100
AcDbLine
 10
97.42080992334246
 20
81.99503266372129
 30
0.0
 11
95.67473392334246
 21
82.30291366372128
 31
0.0
  0
LINE
  5
49A
330
1F
100
AcDbEntity
  8
OBRYS
  6
CONTINUOUS
100
AcDbLine
 10
95.50096592334246
 20
82.18123966372129
 30
0.0
 11
95.37401692334247
 21
81.46127866372129
 31
0.0
  0
LINE
  5
49B
330
1F
100
AcDbEntity
  8
OBRYS
  6
CONTINUOUS
100
AcDbLine
 10
95.49569092334247
 20
81.28751066372129
 30
0.0
 11
95.85567156826856
 21
81.22403626519949
 31
0.0
  0
LINE
  5
49C
330
1F
100
AcDbEntity
  8
OBRYS
  6
CONTINUOUS
100
AcDbLine
 10
95.49569092334247
 20
146.3981676637213
 30
0.0
 11
95.85567156826855
 21
146.4616420622431
 31
0.0
  0
LINE
  5
49D
330
1F
100
AcDbEntity
  8
OBRYS
  6
CONTINUOUS
100
AcDbLine
 10
95.50096592334246
 20
145.5044386637213
 30
0.0
 11
95.37401692334247
 21
146.2243996637213
 31
0.0
  0
LINE
  5
49E
330
1F
100
AcDbEntity
  8
OBRYS
  6
CONTINUOUS
100
AcDbLine
 10
97.42080992334246
 20
145.6906456637213
 30
0.0
 11
95.67473392334246
 21
145.3827646637213
 31
0.0
  0
LINE
  5
49F
330
1F
100
AcDbEntity
  8
OBRYS
  6
CONTINUOUS
100
AcDbLine
 10
101.6141759233425
 20
146.4300486637213
 30
0.0
 11
99.86809992334246
 21
146.1221686637213
 31
0.0
  0
LINE
  5
4A0
330
1F
100
AcDbEntity
  8
OBRYS
  6
CONTINUOUS
100
AcDbLine
 10
101.6089009233425
 20
147.3237776637213
 30
0.0
 11
101.7358499233425
 21
146.6038166637213
 31
0.0
  0
LINE
  5
4A1
330
1F
100
AcDbEntity
  8
OBRYS
  6
CONTINUOUS
100
AcDbLine
 10
101.075152537356
 20
147.3819773265494
 30
0.0
 11
101.4351329233425
 21
147.4454516637213
 31
0.0
  0
LINE
  5
4A2
330
1F
100
AcDbEntity
  8
OBRYS
  6
CONTINUOUS
100
AcDbLine
 10
111.8754929233425
 20
70.46355766372129
 30
0.0
 11
111.8754929233425
 21
78.6696076637213
 31
0.0
  0
LINE
  5
4A3
330
1F
100
AcDbEntity
  8
OBRYS
  6
CONTINUOUS
100
AcDbLine
 10
119.5309269233425
 20
68.94587766372129
 30
0.0
 11
118.4743472877961
 21
69.13218111304602
 31
0.0
  0
LINE
  5
4A4
330
1F
100
AcDbEntity
  8
OBRYS
  6
CONTINUOUS
100
AcDbLine
 10
130.6719029233425
 20
68.94283866372129
 30
0.0
 11
119.5656569233425
 21
68.94283866372129
 31
0.0
  0
LINE
  5
4A5
330
1F
100
AcDbEntity
  8
OBRYS
  6
CONTINUOUS
100
AcDbLine
 10
118.4743472877961
 20
69.13218111304602
 30
0.0
 11
118.6251922426303
 21
70.00364467392667
 31
0.0
  0
LINE
  5
4A6
330
1F
100
AcDbEntity
  8
OBRYS
  6
CONTINUOUS
100
AcDbLine
 10
113.2520849233425
 20
70.05300666372129
 30
0.0
 11
113.4056715682686
 21
70.92403626519949
 31
0.0
  0
LINE
  5
4A7
330
1F
100
AcDbEntity
  8
OBRYS
  6
CONTINUOUS
100
AcDbLine
 10
113.2520849233425
 20
70.05300666372129
 30
0.0
 11
112.0407629233425
 21
70.26659566372129
 31
0.0
  0
LINE
  5
4A8
330
1F
100
AcDbEntity
  8
OBRYS
  6
CONTINUOUS
100
AcDbLine
 10
137.6255529562368
 20
78.41872607622437
 30
0.0
 11
137.6254929233424
 21
72.92655566372129
 31
0.0
  0
LINE
  5
4A9
330
1F
100
AcDbEntity
  8
OBRYS
  6
CONTINUOUS
100
AcDbLine
 10
94.32549292334247
 20
80.76355766372129
 30
0.0
 11
94.32549292334247
 21
90.75336266372128
 31
0.0
  0
LINE
  5
4AA
330
1F
100
AcDbEntity
  8
OBRYS
  6
CONTINUOUS
100
AcDbLine
 10
95.70208492334245
 20
80.35300666372129
 30
0.0
 11
95.85567157486649
 21
81.22403626403609
 31
0.0
  0
LINE
  5
4AB
330
1F
100
AcDbEntity
  8
OBRYS
  6
CONTINUOUS
100
AcDbLine
 10
111.8754929233425
 20
78.6696076637213
 30
0.0
 11
102.4589099233425
 21
79.16310966372129
 31
0.0
  0
LINE
  5
4AC
330
1F
100
AcDbEntity
  8
OBRYS
  6
CONTINUOUS
100
AcDbLine
 10
95.70208492334245
 20
80.35300666372129
 30
0.0
 11
94.49076292334246
 21
80.56659566372129
 31
0.0
  0
LINE
  5
4AD
330
1F
100
AcDbEntity
  8
OBRYS
  6
CONTINUOUS
100
AcDbLine
 10
100.9246522877902
 20
79.43212711301241
 30
0.0
 11
101.0751966199821
 21
80.30363850977909
 31
0.0
  0
LINE
  5
4AE
330
1F
100
AcDbEntity
  8
OBRYS
  6
CONTINUOUS
100
AcDbLine
 10
136.8254929233425
 20
95.6146756637213
 30
0.0
 11
136.8254929233425
 21
78.42655566372129
 31
0.0
  0
LINE
  5
4AF
330
1F
100
AcDbEntity
  8
OBRYS
  6
CONTINUOUS
100
AcDbLine
 10
102.4346479233425
 20
79.16587466372128
 30
0.0
 11
100.9246522877902
 21
79.43212711301241
 31
0.0
  0
LINE
  5
4B0
330
1F
100
AcDbEntity
  8
OBRYS
  6
CONTINUOUS
100
AcDbLine
 10
96.65798392334246
 20
91.1400056637213
 30
0.0
 11
119.1254929233425
 21
91.23803966372128
 31
0.0
  0
LINE
  5
4B1
330
1F
100
AcDbEntity
  8
OBRYS
  6
CONTINUOUS
100
AcDbLine
 10
119.1254929233425
 20
91.23803966372128
 30
0.0
 11
119.1254929233425
 21
136.4476386637213
 31
0.0
  0
LINE
  5
4B2
330
1F
100
AcDbEntity
  8
OBRYS
  6
CONTINUOUS
100
AcDbLine
 10
94.50806192334247
 20
90.95260166372128
 30
0.0
 11
96.64142592334247
 21
91.13924666372128
 31
0.0
  0
LINE
  5
4B3
330
1F
100
AcDbEntity
  8
OBRYS
  6
CONTINUOUS
100
AcDbLine
 10
138.8254929233425
 20
131.4428386637213
 30
0.0
 11
138.8254929233425
 21
95.43798766372129
 31
0.0
  0
LINE
  5
4B4
330
1F
100
AcDbEntity
  8
OBRYS
  6
CONTINUOUS
100
AcDbLine
 10
138.8254929233425
 20
95.6495856637213
 30
0.0
 11
136.8254929233425
 21
95.6146756637213
 31
0.0
  0
LINE
  5
4B5
330
1F
100
AcDbEntity
  8
OBRYS
  6
CONTINUOUS
100
AcDbLine
 10
144.5254929233425
 20
147.7428386637213
 30
0.0
 11
144.5254929233425
 21
129.8565756637213
 31
0.0
  0
LINE
  5
4B6
330
1F
100
AcDbEntity
  8
OBRYS
  6
CONTINUOUS
100
AcDbLine
 10
119.1254929233425
 20
136.4476386637213
 30
0.0
 11
96.65798392334246
 21
136.5456726637213
 31
0.0
  0
LINE
  5
4B7
330
1F
100
AcDbEntity
  8
OBRYS
  6
CONTINUOUS
100
AcDbLine
 10
144.5254929233425
 20
131.5423326637213
 30
0.0
 11
138.8254929233425
 21
131.4428386637213
 31
0.0
  0
LINE
  5
4B8
330
1F
100
AcDbEntity
  8
OBRYS
  6
CONTINUOUS
100
AcDbLine
 10
96.64142592334247
 20
136.5464316637213
 30
0.0
 11
94.50806192334247
 21
136.7330766637213
 31
0.0
  0
LINE
  5
4B9
330
1F
100
AcDbEntity
  8
OBRYS
  6
CONTINUOUS
100
AcDbLine
 10
94.32549292334247
 20
136.9323156637213
 30
0.0
 11
94.32549292334247
 21
146.9221206637213
 31
0.0
  0
LINE
  5
4BA
330
1F
100
AcDbEntity
  8
OBRYS
  6
CONTINUOUS
100
AcDbLine
 10
95.70208492334245
 20
147.3326716637213
 30
0.0
 11
95.85567157486649
 21
146.4616420634065
 31
0.0
  0
LINE
  5
4BB
330
1F
100
AcDbEntity
  8
OBRYS
  6
CONTINUOUS
100
AcDbLine
 10
94.49076292334246
 20
147.1190826637213
 30
0.0
 11
95.70208492334245
 21
147.3326716637213
 31
0.0
  0
LINE
  5
4BC
330
1F
100
AcDbEntity
  8
OBRYS
  6
CONTINUOUS
100
AcDbLine
 10
143.1006148956172
 20
158.5667479021653
 30
0.0
 11
144.5254929233425
 21
147.7428386637213
 31
0.0
  0
LINE
  5
4BD
330
1F
100
AcDbEntity
  8
OBRYS
  6
CONTINUOUS
100
AcDbLine
 10
100.9246519233425
 20
148.2535506637213
 30
0.0
 11
101.075152529382
 21
147.3819773251434
 31
0.0
  0
LINE
  5
4BE
330
1F
100
AcDbEntity
  8
OBRYS
  6
CONTINUOUS
100
AcDbLine
 10
100.9246446008394
 20
148.2535930695205
 30
0.0
 11
102.4346479233425
 21
148.5198036637213
 31
0.0
  0
LINE
  5
4BF
330
1F
100
AcDbEntity
  8
OBRYS
  6
CONTINUOUS
100
AcDbLine
 10
111.8746451979816
 20
149.031746820963
 30
0.0
 11
111.8754929233425
 21
157.2221206637213
 31
0.0
  0
LINE
  5
4C0
330
1F
100
AcDbEntity
  8
OBRYS
  6
CONTINUOUS
100
AcDbLine
 10
118.4743469233425
 20
158.5534966637213
 30
0.0
 11
118.6251525317124
 21
157.6819773076002
 31
0.0
  0
LINE
  5
4C1
330
1F
100
AcDbEntity
  8
OBRYS
  6
CONTINUOUS
100
AcDbLine
 10
113.2520849233425
 20
157.6326716637213
 30
0.0
 11
113.4056715682686
 21
156.7616420622431
 31
0.0
  0
LINE
  5
4C2
330
1F
100
AcDbEntity
  8
OBRYS
  6
CONTINUOUS
100
AcDbLine
 10
119.5656569233425
 20
158.7428386637213
 30
0.0
 11
142.9019199233425
 21
158.7428386637213
 31
0.0
  0
LINE
  5
4C3
330
1F
100
AcDbEntity
  8
OBRYS
  6
CONTINUOUS
100
AcDbLine
 10
112.0407629233425
 20
157.4190826637213
 30
0.0
 11
113.2520849233425
 21
157.6326716637213
 31
0.0
  0
LINE
  5
4C4
330
1F
100
AcDbEntity
  8
OBRYS
  6
CONTINUOUS
100
AcDbLine
 10
135.1775429233425
 20
82.55571366372129
 30
0.0
 11
133.1235679233425
 21
82.55494966372129
 31
0.0
  0
LINE
  5
4C5
330
1F
100
AcDbEntity
  8
OBRYS
  6
CONTINUOUS
100
AcDbLine
 10
135.1775429233425
 20
80.27996466372129
 30
0.0
 11
135.1775429233425
 21
82.55571366372129
 31
0.0
  0
LINE
  5
4C6
330
1F
100
AcDbEntity
  8
OBRYS
  6
CONTINUOUS
100
AcDbLine
 10
133.1235679233425
 20
91.33072866372129
 30
0.0
 11
135.1775429233425
 21
91.32996466372128
 31
0.0
  0
LINE
  5
4C7
330
1F
100
AcDbEntity
  8
OBRYS
  6
CONTINUOUS
100
AcDbLine
 10
133.1235679233425
 20
93.6049496637213
 30
0.0
 11
133.1235679233425
 21
91.33072866372129
 31
0.0
  0
LINE
  5
4C8
330
1F
100
AcDbEntity
  8
OBRYS
  6
CONTINUOUS
100
AcDbLine
 10
134.7234699233425
 20
107.6050486637213
 30
0.0
 11
134.7234699233425
 21
105.3306296637213
 31
0.0
  0
LINE
  5
4C9
330
1F
100
AcDbEntity
  8
OBRYS
  6
CONTINUOUS
100
AcDbLine
 10
136.7776409233425
 20
107.6058126637213
 30
0.0
 11
136.7776409233425
 21
105.3298656637213
 31
0.0
  0
LINE
  5
4CA
330
1F
100
AcDbEntity
  8
OBRYS
  6
CONTINUOUS
100
AcDbLine
 10
134.7234699233425
 20
105.3306296637213
 30
0.0
 11
136.7776409233425
 21
105.3298656637213
 31
0.0
  0
LINE
  5
4CB
330
1F
100
AcDbEntity
  8
OBRYS
  6
CONTINUOUS
100
AcDbLine
 10
136.7776409233425
 20
107.6058126637213
 30
0.0
 11
134.7234699233425
 21
107.6050486637213
 31
0.0
  0
LINE
  5
4CC
330
1F
100
AcDbEntity
  8
OBRYS
  6
CONTINUOUS
100
AcDbLine
 10
141.9779579233424
 20
139.4561356637213
 30
0.0
 11
139.9231529233425
 21
139.4553706637213
 31
0.0
  0
LINE
  5
4CD
330
1F
100
AcDbEntity
  8
OBRYS
  6
CONTINUOUS
100
AcDbLine
 10
141.9779579233424
 20
137.1795426637213
 30
0.0
 11
141.9779579233424
 21
139.4561356637213
 31
0.0
  0
LINE
  5
4CE
330
1F
100
AcDbEntity
  8
OBRYS
  6
CONTINUOUS
100
AcDbLine
 10
139.9231529233425
 20
150.7053706637213
 30
0.0
 11
139.9231529233425
 21
148.4303066637213
 31
0.0
  0
LINE
  5
4CF
330
1F
100
AcDbEntity
  8
OBRYS
  6
CONTINUOUS
100
AcDbLine
 10
139.9231529233425
 20
148.4303066637213
 30
0.0
 11
141.9779579233424
 21
148.4295426637213
 31
0.0
  0
LINE
  5
4D0
330
1F
100
AcDbEntity
  8
OBRYS
  6
CONTINUOUS
100
AcDbLine
 10
133.1235679233425
 20
80.28072866372129
 30
0.0
 11
135.1775429233425
 21
80.27996466372129
 31
0.0
  0
LINE
  5
4D1
330
1F
100
AcDbEntity
  8
OBRYS
  6
CONTINUOUS
100
AcDbLine
 10
135.1775429233425
 20
93.60571366372127
 30
0.0
 11
133.1235679233425
 21
93.6049496637213
 31
0.0
  0
LINE
  5
4D2
330
1F
100
AcDbEntity
  8
OBRYS
  6
CONTINUOUS
100
AcDbLine
 10
139.9231529233425
 20
137.1803066637213
 30
0.0
 11
141.9779579233424
 21
137.1795426637213
 31
0.0
  0
LINE
  5
4D3
330
1F
100
AcDbEntity
  8
OBRYS
  6
CONTINUOUS
100
AcDbLine
 10
141.9779579233424
 20
150.7061356637213
 30
0.0
 11
139.9231529233425
 21
150.7053706637213
 31
0.0
  0
LINE
  5
4D4
330
1F
100
AcDbEntity
  8
OBRYS
  6
CONTINUOUS
100
AcDbLine
 10
135.1775429233425
 20
93.60571366372127
 30
0.0
 11
135.1775429233425
 21
91.32996466372128
 31
0.0
  0
LINE
  5
4D5
330
1F
100
AcDbEntity
  8
OBRYS
  6
CONTINUOUS
100
AcDbLine
 10
136.7776409233425
 20
122.3558126637213
 30
0.0
 11
134.7234699233425
 21
122.3550486637213
 31
0.0
  0
LINE
  5
4D6
330
1F
100
AcDbEntity
  8
OBRYS
  6
CONTINUOUS
100
AcDbLine
 10
136.7776409233425
 20
120.0798656637213
 30
0.0
 11
136.7776409233425
 21
122.3558126637213
 31
0.0
  0
LINE
  5
4D7
330
1F
100
AcDbEntity
  8
OBRYS
  6
CONTINUOUS
100
AcDbLine
 10
141.9779579233424
 20
150.7061356637213
 30
0.0
 11
141.9779579233424
 21
148.4295426637213
 31
0.0
  0
LINE
  5
4D8
330
1F
100
AcDbEntity
  8
OBRYS
  6
CONTINUOUS
100
AcDbLine
 10
133.1235679233425
 20
82.55494966372129
 30
0.0
 11
133.1235679233425
 21
80.28072866372129
 31
0.0
  0
LINE
  5
4D9
330
1F
100
AcDbEntity
  8
OBRYS
  6
CONTINUOUS
100
AcDbLine
 10
134.7234699233425
 20
122.3550486637213
 30
0.0
 11
134.7234699233425
 21
120.0806296637213
 31
0.0
  0
LINE
  5
4DA
330
1F
100
AcDbEntity
  8
OBRYS
  6
CONTINUOUS
100
AcDbLine
 10
134.7234699233425
 20
120.0806296637213
 30
0.0
 11
136.7776409233425
 21
120.0798656637213
 31
0.0
  0
LINE
  5
4DB
330
1F
100
AcDbEntity
  8
OBRYS
  6
CONTINUOUS
100
AcDbLine
 10
139.9231529233425
 20
139.4553706637213
 30
0.0
 11
139.9231529233425
 21
137.1803066637213
 31
0.0
  0
LINE
  5
4DC
330
1F
100
AcDbEntity
  8
OBRYS
  6
CONTINUOUS
100
AcDbLine
 10
94.32549292334247
 20
82.8410946637213
 30
0.0
 11
94.12549292334246
 21
82.8410946637213
 31
0.0
  0
LINE
  5
4DD
330
1F
100
AcDbEntity
  8
OBRYS
  6
CONTINUOUS
100
AcDbLine
 10
94.12549292334246
 20
146.4576816637213
 30
0.0
 11
94.32549292334247
 21
146.4576816637213
 31
0.0
  0
LINE
  5
4DE
330
1F
100
AcDbEntity
  8
OBRYS
  6
CONTINUOUS
100
AcDbLine
 10
111.6754929233425
 20
155.2237086637213
 30
0.0
 11
111.8754929233425
 21
155.2237086637213
 31
0.0
  0
LINE
  5
4DF
330
1F
100
AcDbEntity
  8
OBRYS
  6
CONTINUOUS
100
AcDbLine
 10
111.8754929233425
 20
72.44109466372129
 30
0.0
 11
111.6754929233425
 21
72.44109466372129
 31
0.0
  0
LINE
  5
4E0
330
1F
100
AcDbEntity
  8
OBRYS
  6
CONTINUOUS
100
AcDbLine
 10
111.6754929233425
 20
70.80712166372129
 30
0.0
 11
111.8754929233425
 21
70.80712166372129
 31
0.0
  0
LINE
  5
4E1
330
1F
100
AcDbEntity
  8
OBRYS
  6
CONTINUOUS
100
AcDbLine
 10
118.4743469233425
 20
158.5534966637213
 30
0.0
 11
119.5309269233425
 21
158.7398006637213
 31
0.0
  0
LINE
  5
4E2
330
1F
100
AcDbEntity
  8
OBRYS
  6
CONTINUOUS
100
AcDbLine
 10
102.4585779233425
 20
148.5225506637213
 30
0.0
 11
111.8754929233425
 21
149.0317926637213
 31
0.0
  0
LINE
  5
4E3
330
1F
100
AcDbEntity
  8
OBRYS
  6
CONTINUOUS
100
AcDbLine
 10
94.12549292334246
 20
144.8228906637213
 30
0.0
 11
94.32549292334247
 21
144.8228906637213
 31
0.0
  0
LINE
  5
4E4
330
1F
100
AcDbEntity
  8
OBRYS
  6
CONTINUOUS
100
AcDbLine
 10
111.8754929233425
 20
156.8576816637213
 30
0.0
 11
111.6754929233425
 21
156.8576816637213
 31
0.0
  0
LINE
  5
4E5
330
1F
100
AcDbEntity
  8
OBRYS
  6
CONTINUOUS
100
AcDbLine
 10
94.12549292334246
 20
81.20630266372129
 30
0.0
 11
94.32549292334247
 21
81.20630266372129
 31
0.0
  0
LINE
  5
4EB
330
1F
100
AcDbEntity
  8
OBRYS
  6
CONTINUOUS
100
AcDbLine
 10
117.8775239233425
 20
70.6928146637213
 30
0.0
 11
117.8202129233425
 21
70.39797466372129
 31
0.0
  0
LINE
  5
4EC
330
1F
100
AcDbEntity
  8
OBRYS
  6
CONTINUOUS
100
AcDbLine
 10
119.0358149233425
 20
70.88765866372128
 30
0.0
 11
118.3396339233425
 21
71.01041466372129
 31
0.0
  0
LINE
  5
4ED
330
1F
100
AcDbEntity
  8
OBRYS
  6
CONTINUOUS
100
AcDbLine
 10
118.8968969233425
 20
70.09981266372128
 30
0.0
 11
118.7819359233425
 21
70.12008266372129
 31
0.0
  0
LINE
  5
4EE
330
1F
100
AcDbEntity
  8
OBRYS
  6
CONTINUOUS
100
AcDbLine
 10
113.4644809233425
 20
70.87230866372128
 30
0.0
 11
113.4287449233425
 21
70.46384066372129
 31
0.0
  0
LINE
  5
4EF
330
1F
100
AcDbEntity
  8
OBRYS
  6
CONTINUOUS
100
AcDbLine
 10
113.1850119233425
 20
71.10697166372128
 30
0.0
 11
113.2999719233425
 21
71.08670166372129
 31
0.0
  0
LINE
  5
4F0
330
1F
100
AcDbEntity
  8
OBRYS
  6
CONTINUOUS
100
AcDbLine
 10
113.3239299233425
 20
71.89481766372128
 30
0.0
 11
114.0201119233425
 21
71.77206266372129
 31
0.0
  0
LINE
  5
4F1
330
1F
100
AcDbEntity
  8
OBRYS
  6
CONTINUOUS
100
AcDbLine
 10
114.3457279233425
 20
71.31556566372129
 30
0.0
 11
114.2987409233425
 21
71.01890466372129
 31
0.0
  0
LINE
  5
4F2
330
1F
100
AcDbEntity
  8
OBRYS
  6
CONTINUOUS
100
AcDbLine
 10
100.3384829233425
 20
80.9830136637213
 30
0.0
 11
100.2811719233425
 21
80.68817366372129
 31
0.0
  0
LINE
  5
4F3
330
1F
100
AcDbEntity
  8
OBRYS
  6
CONTINUOUS
100
AcDbLine
 10
101.4967749233425
 20
81.17785766372128
 30
0.0
 11
100.8005929233425
 21
81.30061266372128
 31
0.0
  0
LINE
  5
4F4
330
1F
100
AcDbEntity
  8
OBRYS
  6
CONTINUOUS
100
AcDbLine
 10
101.3578559233425
 20
80.39001166372128
 30
0.0
 11
101.2428959233425
 21
80.41028166372129
 31
0.0
  0
LINE
  5
4F5
330
1F
100
AcDbEntity
  8
OBRYS
  6
CONTINUOUS
100
AcDbLine
 10
101.0149809233425
 20
80.26508366372128
 30
0.0
 11
100.9088579233425
 21
79.86902766372128
 31
0.0
  0
LINE
  5
4F6
330
1F
100
AcDbEntity
  8
OBRYS
  6
CONTINUOUS
100
AcDbLine
 10
95.92544092334246
 20
81.16250766372129
 30
0.0
 11
95.88970492334246
 21
80.75403966372129
 31
0.0
  0
LINE
  5
4F7
330
1F
100
AcDbEntity
  8
OBRYS
  6
CONTINUOUS
100
AcDbLine
 10
95.64597092334246
 20
81.39717066372128
 30
0.0
 11
95.76093192334245
 21
81.37689966372129
 31
0.0
  0
LINE
  5
4F8
330
1F
100
AcDbEntity
  8
OBRYS
  6
CONTINUOUS
100
AcDbLine
 10
95.78488992334246
 20
82.18501666372129
 30
0.0
 11
96.48107092334246
 21
82.06226166372129
 31
0.0
  0
LINE
  5
4F9
330
1F
100
AcDbEntity
  8
OBRYS
  6
CONTINUOUS
100
AcDbLine
 10
96.80668692334245
 20
81.60576466372129
 30
0.0
 11
96.75970092334246
 21
81.30910366372129
 31
0.0
  0
LINE
  5
4FA
330
1F
100
AcDbEntity
  8
OBRYS
  6
CONTINUOUS
100
AcDbLine
 10
137.6691299233425
 20
72.94372666372129
 30
0.0
 11
137.6691299233425
 21
78.63744866372129
 31
0.0
  0
LINE
  5
4FB
330
1F
100
AcDbEntity
  8
OBRYS
  6
CONTINUOUS
100
AcDbLine
 10
137.6691299233425
 20
78.63744866372129
 30
0.0
 11
136.8481839233424
 21
78.63744866372129
 31
0.0
  0
LINE
  5
4FC
330
1F
100
AcDbEntity
  8
OBRYS
  6
CONTINUOUS
100
AcDbLine
 10
136.8481839233424
 20
78.63744866372129
 30
0.0
 11
136.8481839233424
 21
80.34603566372128
 31
0.0
  0
LINE
  5
4FD
330
1F
100
AcDbEntity
  8
OBRYS
  6
CONTINUOUS
100
AcDbLine
 10
136.8290129233425
 20
80.34603566372128
 30
0.0
 11
139.1254929233424
 21
80.34603566372128
 31
0.0
  0
LINE
  5
4FE
330
1F
100
AcDbEntity
  8
OBRYS
  6
CONTINUOUS
100
AcDbLine
 10
139.1254929233424
 20
80.34603566372128
 30
0.0
 11
139.1254929233424
 21
82.5914186637213
 31
0.0
  0
LINE
  5
4FF
330
1F
100
AcDbEntity
  8
OBRYS
  6
CONTINUOUS
100
AcDbLine
 10
139.1254929233424
 20
82.5914186637213
 30
0.0
 11
136.8290129233425
 21
82.5914186637213
 31
0.0
  0
LINE
  5
500
330
1F
100
AcDbEntity
  8
OBRYS
  6
CONTINUOUS
100
AcDbLine
 10
136.8481839233424
 20
82.5914186637213
 30
0.0
 11
136.8481839233424
 21
91.3460356637213
 31
0.0
  0
LINE
  5
501
330
1F
100
AcDbEntity
  8
OBRYS
  6
CONTINUOUS
100
AcDbLine
 10
136.8290129233425
 20
91.3460356637213
 30
0.0
 11
139.1254929233424
 21
91.3460356637213
 31
0.0
  0
LINE
  5
502
330
1F
100
AcDbEntity
  8
OBRYS
  6
CONTINUOUS
100
AcDbLine
 10
139.1254929233424
 20
91.3460356637213
 30
0.0
 11
139.1254929233424
 21
93.5914186637213
 31
0.0
  0
LINE
  5
503
330
1F
100
AcDbEntity
  8
OBRYS
  6
CONTINUOUS
100
AcDbLine
 10
136.8290129233425
 20
82.5914186637213
 30
0.0
 11
136.8290129233425
 21
80.34603566372128
 31
0.0
  0
LINE
  5
504
330
1F
100
AcDbEntity
  8
OBRYS
  6
CONTINUOUS
100
AcDbLine
 10
136.8290129233425
 20
93.5722476637213
 30
0.0
 11
139.1254929233424
 21
93.5914186637213
 31
0.0
  0
LINE
  5
505
330
1F
100
AcDbEntity
  8
OBRYS
  6
CONTINUOUS
100
AcDbLine
 10
136.8290129233425
 20
93.5722476637213
 30
0.0
 11
136.8290129233425
 21
91.3460356637213
 31
0.0
  0
LINE
  5
506
330
1F
100
AcDbEntity
  8
OBRYS
  6
CONTINUOUS
100
AcDbLine
 10
136.8254929233425
 20
78.42655566372129
 30
0.0
 11
137.6254929233424
 21
78.41872666372129
 31
0.0
  0
LINE
  5
507
330
1F
100
AcDbEntity
  8
OBRYS
  6
CONTINUOUS
100
AcDbLine
 10
118.9272379233425
 20
106.9201776637213
 30
0.0
 11
117.8254929233425
 21
106.9009466637213
 31
0.0
  0
LINE
  5
508
330
1F
100
AcDbEntity
  8
OBRYS
  6
CONTINUOUS
100
AcDbLine
 10
116.7754929233425
 20
123.3111666637213
 30
0.0
 11
114.7254929233425
 21
123.3469496637213
 31
0.0
  0
LINE
  5
509
330
1F
100
AcDbEntity
  8
OBRYS
  6
CONTINUOUS
100
AcDbLine
 10
117.8254929233425
 20
129.3428386637213
 30
0.0
 11
117.8254929233425
 21
132.2178386637213
 31
0.0
  0
LINE
  5
50A
330
1F
100
AcDbEntity
  8
OBRYS
  6
CONTINUOUS
100
AcDbLine
 10
117.8254929233425
 20
120.7847316637213
 30
0.0
 11
118.9272379233425
 21
120.7655006637213
 31
0.0
  0
LINE
  5
50B
330
1F
100
AcDbEntity
  8
OBRYS
  6
CONTINUOUS
100
AcDbLine
 10
114.7254929233425
 20
115.9891106637213
 30
0.0
 11
117.8254929233425
 21
116.2603256637213
 31
0.0
  0
LINE
  5
50C
330
1F
100
AcDbEntity
  8
OBRYS
  6
CONTINUOUS
100
AcDbLine
 10
117.8254929233425
 20
116.2603256637213
 30
0.0
 11
117.8254929233425
 21
120.8428386637213
 31
0.0
  0
LINE
  5
50D
330
1F
100
AcDbEntity
  8
OBRYS
  6
CONTINUOUS
100
AcDbLine
 10
116.8254929233425
 20
132.2352946637213
 30
0.0
 11
117.8254929233425
 21
132.2178386637213
 31
0.0
  0
LINE
  5
50E
330
1F
100
AcDbEntity
  8
OBRYS
  6
CONTINUOUS
100
AcDbLine
 10
116.8254929233425
 20
136.3253836637213
 30
0.0
 11
118.9237479233425
 21
136.3620096637213
 31
0.0
  0
LINE
  5
50F
330
1F
100
AcDbEntity
  8
OBRYS
  6
CONTINUOUS
100
AcDbLine
 10
118.9272379233425
 20
129.4201776637213
 30
0.0
 11
117.8254929233425
 21
129.4009466637213
 31
0.0
  0
LINE
  5
510
330
1F
100
AcDbEntity
  8
OBRYS
  6
CONTINUOUS
100
AcDbLine
 10
114.7254929233425
 20
115.1738476637213
 30
0.0
 11
114.7254929233425
 21
115.9891106637213
 31
0.0
  0
LINE
  5
511
330
1F
100
AcDbEntity
  8
OBRYS
  6
CONTINUOUS
100
AcDbLine
 10
115.7253409233425
 20
114.9794976637213
 30
0.0
 11
116.8254929233425
 21
114.9602946637213
 31
0.0
  0
LINE
  5
512
330
1F
100
AcDbEntity
  8
OBRYS
  6
CONTINUOUS
100
AcDbLine
 10
116.8254929233425
 20
112.7253836637213
 30
0.0
 11
116.8254929233425
 21
114.9602946637213
 31
0.0
  0
LINE
  5
513
330
1F
100
AcDbEntity
  8
OBRYS
  6
CONTINUOUS
100
AcDbLine
 10
116.8254929233425
 20
132.2352946637213
 30
0.0
 11
116.8254929233425
 21
136.2253996637213
 31
0.0
  0
LINE
  5
514
330
1F
100
AcDbEntity
  8
OBRYS
  6
CONTINUOUS
100
AcDbLine
 10
117.8254929233425
 20
106.8428386637213
 30
0.0
 11
117.8254929233425
 21
111.4253526637213
 31
0.0
  0
LINE
  5
515
330
1F
100
AcDbEntity
  8
OBRYS
  6
CONTINUOUS
100
AcDbLine
 10
116.3191049233425
 20
100.8191336637213
 30
0.0
 11
116.3191049233425
 21
104.3665446637213
 31
0.0
  0
LINE
  5
516
330
1F
100
AcDbEntity
  8
OBRYS
  6
CONTINUOUS
100
AcDbLine
 10
115.7253409233425
 20
112.7061806637213
 30
0.0
 11
116.8254929233425
 21
112.7253836637213
 31
0.0
  0
LINE
  5
517
330
1F
100
AcDbEntity
  8
OBRYS
  6
CONTINUOUS
100
AcDbLine
 10
114.7254929233425
 20
111.6965676637213
 30
0.0
 11
117.8254929233425
 21
111.4253526637213
 31
0.0
  0
LINE
  5
518
330
1F
100
AcDbEntity
  8
OBRYS
  6
CONTINUOUS
100
AcDbLine
 10
116.8254929233425
 20
91.36029466372128
 30
0.0
 11
116.8254929233425
 21
95.45038366372128
 31
0.0
  0
LINE
  5
519
330
1F
100
AcDbEntity
  8
OBRYS
  6
CONTINUOUS
100
AcDbLine
 10
118.9237479233425
 20
91.32366866372129
 30
0.0
 11
116.8254929233425
 21
91.36029466372128
 31
0.0
  0
LINE
  5
51A
330
1F
100
AcDbEntity
  8
OBRYS
  6
CONTINUOUS
100
AcDbLine
 10
114.7254929233425
 20
115.1738476637213
 30
0.0
 11
115.7253409233425
 21
114.9794976637213
 31
0.0
  0
LINE
  5
51B
330
1F
100
AcDbEntity
  8
OBRYS
  6
CONTINUOUS
100
AcDbLine
 10
119.0254929233425
 20
98.1655156637213
 30
0.0
 11
119.0254929233425
 21
91.4236536637213
 31
0.0
  0
LINE
  5
51C
330
1F
100
AcDbEntity
  8
OBRYS
  6
CONTINUOUS
100
AcDbLine
 10
117.8254929233425
 20
95.4678386637213
 30
0.0
 11
117.8254929233425
 21
98.3428386637213
 31
0.0
  0
LINE
  5
51D
330
1F
100
AcDbEntity
  8
OBRYS
  6
CONTINUOUS
100
AcDbLine
 10
117.8254929233425
 20
98.28473166372129
 30
0.0
 11
118.9272379233425
 21
98.2655006637213
 31
0.0
  0
LINE
  5
51E
330
1F
100
AcDbEntity
  8
OBRYS
  6
CONTINUOUS
100
AcDbLine
 10
116.7754929233425
 20
126.8745116637213
 30
0.0
 11
116.7754929233425
 21
123.3111666637213
 31
0.0
  0
LINE
  5
51F
330
1F
100
AcDbEntity
  8
OBRYS
  6
CONTINUOUS
100
AcDbLine
 10
114.7254929233425
 20
111.6965676637213
 30
0.0
 11
114.7254929233425
 21
112.5118296637213
 31
0.0
  0
LINE
  5
520
330
1F
100
AcDbEntity
  8
OBRYS
  6
CONTINUOUS
100
AcDbLine
 10
114.7254929233425
 20
126.8387286637213
 30
0.0
 11
114.7254929233425
 21
123.3469496637213
 31
0.0
  0
LINE
  5
521
330
1F
100
AcDbEntity
  8
OBRYS
  6
CONTINUOUS
100
AcDbLine
 10
116.7754929233425
 20
100.8191336637213
 30
0.0
 11
114.7254929233425
 21
100.8469496637213
 31
0.0
  0
LINE
  5
522
330
1F
100
AcDbEntity
  8
OBRYS
  6
CONTINUOUS
100
AcDbLine
 10
116.7754929233425
 20
104.3745116637213
 30
0.0
 11
116.7754929233425
 21
100.8111666637213
 31
0.0
  0
LINE
  5
523
330
1F
100
AcDbEntity
  8
OBRYS
  6
CONTINUOUS
100
AcDbLine
 10
116.8254929233425
 20
95.45038366372128
 30
0.0
 11
117.8254929233425
 21
95.4678386637213
 31
0.0
  0
LINE
  5
524
330
1F
100
AcDbEntity
  8
OBRYS
  6
CONTINUOUS
100
AcDbLine
 10
119.0254929233425
 20
120.6655156637213
 30
0.0
 11
119.0254929233425
 21
107.0201626637213
 31
0.0
  0
LINE
  5
525
330
1F
100
AcDbEntity
  8
OBRYS
  6
CONTINUOUS
100
AcDbLine
 10
119.0254929233425
 20
136.2620246637213
 30
0.0
 11
119.0254929233425
 21
129.5201626637213
 31
0.0
  0
LINE
  5
526
330
1F
100
AcDbEntity
  8
OBRYS
  6
CONTINUOUS
100
AcDbLine
 10
115.7253409233425
 20
112.7061806637213
 30
0.0
 11
114.7254929233425
 21
112.5118296637213
 31
0.0
  0
LINE
  5
527
330
1F
100
AcDbEntity
  8
OBRYS
  6
CONTINUOUS
100
AcDbLine
 10
116.3191049233425
 20
123.3191336637213
 30
0.0
 11
116.3191049233425
 21
126.8665446637213
 31
0.0
  0
LINE
  5
528
330
1F
100
AcDbEntity
  8
OBRYS
  6
CONTINUOUS
100
AcDbLine
 10
114.7254929233425
 20
104.3387286637213
 30
0.0
 11
114.7254929233425
 21
100.8469496637213
 31
0.0
  0
LINE
  5
529
330
1F
100
AcDbEntity
  8
OBRYS
  6
CONTINUOUS
100
AcDbLine
 10
114.7254929233425
 20
104.3387286637213
 30
0.0
 11
116.7754929233425
 21
104.3745116637213
 31
0.0
  0
LINE
  5
52A
330
1F
100
AcDbEntity
  8
OBRYS
  6
CONTINUOUS
100
AcDbLine
 10
114.7254929233425
 20
126.8387286637213
 30
0.0
 11
116.7754929233425
 21
126.8745116637213
 31
0.0
  0
LINE
  5
52B
330
1F
100
AcDbEntity
  8
OBRYS
  6
CONTINUOUS
100
AcDbLine
 10
95.90011992334246
 20
146.5561916637213
 30
0.0
 11
95.86438292334246
 21
146.9646596637213
 31
0.0
  0
LINE
  5
52C
330
1F
100
AcDbEntity
  8
OBRYS
  6
CONTINUOUS
100
AcDbLine
 10
95.62064992334246
 20
146.3215276637213
 30
0.0
 11
95.73560992334247
 21
146.3417986637213
 31
0.0
  0
LINE
  5
52D
330
1F
100
AcDbEntity
  8
OBRYS
  6
CONTINUOUS
100
AcDbLine
 10
96.78136592334246
 20
146.1129346637213
 30
0.0
 11
96.73437892334246
 21
146.4095946637213
 31
0.0
  0
LINE
  5
52E
330
1F
100
AcDbEntity
  8
OBRYS
  6
CONTINUOUS
100
AcDbLine
 10
95.75956792334246
 20
145.5336816637213
 30
0.0
 11
96.45574992334247
 21
145.6564376637213
 31
0.0
  0
LINE
  5
52F
330
1F
100
AcDbEntity
  8
OBRYS
  6
CONTINUOUS
100
AcDbLine
 10
100.3131619233425
 20
146.7356846637213
 30
0.0
 11
100.2558509233425
 21
147.0305246637213
 31
0.0
  0
LINE
  5
530
330
1F
100
AcDbEntity
  8
OBRYS
  6
CONTINUOUS
100
AcDbLine
 10
100.9896599233425
 20
147.4536146637213
 30
0.0
 11
100.8835369233425
 21
147.8496716637213
 31
0.0
  0
LINE
  5
531
330
1F
100
AcDbEntity
  8
OBRYS
  6
CONTINUOUS
100
AcDbLine
 10
113.1778799233425
 20
156.6266366637213
 30
0.0
 11
113.2928409233425
 21
156.6469076637213
 31
0.0
  0
LINE
  5
532
330
1F
100
AcDbEntity
  8
OBRYS
  6
CONTINUOUS
100
AcDbLine
 10
114.3385959233425
 20
156.4180436637213
 30
0.0
 11
114.2916099233425
 21
156.7147036637213
 31
0.0
  0
LINE
  5
533
330
1F
100
AcDbEntity
  8
OBRYS
  6
CONTINUOUS
100
AcDbLine
 10
113.3167989233425
 20
155.8387906637213
 30
0.0
 11
114.0129799233425
 21
155.9615466637213
 31
0.0
  0
LINE
  5
534
330
1F
100
AcDbEntity
  8
OBRYS
  6
CONTINUOUS
100
AcDbLine
 10
117.8703919233425
 20
157.0407946637213
 30
0.0
 11
117.8130809233425
 21
157.3356346637213
 31
0.0
  0
LINE
  5
535
330
1F
100
AcDbEntity
  8
OBRYS
  6
CONTINUOUS
100
AcDbLine
 10
101.4714529233425
 20
146.5408416637213
 30
0.0
 11
100.7752719233425
 21
146.4180856637213
 31
0.0
  0
LINE
  5
536
330
1F
100
AcDbEntity
  8
OBRYS
  6
CONTINUOUS
100
AcDbLine
 10
144.5254929233425
 20
91.45940066372128
 30
0.0
 11
144.5254929233425
 21
91.45940066372128
 31
0.0
  0
LINE
  5
538
330
1F
100
AcDbEntity
  8
OBRYS
  6
CONTINUOUS
100
AcDbLine
 10
119.0286839233425
 20
156.8459506637213
 30
0.0
 11
118.3325029233425
 21
156.7231946637213
 31
0.0
  0
LINE
  5
539
330
1F
100
AcDbEntity
  8
OBRYS
  6
CONTINUOUS
100
AcDbLine
 10
113.4573499233425
 20
156.8613006637213
 30
0.0
 11
113.4216139233425
 21
157.2697686637213
 31
0.0
  0
LINE
  5
53A
330
1F
100
AcDbEntity
  8
OBRYS
  6
CONTINUOUS
100
AcDbLine
 10
101.3325349233425
 20
147.3286876637213
 30
0.0
 11
101.2175749233425
 21
147.3084166637213
 31
0.0
  0
LINE
  5
53B
330
1F
100
AcDbEntity
  8
OBRYS
  6
CONTINUOUS
100
AcDbLine
 10
118.8897649233425
 20
157.6337966637213
 30
0.0
 11
118.7748049233425
 21
157.6135256637213
 31
0.0
  0
LINE
  5
53C
330
1F
100
AcDbEntity
  8
OBRYS
  6
CONTINUOUS
100
AcDbLine
 10
94.12549292334246
 20
144.8228906637213
 30
0.0
 11
94.12549292334246
 21
146.4576816637213
 31
0.0
  0
LINE
  5
53E
330
1F
100
AcDbEntity
  8
OBRYS
  6
CONTINUOUS
100
AcDbLine
 10
116.8254929233425
 20
136.2253996637213
 30
0.0
 11
116.8254929233425
 21
136.3253836637213
 31
0.0
  0
LINE
  5
540
330
1F
100
AcDbEntity
  8
OBRYS
  6
CONTINUOUS
100
AcDbLine
 10
94.12549292334246
 20
82.8410946637213
 30
0.0
 11
94.12549292334246
 21
81.20629966372128
 31
0.0
  0
LINE
  5
541
330
1F
100
AcDbEntity
  8
OBRYS
  6
CONTINUOUS
100
AcDbLine
 10
184.5062169233425
 20
136.9522016637213
 30
0.0
 11
184.5062169233425
 21
136.3428436637213
 31
0.0
  0
LINE
  5
542
330
1F
100
AcDbEntity
  8
OBRYS
  6
CONTINUOUS
100
AcDbLine
 10
184.6062019233425
 20
137.0521866637213
 30
0.0
 11
186.0249269233425
 21
137.0521866637213
 31
0.0
  0
LINE
  5
543
330
1F
100
AcDbEntity
  8
OBRYS
  6
CONTINUOUS
100
AcDbLine
 10
186.1249109233425
 20
136.9522016637213
 30
0.0
 11
186.1249109233425
 21
136.3428436637213
 31
0.0
  0
LINE
  5
544
330
1F
100
AcDbEntity
  8
OBRYS
  6
CONTINUOUS
100
AcDbLine
 10
181.7655639233425
 20
135.3362256637213
 30
0.0
 11
181.7655639233425
 21
92.34945266372128
 31
0.0
  0
LINE
  5
545
330
1F
100
AcDbEntity
  8
OBRYS
  6
CONTINUOUS
100
AcDbLine
 10
186.7323579233424
 20
158.3049266637213
 30
0.0
 11
186.7365709233425
 21
158.5463296637213
 31
0.0
  0
LINE
  5
546
330
1F
100
AcDbEntity
  8
OBRYS
  6
CONTINUOUS
100
AcDbLine
 10
199.1655639233425
 20
68.94283866372129
 30
0.0
 11
181.7655639233425
 21
68.94283866372129
 31
0.0
  0
LINE
  5
547
330
1F
100
AcDbEntity
  8
OBRYS
  6
CONTINUOUS
100
AcDbLine
 10
199.1655639233425
 20
92.34945266372128
 30
0.0
 11
199.1655639233425
 21
135.3362256637213
 31
0.0
  0
LINE
  5
548
330
1F
100
AcDbEntity
  8
OBRYS
  6
CONTINUOUS
100
AcDbLine
 10
197.0323579233425
 20
158.3049276637213
 30
0.0
 11
197.036571381958
 21
158.5463290101932
 31
0.0
  0
LINE
  5
549
330
1F
100
AcDbEntity
  8
OBRYS
  6
CONTINUOUS
100
AcDbLine
 10
188.9374879233425
 20
89.56988666372129
 30
0.0
 11
188.8910629233425
 21
91.34279066372127
 31
0.0
  0
LINE
  5
54A
330
1F
100
AcDbEntity
  8
OBRYS
  6
CONTINUOUS
100
AcDbLine
 10
188.4736679233424
 20
138.3790056637213
 30
0.0
 11
192.4574609233425
 21
138.3790056637213
 31
0.0
  0
LINE
  5
54B
330
1F
100
AcDbEntity
  8
OBRYS
  6
CONTINUOUS
100
AcDbLine
 10
194.8062169233424
 20
136.9522016637213
 30
0.0
 11
194.8062169233424
 21
136.3428436637213
 31
0.0
  0
LINE
  5
54C
330
1F
100
AcDbEntity
  8
OBRYS
  6
CONTINUOUS
100
AcDbLine
 10
183.5297063582916
 20
74.66815039111846
 30
0.0
 11
187.1014282724267
 21
74.66815039111846
 31
0.0
  0
LINE
  5
54D
330
1F
100
AcDbEntity
  8
OBRYS
  6
CONTINUOUS
100
AcDbLine
 10
188.8834609233425
 20
148.3228426637213
 30
0.0
 11
188.8703829233424
 21
147.9998176637213
 31
0.0
  0
LINE
  5
54E
330
1F
100
AcDbEntity
  8
OBRYS
  6
CONTINUOUS
100
AcDbLine
 10
192.4574609233425
 20
90.75336266372128
 30
0.0
 11
192.4574609233425
 21
89.30667266372129
 31
0.0
  0
LINE
  5
54F
330
1F
100
AcDbEntity
  8
OBRYS
  6
CONTINUOUS
100
AcDbLine
 10
189.0487709233425
 20
158.3049266637213
 30
0.0
 11
189.0445569233425
 21
158.5463296637213
 31
0.0
  0
LINE
  5
550
330
1F
100
AcDbEntity
  8
OBRYS
  6
CONTINUOUS
100
AcDbLine
 10
188.4736679233424
 20
136.9323156637213
 30
0.0
 11
188.4736679233424
 21
138.3790056637213
 31
0.0
  0
LINE
  5
551
330
1F
100
AcDbEntity
  8
OBRYS
  6
CONTINUOUS
100
AcDbLine
 10
181.7655639233425
 20
70.05564366372128
 30
0.0
 11
199.1655639233425
 21
70.05564366372128
 31
0.0
  0
LINE
  5
552
330
1F
100
AcDbEntity
  8
OBRYS
  6
CONTINUOUS
100
AcDbLine
 10
199.3655639233424
 20
158.3049276637213
 30
0.0
 11
181.5655639233425
 21
158.3049276637213
 31
0.0
  0
LINE
  5
553
330
1F
100
AcDbEntity
  8
OBRYS
  6
CONTINUOUS
100
AcDbLine
 10
197.0365709233425
 20
69.1393486637213
 30
0.0
 11
197.0315209233425
 21
69.42867966372128
 31
0.0
  0
LINE
  5
554
330
1F
100
AcDbEntity
  8
OBRYS
  6
CONTINUOUS
100
AcDbLine
 10
188.4736679233424
 20
89.30667266372129
 30
0.0
 11
188.4736679233424
 21
90.75336266372128
 31
0.0
  0
LINE
  5
555
330
1F
100
AcDbEntity
  8
OBRYS
  6
CONTINUOUS
100
AcDbLine
 10
198.0655639233425
 20
136.3428386637213
 30
0.0
 11
182.8655639233424
 21
136.3428386637213
 31
0.0
  0
LINE
  5
557
330
1F
100
AcDbEntity
  8
OBRYS
  6
CONTINUOUS
100
AcDbLine
 10
183.8996079233425
 20
69.42867966372128
 30
0.0
 11
183.8945569233425
 21
69.1393486637213
 31
0.0
  0
LINE
  5
558
330
1F
100
AcDbEntity
  8
OBRYS
  6
CONTINUOUS
100
AcDbLine
 10
194.9062019233425
 20
137.0521866637213
 30
0.0
 11
196.3249269233425
 21
137.0521866637213
 31
0.0
  0
LINE
  5
559
330
1F
100
AcDbEntity
  8
OBRYS
  6
CONTINUOUS
100
AcDbLine
 10
196.4249109233425
 20
136.9522016637213
 30
0.0
 11
196.4249109233425
 21
136.3428436637213
 31
0.0
  0
LINE
  5
55A
330
1F
100
AcDbEntity
  8
OBRYS
  6
CONTINUOUS
100
AcDbLine
 10
182.8655639233424
 20
91.3428386637213
 30
0.0
 11
198.0655639233425
 21
91.3428386637213
 31
0.0
  0
LINE
  5
55B
330
1F
100
AcDbEntity
  8
OBRYS
  6
CONTINUOUS
100
AcDbLine
 10
192.4574609233425
 20
138.3790056637213
 30
0.0
 11
192.4574609233425
 21
136.9323156637213
 31
0.0
  0
LINE
  5
55C
330
1F
100
AcDbEntity
  8
OBRYS
  6
CONTINUOUS
100
AcDbLine
 10
192.4574609233425
 20
89.30667266372129
 30
0.0
 11
188.4736679233424
 21
89.30667266372129
 31
0.0
  0
LINE
  5
55D
330
1F
100
AcDbEntity
  8
OBRYS
  6
CONTINUOUS
100
AcDbLine
 10
181.5655639233425
 20
69.42868166372129
 30
0.0
 11
199.3655639233424
 21
69.42868166372129
 31
0.0
  0
LINE
  5
55E
330
1F
100
AcDbEntity
  8
OBRYS
  6
CONTINUOUS
100
AcDbLine
 10
194.1945569233424
 20
158.5463296637213
 30
0.0
 11
194.1987709233425
 21
158.3049266637213
 31
0.0
  0
LINE
  5
55F
330
1F
100
AcDbEntity
  8
OBRYS
  6
CONTINUOUS
100
AcDbLine
 10
181.5655639233425
 20
79.71887966372128
 30
0.0
 11
199.3655639233424
 21
79.71887966372128
 31
0.0
  0
LINE
  5
560
330
1F
100
AcDbEntity
  8
OBRYS
  6
CONTINUOUS
100
AcDbLine
 10
187.1025551097945
 20
75.51752743969277
 30
0.0
 11
183.5285714405703
 21
75.51752742730078
 31
0.0
  0
LINE
  5
561
330
1F
100
AcDbEntity
  8
OBRYS
  6
CONTINUOUS
100
AcDbLine
 10
192.0400659233425
 20
91.34279066372127
 30
0.0
 11
191.9936409233425
 21
89.56988666372129
 31
0.0
  0
LINE
  5
562
330
1F
100
AcDbEntity
  8
OBRYS
  6
CONTINUOUS
100
AcDbLine
 10
188.6736599233425
 20
138.1790516637213
 30
0.0
 11
188.6736599233425
 21
136.4428386637213
 31
0.0
  0
LINE
  5
563
330
1F
100
AcDbEntity
  8
OBRYS
  6
CONTINUOUS
100
AcDbLine
 10
192.2574679233425
 20
89.50662666372128
 30
0.0
 11
192.2574679233425
 21
91.13924666372128
 31
0.0
  0
LINE
  5
564
330
1F
100
AcDbEntity
  8
OBRYS
  6
CONTINUOUS
100
AcDbLine
 10
181.7655639233133
 20
80.35564306380587
 30
0.0
 11
199.1655639233425
 21
80.35564366372128
 31
0.0
  0
LINE
  5
565
330
1F
100
AcDbEntity
  8
OBRYS
  6
CONTINUOUS
100
AcDbLine
 10
188.9374879233425
 20
138.1157916637213
 30
0.0
 11
191.9936409233425
 21
138.1157916637213
 31
0.0
  0
LINE
  5
566
330
1F
100
AcDbEntity
  8
OBRYS
  6
CONTINUOUS
100
AcDbLine
 10
188.9374879233425
 20
89.56988666372129
 30
0.0
 11
191.9936409233425
 21
89.56988666372129
 31
0.0
  0
LINE
  5
567
330
1F
100
AcDbEntity
  8
OBRYS
  6
CONTINUOUS
100
AcDbLine
 10
194.7655639233425
 20
137.0928386637213
 30
0.0
 11
194.7655639233425
 21
136.4428386637213
 31
0.0
  0
LINE
  5
568
330
1F
100
AcDbEntity
  8
OBRYS
  6
CONTINUOUS
100
AcDbLine
 10
188.6736599233425
 20
91.13924666372128
 30
0.0
 11
181.7655639233425
 21
91.13924666372128
 31
0.0
  0
LINE
  5
569
330
1F
100
AcDbEntity
  8
OBRYS
  6
CONTINUOUS
100
AcDbLine
 10
186.1655639233425
 20
136.4428386637213
 30
0.0
 11
186.1655639233425
 21
137.0928386637213
 31
0.0
  0
LINE
  5
56A
330
1F
100
AcDbEntity
  8
OBRYS
  6
CONTINUOUS
100
AcDbLine
 10
196.4655639233425
 20
136.4428386637213
 30
0.0
 11
196.4655639233425
 21
137.0928386637213
 31
0.0
  0
LINE
  5
56B
330
1F
100
AcDbEntity
  8
OBRYS
  6
CONTINUOUS
100
AcDbLine
 10
186.1655639233425
 20
137.0928386637213
 30
0.0
 11
184.4655639233425
 21
137.0928386637213
 31
0.0
  0
LINE
  5
56C
330
1F
100
AcDbEntity
  8
OBRYS
  6
CONTINUOUS
100
AcDbLine
 10
184.4655639233425
 20
137.0928386637213
 30
0.0
 11
184.4655639233425
 21
136.4428386637213
 31
0.0
  0
LINE
  5
56D
330
1F
100
AcDbEntity
  8
OBRYS
  6
CONTINUOUS
100
AcDbLine
 10
196.4655639233425
 20
137.0928386637213
 30
0.0
 11
194.7655639233425
 21
137.0928386637213
 31
0.0
  0
LINE
  5
56E
330
1F
100
AcDbEntity
  8
OBRYS
  6
CONTINUOUS
100
AcDbLine
 10
199.3655639233424
 20
147.9998186637213
 30
0.0
 11
181.5655639233425
 21
147.9998186637213
 31
0.0
  0
LINE
  5
56F
330
1F
100
AcDbEntity
  8
OBRYS
  6
CONTINUOUS
100
AcDbLine
 10
184.4655639233425
 20
136.4428386637213
 30
0.0
 11
181.7655639233425
 21
136.4428386637213
 31
0.0
  0
LINE
  5
570
330
1F
100
AcDbEntity
  8
OBRYS
  6
CONTINUOUS
100
AcDbLine
 10
192.0608329233425
 20
147.9998186637213
 30
0.0
 11
192.0476669233425
 21
148.3228426637213
 31
0.0
  0
LINE
  5
571
330
1F
100
AcDbEntity
  8
OBRYS
  6
CONTINUOUS
100
AcDbLine
 10
188.8702949233425
 20
79.71887966372128
 30
0.0
 11
188.8834609233425
 21
79.36283566372128
 31
0.0
  0
LINE
  5
572
330
1F
100
AcDbEntity
  8
OBRYS
  6
CONTINUOUS
100
AcDbLine
 10
196.4655639233425
 20
136.4428386637213
 30
0.0
 11
199.1655639236972
 21
136.4428386637213
 31
0.0
  0
LINE
  5
573
330
1F
100
AcDbEntity
  8
OBRYS
  6
CONTINUOUS
100
AcDbLine
 10
186.1655639233425
 20
136.4428386637213
 30
0.0
 11
188.6736599233425
 21
136.4428386637213
 31
0.0
  0
LINE
  5
574
330
1F
100
AcDbEntity
  8
OBRYS
  6
CONTINUOUS
100
AcDbLine
 10
192.2574679233425
 20
136.4428386637213
 30
0.0
 11
194.7655639233425
 21
136.4428386637213
 31
0.0
  0
LINE
  5
575
330
1F
100
AcDbEntity
  8
OBRYS
  6
CONTINUOUS
100
AcDbLine
 10
192.0476669233425
 20
79.36283566372128
 30
0.0
 11
192.0608329233425
 21
79.71887966372128
 31
0.0
  0
LINE
  5
576
330
1F
100
AcDbEntity
  8
OBRYS
  6
CONTINUOUS
100
AcDbLine
 10
189.0496079233424
 20
69.42867866372129
 30
0.0
 11
189.0445574623737
 21
69.13934818243384
 31
0.0
  0
LINE
  5
577
330
1F
100
AcDbEntity
  8
OBRYS
  6
CONTINUOUS
100
AcDbLine
 10
181.7655639233425
 20
157.6300346637213
 30
0.0
 11
199.1675432797768
 21
157.6300250176893
 31
0.0
  0
LINE
  5
578
330
1F
100
AcDbEntity
  8
OBRYS
  6
CONTINUOUS
100
AcDbLine
 10
194.1996079233425
 20
69.42867966372128
 30
0.0
 11
194.1945574623738
 21
69.13934818243384
 31
0.0
  0
LINE
  5
579
330
1F
100
AcDbEntity
  8
OBRYS
  6
CONTINUOUS
100
AcDbLine
 10
186.7365709233425
 20
69.1393486637213
 30
0.0
 11
186.7315209233425
 21
69.42867966372128
 31
0.0
  0
LINE
  5
57A
330
1F
100
AcDbEntity
  8
OBRYS
  6
CONTINUOUS
100
AcDbLine
 10
191.8865713843112
 20
158.5463291450087
 30
0.0
 11
191.8823579233425
 21
158.3049266637213
 31
0.0
  0
LINE
  5
57B
330
1F
100
AcDbEntity
  8
OBRYS
  6
CONTINUOUS
100
AcDbLine
 10
183.8945569233425
 20
158.5463296637213
 30
0.0
 11
183.8987709233425
 21
158.3049276637213
 31
0.0
  0
LINE
  5
57C
330
1F
100
AcDbEntity
  8
OBRYS
  6
CONTINUOUS
100
AcDbLine
 10
191.8865713959905
 20
69.13934751339198
 30
0.0
 11
191.8815209233425
 21
69.42867866372129
 31
0.0
  0
LINE
  5
57D
330
1F
100
AcDbEntity
  8
OBRYS
  6
CONTINUOUS
100
AcDbLine
 10
192.2576019233425
 20
138.1792796637213
 30
0.0
 11
188.6735269233425
 21
138.1792796637213
 31
0.0
  0
LINE
  5
57E
330
1F
100
AcDbEntity
  8
OBRYS
  6
CONTINUOUS
100
AcDbLine
 10
192.2574679233425
 20
136.4428386637213
 30
0.0
 11
192.2574679233425
 21
138.1790516637213
 31
0.0
  0
LINE
  5
57F
330
1F
100
AcDbEntity
  8
OBRYS
  6
CONTINUOUS
100
AcDbLine
 10
188.6735269233425
 20
89.50639866372128
 30
0.0
 11
192.2576019233425
 21
89.50639866372128
 31
0.0
  0
LINE
  5
580
330
1F
100
AcDbEntity
  8
OBRYS
  6
CONTINUOUS
100
AcDbLine
 10
188.6736599233425
 20
91.13924666372128
 30
0.0
 11
188.6736599233425
 21
89.50662666372128
 31
0.0
  0
LINE
  5
581
330
1F
100
AcDbEntity
  8
OBRYS
  6
CONTINUOUS
100
AcDbLine
 10
188.4736679233424
 20
90.75336266372128
 30
0.0
 11
181.5655639233425
 21
90.75336266372128
 31
0.0
  0
LINE
  5
582
330
1F
100
AcDbEntity
  8
OBRYS
  6
CONTINUOUS
100
AcDbLine
 10
199.3655639233424
 20
90.75336266372128
 30
0.0
 11
192.4574609233425
 21
90.75336266372128
 31
0.0
  0
LINE
  5
583
330
1F
100
AcDbEntity
  8
OBRYS
  6
CONTINUOUS
100
AcDbLine
 10
181.5655639233425
 20
80.76355766372129
 30
0.0
 11
199.3655639233424
 21
80.76355766372129
 31
0.0
  0
LINE
  5
584
330
1F
100
AcDbEntity
  8
OBRYS
  6
CONTINUOUS
100
AcDbLine
 10
194.2450899233424
 20
137.6133126637213
 30
0.0
 11
196.9860379233425
 21
137.6133126637213
 31
0.0
  0
LINE
  5
585
330
1F
100
AcDbEntity
  8
OBRYS
  6
CONTINUOUS
100
AcDbLine
 10
194.2450899233424
 20
136.9323156637213
 30
0.0
 11
194.2450899233424
 21
137.6133126637213
 31
0.0
  0
LINE
  5
586
330
1F
100
AcDbEntity
  8
OBRYS
  6
CONTINUOUS
100
AcDbLine
 10
192.4574609233425
 20
136.9323156637213
 30
0.0
 11
194.2450899233424
 21
136.9323156637213
 31
0.0
  0
LINE
  5
587
330
1F
100
AcDbEntity
  8
OBRYS
  6
CONTINUOUS
100
AcDbLine
 10
186.6860379233425
 20
136.9323156637213
 30
0.0
 11
188.4736679233424
 21
136.9323156637213
 31
0.0
  0
LINE
  5
588
330
1F
100
AcDbEntity
  8
OBRYS
  6
CONTINUOUS
100
AcDbLine
 10
186.6860379233425
 20
137.6133126637213
 30
0.0
 11
186.6860379233425
 21
136.9323156637213
 31
0.0
  0
LINE
  5
589
330
1F
100
AcDbEntity
  8
OBRYS
  6
CONTINUOUS
100
AcDbLine
 10
183.9450899233425
 20
137.6133126637213
 30
0.0
 11
186.6860379233425
 21
137.6133126637213
 31
0.0
  0
LINE
  5
58A
330
1F
100
AcDbEntity
  8
OBRYS
  6
CONTINUOUS
100
AcDbLine
 10
183.9450899233425
 20
136.9323156637213
 30
0.0
 11
183.9450899233425
 21
137.6133126637213
 31
0.0
  0
LINE
  5
58B
330
1F
100
AcDbEntity
  8
OBRYS
  6
CONTINUOUS
100
AcDbLine
 10
181.5655639233425
 20
136.9323156637213
 30
0.0
 11
183.9450899233425
 21
136.9323156637213
 31
0.0
  0
LINE
  5
58C
330
1F
100
AcDbEntity
  8
OBRYS
  6
CONTINUOUS
100
AcDbLine
 10
199.3655639233424
 20
146.9221206637213
 30
0.0
 11
181.5655639233425
 21
146.9221206637213
 31
0.0
  0
LINE
  5
58D
330
1F
100
AcDbEntity
  8
OBRYS
  6
CONTINUOUS
100
AcDbLine
 10
196.9860379233425
 20
136.9323156637213
 30
0.0
 11
199.3655639233424
 21
136.9323156637213
 31
0.0
  0
LINE
  5
58E
330
1F
100
AcDbEntity
  8
OBRYS
  6
CONTINUOUS
100
AcDbLine
 10
196.9860379233425
 20
137.6133126637213
 30
0.0
 11
196.9860379233425
 21
136.9323156637213
 31
0.0
  0
LINE
  5
58F
330
1F
100
AcDbEntity
  8
OBRYS
  6
CONTINUOUS
100
AcDbLine
 10
181.7655639302836
 20
147.3300352636385
 30
0.0
 11
199.1655639233425
 21
147.3300346637213
 31
0.0
  0
LINE
  5
590
330
1F
100
AcDbEntity
  8
OBRYS
  6
CONTINUOUS
100
AcDbLine
 10
199.1655639233425
 20
91.13924666372128
 30
0.0
 11
192.2574679233425
 21
91.13924666372128
 31
0.0
  0
LINE
  5
591
330
1F
100
AcDbEntity
  8
OBRYS
  6
CONTINUOUS
100
AcDbLine
 10
194.0204672240092
 20
79.71887966372128
 30
0.0
 11
194.0334609233425
 21
79.36283566372128
 31
0.0
  0
LINE
  5
592
330
1F
100
AcDbEntity
  8
OBRYS
  6
CONTINUOUS
100
AcDbLine
 10
194.0334609233425
 20
148.3228426637213
 30
0.0
 11
194.0203249233425
 21
147.9998186637213
 31
0.0
  0
LINE
  5
593
330
1F
100
AcDbEntity
  8
OBRYS
  6
CONTINUOUS
100
AcDbLine
 10
186.9107115915721
 20
147.9998186637213
 30
0.0
 11
186.8976669233425
 21
148.3228426637213
 31
0.0
  0
LINE
  5
594
330
1F
100
AcDbEntity
  8
OBRYS
  6
CONTINUOUS
100
AcDbLine
 10
186.8976649233425
 20
79.36283566372128
 30
0.0
 11
186.9106581636479
 21
79.71887966372128
 31
0.0
  0
LINE
  5
595
330
1F
100
AcDbEntity
  8
OBRYS
  6
CONTINUOUS
100
AcDbLine
 10
183.7205139233425
 20
79.71887966372128
 30
0.0
 11
183.7334609233424
 21
79.36283566372128
 31
0.0
  0
LINE
  5
596
330
1F
100
AcDbEntity
  8
OBRYS
  6
CONTINUOUS
100
AcDbLine
 10
183.7334609233424
 20
148.3228426637213
 30
0.0
 11
183.7203729233425
 21
147.9998186637213
 31
0.0
  0
LINE
  5
597
330
1F
100
AcDbEntity
  8
OBRYS
  6
CONTINUOUS
100
AcDbLine
 10
197.1976669233425
 20
79.36283566372128
 30
0.0
 11
197.2107559233424
 21
79.71887966372128
 31
0.0
  0
LINE
  5
598
330
1F
100
AcDbEntity
  8
OBRYS
  6
CONTINUOUS
100
AcDbLine
 10
197.2107559233424
 20
147.9998186637213
 30
0.0
 11
197.1976669233425
 21
148.3228426637213
 31
0.0
  0
LINE
  5
599
330
1F
100
AcDbEntity
  8
OBRYS
  6
CONTINUOUS
100
AcDbLine
 10
181.7655639233425
 20
79.16587466372128
 30
0.0
 11
183.5334689233425
 21
79.16587466372128
 31
0.0
  0
LINE
  5
59A
330
1F
100
AcDbEntity
  8
OBRYS
  6
CONTINUOUS
100
AcDbLine
 10
183.5334689233425
 20
148.5198036637213
 30
0.0
 11
181.7655639233425
 21
148.5198036637213
 31
0.0
  0
LINE
  5
59B
330
1F
100
AcDbEntity
  8
OBRYS
  6
CONTINUOUS
100
AcDbLine
 10
187.0976599233425
 20
148.5225506637213
 30
0.0
 11
188.6834689233425
 21
148.5225506637213
 31
0.0
  0
LINE
  5
59C
330
1F
100
AcDbEntity
  8
OBRYS
  6
CONTINUOUS
100
AcDbLine
 10
192.2476599233425
 20
148.5225506637213
 30
0.0
 11
193.8334689233425
 21
148.5225506637213
 31
0.0
  0
LINE
  5
59D
330
1F
100
AcDbEntity
  8
OBRYS
  6
CONTINUOUS
100
AcDbLine
 10
197.3976599233425
 20
148.5225686637213
 30
0.0
 11
199.1655639233425
 21
148.5225686637213
 31
0.0
  0
LINE
  5
59E
330
1F
100
AcDbEntity
  8
OBRYS
  6
CONTINUOUS
100
AcDbLine
 10
188.6834689233425
 20
79.16312766372128
 30
0.0
 11
187.0976579233425
 21
79.16312766372128
 31
0.0
  0
LINE
  5
59F
330
1F
100
AcDbEntity
  8
OBRYS
  6
CONTINUOUS
100
AcDbLine
 10
199.1655639233425
 20
79.16310966372129
 30
0.0
 11
197.3976599233425
 21
79.16310966372129
 31
0.0
  0
LINE
  5
5A0
330
1F
100
AcDbEntity
  8
OBRYS
  6
CONTINUOUS
100
AcDbLine
 10
193.8334689233425
 20
79.16312766372128
 30
0.0
 11
192.2476599233425
 21
79.16312766372128
 31
0.0
  0
LINE
  5
5A1
330
1F
100
AcDbEntity
  8
OBRYS
  6
CONTINUOUS
100
AcDbLine
 10
181.5655639233425
 20
70.46355766372129
 30
0.0
 11
199.3655639233424
 21
70.46355766340423
 31
0.0
  0
LINE
  5
5A2
330
1F
100
AcDbEntity
  8
OBRYS
  6
CONTINUOUS
100
AcDbLine
 10
199.3655639233424
 20
157.2221206637213
 30
0.0
 11
181.5655639233425
 21
157.2221206637213
 31
0.0
  0
LINE
  5
5A3
330
1F
100
AcDbEntity
  8
OBRYS
  6
CONTINUOUS
100
AcDbLine
 10
181.5655639233425
 20
69.14283866372129
 30
0.0
 11
181.5655639233425
 21
158.5428386637213
 31
0.0
  0
LINE
  5
5A4
330
1F
100
AcDbEntity
  8
OBRYS
  6
CONTINUOUS
100
AcDbLine
 10
199.3655639233424
 20
158.5428386637213
 30
0.0
 11
199.3655639233424
 21
69.14283866372129
 31
0.0
  0
LINE
  5
5A5
330
1F
100
AcDbEntity
  8
OBRYS
  6
CONTINUOUS
100
AcDbLine
 10
181.7655639233425
 20
158.7428386637213
 30
0.0
 11
199.1655639233425
 21
158.7428386637213
 31
0.0
  0
LINE
  5
5A6
330
1F
100
AcDbEntity
  8
OBRYS
  6
CONTINUOUS
100
AcDbLine
 10
188.8910629233425
 20
136.3428876637213
 30
0.0
 11
188.9374879233425
 21
138.1157916637213
 31
0.0
  0
LINE
  5
5A7
330
1F
100
AcDbEntity
  8
OBRYS
  6
CONTINUOUS
100
AcDbLine
 10
191.9936409233425
 20
138.1157916637213
 30
0.0
 11
192.0400659233425
 21
136.3428876637213
 31
0.0
  0
LINE
  5
5AE
330
1F
100
AcDbEntity
  8
OBRYS
  6
CONTINUOUS
100
AcDbLine
 10
181.7655639233425
 20
80.76355766372129
 30
0.0
 11
181.5655639233425
 21
80.76355766372129
 31
0.0
  0
LINE
  5
5AF
330
1F
100
AcDbEntity
  8
OBRYS
  6
CONTINUOUS
100
AcDbLine
 10
199.1655639233425
 20
91.1400056637213
 30
0.0
 11
199.1655639233425
 21
91.13924666372128
 31
0.0
  0
LINE
  5
5B0
330
1F
100
AcDbEntity
  8
OBRYS
  6
CONTINUOUS
100
AcDbLine
 10
181.7655639233425
 20
91.13924666372128
 30
0.0
 11
181.7655639233425
 21
91.1400056637213
 31
0.0
  0
ARC
  5
5B1
330
1F
100
AcDbEntity
  8
OBRYS
  6
CONTINUOUS
100
AcDbCircle
 10
118.2475819233425
 20
158.1030166637213
 30
0.0
 40
0.2
100
AcDbArc
 50
15.00000000000253
 51
88.99002800000126
  0
ARC
  5
5B2
330
1F
100
AcDbEntity
  8
OBRYS
  6
CONTINUOUS
100
AcDbCircle
 10
118.2547129233425
 20
69.63059266372129
 30
0.0
 40
0.2
100
AcDbArc
 50
271.0099719999987
 51
345.0000000000014
  0
ARC
  5
5B3
330
1F
100
AcDbEntity
  8
OBRYS
  6
CONTINUOUS
100
AcDbCircle
 10
117.6254929233425
 20
131.9462996637213
 30
0.0
 40
0.2
100
AcDbArc
 50
0.0
 51
88.99999999999976
  0
ARC
  5
5B4
330
1F
100
AcDbEntity
  8
OBRYS
  6
CONTINUOUS
100
AcDbCircle
 10
118.8254929233425
 20
129.1253536637213
 30
0.0
 40
0.2
100
AcDbArc
 50
0.0
 51
88.99999999999976
  0
ARC
  5
5B5
330
1F
100
AcDbEntity
  8
OBRYS
  6
CONTINUOUS
100
AcDbCircle
 10
117.6254929233425
 20
95.73937866372128
 30
0.0
 40
0.2
100
AcDbArc
 50
271.0000000000002
 51
0.0
  0
ARC
  5
5B6
330
1F
100
AcDbEntity
  8
OBRYS
  6
CONTINUOUS
100
AcDbCircle
 10
-117.6254929233425
 20
116.5470936637213
 30
0.0
 40
0.2
210
0.0
220
0.0
230
-1.0
100
AcDbArc
 50
180.0
 51
264.9999999999999
  0
ARC
  5
5B7
330
1F
100
AcDbEntity
  8
OBRYS
  6
CONTINUOUS
100
AcDbCircle
 10
118.8254929233425
 20
121.0603246637213
 30
0.0
 40
0.2
100
AcDbArc
 50
271.0000000000002
 51
0.0
  0
ARC
  5
5B8
330
1F
100
AcDbEntity
  8
OBRYS
  6
CONTINUOUS
100
AcDbCircle
 10
-117.6254929233425
 20
111.1385846637213
 30
0.0
 40
0.2
210
0.0
220
0.0
230
-1.0
100
AcDbArc
 50
95.00000000000084
 51
180.0
  0
ARC
  5
5B9
330
1F
100
AcDbEntity
  8
OBRYS
  6
CONTINUOUS
100
AcDbCircle
 10
118.8254929233425
 20
98.56032466372127
 30
0.0
 40
0.2
100
AcDbArc
 50
271.0000000000002
 51
0.0
  0
ARC
  5
5BA
330
1F
100
AcDbEntity
  8
OBRYS
  6
CONTINUOUS
100
AcDbCircle
 10
118.8254929233425
 20
106.6253536637213
 30
0.0
 40
0.2
100
AcDbArc
 50
0.0
 51
88.99999999999976
  0
ARC
  5
5BB
330
1F
100
AcDbEntity
  8
OBRYS
  6
CONTINUOUS
100
AcDbCircle
 10
-72.72549292334246
 20
91.70076266372129
 30
0.0
 40
0.2
210
0.0
220
0.0
230
-1.0
100
AcDbArc
 50
273.0000000000014
 51
0.0
  0
ARC
  5
5BC
330
1F
100
AcDbEntity
  8
OBRYS
  6
CONTINUOUS
100
AcDbCircle
 10
-72.72549292334246
 20
135.9849156637213
 30
0.0
 40
0.2
210
0.0
220
0.0
230
-1.0
100
AcDbArc
 50
0.0
 51
86.99999999999831
  0
ARC
  5
5BD
330
1F
100
AcDbEntity
  8
OBRYS
  6
CONTINUOUS
100
AcDbCircle
 10
118.9254929233425
 20
107.0201626637213
 30
0.0
 40
0.1
100
AcDbArc
 50
270.9999999999999
 51
0.0
  0
ARC
  5
5BE
330
1F
100
AcDbEntity
  8
OBRYS
  6
CONTINUOUS
100
AcDbCircle
 10
118.9254929233425
 20
136.2620246637213
 30
0.0
 40
0.1
100
AcDbArc
 50
0.0
 51
91.00000000000026
  0
ARC
  5
5BF
330
1F
100
AcDbEntity
  8
OBRYS
  6
CONTINUOUS
100
AcDbCircle
 10
118.9254929233425
 20
120.6655156637213
 30
0.0
 40
0.1
100
AcDbArc
 50
0.0
 51
88.99999999999976
  0
ARC
  5
5C0
330
1F
100
AcDbEntity
  8
OBRYS
  6
CONTINUOUS
100
AcDbCircle
 10
-118.9254929233425
 20
129.5201626637213
 30
0.0
 40
0.1
210
0.0
220
0.0
230
-1.0
100
AcDbArc
 50
180.0
 51
269.0
  0
ARC
  5
5C1
330
1F
100
AcDbEntity
  8
OBRYS
  6
CONTINUOUS
100
AcDbCircle
 10
118.9254929233425
 20
91.4236536637213
 30
0.0
 40
0.1
100
AcDbArc
 50
269.0
 51
0.0
  0
ARC
  5
5C2
330
1F
100
AcDbEntity
  8
OBRYS
  6
CONTINUOUS
100
AcDbCircle
 10
118.9254929233425
 20
98.1655156637213
 30
0.0
 40
0.1
100
AcDbArc
 50
0.0
 51
88.99999999999976
  0
ARC
  5
5C3
330
1F
100
AcDbEntity
  8
OBRYS
  6
CONTINUOUS
100
AcDbCircle
 10
118.2701749233425
 20
70.6164906637213
 30
0.0
 40
0.4
100
AcDbArc
 50
79.99999999999925
 51
168.9999999999994
  0
ARC
  5
5C4
330
1F
100
AcDbEntity
  8
OBRYS
  6
CONTINUOUS
100
AcDbCircle
 10
95.8655135572512
 20
145.9585332332207
 30
0.0
 40
0.4378622637404841
100
AcDbArc
 50
124.0022783229602
 51
255.9977216770412
  0
ARC
  5
5C5
330
1F
100
AcDbEntity
  8
OBRYS
  6
CONTINUOUS
100
AcDbCircle
 10
142.9018245481697
 20
158.542585257966
 30
0.0
 40
0.2002534284675238
100
AcDbArc
 50
6.930213457387464
 51
89.97271160290637
  0
ARC
  5
5C6
330
1F
100
AcDbEntity
  8
OBRYS
  6
CONTINUOUS
100
AcDbCircle
 10
-119.5656569233425
 20
158.5428386637213
 30
0.0
 40
0.2
210
0.0
220
0.0
230
-1.0
100
AcDbArc
 50
80.00000000000196
 51
90.0
  0
ARC
  5
5C7
330
1F
100
AcDbEntity
  8
OBRYS
  6
CONTINUOUS
100
AcDbCircle
 10
-100.4735459233425
 20
135.4998186637213
 30
0.0
 40
11.7
210
0.0
220
0.0
230
-1.0
100
AcDbArc
 50
72.06319899999997
 51
87.93680100000003
  0
ARC
  5
5C8
330
1F
100
AcDbEntity
  8
OBRYS
  6
CONTINUOUS
100
AcDbCircle
 10
100.6903509233425
 20
147.7979076637213
 30
0.0
 40
0.2
100
AcDbArc
 50
15.00000000000253
 51
88.99002800000126
  0
ARC
  5
5C9
330
1F
100
AcDbEntity
  8
OBRYS
  6
CONTINUOUS
100
AcDbCircle
 10
96.06362192334247
 20
146.9820906637213
 30
0.0
 40
0.2
100
AcDbArc
 50
111.0099720000032
 51
184.9999999999964
  0
ARC
  5
5CA
330
1F
100
AcDbEntity
  8
OBRYS
  6
CONTINUOUS
100
AcDbCircle
 10
101.2452102073205
 20
146.9071194644509
 30
0.0
 40
0.430517584602963
100
AcDbArc
 50
301.7028470997968
 51
78.29715290020421
  0
ARC
  5
5CB
330
1F
100
AcDbEntity
  8
OBRYS
  6
CONTINUOUS
100
AcDbCircle
 10
-100.4735459233425
 20
135.4998186637213
 30
0.0
 40
12.5
210
0.0
220
0.0
230
-1.0
100
AcDbArc
 50
68.99002800000001
 51
91.00997200000002
  0
ARC
  5
5CC
330
1F
100
AcDbEntity
  8
OBRYS
  6
CONTINUOUS
100
AcDbCircle
 10
100.7058129233425
 20
146.8120086637213
 30
0.0
 40
0.4
100
AcDbArc
 50
191.0000000000006
 51
280.0000000000007
  0
ARC
  5
5CD
330
1F
100
AcDbEntity
  8
OBRYS
  6
CONTINUOUS
100
AcDbCircle
 10
-95.70088092334247
 20
146.5387596637213
 30
0.0
 40
0.2
210
0.0
220
0.0
230
-1.0
100
AcDbArc
 50
175.0000000000036
 51
260.0000000000018
  0
ARC
  5
5CE
330
1F
100
AcDbEntity
  8
OBRYS
  6
CONTINUOUS
100
AcDbCircle
 10
113.6208529233425
 20
157.2871996637213
 30
0.0
 40
0.2
100
AcDbArc
 50
111.0099719999995
 51
184.9999999999964
  0
ARC
  5
5CF
330
1F
100
AcDbEntity
  8
OBRYS
  6
CONTINUOUS
100
AcDbCircle
 10
118.7896661430804
 20
157.209975875945
 30
0.0
 40
0.4354814091070444
100
AcDbArc
 50
303.2887960456017
 51
76.7112039544003
  0
ARC
  5
5D0
330
1F
100
AcDbEntity
  8
OBRYS
  6
CONTINUOUS
100
AcDbCircle
 10
100.7311339233425
 20
80.90668966372128
 30
0.0
 40
0.4
100
AcDbArc
 50
79.9999999999996
 51
168.9999999999994
  0
ARC
  5
5D1
330
1F
100
AcDbEntity
  8
OBRYS
  6
CONTINUOUS
100
AcDbCircle
 10
-100.0595249233425
 20
146.9923636637213
 30
0.0
 40
0.2
210
0.0
220
0.0
230
-1.0
100
AcDbArc
 50
87.93680100000178
 51
168.9999999999994
  0
ARC
  5
5D2
330
1F
100
AcDbEntity
  8
OBRYS
  6
CONTINUOUS
100
AcDbCircle
 10
-118.0307769233425
 20
145.8049276637213
 30
0.0
 40
12.5
210
0.0
220
0.0
230
-1.0
100
AcDbArc
 50
68.99002800000001
 51
91.00997200000002
  0
ARC
  5
5D3
330
1F
100
AcDbEntity
  8
OBRYS
  6
CONTINUOUS
100
AcDbCircle
 10
118.2630429233425
 20
157.1171176637213
 30
0.0
 40
0.4
100
AcDbArc
 50
191.0000000000006
 51
280.0000000000007
  0
ARC
  5
5D4
330
1F
100
AcDbEntity
  8
OBRYS
  6
CONTINUOUS
100
AcDbCircle
 10
-117.6167559233425
 20
157.2974726637213
 30
0.0
 40
0.2
210
0.0
220
0.0
230
-1.0
100
AcDbArc
 50
87.93680100000178
 51
168.9999999999994
  0
ARC
  5
5D5
330
1F
100
AcDbEntity
  8
OBRYS
  6
CONTINUOUS
100
AcDbCircle
 10
-113.2652419233425
 20
70.88973966372129
 30
0.0
 40
0.2
210
0.0
220
0.0
230
-1.0
100
AcDbArc
 50
99.99999999999802
 51
185.0000000000005
  0
ARC
  5
5D6
330
1F
100
AcDbEntity
  8
OBRYS
  6
CONTINUOUS
100
AcDbCircle
 10
101.2389583280683
 20
80.81714718978948
 30
0.0
 40
0.4433752987991988
100
AcDbArc
 50
285.555181560053
 51
54.44481843994534
  0
ARC
  5
5D7
330
1F
100
AcDbEntity
  8
OBRYS
  6
CONTINUOUS
100
AcDbCircle
 10
-118.7400749233425
 20
157.8104876637213
 30
0.0
 40
0.2
210
0.0
220
0.0
230
-1.0
100
AcDbArc
 50
260.0000000000018
 51
344.9999999999974
  0
ARC
  5
5D8
330
1F
100
AcDbEntity
  8
OBRYS
  6
CONTINUOUS
100
AcDbCircle
 10
-114.4891479233425
 20
156.7459906637213
 30
0.0
 40
0.2
210
0.0
220
0.0
230
-1.0
100
AcDbArc
 50
350.9999999999964
 51
72.06319899999727
  0
ARC
  5
5D9
330
1F
100
AcDbEntity
  8
OBRYS
  6
CONTINUOUS
100
AcDbCircle
 10
-101.1828449233425
 20
147.5053786637213
 30
0.0
 40
0.2
210
0.0
220
0.0
230
-1.0
100
AcDbArc
 50
260.0000000000018
 51
344.9999999999974
  0
ARC
  5
5DA
330
1F
100
AcDbEntity
  8
OBRYS
  6
CONTINUOUS
100
AcDbCircle
 10
-112.0754929233425
 20
70.46355766372129
 30
0.0
 40
0.2
210
0.0
220
0.0
230
-1.0
100
AcDbArc
 50
279.9999999999987
 51
0.0
  0
ARC
  5
5DB
330
1F
100
AcDbEntity
  8
OBRYS
  6
CONTINUOUS
100
AcDbCircle
 10
-118.0379079233425
 20
81.92868166372129
 30
0.0
 40
11.7
210
0.0
220
0.0
230
-1.0
100
AcDbArc
 50
272.0631989999999
 51
287.936801
  0
ARC
  5
5DC
330
1F
100
AcDbEntity
  8
OBRYS
  6
CONTINUOUS
100
AcDbCircle
 10
113.6279839233425
 20
70.44640966372128
 30
0.0
 40
0.2
100
AcDbArc
 50
174.9999999999995
 51
248.990028000002
  0
ARC
  5
5DD
330
1F
100
AcDbEntity
  8
OBRYS
  6
CONTINUOUS
100
AcDbCircle
 10
113.4189369001188
 20
71.47189487460705
 30
0.0
 40
0.4334628534092075
100
AcDbArc
 50
102.6609180392271
 51
237.3390819607714
  0
ARC
  5
5DE
330
1F
100
AcDbEntity
  8
OBRYS
  6
CONTINUOUS
100
AcDbCircle
 10
-113.2581109233425
 20
156.8438696637213
 30
0.0
 40
0.2
210
0.0
220
0.0
230
-1.0
100
AcDbArc
 50
175.0000000000036
 51
260.0000000000018
  0
ARC
  5
5DF
330
1F
100
AcDbEntity
  8
OBRYS
  6
CONTINUOUS
100
AcDbCircle
 10
-100.0848469233425
 20
80.72633566372129
 30
0.0
 40
0.2
210
0.0
220
0.0
230
-1.0
100
AcDbArc
 50
191.0000000000006
 51
272.0631989999983
  0
ARC
  5
5E0
330
1F
100
AcDbEntity
  8
OBRYS
  6
CONTINUOUS
100
AcDbCircle
 10
113.9506519233425
 20
71.37813966372129
 30
0.0
 40
0.4
100
AcDbArc
 50
351.0000000000005
 51
79.9999999999996
  0
ARC
  5
5E1
330
1F
100
AcDbEntity
  8
OBRYS
  6
CONTINUOUS
100
AcDbCircle
 10
-100.4988679233425
 20
92.21887966372128
 30
0.0
 40
11.7
210
0.0
220
0.0
230
-1.0
100
AcDbArc
 50
272.0631989999999
 51
287.936801
  0
ARC
  5
5E2
330
1F
100
AcDbEntity
  8
OBRYS
  6
CONTINUOUS
100
AcDbCircle
 10
96.08894392334246
 20
80.73660866372128
 30
0.0
 40
0.2
100
AcDbArc
 50
174.9999999999995
 51
248.990028000002
  0
ARC
  5
5E3
330
1F
100
AcDbEntity
  8
OBRYS
  6
CONTINUOUS
100
AcDbCircle
 10
100.7156729233425
 20
79.92079066372129
 30
0.0
 40
0.2
100
AcDbArc
 50
271.0099719999987
 51
345.0000000000014
  0
ARC
  5
5E4
330
1F
100
AcDbEntity
  8
OBRYS
  6
CONTINUOUS
100
AcDbCircle
 10
95.8604998825532
 20
81.76551409214915
 30
0.0
 40
0.4262620290481958
100
AcDbArc
 50
100.2170976697108
 51
239.7829023302895
  0
ARC
  5
5E5
330
1F
100
AcDbEntity
  8
OBRYS
  6
CONTINUOUS
100
AcDbCircle
 10
-114.4962789233425
 20
70.98761866372129
 30
0.0
 40
0.2
210
0.0
220
0.0
230
-1.0
100
AcDbArc
 50
287.9368010000015
 51
8.999999999999506
  0
ARC
  5
5E6
330
1F
100
AcDbEntity
  8
OBRYS
  6
CONTINUOUS
100
AcDbCircle
 10
-100.4988679233425
 20
92.21887966372128
 30
0.0
 40
12.5
210
0.0
220
0.0
230
-1.0
100
AcDbArc
 50
268.990028
 51
291.009972
  0
ARC
  5
5E7
330
1F
100
AcDbEntity
  8
OBRYS
  6
CONTINUOUS
100
AcDbCircle
 10
96.41161192334246
 20
81.66833866372129
 30
0.0
 40
0.4
100
AcDbArc
 50
351.0000000000005
 51
79.9999999999996
  0
ARC
  5
5E8
330
1F
100
AcDbEntity
  8
OBRYS
  6
CONTINUOUS
100
AcDbCircle
 10
-96.93191692334246
 20
146.4408816637213
 30
0.0
 40
0.2
210
0.0
220
0.0
230
-1.0
100
AcDbArc
 50
350.9999999999964
 51
72.06319899999727
  0
ARC
  5
5E9
330
1F
100
AcDbEntity
  8
OBRYS
  6
CONTINUOUS
100
AcDbCircle
 10
113.4097297461424
 20
156.2613473708734
 30
0.0
 40
0.4326549938857331
100
AcDbArc
 50
122.4032867651311
 51
257.5967132348704
  0
ARC
  5
5EA
330
1F
100
AcDbEntity
  8
OBRYS
  6
CONTINUOUS
100
AcDbCircle
 10
-96.95723892334246
 20
81.27781666372128
 30
0.0
 40
0.2
210
0.0
220
0.0
230
-1.0
100
AcDbArc
 50
287.9368010000015
 51
8.999999999999506
  0
ARC
  5
5EB
330
1F
100
AcDbEntity
  8
OBRYS
  6
CONTINUOUS
100
AcDbCircle
 10
-95.72620192334246
 20
81.17993866372129
 30
0.0
 40
0.2
210
0.0
220
0.0
230
-1.0
100
AcDbArc
 50
99.99999999999802
 51
185.0000000000005
  0
ARC
  5
5EC
330
1F
100
AcDbEntity
  8
OBRYS
  6
CONTINUOUS
100
AcDbCircle
 10
-117.6238869233425
 20
70.43613666372129
 30
0.0
 40
0.2
210
0.0
220
0.0
230
-1.0
100
AcDbArc
 50
191.0000000000006
 51
272.0631989999983
  0
ARC
  5
5ED
330
1F
100
AcDbEntity
  8
OBRYS
  6
CONTINUOUS
100
AcDbCircle
 10
113.9435209233425
 20
156.3554696637213
 30
0.0
 40
0.4
100
AcDbArc
 50
280.0000000000007
 51
8.999999999999506
  0
ARC
  5
5EE
330
1F
100
AcDbEntity
  8
OBRYS
  6
CONTINUOUS
100
AcDbCircle
 10
-144.3254929233425
 20
95.04580166372128
 30
0.0
 40
0.2
210
0.0
220
0.0
230
-1.0
100
AcDbArc
 50
92.00000000000203
 51
180.0
  0
ARC
  5
5EF
330
1F
100
AcDbEntity
  8
OBRYS
  6
CONTINUOUS
100
AcDbCircle
 10
144.3254929233425
 20
73.14372666372128
 30
0.0
 40
0.2
100
AcDbArc
 50
270.0
 51
0.0
  0
ARC
  5
5F0
330
1F
100
AcDbEntity
  8
OBRYS
  6
CONTINUOUS
100
AcDbCircle
 10
-144.3254929233425
 20
129.8565756637213
 30
0.0
 40
0.2
210
0.0
220
0.0
230
-1.0
100
AcDbArc
 50
180.0
 51
268.9999999999998
  0
ARC
  5
5F1
330
1F
100
AcDbEntity
  8
OBRYS
  6
CONTINUOUS
100
AcDbCircle
 10
96.38629092334246
 20
146.0503606637213
 30
0.0
 40
0.4
100
AcDbArc
 50
280.0000000000007
 51
8.999999999999188
  0
ARC
  5
5F2
330
1F
100
AcDbEntity
  8
OBRYS
  6
CONTINUOUS
100
AcDbCircle
 10
-119.5656569233425
 20
69.14283866372129
 30
0.0
 40
0.2
210
0.0
220
0.0
230
-1.0
100
AcDbArc
 50
270.0
 51
279.9999999999987
  0
ARC
  5
5F3
330
1F
100
AcDbEntity
  8
OBRYS
  6
CONTINUOUS
100
AcDbCircle
 10
-116.3657679233425
 20
155.2348446637213
 30
0.0
 40
1.58654988721806
210
0.0
220
0.0
230
-1.0
100
AcDbArc
 50
28.44922900000028
 51
131.5507709999999
  0
ARC
  5
5F4
330
1F
100
AcDbEntity
  8
OBRYS
  6
CONTINUOUS
100
AcDbCircle
 10
116.3657679233425
 20
72.45083366372128
 30
0.0
 40
1.58654988721806
100
AcDbArc
 50
208.4492289999998
 51
311.5507709999999
  0
ARC
  5
5F5
330
1F
100
AcDbEntity
  8
OBRYS
  6
CONTINUOUS
100
AcDbCircle
 10
-118.7472069233425
 20
69.92312166372129
 30
0.0
 40
0.2
210
0.0
220
0.0
230
-1.0
100
AcDbArc
 50
14.99999999999859
 51
99.99999999999875
  0
ARC
  5
5F6
330
1F
100
AcDbEntity
  8
OBRYS
  6
CONTINUOUS
100
AcDbCircle
 10
-98.81576792334246
 20
82.7508336637213
 30
0.0
 40
1.58654988721806
210
0.0
220
0.0
230
-1.0
100
AcDbArc
 50
228.4492290000005
 51
331.5507709999998
  0
ARC
  5
5F7
330
1F
100
AcDbEntity
  8
OBRYS
  6
CONTINUOUS
100
AcDbCircle
 10
-130.6719029233425
 20
69.14283866372129
 30
0.0
 40
0.2
210
0.0
220
0.0
230
-1.0
100
AcDbArc
 50
240.0000000000013
 51
270.0
  0
ARC
  5
5F8
330
1F
100
AcDbEntity
  8
OBRYS
  6
CONTINUOUS
100
AcDbCircle
 10
98.81576792334246
 20
144.9348446637213
 30
0.0
 40
1.58654988721806
100
AcDbArc
 50
48.44922900000007
 51
151.5507709999995
  0
ARC
  5
5F9
330
1F
100
AcDbEntity
  8
OBRYS
  6
CONTINUOUS
100
AcDbCircle
 10
-118.0379079233425
 20
81.92868166372129
 30
0.0
 40
12.5
210
0.0
220
0.0
230
-1.0
100
AcDbArc
 50
268.990028
 51
291.009972
  0
ARC
  5
5FA
330
1F
100
AcDbEntity
  8
OBRYS
  6
CONTINUOUS
100
AcDbCircle
 10
118.7989080842732
 20
70.52326123561052
 30
0.0
 40
0.4346383993670428
100
AcDbArc
 50
283.0292519983224
 51
56.97074800167568
  0
ARC
  5
5FB
330
1F
100
AcDbEntity
  8
OBRYS
  6
CONTINUOUS
100
AcDbCircle
 10
-94.52549292334245
 20
80.76355766372129
 30
0.0
 40
0.2
210
0.0
220
0.0
230
-1.0
100
AcDbArc
 50
279.9999999999981
 51
0.0
  0
ARC
  5
5FC
330
1F
100
AcDbEntity
  8
OBRYS
  6
CONTINUOUS
100
AcDbCircle
 10
-102.4693779233425
 20
79.36283566372128
 30
0.0
 40
0.2
210
0.0
220
0.0
230
-1.0
100
AcDbArc
 50
273.0000000000014
 51
279.9999999999981
  0
ARC
  5
5FD
330
1F
100
AcDbEntity
  8
OBRYS
  6
CONTINUOUS
100
AcDbCircle
 10
-101.2081659233425
 20
80.21332066372129
 30
0.0
 40
0.2
210
0.0
220
0.0
230
-1.0
100
AcDbArc
 50
14.99999999999859
 51
99.99999999999875
  0
ARC
  5
5FE
330
1F
100
AcDbEntity
  8
OBRYS
  6
CONTINUOUS
100
AcDbCircle
 10
96.65885692334246
 20
90.94000766372127
 30
0.0
 40
0.2
100
AcDbArc
 50
90.24999999999892
 51
95.00000000000084
  0
ARC
  5
5FF
330
1F
100
AcDbEntity
  8
OBRYS
  6
CONTINUOUS
100
AcDbCircle
 10
-94.52549292334245
 20
90.75336266372128
 30
0.0
 40
0.2
210
0.0
220
0.0
230
-1.0
100
AcDbArc
 50
0.0
 51
84.99999999999916
  0
ARC
  5
600
330
1F
100
AcDbEntity
  8
OBRYS
  6
CONTINUOUS
100
AcDbCircle
 10
102.4693779233425
 20
148.3228426637213
 30
0.0
 40
0.2
100
AcDbArc
 50
93.0000000000017
 51
99.99999999999802
  0
ARC
  5
601
330
1F
100
AcDbEntity
  8
OBRYS
  6
CONTINUOUS
100
AcDbCircle
 10
94.52549292334245
 20
146.9221206637213
 30
0.0
 40
0.2
100
AcDbArc
 50
99.99999999999802
 51
180.0
  0
ARC
  5
602
330
1F
100
AcDbEntity
  8
OBRYS
  6
CONTINUOUS
100
AcDbCircle
 10
96.65885692334246
 20
136.7456706637213
 30
0.0
 40
0.2
100
AcDbArc
 50
264.9999999999999
 51
269.7500000000011
  0
ARC
  5
603
330
1F
100
AcDbEntity
  8
OBRYS
  6
CONTINUOUS
100
AcDbCircle
 10
-112.0754929233425
 20
157.2221206637213
 30
0.0
 40
0.2
210
0.0
220
0.0
230
-1.0
100
AcDbArc
 50
0.0
 51
80.00000000000196
  0
ARC
  5
604
330
1F
100
AcDbEntity
  8
OBRYS
  6
CONTINUOUS
100
AcDbCircle
 10
94.52549292334245
 20
136.9323156637213
 30
0.0
 40
0.2
100
AcDbArc
 50
180.0
 51
264.9999999999999
  0
ARC
  5
605
330
1F
100
AcDbEntity
  8
OBRYS
  6
CONTINUOUS
100
AcDbCircle
 10
-118.0307769233425
 20
145.8049276637213
 30
0.0
 40
11.7
210
0.0
220
0.0
230
-1.0
100
AcDbArc
 50
72.06319899999997
 51
87.93680100000003
  0
ARC
  5
606
330
1F
100
AcDbEntity
  8
OBRYS
  6
CONTINUOUS
100
AcDbCircle
 10
-116.5754929233425
 20
91.54283866372128
 30
0.0
 40
0.1999999999999341
210
0.0
220
0.0
230
-1.0
100
AcDbArc
 50
180.0
 51
270.0
  0
ARC
  5
607
330
1F
100
AcDbEntity
  8
OBRYS
  6
CONTINUOUS
100
AcDbCircle
 10
-116.5754929233425
 20
136.1428386637213
 30
0.0
 40
0.1999999999998714
210
0.0
220
0.0
230
-1.0
100
AcDbArc
 50
90.0
 51
180.0
  0
ARC
  5
608
330
1F
100
AcDbEntity
  8
OBRYS
  6
CONTINUOUS
100
AcDbCircle
 10
-183.6945879233425
 20
158.5428386637213
 30
0.0
 40
0.2
210
0.0
220
0.0
230
-1.0
100
AcDbArc
 50
90.0
 51
178.9999999999999
  0
ARC
  5
609
330
1F
100
AcDbEntity
  8
OBRYS
  6
CONTINUOUS
100
AcDbCircle
 10
186.9365409233424
 20
69.14283866372129
 30
0.0
 40
0.2
100
AcDbArc
 50
181.0000000000001
 51
270.0
  0
ARC
  5
60B
330
1F
100
AcDbEntity
  8
OBRYS
  6
CONTINUOUS
100
AcDbCircle
 10
-197.2365409233425
 20
158.5428386637213
 30
0.0
 40
0.2
210
0.0
220
0.0
230
-1.0
100
AcDbArc
 50
1.000000000000105
 51
90.0
  0
ARC
  5
60C
330
1F
100
AcDbEntity
  8
OBRYS
  6
CONTINUOUS
100
AcDbCircle
 10
199.1655639233425
 20
69.14283866372129
 30
0.0
 40
0.2
100
AcDbArc
 50
270.0
 51
0.0
  0
ARC
  5
60D
330
1F
100
AcDbEntity
  8
OBRYS
  6
CONTINUOUS
100
AcDbCircle
 10
-185.3155639233425
 20
75.0904606457948
 30
0.0
 40
1.634641252679278
210
0.0
220
0.0
230
-1.0
100
AcDbArc
 50
194.9722044090355
 51
345.0277955909646
  0
ARC
  5
60E
330
1F
100
AcDbEntity
  8
OBRYS
  6
CONTINUOUS
100
AcDbCircle
 10
-185.3155639248301
 20
75.09521650874399
 30
0.0
 40
1.634641425793922
210
0.0
220
0.0
230
-1.0
100
AcDbArc
 50
14.97222689986084
 51
165.0277727028183
  0
ARC
  5
60F
330
1F
100
AcDbEntity
  8
OBRYS
  6
CONTINUOUS
100
AcDbCircle
 10
192.0865409233425
 20
158.5428386637213
 30
0.0
 40
0.2
100
AcDbArc
 50
90.0
 51
178.9999999999999
  0
ARC
  5
610
330
1F
100
AcDbEntity
  8
OBRYS
  6
CONTINUOUS
100
AcDbCircle
 10
199.1655639233425
 20
158.5428386637213
 30
0.0
 40
0.2
100
AcDbArc
 50
0.0
 51
90.0
  0
CIRCLE
  5
611
330
1F
100
AcDbEntity
  8
OBRYS
  6
CONTINUOUS
100
AcDbCircle
 10
185.3155639233425
 20
75.09283866372128
 30
0.0
 40
1.99563623376795
  0
ARC
  5
612
330
1F
100
AcDbEntity
  8
OBRYS
  6
CONTINUOUS
100
AcDbCircle
 10
-181.7655639233425
 20
69.14283866372129
 30
0.0
 40
0.2
210
0.0
220
0.0
230
-1.0
100
AcDbArc
 50
270.0
 51
0.0
  0
ARC
  5
613
330
1F
100
AcDbEntity
  8
OBRYS
  6
CONTINUOUS
100
AcDbCircle
 10
-183.6945879233425
 20
69.14283866372129
 30
0.0
 40
0.2
210
0.0
220
0.0
230
-1.0
100
AcDbArc
 50
181.0000000000001
 51
270.0
  0
ARC
  5
614
330
1F
100
AcDbEntity
  8
OBRYS
  6
CONTINUOUS
100
AcDbCircle
 10
-188.8445879233425
 20
69.14283866372129
 30
0.0
 40
0.2
210
0.0
220
0.0
230
-1.0
100
AcDbArc
 50
181.0000000000001
 51
270.0
  0
ARC
  5
615
330
1F
100
AcDbEntity
  8
OBRYS
  6
CONTINUOUS
100
AcDbCircle
 10
192.0865409233425
 20
69.14283866372129
 30
0.0
 40
0.2
100
AcDbArc
 50
181.0000000000001
 51
270.0
  0
ARC
  5
616
330
1F
100
AcDbEntity
  8
OBRYS
  6
CONTINUOUS
100
AcDbCircle
 10
-193.9945879233425
 20
69.14283866372129
 30
0.0
 40
0.2
210
0.0
220
0.0
230
-1.0
100
AcDbArc
 50
181.0000000000001
 51
270.0
  0
ARC
  5
617
330
1F
100
AcDbEntity
  8
OBRYS
  6
CONTINUOUS
100
AcDbCircle
 10
-197.2365409233425
 20
69.14283866372129
 30
0.0
 40
0.2
210
0.0
220
0.0
230
-1.0
100
AcDbArc
 50
270.0
 51
358.9999999999999
  0
ARC
  5
618
330
1F
100
AcDbEntity
  8
OBRYS
  6
CONTINUOUS
100
AcDbCircle
 10
-186.9365409233424
 20
158.5428386637213
 30
0.0
 40
0.2
210
0.0
220
0.0
230
-1.0
100
AcDbArc
 50
1.000000000000105
 51
90.0
  0
ARC
  5
619
330
1F
100
AcDbEntity
  8
OBRYS
  6
CONTINUOUS
100
AcDbCircle
 10
188.8445879233425
 20
158.5428386637213
 30
0.0
 40
0.2
100
AcDbArc
 50
1.000000000000105
 51
90.0
  0
ARC
  5
61A
330
1F
100
AcDbEntity
  8
OBRYS
  6
CONTINUOUS
100
AcDbCircle
 10
-193.9945879233425
 20
158.5428386637213
 30
0.0
 40
0.2
210
0.0
220
0.0
230
-1.0
100
AcDbArc
 50
90.0
 51
178.9999999999999
  0
ARC
  5
61B
330
1F
100
AcDbEntity
  8
OBRYS
  6
CONTINUOUS
100
AcDbCircle
 10
181.7655639233425
 20
158.5428386637213
 30
0.0
 40
0.2
100
AcDbArc
 50
90.0
 51
180.0
  0
ELLIPSE
  5
620
330
1F
100
AcDbEntity
  8
OBRYS
  6
CONTINUOUS
100
AcDbEllipse
 10
101.5881279233425
 20
146.5777706637213
 30
0.0
 11
-0.1228731809355151
 21
0.08603672753484726
 31
0.0
210
0.0
220
0.0
230
-1.0
 40
0.999997
 41
2.356196013276292
 42
3.926989293899471
  0
ELLIPSE
  5
621
330
1F
100
AcDbEntity
  8
OBRYS
  6
CONTINUOUS
100
AcDbEllipse
 10
141.5397609233424
 20
129.8079506637213
 30
0.0
 11
-0.000582895982485125
 21
-0.1999991629635113
 31
0.0
210
0.0
220
0.0
230
-1.0
 40
0.9998509999999997
 41
6.262820569804213
 42
7.327555835485744
  0
ELLIPSE
  5
622
330
1F
100
AcDbEntity
  8
OBRYS
  6
CONTINUOUS
100
AcDbEllipse
 10
119.0111799233425
 20
157.5977296637213
 30
0.0
 11
-0.08603672753485481
 21
-0.1228731809355098
 31
0.0
210
0.0
220
0.0
230
-1.0
 40
0.999997
 41
2.356196013277027
 42
3.92698929390063
  0
ELLIPSE
  5
623
330
1F
100
AcDbEntity
  8
OBRYS
  6
CONTINUOUS
100
AcDbEllipse
 10
113.0717389233425
 20
156.5504466637213
 30
0.0
 11
0.1228731809355071
 21
-0.08603672753485869
 31
0.0
210
0.0
220
0.0
230
-1.0
 40
0.999997
 41
2.356196013279505
 42
3.926989293903372
  0
ELLIPSE
  5
624
330
1F
100
AcDbEntity
  8
OBRYS
  6
CONTINUOUS
100
AcDbEllipse
 10
119.1381279233425
 20
156.8777706637213
 30
0.0
 11
-0.1228731809355151
 21
0.08603672753484726
 31
0.0
210
0.0
220
0.0
230
-1.0
 40
0.999997
 41
2.356196013276343
 42
3.926989293900109
  0
ELLIPSE
  5
625
330
1F
100
AcDbEntity
  8
OBRYS
  6
CONTINUOUS
100
AcDbEllipse
 10
119.0111799233425
 20
70.08794866372129
 30
0.0
 11
-0.08603672753484955
 21
0.1228731809355136
 31
0.0
210
0.0
220
0.0
230
-1.0
 40
0.999997
 41
2.356196013276021
 42
3.926989293900556
  0
ELLIPSE
  5
626
330
1F
100
AcDbEntity
  8
OBRYS
  6
CONTINUOUS
100
AcDbEllipse
 10
119.1381279233425
 20
70.80790766372128
 30
0.0
 11
-0.122873180935517
 21
-0.08603672753484468
 31
0.0
210
0.0
220
0.0
230
-1.0
 40
0.999997
 41
2.356196013276108
 42
3.926989293899129
  0
ELLIPSE
  5
627
330
1F
100
AcDbEntity
  8
OBRYS
  6
CONTINUOUS
100
AcDbEllipse
 10
113.1986869233425
 20
71.85519166372129
 30
0.0
 11
0.08603672753485057
 21
-0.1228731809355128
 31
0.0
210
0.0
220
0.0
230
-1.0
 40
0.999997
 41
2.356196013279918
 42
3.926989293902595
  0
ELLIPSE
  5
628
330
1F
100
AcDbEntity
  8
OBRYS
  6
CONTINUOUS
100
AcDbEllipse
 10
101.4611799233425
 20
80.38794866372129
 30
0.0
 11
-0.08603672753484955
 21
0.1228731809355136
 31
0.0
210
0.0
220
0.0
230
-1.0
 40
0.999997
 41
2.356196013276114
 42
3.926989293901009
  0
ELLIPSE
  5
629
330
1F
100
AcDbEntity
  8
OBRYS
  6
CONTINUOUS
100
AcDbEllipse
 10
95.64868692334247
 20
82.15519166372128
 30
0.0
 11
0.08603672753485057
 21
-0.1228731809355128
 31
0.0
210
0.0
220
0.0
230
-1.0
 40
0.999997
 41
2.356196013278114
 42
3.926989293902741
  0
ELLIPSE
  5
62A
330
1F
100
AcDbEntity
  8
OBRYS
  6
CONTINUOUS
100
AcDbEllipse
 10
95.52173892334245
 20
146.2504466637213
 30
0.0
 11
0.1228731809355071
 21
-0.08603672753485869
 31
0.0
210
0.0
220
0.0
230
-1.0
 40
0.999997
 41
2.356196013279261
 42
3.926989293903152
  0
ELLIPSE
  5
62B
330
1F
100
AcDbEntity
  8
OBRYS
  6
CONTINUOUS
100
AcDbEllipse
 10
101.4611799233425
 20
147.2977296637213
 30
0.0
 11
-0.08603672753485481
 21
-0.1228731809355098
 31
0.0
210
0.0
220
0.0
230
-1.0
 40
0.999997
 41
2.356196013276525
 42
3.926989293900399
  0
ELLIPSE
  5
62C
330
1F
100
AcDbEntity
  8
OBRYS
  6
CONTINUOUS
100
AcDbEllipse
 10
95.64868692334247
 20
145.5304866637213
 30
0.0
 11
0.08603672753485087
 21
0.1228731809355126
 31
0.0
210
0.0
220
0.0
230
-1.0
 40
0.999997
 41
2.356196013278207
 42
3.926989293903038
  0
ELLIPSE
  5
62D
330
1F
100
AcDbEntity
  8
OBRYS
  6
CONTINUOUS
100
AcDbEllipse
 10
113.1986869233425
 20
155.8304866637213
 30
0.0
 11
0.08603672753485087
 21
0.1228731809355126
 31
0.0
210
0.0
220
0.0
230
-1.0
 40
0.999997
 41
2.356196013278803
 42
3.926989293902874
  0
ELLIPSE
  5
62E
330
1F
100
AcDbEntity
  8
OBRYS
  6
CONTINUOUS
100
AcDbEllipse
 10
101.5881279233425
 20
81.10790766372129
 30
0.0
 11
-0.122873180935517
 21
-0.08603672753484468
 31
0.0
210
0.0
220
0.0
230
-1.0
 40
0.999997
 41
2.356196013276708
 42
3.926989293899897
  0
ELLIPSE
  5
62F
330
1F
100
AcDbEntity
  8
OBRYS
  6
CONTINUOUS
100
AcDbEllipse
 10
113.0717389233425
 20
71.13523166372129
 30
0.0
 11
0.122873180935515
 21
0.08603672753484745
 31
0.0
210
0.0
220
0.0
230
-1.0
 40
0.999997
 41
2.356196013279398
 42
3.92698929390313
  0
ELLIPSE
  5
630
330
1F
100
AcDbEntity
  8
OBRYS
  6
CONTINUOUS
100
AcDbEllipse
 10
95.52173892334245
 20
81.43523166372128
 30
0.0
 11
0.122873180935515
 21
0.08603672753484745
 31
0.0
210
0.0
220
0.0
230
-1.0
 40
0.999997
 41
2.356196013279744
 42
3.926989293904285
  0
ELLIPSE
  5
631
330
1F
100
AcDbEntity
  8
OBRYS
  6
CONTINUOUS
100
AcDbEllipse
 10
181.7655639233425
 20
79.36283566372128
 30
0.0
 11
0.2
 21
0.0
 31
0.0
210
0.0
220
0.0
230
1.0
 40
0.984808
 41
3.141592653589793
 42
4.71238898038469
  0
ELLIPSE
  5
632
330
1F
100
AcDbEntity
  8
OBRYS
  6
CONTINUOUS
100
AcDbEllipse
 10
181.7655639233425
 20
148.3228426637213
 30
0.0
 11
0.2
 21
0.0
 31
0.0
210
0.0
220
0.0
230
1.0
 40
0.984808
 41
1.570796326794897
 42
3.141592653589865
  0
ELLIPSE
  5
633
330
1F
100
AcDbEntity
  8
OBRYS
  6
CONTINUOUS
100
AcDbEllipse
 10
199.1655639233425
 20
79.36283566372128
 30
0.0
 11
-0.2
 21
0.0
 31
0.0
210
0.0
220
0.0
230
1.0
 40
0.99863
 41
1.570796326794897
 42
3.141592653590006
  0
ELLIPSE
  5
634
330
1F
100
AcDbEntity
  8
OBRYS
  6
CONTINUOUS
100
AcDbEllipse
 10
181.7655639233425
 20
90.94000766372127
 30
0.0
 11
-0.2
 21
0.0
 31
0.0
210
0.0
220
0.0
230
1.0
 40
0.996195
 41
4.71238898038469
 42
6.283185307179163
  0
ELLIPSE
  5
635
330
1F
100
AcDbEntity
  8
OBRYS
  6
CONTINUOUS
100
AcDbEllipse
 10
199.1655639233425
 20
90.94000766372127
 30
0.0
 11
0.2
 21
0.0
 31
0.0
210
0.0
220
0.0
230
1.0
 40
0.99999
 41
0.0
 42
1.570796326794897
  0
ELLIPSE
  5
636
330
1F
100
AcDbEntity
  8
OBRYS
  6
CONTINUOUS
100
AcDbEllipse
 10
183.5334689233425
 20
79.36283566372128
 30
0.0
 11
0.1997554980715368
 21
0.009886404310579822
 31
0.0
210
0.0
220
0.0
230
1.0
 40
0.984771
 41
4.663688694038343
 42
6.232969673266655
  0
ELLIPSE
  5
637
330
1F
100
AcDbEntity
  8
OBRYS
  6
CONTINUOUS
100
AcDbEllipse
 10
183.5334689233425
 20
148.3228426637213
 30
0.0
 11
-0.1997554980715369
 21
0.009886404310579704
 31
0.0
210
0.0
220
0.0
230
1.0
 40
0.984771
 41
3.191808287502873
 42
4.761089266731036
  0
ELLIPSE
  5
638
330
1F
100
AcDbEntity
  8
OBRYS
  6
CONTINUOUS
100
AcDbEllipse
 10
187.0976599233425
 20
148.3228426637213
 30
0.0
 11
0.1974455214217665
 21
0.03186324011281266
 31
0.0
210
0.0
220
0.0
230
1.0
 40
0.998503
 41
1.411033801184735
 42
2.981358908177684
  0
ELLIPSE
  5
639
330
1F
100
AcDbEntity
  8
OBRYS
  6
CONTINUOUS
100
AcDbEllipse
 10
188.6834689233425
 20
148.3228426637213
 30
0.0
 11
-0.1974455214217666
 21
0.03186324011281223
 31
0.0
210
0.0
220
0.0
230
1.0
 40
0.998503
 41
3.30182639900237
 42
4.87215150599498
  0
ELLIPSE
  5
63A
330
1F
100
AcDbEntity
  8
OBRYS
  6
CONTINUOUS
100
AcDbEllipse
 10
192.2476599233425
 20
148.3228426637213
 30
0.0
 11
-0.1974455214217665
 21
-0.03186324011281266
 31
0.0
210
0.0
220
0.0
230
1.0
 40
0.998503
 41
4.55262645477454
 42
6.12295156176791
  0
ELLIPSE
  5
63B
330
1F
100
AcDbEntity
  8
OBRYS
  6
CONTINUOUS
100
AcDbEllipse
 10
193.8334689233425
 20
148.3228426637213
 30
0.0
 11
0.1974455214217666
 21
-0.03186324011281223
 31
0.0
210
0.0
220
0.0
230
1.0
 40
0.998503
 41
0.160233745411945
 42
1.730558852405123
  0
ELLIPSE
  5
63C
330
1F
100
AcDbEntity
  8
OBRYS
  6
CONTINUOUS
100
AcDbEllipse
 10
197.3976599233425
 20
148.3228426637213
 30
0.0
 11
0.1972835210253894
 21
0.03285136727481433
 31
0.0
210
0.0
220
0.0
230
1.0
 40
0.998592
 41
1.406019962937957
 42
2.976359578137135
  0
ELLIPSE
  5
63D
330
1F
100
AcDbEntity
  8
OBRYS
  6
CONTINUOUS
100
AcDbEllipse
 10
187.0976579233425
 20
79.36283566372128
 30
0.0
 11
-0.1974455214217666
 21
0.03186324011281223
 31
0.0
210
0.0
220
0.0
230
1.0
 40
0.998503
 41
0.1602337454121795
 42
1.730558852405047
  0
ELLIPSE
  5
63E
330
1F
100
AcDbEntity
  8
OBRYS
  6
CONTINUOUS
100
AcDbEllipse
 10
188.6834689233425
 20
79.36283566372128
 30
0.0
 11
0.1974455214217665
 21
0.03186324011281266
 31
0.0
210
0.0
220
0.0
230
1.0
 40
0.998503
 41
4.552626454774536
 42
6.1229515617676
  0
ELLIPSE
  5
63F
330
1F
100
AcDbEntity
  8
OBRYS
  6
CONTINUOUS
100
AcDbEllipse
 10
197.3976599233425
 20
79.36283566372128
 30
0.0
 11
0.1972835210253895
 21
-0.03285136727481387
 31
0.0
210
0.0
220
0.0
230
1.0
 40
0.9985920000000004
 41
3.306825729042785
 42
4.877165344241632
  0
ELLIPSE
  5
640
330
1F
100
AcDbEntity
  8
OBRYS
  6
CONTINUOUS
100
AcDbEllipse
 10
192.2476599233425
 20
79.36283566372128
 30
0.0
 11
-0.1974455214217666
 21
0.03186324011281223
 31
0.0
210
0.0
220
0.0
230
1.0
 40
0.998503
 41
0.1602337454123076
 42
1.730558852405047
  0
ELLIPSE
  5
641
330
1F
100
AcDbEntity
  8
OBRYS
  6
CONTINUOUS
100
AcDbEllipse
 10
193.8334689233425
 20
79.36283566372128
 30
0.0
 11
0.1974455214217665
 21
0.03186324011281266
 31
0.0
210
0.0
220
0.0
230
1.0
 40
0.998503
 41
4.552626454774536
 42
6.122951561767211
  0
ELLIPSE
  5
642
330
1F
100
AcDbEntity
  8
OBRYS
  6
CONTINUOUS
100
AcDbEllipse
 10
199.1655639233425
 20
148.3228426637213
 30
0.0
 11
0.2
 21
0.0
 31
0.0
210
0.0
220
0.0
230
1.0
 40
0.99863
 41
0.0
 42
1.570796326794897
  0
ELLIPSE
  5
644
330
1F
100
AcDbEntity
  8
OBRYS
  6
CONTINUOUS
100
AcDbEllipse
 10
194.9062319233425
 20
136.9521706637213
 30
0.0
 11
-0.0707322189169582
 21
0.07073221891695798
 31
0.0
210
0.0
220
0.0
230
1.0
 40
0.9996949999999999
 41
5.497939437029712
 42
7.068431177329464
  0
ELLIPSE
  5
646
330
1F
100
AcDbEntity
  8
OBRYS
  6
CONTINUOUS
100
AcDbEllipse
 10
186.0248959233425
 20
136.9521706637213
 30
0.0
 11
-0.07073221891695702
 21
-0.07073221891695915
 31
0.0
210
0.0
220
0.0
230
1.0
 40
0.999695
 41
2.356346783439927
 42
3.926838523739668
  0
ELLIPSE
  5
647
330
1F
100
AcDbEntity
  8
OBRYS
  6
CONTINUOUS
100
AcDbEllipse
 10
199.1655639233425
 20
136.6419678637213
 30
0.0
 11
-0.1999999999999919
 21
-2.342910729164954E-16
 31
0.0
210
0.0
220
0.0
230
-1.0
 40
0.995646
 41
3.141592653589793
 42
4.71238898038469
  0
ELLIPSE
  5
648
330
1F
100
AcDbEntity
  8
OBRYS
  6
CONTINUOUS
100
AcDbEllipse
 10
181.7655639233425
 20
136.6419678637216
 30
0.0
 11
-0.2000000000003481
 21
-2.342910729169126E-16
 31
0.0
210
0.0
220
0.0
230
-1.0
 40
0.995646
 41
4.71238898038469
 42
6.283185307179586
  0
ELLIPSE
  5
649
330
1F
100
AcDbEntity
  8
OBRYS
  6
CONTINUOUS
100
AcDbEllipse
 10
196.3248959233425
 20
136.9521706637213
 30
0.0
 11
-0.07073221891695702
 21
-0.07073221891695915
 31
0.0
210
0.0
220
0.0
230
1.0
 40
0.999695
 41
2.356346783439926
 42
3.926838523739668
  0
ELLIPSE
  5
64A
330
1F
100
AcDbEntity
  8
OBRYS
  6
CONTINUOUS
100
AcDbEllipse
 10
199.1655639233425
 20
80.55260466372128
 30
0.0
 11
-0.1999902051350043
 21
-0.002009896816167056
 31
0.0
210
0.0
220
0.0
230
-1.0
 40
0.9848050000000004
 41
3.151489594852964
 42
4.722285921650522
  0
ELLIPSE
  5
64B
330
1F
100
AcDbEntity
  8
OBRYS
  6
CONTINUOUS
100
AcDbEllipse
 10
184.6062319233424
 20
136.9521706637213
 30
0.0
 11
-0.0707322189169582
 21
0.07073221891695798
 31
0.0
210
0.0
220
0.0
230
1.0
 40
0.9996949999999999
 41
5.497939437029729
 42
7.068431177329465
  0
ELLIPSE
  5
64C
330
1F
100
AcDbEntity
  8
OBRYS
  6
CONTINUOUS
100
AcDbEllipse
 10
181.7655639233425
 20
80.55260466372128
 30
0.0
 11
-0.1999902051357977
 21
0.002009896799267648
 31
0.0
210
0.0
220
0.0
230
-1.0
 40
0.9848050000000002
 41
4.702492039211504
 42
6.273288366005672
  0
ELLIPSE
  5
64D
330
1F
100
AcDbEntity
  8
OBRYS
  6
CONTINUOUS
100
AcDbEllipse
 10
199.1655639233425
 20
147.1330736637213
 30
0.0
 11
-0.1999902051357785
 21
0.002009896799598231
 31
0.0
210
0.0
220
0.0
230
-1.0
 40
0.984805
 41
1.560899385620072
 42
3.131695712414203
  0
ELLIPSE
  5
64E
330
1F
100
AcDbEntity
  8
OBRYS
  6
CONTINUOUS
100
AcDbEllipse
 10
181.7655639233425
 20
147.1330736637213
 30
0.0
 11
-0.199990205135388
 21
-0.002009896808027713
 31
0.0
210
0.0
220
0.0
230
-1.0
 40
0.984805
 41
0.0098969412226242
 42
1.580693268018825
  0
ELLIPSE
  5
64F
330
1F
100
AcDbEntity
  8
OBRYS
  6
CONTINUOUS
100
AcDbEllipse
 10
181.7655639233425
 20
70.25260466372129
 30
0.0
 11
-0.1999902051347433
 21
0.002009896822782081
 31
0.0
210
0.0
220
0.0
230
-1.0
 40
0.9848050000000003
 41
4.702492039097733
 42
6.273288365890887
  0
ELLIPSE
  5
650
330
1F
100
AcDbEntity
  8
OBRYS
  6
CONTINUOUS
100
AcDbEllipse
 10
199.1655639233425
 20
70.25260466372129
 30
0.0
 11
-0.1999902051348935
 21
-0.002009896819348983
 31
0.0
210
0.0
220
0.0
230
-1.0
 40
0.9848050000000003
 41
3.151489594868093
 42
4.722285921660335
  0
ELLIPSE
  5
651
330
1F
100
AcDbEntity
  8
OBRYS
  6
CONTINUOUS
100
AcDbEllipse
 10
181.7655639233425
 20
157.4330736637213
 30
0.0
 11
-0.1999902051359166
 21
-0.002009896797397157
 31
0.0
210
0.0
220
0.0
230
-1.0
 40
0.9848050000000004
 41
0.0098969411704706
 42
1.580693267958146
  0
ELLIPSE
  5
652
330
1F
100
AcDbEntity
  8
OBRYS
  6
CONTINUOUS
100
AcDbEllipse
 10
199.1655639233425
 20
157.4330736637213
 30
0.0
 11
-0.1999902051350342
 21
0.002009896816433133
 31
0.0
210
0.0
220
0.0
230
-1.0
 40
0.984805
 41
1.560899385540216
 42
3.131695712331885
  0
LINE
  5
653
330
1F
100
AcDbEntity
  8
OBRYS
100
AcDbLine
 10
111.6754929233425
 20
70.80712166372129
 30
0.0
 11
111.6754929233425
 21
72.44109466372129
 31
0.0
  0
LINE
  5
657
330
1F
100
AcDbEntity
  8
OBRYS
100
AcDbLine
 10
111.6754929233425
 20
155.2237086637213
 30
0.0
 11
111.6754929233425
 21
156.8576816637213
 31
0.0
  0
LINE
  5
65E
330
1F
100
AcDbEntity
  8
OBRYS
100
AcDbLine
 10
136.8481839233424
 20
93.57240770310375
 30
0.0
 11
136.8481839233424
 21
95.49547066372128
 31
0.0
  0
CIRCLE
  5
65F
330
1F
100
AcDbEntity
  8
OBRYS
100
AcDbCircle
 10
185.3155639248301
 20
75.09521650874399
 30
0.0
 40
1.836350575908953
  0
LINE
  5
660
330
1F
100
AcDbEntity
  8
OBRYS
  6
CONTINUOUS
100
AcDbLine
 10
188.6797063582916
 20
74.66815039111846
 30
0.0
 11
192.2514282724267
 21
74.66815039111846
 31
0.0
  0
LINE
  5
661
330
1F
100
AcDbEntity
  8
OBRYS
  6
CONTINUOUS
100
AcDbLine
 10
192.2525551097945
 20
75.51752743969277
 30
0.0
 11
188.6785714405703
 21
75.51752742730078
 31
0.0
  0
ARC
  5
662
330
1F
100
AcDbEntity
  8
OBRYS
  6
CONTINUOUS
100
AcDbCircle
 10
-190.4655639233425
 20
75.0904606457948
 30
0.0
 40
1.634641252679278
210
0.0
220
0.0
230
-1.0
100
AcDbArc
 50
194.9722044090355
 51
345.0277955909646
  0
ARC
  5
663
330
1F
100
AcDbEntity
  8
OBRYS
  6
CONTINUOUS
100
AcDbCircle
 10
-190.4655639248301
 20
75.09521650874399
 30
0.0
 40
1.634641425793922
210
0.0
220
0.0
230
-1.0
100
AcDbArc
 50
14.97222689986084
 51
165.0277727028183
  0
CIRCLE
  5
664
330
1F
100
AcDbEntity
  8
OBRYS
  6
CONTINUOUS
100
AcDbCircle
 10
190.4655639233425
 20
75.09283866372128
 30
0.0
 40
1.99563623376795
  0
CIRCLE
  5
665
330
1F
100
AcDbEntity
  8
OBRYS
100
AcDbCircle
 10
190.4655639248301
 20
75.09521650874399
 30
0.0
 40
1.836350575908953
  0
LINE
  5
666
330
1F
100
AcDbEntity
  8
OBRYS
  6
CONTINUOUS
100
AcDbLine
 10
193.8297063582916
 20
74.66815039111846
 30
0.0
 11
197.4014282724267
 21
74.66815039111846
 31
0.0
  0
LINE
  5
667
330
1F
100
AcDbEntity
  8
OBRYS
  6
CONTINUOUS
100
AcDbLine
 10
197.4025551097945
 20
75.51752743969277
 30
0.0
 11
193.8285714405703
 21
75.51752742730078
 31
0.0
  0
ARC
  5
668
330
1F
100
AcDbEntity
  8
OBRYS
  6
CONTINUOUS
100
AcDbCircle
 10
-195.6155639233424
 20
75.0904606457948
 30
0.0
 40
1.634641252679278
210
0.0
220
0.0
230
-1.0
100
AcDbArc
 50
194.9722044090355
 51
345.0277955909646
  0
ARC
  5
669
330
1F
100
AcDbEntity
  8
OBRYS
  6
CONTINUOUS
100
AcDbCircle
 10
-195.6155639248301
 20
75.09521650874399
 30
0.0
 40
1.634641425793922
210
0.0
220
0.0
230
-1.0
100
AcDbArc
 50
14.97222689986084
 51
165.0277727028183
  0
CIRCLE
  5
66A
330
1F
100
AcDbEntity
  8
OBRYS
  6
CONTINUOUS
100
AcDbCircle
 10
195.6155639233424
 20
75.09283866372128
 30
0.0
 40
1.99563623376795
  0
CIRCLE
  5
66B
330
1F
100
AcDbEntity
  8
OBRYS
100
AcDbCircle
 10
195.6155639248301
 20
75.09521650874399
 30
0.0
 40
1.836350575908953
  0
CIRCLE
  5
670
330
1F
100
AcDbEntity
  8
OBRYS
  6
CONTINUOUS
100
AcDbCircle
 10
185.3155639218548
 20
85.59046081869857
 30
0.0
 40
1.99563623376795
  0
LINE
  5
672
330
1F
100
AcDbEntity
  8
OBRYS
  6
CONTINUOUS
100
AcDbLine
 10
188.679706356804
 20
85.16577254609578
 30
0.0
 11
192.2514282709391
 21
85.16577254609578
 31
0.0
  0
LINE
  5
673
330
1F
100
AcDbEntity
  8
OBRYS
  6
CONTINUOUS
100
AcDbLine
 10
192.2525551083069
 20
86.01514959467008
 30
0.0
 11
188.6785714390827
 21
86.0151495822781
 31
0.0
  0
ARC
  5
674
330
1F
100
AcDbEntity
  8
OBRYS
  6
CONTINUOUS
100
AcDbCircle
 10
-190.4655639218549
 20
85.58808280077213
 30
0.0
 40
1.634641252679278
210
0.0
220
0.0
230
-1.0
100
AcDbArc
 50
194.9722044090355
 51
345.0277955909646
  0
ARC
  5
675
330
1F
100
AcDbEntity
  8
OBRYS
  6
CONTINUOUS
100
AcDbCircle
 10
-190.4655639233425
 20
85.5928386637213
 30
0.0
 40
1.634641425793922
210
0.0
220
0.0
230
-1.0
100
AcDbArc
 50
14.97222689986084
 51
165.0277727028183
  0
CIRCLE
  5
676
330
1F
100
AcDbEntity
  8
OBRYS
  6
CONTINUOUS
100
AcDbCircle
 10
190.4655639218549
 20
85.59046081869857
 30
0.0
 40
1.99563623376795
  0
CIRCLE
  5
677
330
1F
100
AcDbEntity
  8
OBRYS
100
AcDbCircle
 10
190.4655639233425
 20
85.5928386637213
 30
0.0
 40
1.836350575908953
  0
CIRCLE
  5
67C
330
1F
100
AcDbEntity
  8
OBRYS
  6
CONTINUOUS
100
AcDbCircle
 10
195.6155639218548
 20
85.59046081869857
 30
0.0
 40
1.99563623376795
  0
LINE
  5
67E
330
1F
100
AcDbEntity
  8
OBRYS
  6
CONTINUOUS
100
AcDbLine
 10
183.529706356804
 20
152.1657725460958
 30
0.0
 11
187.1014282709391
 21
152.1657725460958
 31
0.0
  0
LINE
  5
67F
330
1F
100
AcDbEntity
  8
OBRYS
  6
CONTINUOUS
100
AcDbLine
 10
187.1025551083069
 20
153.0151495946701
 30
0.0
 11
183.5285714390827
 21
153.0151495822781
 31
0.0
  0
ARC
  5
680
330
1F
100
AcDbEntity
  8
OBRYS
  6
CONTINUOUS
100
AcDbCircle
 10
-185.3155639218548
 20
152.5880828007721
 30
0.0
 40
1.634641252679278
210
0.0
220
0.0
230
-1.0
100
AcDbArc
 50
194.9722044090355
 51
345.0277955909646
  0
ARC
  5
681
330
1F
100
AcDbEntity
  8
OBRYS
  6
CONTINUOUS
100
AcDbCircle
 10
-185.3155639233425
 20
152.5928386637213
 30
0.0
 40
1.634641425793922
210
0.0
220
0.0
230
-1.0
100
AcDbArc
 50
14.97222689986084
 51
165.0277727028183
  0
CIRCLE
  5
682
330
1F
100
AcDbEntity
  8
OBRYS
  6
CONTINUOUS
100
AcDbCircle
 10
185.3155639218548
 20
152.5904608186986
 30
0.0
 40
1.99563623376795
  0
CIRCLE
  5
683
330
1F
100
AcDbEntity
  8
OBRYS
100
AcDbCircle
 10
185.3155639233425
 20
152.5928386637213
 30
0.0
 40
1.836350575908953
  0
LINE
  5
684
330
1F
100
AcDbEntity
  8
OBRYS
  6
CONTINUOUS
100
AcDbLine
 10
188.679706356804
 20
152.1657725460958
 30
0.0
 11
192.2514282709391
 21
152.1657725460958
 31
0.0
  0
LINE
  5
685
330
1F
100
AcDbEntity
  8
OBRYS
  6
CONTINUOUS
100
AcDbLine
 10
192.2525551083069
 20
153.0151495946701
 30
0.0
 11
188.6785714390827
 21
153.0151495822781
 31
0.0
  0
ARC
  5
686
330
1F
100
AcDbEntity
  8
OBRYS
  6
CONTINUOUS
100
AcDbCircle
 10
-190.4655639218549
 20
152.5880828007721
 30
0.0
 40
1.634641252679278
210
0.0
220
0.0
230
-1.0
100
AcDbArc
 50
194.9722044090355
 51
345.0277955909646
  0
ARC
  5
687
330
1F
100
AcDbEntity
  8
OBRYS
  6
CONTINUOUS
100
AcDbCircle
 10
-190.4655639233425
 20
152.5928386637213
 30
0.0
 40
1.634641425793922
210
0.0
220
0.0
230
-1.0
100
AcDbArc
 50
14.97222689986084
 51
165.0277727028183
  0
CIRCLE
  5
688
330
1F
100
AcDbEntity
  8
OBRYS
  6
CONTINUOUS
100
AcDbCircle
 10
190.4655639218549
 20
152.5904608186986
 30
0.0
 40
1.99563623376795
  0
CIRCLE
  5
689
330
1F
100
AcDbEntity
  8
OBRYS
100
AcDbCircle
 10
190.4655639233425
 20
152.5928386637213
 30
0.0
 40
1.836350575908953
  0
LINE
  5
68A
330
1F
100
AcDbEntity
  8
OBRYS
  6
CONTINUOUS
100
AcDbLine
 10
193.829706356804
 20
152.1657725460958
 30
0.0
 11
197.4014282709391
 21
152.1657725460958
 31
0.0
  0
LINE
  5
68B
330
1F
100
AcDbEntity
  8
OBRYS
  6
CONTINUOUS
100
AcDbLine
 10
197.4025551083069
 20
153.0151495946701
 30
0.0
 11
193.8285714390827
 21
153.0151495822781
 31
0.0
  0
ARC
  5
68C
330
1F
100
AcDbEntity
  8
OBRYS
  6
CONTINUOUS
100
AcDbCircle
 10
-195.6155639218548
 20
152.5880828007721
 30
0.0
 40
1.634641252679278
210
0.0
220
0.0
230
-1.0
100
AcDbArc
 50
194.9722044090355
 51
345.0277955909646
  0
ARC
  5
68D
330
1F
100
AcDbEntity
  8
OBRYS
  6
CONTINUOUS
100
AcDbCircle
 10
-195.6155639233424
 20
152.5928386637213
 30
0.0
 40
1.634641425793922
210
0.0
220
0.0
230
-1.0
100
AcDbArc
 50
14.97222689986084
 51
165.0277727028183
  0
CIRCLE
  5
68E
330
1F
100
AcDbEntity
  8
OBRYS
  6
CONTINUOUS
100
AcDbCircle
 10
195.6155639218548
 20
152.5904608186986
 30
0.0
 40
1.99563623376795
  0
CIRCLE
  5
68F
330
1F
100
AcDbEntity
  8
OBRYS
100
AcDbCircle
 10
195.6155639233424
 20
152.5928386637213
 30
0.0
 40
1.836350575908953
  0
CIRCLE
  5
694
330
1F
100
AcDbEntity
  8
OBRYS
  6
CONTINUOUS
100
AcDbCircle
 10
185.3155639218548
 20
142.0904608186986
 30
0.0
 40
1.99563623376795
  0
LINE
  5
696
330
1F
100
AcDbEntity
  8
OBRYS
  6
CONTINUOUS
100
AcDbLine
 10
188.679706356804
 20
141.6657725460958
 30
0.0
 11
192.2514282709391
 21
141.6657725460958
 31
0.0
  0
LINE
  5
697
330
1F
100
AcDbEntity
  8
OBRYS
  6
CONTINUOUS
100
AcDbLine
 10
192.2525551083069
 20
142.5151495946701
 30
0.0
 11
188.6785714390827
 21
142.5151495822781
 31
0.0
  0
ARC
  5
698
330
1F
100
AcDbEntity
  8
OBRYS
  6
CONTINUOUS
100
AcDbCircle
 10
-190.4655639218549
 20
142.0880828007721
 30
0.0
 40
1.634641252679278
210
0.0
220
0.0
230
-1.0
100
AcDbArc
 50
194.9722044090355
 51
345.0277955909646
  0
ARC
  5
699
330
1F
100
AcDbEntity
  8
OBRYS
  6
CONTINUOUS
100
AcDbCircle
 10
-190.4655639233425
 20
142.0928386637213
 30
0.0
 40
1.634641425793922
210
0.0
220
0.0
230
-1.0
100
AcDbArc
 50
14.97222689986084
 51
165.0277727028183
  0
CIRCLE
  5
69A
330
1F
100
AcDbEntity
  8
OBRYS
  6
CONTINUOUS
100
AcDbCircle
 10
190.4655639218549
 20
142.0904608186986
 30
0.0
 40
1.99563623376795
  0
CIRCLE
  5
69B
330
1F
100
AcDbEntity
  8
OBRYS
100
AcDbCircle
 10
190.4655639233425
 20
142.0928386637213
 30
0.0
 40
1.836350575908953
  0
CIRCLE
  5
6A0
330
1F
100
AcDbEntity
  8
OBRYS
  6
CONTINUOUS
100
AcDbCircle
 10
195.6155639218548
 20
142.0904608186986
 30
0.0
 40
1.99563623376795
  0
ARC
  5
6A2
330
1F
100
AcDbEntity
  8
OBRYS
100
AcDbCircle
 10
198.0796975577457
 20
135.2539512906413
 30
0.0
 40
1.088979095701353
100
AcDbArc
 50
4.332949168530589
 51
90.74365094826014
  0
ARC
  5
6A3
330
1F
100
AcDbEntity
  8
OBRYS
100
AcDbCircle
 10
182.8514305369647
 20
135.2539515914636
 30
0.0
 40
1.088978791685378
100
AcDbArc
 50
89.25636189488968
 51
175.667065492405
  0
ARC
  5
6A4
330
1F
100
AcDbEntity
  8
OBRYS
100
AcDbCircle
 10
182.8514316924258
 20
92.43172691992939
 30
0.0
 40
1.088979960540406
100
AcDbArc
 50
184.3329415086067
 51
270.7435765081331
  0
ARC
  5
6A5
330
1F
100
AcDbEntity
  8
OBRYS
100
AcDbCircle
 10
198.0796966328676
 20
92.43172665059643
 30
0.0
 40
1.088979697441375
100
AcDbArc
 50
269.2563981284915
 51
355.6670924746859
  0
MTEXT
  5
6A7
330
1F
100
AcDbEntity
  8
POPISKY
100
AcDbMText
 10
184.9115660006495
 20
156.8576820195635
 30
0.0
 40
1.8
 41
0.872044694698161
 71
     1
 72
     1
  1
{\fArial|b0|i0|c0|p0;1}
1001
ACAD
1000
ACAD_MTEXT_DEFINED_HEIGHT_BEGIN
1070
    46
1040
1.8
1000
ACAD_MTEXT_DEFINED_HEIGHT_END
  0
MTEXT
  5
6A8
330
1F
100
AcDbEntity
  8
POPISKY
100
AcDbMText
 10
189.9057142564859
 20
156.8576820195635
 30
0.0
 40
1.8
 41
1.282232783770894
 71
     1
 72
     1
  1
{\fArial|b0|i0|c0|p0;3}
1001
ACAD
1000
ACAD_MTEXT_DEFINED_HEIGHT_BEGIN
1070
    46
1040
1.8
1000
ACAD_MTEXT_DEFINED_HEIGHT_END
  0
MTEXT
  5
6A9
330
1F
100
AcDbEntity
  8
POPISKY
100
AcDbMText
 10
195.0117655111205
 20
156.8576820195635
 30
0.0
 40
1.8
 41
1.675486051257053
 71
     1
 72
     1
  1
{\fArial|b0|i0|c0|p0;5}
1001
ACAD
1000
ACAD_MTEXT_DEFINED_HEIGHT_BEGIN
1070
    46
1040
1.8
1000
ACAD_MTEXT_DEFINED_HEIGHT_END
  0
MTEXT
  5
6AA
330
1F
100
AcDbEntity
  8
POPISKY
100
AcDbMText
 10
184.7774957544121
 20
146.4294395022953
 30
0.0
 40
1.8
 41
1.204840982865164
 71
     1
 72
     1
  1
{\fArial|b0|i0|c0|p0;7}
1001
ACAD
1000
ACAD_MTEXT_DEFINED_HEIGHT_BEGIN
1070
    46
1040
1.8
1000
ACAD_MTEXT_DEFINED_HEIGHT_END
  0
MTEXT
  5
6AB
330
1F
100
AcDbEntity
  8
POPISKY
100
AcDbMText
 10
189.9094710755342
 20
146.4294395022953
 30
0.0
 40
1.8
 41
1.281343864211948
 71
     1
 72
     1
  1
{\fArial|b0|i0|c0|p0;9}
1001
ACAD
1000
ACAD_MTEXT_DEFINED_HEIGHT_BEGIN
1070
    46
1040
1.8
1000
ACAD_MTEXT_DEFINED_HEIGHT_END
  0
MTEXT
  5
6AC
330
1F
100
AcDbEntity
  8
POPISKY
100
AcDbMText
 10
194.4792225691604
 20
146.4294395022953
 30
0.0
 40
1.8
 41
2.308848471523561
 71
     1
 72
     1
  1
{\fArial|b0|i0|c0|p0;11}
1001
ACAD
1000
ACAD_MTEXT_DEFINED_HEIGHT_BEGIN
1070
    46
1040
1.8
1000
ACAD_MTEXT_DEFINED_HEIGHT_END
  0
MTEXT
  5
6AD
330
1F
100
AcDbEntity
  8
POPISKY
100
AcDbMText
 10
184.7345158482856
 20
82.84109424986079
 30
0.0
 40
1.8
 41
1.220104380301251
 71
     1
 72
     1
  1
{\fArial|b0|i0|c0|p0;8}
1001
ACAD
1000
ACAD_MTEXT_DEFINED_HEIGHT_BEGIN
1070
    46
1040
1.8
1000
ACAD_MTEXT_DEFINED_HEIGHT_END
  0
MTEXT
  5
6AE
330
1F
100
AcDbEntity
  8
POPISKY
100
AcDbMText
 10
189.3344060104531
 20
82.84109424986082
 30
0.0
 40
1.8
 41
2.545042103175263
 71
     1
 72
     1
  1
{\fArial|b0|i0|c0|p0;10}
1001
ACAD
1000
ACAD_MTEXT_DEFINED_HEIGHT_BEGIN
1070
    46
1040
1.8
1000
ACAD_MTEXT_DEFINED_HEIGHT_END
  0
MTEXT
  5
6AF
330
1F
100
AcDbEntity
  8
POPISKY
100
AcDbMText
 10
194.4981479770067
 20
82.84109424986079
 30
0.0
 40
1.8
 41
2.496707511899132
 71
     1
 72
     1
  1
{\fArial|b0|i0|c0|p0;12}
1001
ACAD
1000
ACAD_MTEXT_DEFINED_HEIGHT_BEGIN
1070
    46
1040
1.8
1000
ACAD_MTEXT_DEFINED_HEIGHT_END
  0
MTEXT
  5
6B0
330
1F
100
AcDbEntity
  8
POPISKY
100
AcDbMText
 10
184.695472176861
 20
72.44109424985999
 30
0.0
 40
1.8
 41
1.675486051257053
 71
     1
 72
     1
  1
{\fArial|b0|i0|c0|p0;2}
1001
ACAD
1000
ACAD_MTEXT_DEFINED_HEIGHT_BEGIN
1070
    46
1040
1.8
1000
ACAD_MTEXT_DEFINED_HEIGHT_END
  0
MTEXT
  5
6B1
330
1F
100
AcDbEntity
  8
POPISKY
100
AcDbMText
 10
189.7749156569574
 20
72.44109424985997
 30
0.0
 40
1.8
 41
1.384502904127345
 71
     1
 72
     1
  1
{\fArial|b0|i0|c0|p0;4}
1001
ACAD
1000
ACAD_MTEXT_DEFINED_HEIGHT_BEGIN
1070
    46
1040
1.8
1000
ACAD_MTEXT_DEFINED_HEIGHT_END
  0
MTEXT
  5
6B2
330
1F
100
AcDbEntity
  8
POPISKY
100
AcDbMText
 10
195.0204425514966
 20
72.44109424985999
 30
0.0
 40
1.8
 41
1.285687402733998
 71
     1
 72
     1
  1
{\fArial|b0|i0|c0|p0;6}
1001
ACAD
1000
ACAD_MTEXT_DEFINED_HEIGHT_BEGIN
1070
    46
1040
1.8
1000
ACAD_MTEXT_DEFINED_HEIGHT_END
  0
LINE
  5
6B3
330
1F
100
AcDbEntity
  8
OBRYS
100
AcDbLine
 10
138.6254929233424
 20
95.49547066372128
 30
0.0
 11
138.6254879233425
 21
95.44497166372128
 31
0.0
  0
DIMENSION
  5
6B4
330
1F
100
AcDbEntity
  8
KOTY
100
AcDbDimension
  2
*D1
 10
119.1254929233425
 20
112.6507822667586
 30
0.0
 11
128.9754929233425
 21
115.1822822667585
 31
0.0
 70
    32
  3
STANDARD
100
AcDbAlignedDimension
 13
138.8254929233425
 23
112.6617889072416
 33
0.0
 14
119.1254929233425
 24
112.6507822667586
 34
0.0
100
AcDbRotatedDimension
1001
ACAD
1000
DSTYLE
1002
{
1070
   287
1070
     5
1070
   271
1070
     0
1070
   278
1070
    44
1070
    73
1070
     0
1070
    77
1070
     1
1070
   140
1040
3.0
1070
   147
1040
1.0
1070
    41
1040
3.0
1070
   279
1070
     2
1002
}
  0
DIMENSION
  5
6B7
330
1F
100
AcDbEntity
  8
KOTY
100
AcDbDimension
  2
*D2
 10
61.23696400830629
 20
91.3428386637213
 30
0.0
 11
58.71146400830629
 21
113.8428386637213
 31
0.0
 70
    32
  3
STANDARD
100
AcDbAlignedDimension
 13
73.82549292334247
 23
136.3428386637213
 33
0.0
 14
73.82549292334247
 24
91.3428386637213
 34
0.0
 50
90.0
100
AcDbRotatedDimension
1001
ACAD
1000
DSTYLE
1002
{
1070
   287
1070
     5
1070
   271
1070
     0
1070
   278
1070
    44
1070
    73
1070
     0
1070
    77
1070
     1
1070
   140
1040
3.0
1070
   147
1040
1.0
1070
    41
1040
3.0
1070
   279
1070
     2
1002
}
  0
DIMENSION
  5
6BA
330
1F
100
AcDbEntity
  8
KOTY
100
AcDbDimension
  2
*D3
 10
47.4205002012016
 20
68.94283866372129
 30
0.0
 11
44.88900020120161
 21
113.8428386637213
 31
0.0
 70
    32
  3
STANDARD
100
AcDbAlignedDimension
 13
119.5656569233425
 23
158.7428386637213
 33
0.0
 14
119.5656569233425
 24
68.94283866372129
 34
0.0
 50
90.0
100
AcDbRotatedDimension
1001
ACAD
1000
DSTYLE
1002
{
1070
   287
1070
     5
1070
   271
1070
     0
1070
   278
1070
    44
1070
    73
1070
     0
1070
    77
1070
     1
1070
   140
1040
3.0
1070
   147
1040
1.0
1070
    41
1040
3.0
1070
   279
1070
     2
1002
}
  0
DIMENSION
  5
6BD
330
1F
100
AcDbEntity
  8
KOTY
100
AcDbDimension
  2
*D4
 10
199.3655639233424
 20
57.53316973650949
 30
0.0
 11
190.4655639233425
 21
60.06466973650949
 31
0.0
 70
    32
  3
STANDARD
100
AcDbAlignedDimension
 13
181.5655639233425
 23
69.14283866372129
 33
0.0
 14
199.3655639233424
 24
69.14283866372129
 34
0.0
100
AcDbRotatedDimension
1001
ACAD
1000
DSTYLE
1002
{
1070
   287
1070
     5
1070
   271
1070
     0
1070
   278
1070
    44
1070
    73
1070
     0
1070
    77
1070
     1
1070
   140
1040
3.0
1070
   147
1040
1.0
1070
    41
1040
3.0
1070
   279
1070
     2
1002
}
  0
DIMENSION
  5
6C0
330
1F
100
AcDbEntity
  8
KOTY
100
AcDbDimension
  2
*D5
 10
144.5254929233425
 20
33.98885617292432
 30
0.0
 11
108.5254929233425
 21
36.49485617292432
 31
0.0
 70
    32
  3
STANDARD
100
AcDbAlignedDimension
 13
72.52549292334245
 23
91.70076266372129
 33
0.0
 14
144.5254929233425
 24
64.74834366372129
 34
0.0
100
AcDbRotatedDimension
1001
ACAD
1000
DSTYLE
1002
{
1070
   287
1070
     5
1070
   271
1070
     0
1070
   278
1070
    44
1070
    73
1070
     0
1070
    77
1070
     1
1070
   140
1040
3.0
1070
   147
1040
1.0
1070
    41
1040
3.0
1070
   279
1070
     2
1002
}
  0
DIMENSION
  5
6C3
330
1F
100
AcDbEntity
  8
KOTY
100
AcDbDimension
  2
*D6
 10
138.8254929233425
 20
45.50906261490457
 30
0.0
 11
105.6754929233425
 21
48.04056261490457
 31
0.0
 70
    32
  3
STANDARD
100
AcDbAlignedDimension
 13
72.52549292334245
 23
91.70076266372129
 33
0.0
 14
138.8254929233425
 24
95.43798734600185
 34
0.0
100
AcDbRotatedDimension
1001
ACAD
1000
DSTYLE
1002
{
1070
   287
1070
     5
1070
   271
1070
     0
1070
   278
1070
    44
1070
    73
1070
     0
1070
    77
1070
     1
1070
   140
1040
3.0
1070
   147
1040
1.0
1070
    41
1040
3.0
1070
   279
1070
     2
1002
}
  0
DIMENSION
  5
6C6
330
1F
100
AcDbEntity
  8
KOTY
100
AcDbDimension
  2
*D7
 10
138.8254929233425
 20
57.53316973650949
 30
0.0
 11
116.5754929233425
 21
60.03316973650949
 31
0.0
 70
    32
  1
44
  3
STANDARD
100
AcDbAlignedDimension
 13
94.32549292334247
 23
80.76355766372129
 33
0.0
 14
138.8254929233425
 24
95.43798734600185
 34
0.0
100
AcDbRotatedDimension
1001
ACAD
1000
DSTYLE
1002
{
1070
   287
1070
     5
1070
   271
1070
     0
1070
   278
1070
    44
1070
    73
1070
     0
1070
    77
1070
     1
1070
   140
1040
3.0
1070
   147
1040
1.0
1070
    41
1040
3.0
1070
   279
1070
     2
1002
}
  0
DIMENSION
  5
6C9
330
1F
100
AcDbEntity
  8
KOTY
100
AcDbDimension
  2
*D8
 10
144.5254929233425
 20
57.53316973650949
 30
0.0
 11
141.6754929233425
 21
60.06466973650949
 31
0.0
 70
    32
  3
STANDARD
100
AcDbAlignedDimension
 13
138.8254929233425
 23
95.43798734600185
 33
0.0
 14
144.5254929233425
 24
64.74834366372129
 34
0.0
100
AcDbRotatedDimension
1001
ACAD
1000
DSTYLE
1002
{
1070
   287
1070
     5
1070
   271
1070
     0
1070
   278
1070
    44
1070
    73
1070
     0
1070
    77
1070
     1
1070
   140
1040
3.0
1070
   147
1040
1.0
1070
    41
1040
3.0
1070
   279
1070
     2
1002
}
  0
LINE
  5
813
330
1F
100
AcDbEntity
  8
OBRYS
  6
CONTINUOUS
100
AcDbLine
 10
138.5254929233425
 20
69.96084466372128
 30
0.0
 11
140.0254929233425
 21
69.90855581367708
 31
0.0
  0
LINE
  5
814
330
1F
100
AcDbEntity
  8
OBRYS
  6
CONTINUOUS
100
AcDbLine
 10
140.0254929233425
 20
68.9099583372608
 30
0.0
 11
138.5254929233425
 21
68.96145366372129
 31
0.0
  0
LINE
  5
815
330
1F
100
AcDbEntity
  8
OBRYS
  6
CONTINUOUS
100
AcDbLine
 10
138.5254929233425
 20
68.96145366372129
 30
0.0
 11
138.5254929233425
 21
72.94360866372128
 31
0.0
  0
LINE
  5
816
330
1F
100
AcDbEntity
  8
OBRYS
  6
CONTINUOUS
100
AcDbLine
 10
140.0254929233425
 20
64.70907266372127
 30
0.0
 11
140.0254929233425
 21
72.94381266372127
 31
0.0
  0
LINE
  5
819
330
1F
100
AcDbEntity
  8
OBRYS
  6
CONTINUOUS
100
AcDbLine
 10
144.5254929233425
 20
64.74834366372129
 30
0.0
 11
140.0254929233425
 21
64.70907266372127
 31
0.0
  0
LINE
  5
81A
330
1F
100
AcDbEntity
  8
OBRYS
  6
CONTINUOUS
100
AcDbLine
 10
140.0254929233425
 20
66.20922012496968
 30
0.0
 11
144.5254929233425
 21
66.24828666372127
 31
0.0
  0
LINE
  5
820
330
1F
100
AcDbEntity
  8
OBRYS
  6
CONTINUOUS
100
AcDbLine
 10
194.3960836938974
 20
66.4122716637213
 30
0.0
 11
194.3960836938974
 21
68.94283866372129
 31
0.0
  0
LINE
  5
821
330
1F
100
AcDbEntity
  8
OBRYS
  6
CONTINUOUS
100
AcDbLine
 10
195.4655576938974
 20
66.24278166372129
 30
0.0
 11
195.4655576938974
 21
68.94283866372129
 31
0.0
  0
LINE
  5
822
330
1F
100
AcDbEntity
  8
OBRYS
  6
CONTINUOUS
100
AcDbLine
 10
186.9655006938974
 20
64.74283866372129
 30
0.0
 11
193.9656146938974
 21
64.74283866372129
 31
0.0
  0
LINE
  5
823
330
1F
100
AcDbEntity
  8
OBRYS
  6
CONTINUOUS
100
AcDbLine
 10
185.4655576938974
 20
66.24278166372129
 30
0.0
 11
185.4655576938974
 21
68.94283866372129
 31
0.0
  0
LINE
  5
824
330
1F
100
AcDbEntity
  8
OBRYS
  6
CONTINUOUS
100
AcDbLine
 10
187.1349726938974
 20
65.81229466372129
 30
0.0
 11
193.7961066938974
 21
65.81229466372129
 31
0.0
  0
LINE
  5
825
330
1F
100
AcDbEntity
  8
OBRYS
  6
CONTINUOUS
100
AcDbLine
 10
186.5349956938974
 20
68.94283866372129
 30
0.0
 11
186.5349956938974
 21
66.4122716637213
 31
0.0
  0
ELLIPSE
  5
826
330
1F
100
AcDbEntity
  8
OBRYS
  6
CONTINUOUS
100
AcDbEllipse
 10
186.9656146938974
 20
66.2428956637213
 30
0.0
 11
-1.060740946696319
 21
-1.06074094669635
 31
0.0
210
0.0
220
0.0
230
1.0
 40
0.999924
 41
5.49782521998686
 42
7.068545394372315
  0
ELLIPSE
  5
827
330
1F
100
AcDbEntity
  8
OBRYS
  6
CONTINUOUS
100
AcDbEllipse
 10
193.7960606938974
 20
66.4123176637213
 30
0.0
 11
-0.4242963786785334
 21
0.4242963786785334
 31
0.0
210
0.0
220
0.0
230
-1.0
 40
0.999924
 41
2.356232566403284
 42
3.926952740776302
  0
ELLIPSE
  5
828
330
1F
100
AcDbEntity
  8
OBRYS
  6
CONTINUOUS
100
AcDbEllipse
 10
193.9655006938974
 20
66.2428956637213
 30
0.0
 11
-1.060740946696334
 21
1.060740946696331
 31
0.0
210
0.0
220
0.0
230
1.0
 40
0.999924
 41
2.356232566409503
 42
3.926952740770083
  0
ELLIPSE
  5
829
330
1F
100
AcDbEntity
  8
OBRYS
  6
CONTINUOUS
100
AcDbEllipse
 10
187.1350186938974
 20
66.4123176637213
 30
0.0
 11
0.4242963786785334
 21
0.4242963786785334
 31
0.0
210
0.0
220
0.0
230
-1.0
 40
0.999924
 41
2.356232566403284
 42
3.926952740776302
  0
DIMENSION
  5
8A0
330
1F
100
AcDbEntity
  8
KOTY
100
AcDbDimension
  2
*D11
 10
154.6662672274972
 20
64.74834366372129
 30
0.0
 11
152.1347672274972
 21
111.7455911637213
 31
0.0
 70
    32
  3
STANDARD
100
AcDbAlignedDimension
 13
142.9019199233425
 23
158.7428386637212
 33
0.0
 14
144.5254929233425
 24
64.74834366372129
 34
0.0
 50
90.0
100
AcDbRotatedDimension
1001
ACAD
1000
DSTYLE
1002
{
1070
   287
1070
     5
1070
   271
1070
     0
1070
   278
1070
    44
1070
   140
1040
3.0
1070
    73
1070
     0
1070
    77
1070
     1
1070
   147
1040
1.0
1070
    41
1040
3.0
1070
   279
1070
     2
1002
}
  0
VIEWPORT
  5
72D
330
58
100
AcDbEntity
 67
     1
  8
0
100
AcDbViewport
 10
0.0
 20
0.0
 30
0.0
 40
8.976
 41
6.936000000000001
 68
     1
 69
     1
1001
ACAD
1000
MVIEW
1002
{
1070
    16
1010
0.0
1020
0.0
1030
0.0
1010
0.0
1020
0.0
1030
1.0
1040
0.0
1040
6.936000000000001
1040
5.25
1040
4.0
1040
50.0
1040
0.0
1040
0.0
1070
     0
1070
   100
1070
     0
1070
     3
1070
     0
1070
     0
1070
     0
1070
     0
1040
0.0
1040
0.0
1040
0.0
1040
0.5
1040
0.5
1040
0.0
1040
0.0
1070
     0
1002
{
1002
}
1002
}
  0
VIEWPORT
  5
72E
330
58
100
AcDbEntity
 67
     1
  8
0
100
AcDbViewport
 10
5.25
 20
4.0
 30
0.0
 40
8.4
 41
6.4
 68
     2
 69
     2
1001
ACAD
1000
MVIEW
1002
{
1070
    16
1010
0.0
1020
0.0
1030
0.0
1010
0.0
1020
0.0
1030
1.0
1040
0.0
1040
127.7590621406129
1040
121.3585320622746
1040
96.1158474183228
1040
50.0
1040
0.0
1040
0.0
1070
     0
1070
   100
1070
     0
1070
     3
1070
     0
1070
     0
1070
     0
1070
     0
1040
0.0
1040
0.0
1040
0.0
1040
0.5
1040
0.5
1040
0.0
1040
0.0
1070
     0
1002
{
1002
}
1002
}
  0
ENDSEC
  0
SECTION
  2
OBJECTS
  0
DICTIONARY
  5
C
330
0
100
AcDbDictionary
  3
ACAD_DETAILVIEWSTYLE
350
122
  3
ACAD_GROUP
350
D
  3
ACAD_IMAGE_VARS
350
DC
  3
ACAD_MLINESTYLE
350
17
  3
ACAD_SCALELIST
350
8B2
  3
ACAD_SECTIONVIEWSTYLE
350
123
  3
ACDBVARIABLEDICTIONARY
350
66
  3
APPDATA
350
E1
  3
DWGPROPS
350
8F8
  0
DICTIONARY
  5
84A
330
2
100
AcDbDictionary
280
     1
  3
ACAD_LAYERSTATES
360
84B
  3
ACLYDICTIONARY
360
858
  0
DICTIONARY
  5
122
102
{ACAD_REACTORS
330
C
102
}
330
C
100
AcDbDictionary
  0
DICTIONARY
  5
D
102
{ACAD_REACTORS
330
C
102
}
330
C
100
AcDbDictionary
  0
RASTERVARIABLES
  5
DC
102
{ACAD_REACTORS
330
C
102
}
330
C
100
AcDbRasterVariables
 90
        0
 70
     1
 71
     1
 72
     5
  0
DICTIONARY
  5
17
102
{ACAD_REACTORS
330
C
102
}
330
C
100
AcDbDictionary
  3
STANDARD
350
18
  0
DICTIONARY
  5
8B2
102
{ACAD_REACTORS
330
C
102
}
330
C
100
AcDbDictionary
  0
DICTIONARY
  5
123
102
{ACAD_REACTORS
330
C
102
}
330
C
100
AcDbDictionary
  0
DICTIONARY
  5
66
102
{ACAD_REACTORS
330
C
102
}
330
C
100
AcDbDictionary
  3
DIMASSOC
350
67
  3
HIDETEXT
350
6B
  0
DICTIONARY
  5
E1
102
{ACAD_REACTORS
330
C
102
}
330
C
100
AcDbDictionary
  0
XRECORD
  5
8F8
102
{ACAD_REACTORS
330
C
102
}
330
C
100
AcDbXrecord
  1
DWGPROPS COOKIE
  2

  3

  4

  6

  7

  8
jaromir.podrabsky
  9

300
=
301
=
302
=
303
=
304
=
305
=
306
=
307
=
308
=
309
=
 40
0.0
 41
2452643.063384259
 42
2457070.259125347
  1

 90
        0
  0
DICTIONARY
  5
84B
102
{ACAD_REACTORS
330
84A
102
}
330
84A
100
AcDbDictionary
  0
DICTIONARY
  5
858
102
{ACAD_REACTORS
330
84A
102
}
330
84A
100
AcDbDictionary
1001
ACAD
1000
<All
  0
MLINESTYLE
  5
18
102
{ACAD_REACTORS
330
17
102
}
330
17
100
AcDbMlineStyle
  2
STANDARD
 70
     0
  3

 62
   256
 51
90.0
 52
90.0
 71
     2
 49
0.5
 62
   256
  6
BYLAYER
 49
-0.5
 62
   256
  6
BYLAYER
  0
DICTIONARYVAR
  5
67
102
{ACAD_REACTORS
330
66
102
}
330
66
100
DictionaryVariables
280
     0
  1
2
  0
DICTIONARYVAR
  5
6B
102
{ACAD_REACTORS
330
66
102
}
330
66
100
DictionaryVariables
280
     0
  1
1
  0
ENDSEC
  0
EOF
