  0
SECTION
  2
HEADER
  9
$ACADVER
  1
AC1014
  9
$ACADMAINTVER
 70
     9
  9
$DWGCODEPAGE
  3
ANSI_1252
  9
$INSBASE
 10
0.0
 20
0.0
 30
0.0
  9
$EXTMIN
 10
249.1597316933882
 20
101.6572727407069
 30
0.0
  9
$EXTMAX
 10
382.4177977151501
 20
213.5649878647452
 30
0.0
  9
$LIMMIN
 10
0.0
 20
0.0
  9
$LIMMAX
 10
12.0
 20
9.0
  9
$ORTHOMODE
 70
     0
  9
$REGENMODE
 70
     1
  9
$FILLMODE
 70
     1
  9
$QTEXTMODE
 70
     0
  9
$MIRRTEXT
 70
     0
  9
$DRAGMODE
 70
     2
  9
$LTSCALE
 40
1.0
  9
$OSMODE
 70
   511
  9
$ATTMODE
 70
     1
  9
$TEXTSIZE
 40
0.2
  9
$TRACEWID
 40
0.05
  9
$TEXTSTYLE
  7
STANDARD
  9
$CLAYER
  8
0
  9
$CELTYPE
  6
BYLAYER
  9
$CECOLOR
 62
   256
  9
$CELTSCALE
 40
1.0
  9
$DELOBJ
 70
     1
  9
$DISPSILH
 70
     0
  9
$DIMSCALE
 40
1.0
  9
$DIMASZ
 40
0.18
  9
$DIMEXO
 40
0.0625
  9
$DIMDLI
 40
0.38
  9
$DIMRND
 40
0.0
  9
$DIMDLE
 40
0.0
  9
$DIMEXE
 40
0.18
  9
$DIMTP
 40
0.0
  9
$DIMTM
 40
0.0
  9
$DIMTXT
 40
0.18
  9
$DIMCEN
 40
0.09
  9
$DIMTSZ
 40
0.0
  9
$DIMTOL
 70
     0
  9
$DIMLIM
 70
     0
  9
$DIMTIH
 70
     1
  9
$DIMTOH
 70
     1
  9
$DIMSE1
 70
     0
  9
$DIMSE2
 70
     0
  9
$DIMTAD
 70
     0
  9
$DIMZIN
 70
     0
  9
$DIMBLK
  1

  9
$DIMASO
 70
     1
  9
$DIMSHO
 70
     1
  9
$DIMPOST
  1

  9
$DIMAPOST
  1

  9
$DIMALT
 70
     0
  9
$DIMALTD
 70
     2
  9
$DIMALTF
 40
25.4
  9
$DIMLFAC
 40
1.0
  9
$DIMTOFL
 70
     0
  9
$DIMTVP
 40
0.0
  9
$DIMTIX
 70
     0
  9
$DIMSOXD
 70
     0
  9
$DIMSAH
 70
     0
  9
$DIMBLK1
  1

  9
$DIMBLK2
  1

  9
$DIMSTYLE
  2
STANDARD
  9
$DIMCLRD
 70
     0
  9
$DIMCLRE
 70
     0
  9
$DIMCLRT
 70
     0
  9
$DIMTFAC
 40
1.0
  9
$DIMGAP
 40
0.09
  9
$DIMJUST
 70
     0
  9
$DIMSD1
 70
     0
  9
$DIMSD2
 70
     0
  9
$DIMTOLJ
 70
     1
  9
$DIMTZIN
 70
     0
  9
$DIMALTZ
 70
     0
  9
$DIMALTTZ
 70
     0
  9
$DIMFIT
 70
     5
  9
$DIMUPT
 70
     0
  9
$DIMUNIT
 70
     2
  9
$DIMDEC
 70
     4
  9
$DIMTDEC
 70
     4
  9
$DIMALTU
 70
     2
  9
$DIMALTTD
 70
     2
  9
$DIMTXSTY
  7
STANDARD
  9
$DIMAUNIT
 70
     0
  9
$LUNITS
 70
     2
  9
$LUPREC
 70
     4
  9
$SKETCHINC
 40
0.1
  9
$FILLETRAD
 40
0.0
  9
$AUNITS
 70
     0
  9
$AUPREC
 70
     0
  9
$MENU
  1
.
  9
$ELEVATION
 40
0.0
  9
$PELEVATION
 40
0.0
  9
$THICKNESS
 40
0.0
  9
$LIMCHECK
 70
     0
  9
$CHAMFERA
 40
0.0
  9
$CHAMFERB
 40
0.0
  9
$CHAMFERC
 40
0.0
  9
$CHAMFERD
 40
0.0
  9
$SKPOLY
 70
     0
  9
$TDCREATE
 40
2452643.146717593
  9
$TDUPDATE
 40
2457953.324616007
  9
$TDINDWG
 40
0.0018159028
  9
$TDUSRTIMER
 40
2457953.241214977
  9
$USRTIMER
 70
     1
  9
$ANGBASE
 50
0.0
  9
$ANGDIR
 70
     0
  9
$PDMODE
 70
     0
  9
$PDSIZE
 40
0.0
  9
$PLINEWID
 40
0.0
  9
$COORDS
 70
     1
  9
$SPLFRAME
 70
     0
  9
$SPLINETYPE
 70
     6
  9
$SPLINESEGS
 70
     8
  9
$ATTDIA
 70
     0
  9
$ATTREQ
 70
     1
  9
$HANDLING
 70
     1
  9
$HANDSEED
  5
350
  9
$SURFTAB1
 70
     6
  9
$SURFTAB2
 70
     6
  9
$SURFTYPE
 70
     6
  9
$SURFU
 70
     6
  9
$SURFV
 70
     6
  9
$UCSNAME
  2

  9
$UCSORG
 10
0.0
 20
0.0
 30
0.0
  9
$UCSXDIR
 10
1.0
 20
0.0
 30
0.0
  9
$UCSYDIR
 10
0.0
 20
1.0
 30
0.0
  9
$PUCSNAME
  2

  9
$PUCSORG
 10
0.0
 20
0.0
 30
0.0
  9
$PUCSXDIR
 10
1.0
 20
0.0
 30
0.0
  9
$PUCSYDIR
 10
0.0
 20
1.0
 30
0.0
  9
$USERI1
 70
     0
  9
$USERI2
 70
     0
  9
$USERI3
 70
     0
  9
$USERI4
 70
     0
  9
$USERI5
 70
     0
  9
$USERR1
 40
0.0
  9
$USERR2
 40
0.0
  9
$USERR3
 40
0.0
  9
$USERR4
 40
0.0
  9
$USERR5
 40
0.0
  9
$WORLDVIEW
 70
     1
  9
$SHADEDGE
 70
     3
  9
$SHADEDIF
 70
    70
  9
$TILEMODE
 70
     1
  9
$MAXACTVP
 70
    64
  9
$PINSBASE
 10
0.0
 20
0.0
 30
0.0
  9
$PLIMCHECK
 70
     0
  9
$PEXTMIN
 10
0.0
 20
0.0
 30
0.0
  9
$PEXTMAX
 10
0.0
 20
0.0
 30
0.0
  9
$PLIMMIN
 10
0.0
 20
0.0
  9
$PLIMMAX
 10
0.0
 20
0.0
  9
$UNITMODE
 70
     0
  9
$VISRETAIN
 70
     1
  9
$PLINEGEN
 70
     0
  9
$PSLTSCALE
 70
     1
  9
$TREEDEPTH
 70
  3020
  9
$PICKSTYLE
 70
     1
  9
$CMLSTYLE
  2
STANDARD
  9
$CMLJUST
 70
     0
  9
$CMLSCALE
 40
1.0
  9
$PROXYGRAPHICS
 70
     1
  9
$MEASUREMENT
 70
     0
  0
ENDSEC
  0
SECTION
  2
CLASSES
  0
CLASS
  1
ACDBDICTIONARYWDFLT
  2
AcDbDictionaryWithDefault
  3
ObjectDBX Classes
 90
        0
280
     0
281
     0
  0
CLASS
  1
ACDBPLACEHOLDER
  2
AcDbPlaceHolder
  3
ObjectDBX Classes
 90
        0
280
     0
281
     0
  0
CLASS
  1
LAYOUT
  2
AcDbLayout
  3
ObjectDBX Classes
 90
        0
280
     0
281
     0
  0
CLASS
  1
DICTIONARYVAR
  2
AcDbDictionaryVar
  3
ObjectDBX Classes
 90
        0
280
     0
281
     0
  0
CLASS
  1
TABLESTYLE
  2
AcDbTableStyle
  3
ObjectDBX Classes
 90
     4095
280
     0
281
     0
  0
CLASS
  1
MATERIAL
  2
AcDbMaterial
  3
ObjectDBX Classes
 90
     1153
280
     0
281
     0
  0
CLASS
  1
VISUALSTYLE
  2
AcDbVisualStyle
  3
ObjectDBX Classes
 90
     4095
280
     0
281
     0
  0
CLASS
  1
SCALE
  2
AcDbScale
  3
ObjectDBX Classes
 90
     1153
280
     0
281
     0
  0
CLASS
  1
CELLSTYLEMAP
  2
AcDbCellStyleMap
  3
ObjectDBX Classes
 90
     1152
280
     0
281
     0
  0
CLASS
  1
RASTERVARIABLES
  2
AcDbRasterVariables
  3
ISM
 90
        0
280
     0
281
     0
  0
CLASS
  1
XRECORD
  2
AcDbXrecord
  3
AutoCAD 2000
 90
        0
280
     0
281
     0
  0
CLASS
  1
LWPOLYLINE
  2
AcDbPolyline
  3
AutoCAD 2000
 90
        0
280
     0
281
     1
  0
CLASS
  1
HATCH
  2
AcDbHatch
  3
AutoCAD 2000
 90
        0
280
     0
281
     1
  0
ENDSEC
  0
SECTION
  2
TABLES
  0
TABLE
  2
VPORT
  5
8
330
0
100
AcDbSymbolTable
 70
     1
  0
VPORT
  5
94
330
8
100
AcDbSymbolTableRecord
100
AcDbViewportTableRecord
  2
*ACTIVE
 70
     0
 10
0.0
 20
0.0
 11
1.0
 21
1.0
 12
343.7608185618593
 22
197.7452665831402
 13
0.0
 23
0.0
 14
0.5
 24
0.5
 15
0.5
 25
0.5
 16
0.0
 26
0.0
 36
1.0
 17
-27.66959356597982
 27
-19.53870295786203
 37
0.0
 40
130.898459780973
 41
1.075208913649025
 42
50.0
 43
0.0
 44
0.0
 50
0.0
 51
0.0
 71
    16
 72
  1000
 73
     1
 74
     3
 75
     0
 76
     0
 77
     0
 78
     0
  0
ENDTAB
  0
TABLE
  2
LTYPE
  5
5
330
0
100
AcDbSymbolTable
 70
     1
  0
LTYPE
  5
14
330
5
100
AcDbSymbolTableRecord
100
AcDbLinetypeTableRecord
  2
BYBLOCK
 70
     0
  3

 72
    65
 73
     0
 40
0.0
  0
LTYPE
  5
15
330
5
100
AcDbSymbolTableRecord
100
AcDbLinetypeTableRecord
  2
BYLAYER
 70
     0
  3

 72
    65
 73
     0
 40
0.0
  0
LTYPE
  5
16
330
5
100
AcDbSymbolTableRecord
100
AcDbLinetypeTableRecord
  2
CONTINUOUS
 70
     0
  3
Solid line
 72
    65
 73
     0
 40
0.0
  0
ENDTAB
  0
TABLE
  2
LAYER
  5
2
102
{ACAD_XDICTIONARY
360
2BF
102
}
330
0
100
AcDbSymbolTable
 70
     4
  0
LAYER
  5
10
330
2
100
AcDbSymbolTableRecord
100
AcDbLayerTableRecord
  2
0
 70
     0
 62
     7
  6
CONTINUOUS
  0
LAYER
  5
E4
330
2
100
AcDbSymbolTableRecord
100
AcDbLayerTableRecord
  2
DEFPOINTS
 70
     0
 62
     7
  6
CONTINUOUS
  0
LAYER
  5
E5
330
2
100
AcDbSymbolTableRecord
100
AcDbLayerTableRecord
  2
KOTY
 70
     0
 62
     1
  6
CONTINUOUS
1001
ACAECLAYERSTANDARD
1000

1000

  0
LAYER
  5
E8
330
2
100
AcDbSymbolTableRecord
100
AcDbLayerTableRecord
  2
OBRYS
 70
     0
 62
     5
  6
CONTINUOUS
1001
ACAECLAYERSTANDARD
1000

1000

  0
ENDTAB
  0
TABLE
  2
STYLE
  5
3
330
0
100
AcDbSymbolTable
 70
     1
  0
STYLE
  5
11
330
3
100
AcDbSymbolTableRecord
100
AcDbTextStyleTableRecord
  2
STANDARD
 70
     0
 40
0.0
 41
1.0
 50
0.0
 71
     0
 42
0.2
  3
arial.ttf
  4

1001
ACAD
1000
Arial
1071
        0
  0
ENDTAB
  0
TABLE
  2
VIEW
  5
6
330
0
100
AcDbSymbolTable
 70
     0
  0
ENDTAB
  0
TABLE
  2
UCS
  5
7
330
0
100
AcDbSymbolTable
 70
     0
  0
ENDTAB
  0
TABLE
  2
APPID
  5
9
330
0
100
AcDbSymbolTable
 70
     2
  0
APPID
  5
12
330
9
100
AcDbSymbolTableRecord
100
AcDbRegAppTableRecord
  2
ACAD
 70
     0
  0
APPID
  5
E7
330
9
100
AcDbSymbolTableRecord
100
AcDbRegAppTableRecord
  2
ACAECLAYERSTANDARD
 70
     0
  0
ENDTAB
  0
TABLE
  2
DIMSTYLE
  5
A
330
0
100
AcDbSymbolTable
 70
     1
  0
DIMSTYLE
105
27
102
{ACAD_REACTORS
330
277
330
278
330
279
102
}
330
A
100
AcDbSymbolTableRecord
100
AcDbDimStyleTableRecord
  2
STANDARD
 70
     0
  3

  4

  5

  6

  7

 40
1.0
 41
0.18
 42
0.0625
 43
0.38
 44
0.18
 45
0.0
 46
0.0
 47
0.0
 48
0.0
140
0.18
141
0.09
142
0.0
143
25.4
144
1.0
145
0.0
146
1.0
147
0.09
 71
     0
 72
     0
 73
     1
 74
     1
 75
     0
 76
     0
 77
     0
 78
     0
170
     0
171
     2
172
     0
173
     0
174
     0
175
     0
176
     0
177
     0
178
     0
270
     2
271
     4
272
     4
273
     2
274
     2
340
11
275
     0
280
     0
281
     0
282
     0
283
     1
284
     0
285
     0
286
     0
287
     3
288
     0
  0
ENDTAB
  0
TABLE
  2
BLOCK_RECORD
  5
1
330
0
100
AcDbSymbolTable
 70
     7
  0
BLOCK_RECORD
  5
1F
330
1
100
AcDbSymbolTableRecord
100
AcDbBlockTableRecord
  2
*MODEL_SPACE
  0
BLOCK_RECORD
  5
58
330
1
100
AcDbSymbolTableRecord
100
AcDbBlockTableRecord
  2
*PAPER_SPACE
  0
BLOCK_RECORD
  5
5D
330
1
100
AcDbSymbolTableRecord
100
AcDbBlockTableRecord
  2
*PAPER_SPACE0
  0
BLOCK_RECORD
  5
198
330
1
100
AcDbSymbolTableRecord
100
AcDbBlockTableRecord
  2
*D1
  0
BLOCK_RECORD
  5
1A5
330
1
100
AcDbSymbolTableRecord
100
AcDbBlockTableRecord
  2
*D2
  0
BLOCK_RECORD
  5
1B2
330
1
100
AcDbSymbolTableRecord
100
AcDbBlockTableRecord
  2
*D3
  0
BLOCK_RECORD
  5
299
330
1
100
AcDbSymbolTableRecord
100
AcDbBlockTableRecord
  2
*D4
  0
BLOCK_RECORD
  5
2A3
330
1
100
AcDbSymbolTableRecord
100
AcDbBlockTableRecord
  2
*D5
  0
BLOCK_RECORD
  5
2AD
330
1
100
AcDbSymbolTableRecord
100
AcDbBlockTableRecord
  2
*D6
  0
ENDTAB
  0
ENDSEC
  0
SECTION
  2
BLOCKS
  0
BLOCK
  5
20
330
1F
100
AcDbEntity
  8
0
100
AcDbBlockBegin
  2
*MODEL_SPACE
 70
     0
 10
0.0
 20
0.0
 30
0.0
  3
*MODEL_SPACE
  1

  0
ENDBLK
  5
21
330
1F
100
AcDbEntity
  8
0
100
AcDbBlockEnd
  0
BLOCK
  5
5A
330
58
100
AcDbEntity
 67
     1
  8
0
100
AcDbBlockBegin
  2
*PAPER_SPACE
 70
     0
 10
0.0
 20
0.0
 30
0.0
  3
*PAPER_SPACE
  1

  0
ENDBLK
  5
5B
330
58
100
AcDbEntity
 67
     1
  8
0
100
AcDbBlockEnd
  0
BLOCK
  5
5F
330
5D
100
AcDbEntity
  8
0
100
AcDbBlockBegin
  2
*PAPER_SPACE0
 70
     0
 10
0.0
 20
0.0
 30
0.0
  3
*PAPER_SPACE0
  1

  0
ENDBLK
  5
60
330
5D
100
AcDbEntity
  8
0
100
AcDbBlockEnd
  0
BLOCK
  5
199
330
198
100
AcDbEntity
  8
0
100
AcDbBlockBegin
  2
*D1
 70
     1
 10
0.0
 20
0.0
 30
0.0
  3
*D1
  1

  0
LINE
  5
19A
330
198
100
AcDbEntity
  8
KOTY
 62
     0
100
AcDbLine
 10
0.0
 20
88.91277696204718
 30
0.0
 11
0.0
 21
128.8090845575967
 31
0.0
  0
LINE
  5
19B
330
198
100
AcDbEntity
  8
KOTY
 62
     0
100
AcDbLine
 10
21.3000059081499
 20
89.03197734447265
 30
0.0
 11
21.3000059081499
 21
128.8090845575967
 31
0.0
  0
LINE
  5
19C
330
198
100
AcDbEntity
  8
KOTY
 62
     0
100
AcDbLine
 10
4.0
 20
128.6290845575967
 30
0.0
 11
17.3000059081499
 21
128.6290845575967
 31
0.0
  0
SOLID
  5
19D
330
198
100
AcDbEntity
  8
KOTY
 62
     0
100
AcDbTrace
 10
4.0
 20
129.2957512242634
 30
0.0
 11
4.0
 21
127.9624178909301
 31
0.0
 12
0.0
 22
128.6290845575967
 32
0.0
 13
0.0
 23
128.6290845575967
 33
0.0
  0
SOLID
  5
19E
330
198
100
AcDbEntity
  8
KOTY
 62
     0
100
AcDbTrace
 10
17.3000059081499
 20
127.9624178909301
 30
0.0
 11
17.3000059081499
 21
129.2957512242634
 31
0.0
 12
21.3000059081499
 22
128.6290845575967
 32
0.0
 13
21.3000059081499
 23
128.6290845575967
 33
0.0
  0
MTEXT
  5
19F
330
198
100
AcDbEntity
  8
KOTY
 62
     0
100
AcDbMText
 10
10.65000295407495
 20
131.6370845575968
 30
0.0
 40
4.0
 41
0.0
 71
     5
 72
     1
  1
\A1;21
  0
POINT
  5
1A0
330
198
100
AcDbEntity
  8
DEFPOINTS
 62
     0
100
AcDbPoint
 10
0.0
 20
88.85027696204718
 30
0.0
  0
POINT
  5
1A1
330
198
100
AcDbEntity
  8
DEFPOINTS
 62
     0
100
AcDbPoint
 10
21.3000059081499
 20
88.96947734447265
 30
0.0
  0
POINT
  5
1A2
330
198
100
AcDbEntity
  8
DEFPOINTS
 62
     0
100
AcDbPoint
 10
21.3000059081499
 20
128.6290845575967
 30
0.0
  0
ENDBLK
  5
1A3
330
198
100
AcDbEntity
  8
0
100
AcDbBlockEnd
  0
BLOCK
  5
1A6
330
1A5
100
AcDbEntity
  8
0
100
AcDbBlockBegin
  2
*D2
 70
     1
 10
0.0
 20
0.0
 30
0.0
  3
*D2
  1

  0
LINE
  5
1A7
330
1A5
100
AcDbEntity
  8
KOTY
 62
     0
100
AcDbLine
 10
59.63705375874747
 20
87.13200593095677
 30
0.0
 11
59.63705375874747
 21
128.8090845575967
 31
0.0
  0
LINE
  5
1A8
330
1A5
100
AcDbEntity
  8
KOTY
 62
     0
100
AcDbLine
 10
112.1372430021014
 20
87.13200593095677
 30
0.0
 11
112.1372430021014
 21
128.8090845575967
 31
0.0
  0
LINE
  5
1A9
330
1A5
100
AcDbEntity
  8
KOTY
 62
     0
100
AcDbLine
 10
63.63705375874747
 20
128.6290845575967
 30
0.0
 11
108.1372430021014
 21
128.6290845575967
 31
0.0
  0
SOLID
  5
1AA
330
1A5
100
AcDbEntity
  8
KOTY
 62
     0
100
AcDbTrace
 10
63.63705375874747
 20
129.2957512242634
 30
0.0
 11
63.63705375874747
 21
127.9624178909301
 31
0.0
 12
59.63705375874747
 22
128.6290845575967
 32
0.0
 13
59.63705375874747
 23
128.6290845575967
 33
0.0
  0
SOLID
  5
1AB
330
1A5
100
AcDbEntity
  8
KOTY
 62
     0
100
AcDbTrace
 10
108.1372430021014
 20
127.9624178909301
 30
0.0
 11
108.1372430021014
 21
129.2957512242634
 31
0.0
 12
112.1372430021014
 22
128.6290845575967
 32
0.0
 13
112.1372430021014
 23
128.6290845575967
 33
0.0
  0
MTEXT
  5
1AC
330
1A5
100
AcDbEntity
  8
KOTY
 62
     0
100
AcDbMText
 10
85.88714838042443
 20
131.6710845575967
 30
0.0
 40
4.0
 41
0.0
 71
     5
 72
     1
  1
\A1;53
  0
POINT
  5
1AD
330
1A5
100
AcDbEntity
  8
DEFPOINTS
 62
     0
100
AcDbPoint
 10
59.63705375874747
 20
87.06950593095677
 30
0.0
  0
POINT
  5
1AE
330
1A5
100
AcDbEntity
  8
DEFPOINTS
 62
     0
100
AcDbPoint
 10
112.1372430021014
 20
87.06950593095677
 30
0.0
  0
POINT
  5
1AF
330
1A5
100
AcDbEntity
  8
DEFPOINTS
 62
     0
100
AcDbPoint
 10
112.1372430021014
 20
128.6290845575967
 30
0.0
  0
ENDBLK
  5
1B0
330
1A5
100
AcDbEntity
  8
0
100
AcDbBlockEnd
  0
BLOCK
  5
1B3
330
1B2
100
AcDbEntity
  8
0
100
AcDbBlockBegin
  2
*D3
 70
     1
 10
0.0
 20
0.0
 30
0.0
  3
*D3
  1

  0
LINE
  5
1B4
330
1B2
100
AcDbEntity
  8
KOTY
 62
     0
100
AcDbLine
 10
110.0997682043821
 20
89.16946527517585
 30
0.0
 11
132.7713993550953
 21
89.16946527517585
 31
0.0
  0
LINE
  5
1B5
330
1B2
100
AcDbEntity
  8
KOTY
 62
     0
100
AcDbLine
 10
97.96838867373765
 20
35.16962497192755
 30
0.0
 11
132.7713993550953
 21
35.16962497192755
 31
0.0
  0
LINE
  5
1B6
330
1B2
100
AcDbEntity
  8
KOTY
 62
     0
100
AcDbLine
 10
132.5913993550953
 20
85.16946527517585
 30
0.0
 11
132.5913993550953
 21
39.16962497192755
 31
0.0
  0
SOLID
  5
1B7
330
1B2
100
AcDbEntity
  8
KOTY
 62
     0
100
AcDbTrace
 10
133.2580660217619
 20
85.16946527517585
 30
0.0
 11
131.9247326884286
 21
85.16946527517585
 31
0.0
 12
132.5913993550953
 22
89.16946527517585
 32
0.0
 13
132.5913993550953
 23
89.16946527517585
 33
0.0
  0
SOLID
  5
1B8
330
1B2
100
AcDbEntity
  8
KOTY
 62
     0
100
AcDbTrace
 10
131.9247326884286
 20
39.16962497192755
 30
0.0
 11
133.2580660217619
 21
39.16962497192755
 31
0.0
 12
132.5913993550953
 22
35.16962497192755
 32
0.0
 13
132.5913993550953
 23
35.16962497192755
 33
0.0
  0
MTEXT
  5
1B9
330
1B2
100
AcDbEntity
  8
KOTY
 62
     0
100
AcDbMText
 10
129.5573993550953
 20
61.34567512756807
 30
0.0
 40
4.0
 41
0.0
 71
     5
 72
     1
  1
\A1;54
 11
0.0
 21
1.0
 31
0.0
  0
POINT
  5
1BA
330
1B2
100
AcDbEntity
  8
DEFPOINTS
 62
     0
100
AcDbPoint
 10
110.0372682043821
 20
89.16946527517585
 30
0.0
  0
POINT
  5
1BB
330
1B2
100
AcDbEntity
  8
DEFPOINTS
 62
     0
100
AcDbPoint
 10
97.90588867373765
 20
35.16962497192755
 30
0.0
  0
POINT
  5
1BC
330
1B2
100
AcDbEntity
  8
DEFPOINTS
 62
     0
100
AcDbPoint
 10
132.5913993550953
 20
35.16962497192755
 30
0.0
  0
ENDBLK
  5
1BD
330
1B2
100
AcDbEntity
  8
0
100
AcDbBlockEnd
  0
BLOCK
  5
2B7
330
299
100
AcDbEntity
  8
0
100
AcDbBlockBegin
  2
*D4
 70
     1
 10
0.0
 20
0.0
 30
0.0
  3
*D4
  1

  0
LINE
  5
29A
330
299
100
AcDbEntity
  8
KOTY
 62
     0
100
AcDbLine
 10
249.1597316933882
 20
190.5700497027541
 30
0.0
 11
249.1597316933882
 21
208.6529878647452
 31
0.0
  0
LINE
  5
29B
330
299
100
AcDbEntity
  8
KOTY
 62
     0
100
AcDbLine
 10
270.4597376015381
 20
190.6892500851796
 30
0.0
 11
270.4597376015381
 21
208.6529878647452
 31
0.0
  0
LINE
  5
29C
330
299
100
AcDbEntity
  8
KOTY
 62
     0
100
AcDbLine
 10
253.1597316933882
 20
208.4729878647452
 30
0.0
 11
266.4597376015381
 21
208.4729878647452
 31
0.0
  0
SOLID
  5
29D
330
299
100
AcDbEntity
  8
KOTY
 62
     0
100
AcDbTrace
 10
253.1597316933882
 20
209.1396545314118
 30
0.0
 11
253.1597316933882
 21
207.8063211980785
 31
0.0
 12
249.1597316933882
 22
208.4729878647452
 32
0.0
 13
249.1597316933882
 23
208.4729878647452
 33
0.0
  0
SOLID
  5
29E
330
299
100
AcDbEntity
  8
KOTY
 62
     0
100
AcDbTrace
 10
266.4597376015381
 20
207.8063211980785
 30
0.0
 11
266.4597376015381
 21
209.1396545314118
 31
0.0
 12
270.4597376015381
 22
208.4729878647452
 32
0.0
 13
270.4597376015381
 23
208.4729878647452
 33
0.0
  0
MTEXT
  5
29F
330
299
100
AcDbEntity
  8
KOTY
 62
     0
100
AcDbMText
 10
259.8097346474631
 20
211.4809878647452
 30
0.0
 40
4.0
 41
0.0
 71
     5
 72
     1
  1
\A1;21
  0
POINT
  5
2A0
330
299
100
AcDbEntity
  8
DEFPOINTS
 62
     0
100
AcDbPoint
 10
249.1597316933882
 20
190.5075497027541
 30
0.0
  0
POINT
  5
2A1
330
299
100
AcDbEntity
  8
DEFPOINTS
 62
     0
100
AcDbPoint
 10
270.4597376015381
 20
190.6267500851796
 30
0.0
  0
POINT
  5
2A2
330
299
100
AcDbEntity
  8
DEFPOINTS
 62
     0
100
AcDbPoint
 10
270.4597376015381
 20
208.4729878647452
 30
0.0
  0
ENDBLK
  5
2B8
330
299
100
AcDbEntity
  8
0
100
AcDbBlockEnd
  0
BLOCK
  5
2B9
330
2A3
100
AcDbEntity
  8
0
100
AcDbBlockBegin
  2
*D5
 70
     1
 10
0.0
 20
0.0
 30
0.0
  3
*D5
  1

  0
LINE
  5
2A4
330
2A3
100
AcDbEntity
  8
KOTY
 62
     0
100
AcDbLine
 10
308.7967854521356
 20
188.7892786716637
 30
0.0
 11
308.7967854521356
 21
208.6529878647452
 31
0.0
  0
LINE
  5
2A5
330
2A3
100
AcDbEntity
  8
KOTY
 62
     0
100
AcDbLine
 10
361.2969746954896
 20
188.7892786716637
 30
0.0
 11
361.2969746954896
 21
208.6529878647452
 31
0.0
  0
LINE
  5
2A6
330
2A3
100
AcDbEntity
  8
KOTY
 62
     0
100
AcDbLine
 10
312.7967854521356
 20
208.4729878647452
 30
0.0
 11
357.2969746954896
 21
208.4729878647452
 31
0.0
  0
SOLID
  5
2A7
330
2A3
100
AcDbEntity
  8
KOTY
 62
     0
100
AcDbTrace
 10
312.7967854521356
 20
209.1396545314118
 30
0.0
 11
312.7967854521356
 21
207.8063211980785
 31
0.0
 12
308.7967854521356
 22
208.4729878647452
 32
0.0
 13
308.7967854521356
 23
208.4729878647452
 33
0.0
  0
SOLID
  5
2A8
330
2A3
100
AcDbEntity
  8
KOTY
 62
     0
100
AcDbTrace
 10
357.2969746954896
 20
207.8063211980785
 30
0.0
 11
357.2969746954896
 21
209.1396545314118
 31
0.0
 12
361.2969746954896
 22
208.4729878647452
 32
0.0
 13
361.2969746954896
 23
208.4729878647452
 33
0.0
  0
MTEXT
  5
2A9
330
2A3
100
AcDbEntity
  8
KOTY
 62
     0
100
AcDbMText
 10
335.0468800738126
 20
211.5149878647452
 30
0.0
 40
4.0
 41
0.0
 71
     5
 72
     1
  1
\A1;53
  0
POINT
  5
2AA
330
2A3
100
AcDbEntity
  8
DEFPOINTS
 62
     0
100
AcDbPoint
 10
308.7967854521356
 20
188.7267786716637
 30
0.0
  0
POINT
  5
2AB
330
2A3
100
AcDbEntity
  8
DEFPOINTS
 62
     0
100
AcDbPoint
 10
361.2969746954896
 20
188.7267786716637
 30
0.0
  0
POINT
  5
2AC
330
2A3
100
AcDbEntity
  8
DEFPOINTS
 62
     0
100
AcDbPoint
 10
361.2969746954896
 20
208.4729878647452
 30
0.0
  0
ENDBLK
  5
2BA
330
2A3
100
AcDbEntity
  8
0
100
AcDbBlockEnd
  0
BLOCK
  5
2BB
330
2AD
100
AcDbEntity
  8
0
100
AcDbBlockBegin
  2
*D6
 70
     1
 10
0.0
 20
0.0
 30
0.0
  3
*D6
  1

  0
LINE
  5
2AE
330
2AD
100
AcDbEntity
  8
KOTY
 62
     0
100
AcDbLine
 10
359.2594998977703
 20
190.8267380158828
 30
0.0
 11
381.9311310484835
 21
190.8267380158828
 31
0.0
  0
LINE
  5
2AF
330
2AD
100
AcDbEntity
  8
KOTY
 62
     0
100
AcDbLine
 10
347.1281203671258
 20
136.8268977126345
 30
0.0
 11
381.9311310484835
 21
136.8268977126345
 31
0.0
  0
LINE
  5
2B0
330
2AD
100
AcDbEntity
  8
KOTY
 62
     0
100
AcDbLine
 10
381.7511310484834
 20
186.8267380158828
 30
0.0
 11
381.7511310484834
 21
140.8268977126345
 31
0.0
  0
SOLID
  5
2B1
330
2AD
100
AcDbEntity
  8
KOTY
 62
     0
100
AcDbTrace
 10
382.4177977151501
 20
186.8267380158828
 30
0.0
 11
381.0844643818168
 21
186.8267380158828
 31
0.0
 12
381.7511310484834
 22
190.8267380158828
 32
0.0
 13
381.7511310484834
 23
190.8267380158828
 33
0.0
  0
SOLID
  5
2B2
330
2AD
100
AcDbEntity
  8
KOTY
 62
     0
100
AcDbTrace
 10
381.0844643818168
 20
140.8268977126345
 30
0.0
 11
382.4177977151501
 21
140.8268977126345
 31
0.0
 12
381.7511310484834
 22
136.8268977126345
 32
0.0
 13
381.7511310484834
 23
136.8268977126345
 33
0.0
  0
MTEXT
  5
2B3
330
2AD
100
AcDbEntity
  8
KOTY
 62
     0
100
AcDbMText
 10
378.7171310484835
 20
163.002947868275
 30
0.0
 40
4.0
 41
0.0
 71
     5
 72
     1
  1
\A1;54
 11
0.0
 21
1.0
 31
0.0
  0
POINT
  5
2B4
330
2AD
100
AcDbEntity
  8
DEFPOINTS
 62
     0
100
AcDbPoint
 10
359.1969998977703
 20
190.8267380158828
 30
0.0
  0
POINT
  5
2B5
330
2AD
100
AcDbEntity
  8
DEFPOINTS
 62
     0
100
AcDbPoint
 10
347.0656203671258
 20
136.8268977126345
 30
0.0
  0
POINT
  5
2B6
330
2AD
100
AcDbEntity
  8
DEFPOINTS
 62
     0
100
AcDbPoint
 10
381.7511310484834
 20
136.8268977126345
 30
0.0
  0
ENDBLK
  5
2BC
330
2AD
100
AcDbEntity
  8
0
100
AcDbBlockEnd
  0
ENDSEC
  0
SECTION
  2
ENTITIES
  0
LINE
  5
1EB
330
1F
100
AcDbEntity
  8
OBRYS
100
AcDbLine
 10
264.8438837462845
 20
160.3100620700046
 30
0.0
 11
267.809768406114
 21
160.361738536374
 31
0.0
  0
LINE
  5
1EC
330
1F
100
AcDbEntity
  8
OBRYS
100
AcDbLine
 10
264.8438837462845
 20
156.9431680311486
 30
0.0
 11
267.809768406114
 21
156.8914915647792
 31
0.0
  0
LINE
  5
1ED
330
1F
100
AcDbEntity
  8
OBRYS
100
AcDbLine
 10
264.8438837462845
 20
160.3100620700046
 30
0.0
 11
264.8438837462845
 21
156.9431680311486
 31
0.0
  0
LINE
  5
1EE
330
1F
100
AcDbEntity
  8
OBRYS
100
AcDbLine
 10
264.8438837462845
 20
182.4601458499314
 30
0.0
 11
267.809768406114
 21
182.5049321207849
 31
0.0
  0
LINE
  5
1EF
330
1F
100
AcDbEntity
  8
OBRYS
100
AcDbLine
 10
264.8438837462845
 20
179.0934240659633
 30
0.0
 11
267.809768406114
 21
179.0414030898181
 31
0.0
  0
LINE
  5
1F0
330
1F
100
AcDbEntity
  8
OBRYS
100
AcDbLine
 10
264.8438837462845
 20
179.0934240659633
 30
0.0
 11
264.8438837462845
 21
182.4601458499314
 31
0.0
  0
LINE
  5
1F1
330
1F
100
AcDbEntity
  8
OBRYS
100
AcDbLine
 10
267.809768406114
 20
179.0414030898181
 30
0.0
 11
267.809768406114
 21
182.5119945711887
 31
0.0
  0
LINE
  5
1F2
330
1F
100
AcDbEntity
  8
OBRYS
100
AcDbLine
 10
267.4060029488807
 20
179.0486377951098
 30
0.0
 11
267.4060029488807
 21
182.5049321207849
 31
0.0
  0
LINE
  5
1F3
330
1F
100
AcDbEntity
  8
OBRYS
100
AcDbLine
 10
267.4060029488807
 20
160.3548483408581
 30
0.0
 11
267.4060029488807
 21
156.8987262700709
 31
0.0
  0
LINE
  5
1F4
330
1F
100
AcDbEntity
  8
OBRYS
100
AcDbLine
 10
267.809768406114
 20
160.361738536374
 30
0.0
 11
267.809768406114
 21
156.8914915647792
 31
0.0
  0
LINE
  5
1F5
330
1F
100
AcDbEntity
  8
OBRYS
100
AcDbLine
 10
249.4597997081067
 20
137.1407461183849
 30
0.0
 11
249.4597997081067
 21
137.2248065036791
 31
0.0
  0
LINE
  5
1F6
330
1F
100
AcDbEntity
  8
OBRYS
100
AcDbLine
 10
250.459911587243
 20
136.9268055476154
 30
0.0
 11
249.6561702803104
 21
136.9409304484231
 31
0.0
  0
LINE
  5
1F7
330
1F
100
AcDbEntity
  8
OBRYS
100
AcDbLine
 10
270.2599219315762
 20
136.8265532028588
 30
0.0
 11
250.459911587243
 21
136.8268977126345
 31
0.0
  0
LINE
  5
1F8
330
1F
100
AcDbEntity
  8
OBRYS
100
AcDbLine
 10
250.459911587243
 20
148.6766559609196
 30
0.0
 11
249.356446775368
 21
148.6959485083642
 31
0.0
  0
LINE
  5
1F9
330
1F
100
AcDbEntity
  8
OBRYS
100
AcDbLine
 10
249.356446775368
 20
190.7075376276039
 30
0.0
 11
249.415357947029
 21
190.7085711569311
 31
0.0
  0
LINE
  5
1FA
330
1F
100
AcDbEntity
  8
OBRYS
100
AcDbLine
 10
249.415357947029
 20
190.7085711569311
 30
0.0
 11
249.4742691186902
 21
190.7096046862586
 31
0.0
  0
LINE
  5
1FB
330
1F
100
AcDbEntity
  8
OBRYS
100
AcDbLine
 10
249.4742691186902
 20
190.7096046862586
 30
0.0
 11
250.459911587243
 21
190.7268301750483
 31
0.0
  0
LINE
  5
1FC
330
1F
100
AcDbEntity
  8
OBRYS
100
AcDbLine
 10
268.4598583530412
 20
148.5767481259387
 30
0.0
 11
250.459911587243
 21
148.5767481259387
 31
0.0
  0
LINE
  5
1FD
330
1F
100
AcDbEntity
  8
OBRYS
100
AcDbLine
 10
250.459911587243
 20
190.8267380100293
 30
0.0
 11
270.2599219315762
 21
190.8267380100293
 31
0.0
  0
LINE
  5
1FE
330
1F
100
AcDbEntity
  8
OBRYS
100
AcDbLine
 10
268.4598583530412
 20
136.8268977126345
 30
0.0
 11
268.4598583530412
 21
136.9795155433122
 31
0.0
  0
LINE
  5
1FF
330
1F
100
AcDbEntity
  8
OBRYS
100
AcDbLine
 10
268.4598583530412
 20
136.9795155433122
 30
0.0
 11
268.4598583530412
 21
137.416009429246
 31
0.0
  0
LINE
  5
200
330
1F
100
AcDbEntity
  8
OBRYS
100
AcDbLine
 10
268.4598583530412
 20
137.416009429246
 30
0.0
 11
268.4598583530412
 21
138.0726450619135
 31
0.0
  0
LINE
  5
201
330
1F
100
AcDbEntity
  8
OBRYS
100
AcDbLine
 10
268.4598583530412
 20
138.0726450619135
 30
0.0
 11
268.4598583530412
 21
138.8533042138676
 31
0.0
  0
LINE
  5
202
330
1F
100
AcDbEntity
  8
OBRYS
100
AcDbLine
 10
268.4598583530412
 20
138.8533042138676
 30
0.0
 11
268.4598583530412
 21
143.6065055905274
 31
0.0
  0
LINE
  5
203
330
1F
100
AcDbEntity
  8
OBRYS
100
AcDbLine
 10
268.4598583530412
 20
143.6065055905274
 30
0.0
 11
268.4598583530412
 21
144.7223727543311
 31
0.0
  0
LINE
  5
204
330
1F
100
AcDbEntity
  8
OBRYS
100
AcDbLine
 10
268.4598583530412
 20
144.7223727543311
 30
0.0
 11
268.4598583530412
 21
145.7762281584916
 31
0.0
  0
LINE
  5
205
330
1F
100
AcDbEntity
  8
OBRYS
100
AcDbLine
 10
268.4598583530412
 20
145.7762281584916
 30
0.0
 11
268.4598583530412
 21
146.7174288659668
 31
0.0
  0
LINE
  5
206
330
1F
100
AcDbEntity
  8
OBRYS
100
AcDbLine
 10
268.4598583530412
 20
146.7174288659668
 30
0.0
 11
268.4598583530412
 21
147.5008440961272
 31
0.0
  0
LINE
  5
207
330
1F
100
AcDbEntity
  8
OBRYS
100
AcDbLine
 10
268.4598583530412
 20
147.5008440961272
 30
0.0
 11
268.4598583530412
 21
148.0885777736355
 31
0.0
  0
LINE
  5
208
330
1F
100
AcDbEntity
  8
OBRYS
100
AcDbLine
 10
268.4598583530412
 20
148.0885777736355
 30
0.0
 11
268.4598583530412
 21
148.4530691164279
 31
0.0
  0
LINE
  5
209
330
1F
100
AcDbEntity
  8
OBRYS
100
AcDbLine
 10
268.4598583530412
 20
148.4530691164279
 30
0.0
 11
268.4598583530412
 21
148.5767481259387
 31
0.0
  0
LINE
  5
20A
330
1F
100
AcDbEntity
  8
OBRYS
100
AcDbLine
 10
264.7915182603635
 20
178.8085144813799
 30
0.0
 11
267.9782336864781
 21
178.8085144813799
 31
0.0
  0
LINE
  5
20B
330
1F
100
AcDbEntity
  8
OBRYS
100
AcDbLine
 10
264.7915182603635
 20
156.6582584465652
 30
0.0
 11
267.9782336864781
 21
156.6582584465652
 31
0.0
  0
LINE
  5
20C
330
1F
100
AcDbEntity
  8
OBRYS
100
AcDbLine
 10
267.9782336864781
 20
178.8085144813799
 30
0.0
 11
267.9782336864781
 21
182.7450554345148
 31
0.0
  0
LINE
  5
20D
330
1F
100
AcDbEntity
  8
OBRYS
100
AcDbLine
 10
267.9782336864781
 20
182.7450554345148
 30
0.0
 11
264.7915182603635
 21
182.7450554345148
 31
0.0
  0
LINE
  5
20E
330
1F
100
AcDbEntity
  8
OBRYS
100
AcDbLine
 10
267.9782336864781
 20
156.6582584465652
 30
0.0
 11
267.9782336864781
 21
160.594971654588
 31
0.0
  0
LINE
  5
20F
330
1F
100
AcDbEntity
  8
OBRYS
100
AcDbLine
 10
268.4598583530412
 20
148.5767481259387
 30
0.0
 11
268.4598583530412
 21
148.6794120391259
 31
0.0
  0
LINE
  5
210
330
1F
100
AcDbEntity
  8
OBRYS
100
AcDbLine
 10
268.4598583530412
 20
148.6794120391259
 30
0.0
 11
268.4598583530412
 21
148.9777575049654
 31
0.0
  0
LINE
  5
211
330
1F
100
AcDbEntity
  8
OBRYS
100
AcDbLine
 10
268.4598583530412
 20
148.9777575049654
 30
0.0
 11
268.4598583530412
 21
149.4425011925145
 31
0.0
  0
LINE
  5
212
330
1F
100
AcDbEntity
  8
OBRYS
100
AcDbLine
 10
268.4598583530412
 20
149.4425011925145
 30
0.0
 11
268.4598583530412
 21
150.0278233015921
 31
0.0
  0
LINE
  5
213
330
1F
100
AcDbEntity
  8
OBRYS
100
AcDbLine
 10
268.4598583530412
 20
150.0278233015921
 30
0.0
 11
268.4598583530412
 21
150.6768797191921
 31
0.0
  0
LINE
  5
214
330
1F
100
AcDbEntity
  8
OBRYS
100
AcDbLine
 10
267.9782336864781
 20
160.594971654588
 30
0.0
 11
264.7915182603635
 21
160.594971654588
 31
0.0
  0
LINE
  5
215
330
1F
100
AcDbEntity
  8
OBRYS
100
AcDbLine
 10
264.7915182603635
 20
160.594971654588
 30
0.0
 11
264.7915182603635
 21
156.6582584465652
 31
0.0
  0
LINE
  5
216
330
1F
100
AcDbEntity
  8
OBRYS
100
AcDbLine
 10
268.4598583530412
 20
150.6768797191921
 30
0.0
 11
268.4598583530412
 21
152.8045720945093
 31
0.0
  0
LINE
  5
217
330
1F
100
AcDbEntity
  8
OBRYS
100
AcDbLine
 10
264.7915182603635
 20
182.7450554345148
 30
0.0
 11
264.7915182603635
 21
178.8085144813799
 31
0.0
  0
LINE
  5
21B
330
1F
100
AcDbEntity
  8
OBRYS
100
AcDbLine
 10
320.9293862263493
 20
138.8533042138676
 30
0.0
 11
320.7633325144155
 21
143.6065055905274
 31
0.0
  0
LINE
  5
21C
330
1F
100
AcDbEntity
  8
OBRYS
100
AcDbLine
 10
347.0656203671258
 20
136.8268977126345
 30
0.0
 11
323.0281397804996
 21
136.8268977126345
 31
0.0
  0
LINE
  5
21D
330
1F
100
AcDbEntity
  8
OBRYS
100
AcDbLine
 10
349.3304276332096
 20
143.6065055905274
 30
0.0
 11
349.1643739212759
 21
138.8533042138676
 31
0.0
  0
LINE
  5
21E
330
1F
100
AcDbEntity
  8
OBRYS
100
AcDbLine
 10
359.1968431022362
 20
148.5767481259387
 30
0.0
 11
354.4774036836044
 21
148.5767481259387
 31
0.0
  0
LINE
  5
21F
330
1F
100
AcDbEntity
  8
OBRYS
100
AcDbLine
 10
361.2969746954896
 20
188.7267786716637
 30
0.0
 11
361.2969746954896
 21
150.6768797191921
 31
0.0
  0
LINE
  5
220
330
1F
100
AcDbEntity
  8
OBRYS
100
AcDbLine
 10
310.896917045389
 20
190.8267380100293
 30
0.0
 11
359.1968431022362
 21
190.8267380100293
 31
0.0
  0
LINE
  5
221
330
1F
100
AcDbEntity
  8
OBRYS
100
AcDbLine
 10
308.7967854521355
 20
150.6768797191921
 30
0.0
 11
308.7967854521355
 21
188.7267786716637
 31
0.0
  0
LINE
  5
222
330
1F
100
AcDbEntity
  8
OBRYS
100
AcDbLine
 10
315.6167009737967
 20
148.5767481259387
 30
0.0
 11
310.896917045389
 21
148.5767481259387
 31
0.0
  0
LINE
  5
223
330
1F
100
AcDbEntity
  8
OBRYS
100
AcDbLine
 10
348.0471287183689
 20
163.0268661619332
 30
0.0
 11
348.0471287183689
 21
164.6267695607306
 31
0.0
  0
LINE
  5
224
330
1F
100
AcDbEntity
  8
OBRYS
100
AcDbLine
 10
347.7470607036505
 20
164.9268375754491
 30
0.0
 11
344.347093726318
 21
164.9268375754491
 31
0.0
  0
LINE
  5
225
330
1F
100
AcDbEntity
  8
OBRYS
100
AcDbLine
 10
326.0470789458014
 20
163.0268661619332
 30
0.0
 11
326.0470789458014
 21
164.6267695607306
 31
0.0
  0
LINE
  5
226
330
1F
100
AcDbEntity
  8
OBRYS
100
AcDbLine
 10
344.347093726318
 20
162.7267981472147
 30
0.0
 11
347.7470607036505
 21
162.7267981472147
 31
0.0
  0
LINE
  5
227
330
1F
100
AcDbEntity
  8
OBRYS
100
AcDbLine
 10
322.3470439537507
 20
162.7267981472147
 30
0.0
 11
325.7470109310829
 21
162.7267981472147
 31
0.0
  0
LINE
  5
228
330
1F
100
AcDbEntity
  8
OBRYS
100
AcDbLine
 10
325.7470109310829
 20
164.9268375754491
 30
0.0
 11
322.3470439537507
 21
164.9268375754491
 31
0.0
  0
LINE
  5
229
330
1F
100
AcDbEntity
  8
OBRYS
100
AcDbLine
 10
344.0470257115996
 20
164.6267695607306
 30
0.0
 11
344.0470257115996
 21
163.0268661619332
 31
0.0
  0
LINE
  5
22A
330
1F
100
AcDbEntity
  8
OBRYS
100
AcDbLine
 10
322.0469759390321
 20
164.6267695607306
 30
0.0
 11
322.0469759390321
 21
163.0268661619332
 31
0.0
  0
LINE
  5
22F
330
1F
100
AcDbEntity
  8
OBRYS
100
AcDbLine
 10
315.2969959018577
 20
136.9319731942524
 30
0.0
 11
322.3711596380563
 21
136.9319731942524
 31
0.0
  0
LINE
  5
230
330
1F
100
AcDbEntity
  8
OBRYS
100
AcDbLine
 10
347.7226005095689
 20
136.9319731942524
 30
0.0
 11
354.7971087555433
 21
136.9319731942524
 31
0.0
  0
LINE
  5
231
330
1F
100
AcDbEntity
  8
OBRYS
100
AcDbLine
 10
308.9022054435294
 20
150.0198995767488
 30
0.0
 11
308.9022054435294
 21
143.3267636525809
 31
0.0
  0
LINE
  5
232
330
1F
100
AcDbEntity
  8
OBRYS
100
AcDbLine
 10
361.191554704096
 20
143.3267636525809
 30
0.0
 11
361.191554704096
 21
150.0198995767488
 31
0.0
  0
LINE
  5
237
330
1F
100
AcDbEntity
  8
OBRYS
100
AcDbLine
 10
319.5468684960792
 20
176.7765958237341
 30
0.0
 11
350.5468916515459
 21
176.7765958237341
 31
0.0
  0
LINE
  5
238
330
1F
100
AcDbEntity
  8
OBRYS
100
AcDbLine
 10
316.3470616984846
 20
154.0768466965245
 30
0.0
 11
316.3470616984846
 21
173.5767890261393
 31
0.0
  0
LINE
  5
239
330
1F
100
AcDbEntity
  8
OBRYS
100
AcDbLine
 10
353.7470429589166
 20
173.5767890261393
 30
0.0
 11
353.7470429589166
 21
154.0768466965245
 31
0.0
  0
LINE
  5
23A
330
1F
100
AcDbEntity
  8
OBRYS
100
AcDbLine
 10
350.5468916515459
 20
150.8766953891539
 30
0.0
 11
319.5468684960792
 21
150.8766953891539
 31
0.0
  0
LINE
  5
23B
330
1F
100
AcDbEntity
  8
OBRYS
100
AcDbLine
 10
355.255651267128
 20
168.148348488919
 30
0.0
 11
355.255651267128
 21
148.5767481259387
 31
0.0
  0
LINE
  5
23C
330
1F
100
AcDbEntity
  8
OBRYS
100
AcDbLine
 10
357.6527502871177
 20
171.349533325617
 30
0.0
 11
355.8240923971916
 21
169.5212199454668
 31
0.0
  0
LINE
  5
23D
330
1F
100
AcDbEntity
  8
OBRYS
100
AcDbLine
 10
358.2556423947609
 20
190.8267380100293
 30
0.0
 11
358.2556423947609
 21
172.8050871283558
 31
0.0
  0
LINE
  5
23F
330
1F
100
AcDbEntity
  8
OBRYS
100
AcDbLine
 10
270.4597376015381
 20
190.6267500851796
 30
0.0
 11
270.4597376015381
 21
137.0267133825963
 31
0.0
  0
ARC
  5
240
330
1F
100
AcDbEntity
  8
OBRYS
100
AcDbCircle
 10
270.2597047715419
 20
137.0265859555655
 30
0.0
 40
0.2000328705835669
100
AcDbArc
 50
270.0622015564374
 51
0.0364991590306267
  0
LINE
  5
241
330
1F
100
AcDbEntity
  8
OBRYS
100
AcDbLine
 10
270.4597376015381
 20
152.8045720945093
 30
0.0
 11
268.4598583530412
 21
152.8045720945093
 31
0.0
  0
ARC
  5
242
330
1F
100
AcDbEntity
  8
OBRYS
100
AcDbCircle
 10
270.2597416155729
 20
190.6267421051913
 30
0.0
 40
0.1999959861242201
100
AcDbArc
 50
0.0022861441523145
 51
89.948342226437
  0
LINE
  5
243
330
1F
100
AcDbEntity
  8
OBRYS
100
AcDbLine
 10
270.2599219315762
 20
136.8265532028588
 30
0.0
 11
270.2599219315762
 21
190.8267380100293
 31
0.0
  0
ARC
  5
244
330
1F
100
AcDbEntity
  8
OBRYS
100
AcDbCircle
 10
249.6594215799967
 20
137.1405259625406
 30
0.0
 40
0.1996219932910792
100
AcDbArc
 50
179.9368105534846
 51
269.0667662212799
  0
LINE
  5
245
330
1F
100
AcDbEntity
  8
OBRYS
100
AcDbLine
 10
249.6561702803104
 20
148.6907808617272
 30
0.0
 11
249.6561702803104
 21
136.9409304484231
 31
0.0
  0
LINE
  5
246
330
1F
100
AcDbEntity
  8
OBRYS
100
AcDbLine
 10
249.4597997081067
 20
148.6942259594852
 30
0.0
 11
249.4597997081067
 21
137.2248065036791
 31
0.0
  0
LINE
  5
247
330
1F
100
AcDbEntity
  8
OBRYS
100
AcDbLine
 10
250.459911587243
 20
190.8267380100293
 30
0.0
 11
250.459911587243
 21
136.8268977126345
 31
0.0
  0
ARC
  5
248
330
1F
100
AcDbEntity
  8
OBRYS
100
AcDbCircle
 10
249.3624116993401
 20
148.8985554958117
 30
0.0
 40
0.2026947746750418
100
AcDbArc
 50
180.6916565080084
 51
268.3136500812351
  0
LINE
  5
249
330
1F
100
AcDbEntity
  8
OBRYS
100
AcDbLine
 10
249.356446775368
 20
190.7075376276039
 30
0.0
 11
249.356446775368
 21
148.6959485083642
 31
0.0
  0
LINE
  5
24A
330
1F
100
AcDbEntity
  8
OBRYS
100
AcDbLine
 10
249.1597316933882
 20
190.5075497027541
 30
0.0
 11
249.1597316933882
 21
148.8961086881017
 31
0.0
  0
ARC
  5
24B
330
1F
100
AcDbEntity
  8
OBRYS
100
AcDbCircle
 10
249.3625197870377
 20
190.5048221396516
 30
0.0
 40
0.2028064361070356
100
AcDbArc
 50
91.71597098846483
 51
179.2294003646005
  0
CIRCLE
  5
24C
330
1F
100
AcDbEntity
  8
OBRYS
100
AcDbCircle
 10
315.2969959018577
 20
143.3267636525809
 30
0.0
 40
2.15
  0
CIRCLE
  5
24D
330
1F
100
AcDbEntity
  8
OBRYS
100
AcDbCircle
 10
331.2970634191593
 20
142.7765815406344
 30
0.0
 40
2.15
  0
CIRCLE
  5
24E
330
1F
100
AcDbEntity
  8
OBRYS
100
AcDbCircle
 10
338.7970412382417
 20
142.7765815406344
 30
0.0
 40
2.15
  0
CIRCLE
  5
24F
330
1F
100
AcDbEntity
  8
OBRYS
100
AcDbCircle
 10
354.7969365006553
 20
143.3267636525809
 30
0.0
 40
2.15
  0
ARC
  5
250
330
1F
100
AcDbEntity
  8
OBRYS
100
AcDbCircle
 10
315.2967795695226
 20
143.3265473202457
 30
0.0
 40
6.394574129652628
100
AcDbArc
 50
179.9980616489025
 51
270.0019383510972
  0
ARC
  5
251
330
1F
100
AcDbEntity
  8
OBRYS
100
AcDbCircle
 10
323.0283616425478
 20
138.9268154854395
 30
0.0
 40
2.100262294299001
100
AcDbArc
 50
182.0058190203942
 51
269.9939475373812
  0
ARC
  5
252
330
1F
100
AcDbEntity
  8
OBRYS
100
AcDbCircle
 10
315.6164872131197
 20
143.42676530258
 30
0.0
 40
5.149982827794959
100
AcDbArc
 50
2.000094392602839
 51
89.9976218202995
  0
ARC
  5
253
330
1F
100
AcDbEntity
  8
OBRYS
100
AcDbCircle
 10
310.8970175412647
 20
150.6769802150679
 30
0.0
 40
2.100232091533566
100
AcDbArc
 50
180.0027415967826
 51
269.9972584032205
  0
ARC
  5
254
330
1F
100
AcDbEntity
  8
OBRYS
100
AcDbCircle
 10
310.8969807875692
 20
188.7265426623022
 30
0.0
 40
2.100195348694325
100
AcDbArc
 50
90.00173896104576
 51
179.9935613892407
  0
ARC
  5
255
330
1F
100
AcDbEntity
  8
OBRYS
100
AcDbCircle
 10
356.1963279865646
 20
172.8054213796861
 30
0.0
 40
2.059314435322977
100
AcDbArc
 50
315.0105105791222
 51
359.9907002105761
  0
ARC
  5
256
330
1F
100
AcDbEntity
  8
OBRYS
100
AcDbCircle
 10
357.3763587026908
 20
168.0743818743131
 30
0.0
 40
2.121996957426671
100
AcDbArc
 50
137.0133032175913
 51
178.0024318613283
  0
ARC
  5
257
330
1F
100
AcDbEntity
  8
OBRYS
100
AcDbCircle
 10
359.1969998977703
 20
188.7267632181067
 30
0.0
 40
2.099974797776166
100
AcDbArc
 50
0.0004216353450741
 51
90.00427801436743
  0
ARC
  5
258
330
1F
100
AcDbEntity
  8
OBRYS
100
AcDbCircle
 10
359.1969631422014
 20
150.6767596792269
 30
0.0
 40
2.100011556719063
100
AcDbArc
 50
269.9967248830804
 51
0.0032751169211513
  0
ARC
  5
259
330
1F
100
AcDbEntity
  8
OBRYS
100
AcDbCircle
 10
354.4773469685828
 20
143.4266886330978
 30
0.0
 40
5.150059493153169
100
AcDbArc
 50
89.99936903032436
 51
177.9990819049851
  0
ARC
  5
25A
330
1F
100
AcDbEntity
  8
OBRYS
100
AcDbCircle
 10
347.0656206682239
 20
138.9265854297046
 30
0.0
 40
2.100032226845847
100
AcDbArc
 50
269.9999917850541
 51
358.0002416571731
  0
ARC
  5
25B
330
1F
100
AcDbEntity
  8
OBRYS
100
AcDbCircle
 10
354.7970540964401
 20
143.3264738082436
 30
0.0
 40
6.394500614224847
100
AcDbArc
 50
270.0004897545739
 51
0.0025970530379673
  0
CIRCLE
  5
25C
330
1F
100
AcDbEntity
  8
OBRYS
100
AcDbCircle
 10
327.54690225473
 20
184.8767096722536
 30
0.0
 40
2.15
  0
CIRCLE
  5
25D
330
1F
100
AcDbEntity
  8
OBRYS
100
AcDbCircle
 10
335.0468800738126
 20
184.8767096722536
 30
0.0
 40
2.15
  0
CIRCLE
  5
25E
330
1F
100
AcDbEntity
  8
OBRYS
100
AcDbCircle
 10
342.5470301477831
 20
184.8767096722536
 30
0.0
 40
2.15
  0
ARC
  5
261
330
1F
100
AcDbEntity
  8
OBRYS
100
AcDbCircle
 10
319.546701227517
 20
173.5769562947015
 30
0.0
 40
3.199639533404799
100
AcDbArc
 50
89.99700473051266
 51
180.0029952694863
  0
ARC
  5
262
330
1F
100
AcDbEntity
  8
OBRYS
100
AcDbCircle
 10
350.5455466975513
 20
173.5728890426923
 30
0.0
 40
3.203707063355558
100
AcDbArc
 50
357.8713163121053
 51
89.975946555578
  0
ARC
  5
263
330
1F
100
AcDbEntity
  8
OBRYS
100
AcDbCircle
 10
350.5468153232673
 20
154.0769230248031
 30
0.0
 40
3.200227636559462
100
AcDbArc
 50
270.0013665553578
 51
359.9986334446422
  0
ARC
  5
264
330
1F
100
AcDbEntity
  8
OBRYS
100
AcDbCircle
 10
319.5469952783776
 20
154.0766289739425
 30
0.0
 40
3.199933587300143
100
AcDbArc
 50
179.9961016112604
 51
269.9977299245696
  0
ARC
  5
265
330
1F
100
AcDbEntity
  8
OBRYS
100
AcDbCircle
 10
322.3470616059969
 20
164.6267519084842
 30
0.0
 40
0.3000856674840494
100
AcDbArc
 50
90.00337036828252
 51
179.9966296317067
  0
ARC
  5
266
330
1F
100
AcDbEntity
  8
OBRYS
100
AcDbCircle
 10
322.3470616059969
 20
163.0268838141795
 30
0.0
 40
0.3000856674840209
100
AcDbArc
 50
180.0033703682825
 51
269.9966296317392
  0
ARC
  5
267
330
1F
100
AcDbEntity
  8
OBRYS
100
AcDbCircle
 10
325.7469932788365
 20
163.0268838141796
 30
0.0
 40
0.3000856674840778
100
AcDbArc
 50
270.0033703682824
 51
359.9966296317176
  0
ARC
  5
268
330
1F
100
AcDbEntity
  8
OBRYS
100
AcDbCircle
 10
325.7469932788365
 20
164.6267519084842
 30
0.0
 40
0.3000856674840778
100
AcDbArc
 50
0.0033703682933436
 51
89.99662963171751
  0
ARC
  5
269
330
1F
100
AcDbEntity
  8
OBRYS
100
AcDbCircle
 10
344.3471113785644
 20
163.0268838141795
 30
0.0
 40
0.3000856674840209
100
AcDbArc
 50
180.0033703682825
 51
269.9966296317174
  0
ARC
  5
26A
330
1F
100
AcDbEntity
  8
OBRYS
100
AcDbCircle
 10
344.3471113785644
 20
164.6267519084842
 30
0.0
 40
0.3000856674840494
100
AcDbArc
 50
90.00337036828252
 51
179.9966296317067
  0
ARC
  5
26B
330
1F
100
AcDbEntity
  8
OBRYS
100
AcDbCircle
 10
347.7470430514039
 20
164.6267519084842
 30
0.0
 40
0.3000856674840778
100
AcDbArc
 50
0.0033703682933436
 51
89.99662963169581
  0
ARC
  5
26C
330
1F
100
AcDbEntity
  8
OBRYS
100
AcDbCircle
 10
347.7470430514039
 20
163.0268838141796
 30
0.0
 40
0.3000856674840778
100
AcDbArc
 50
270.0033703683042
 51
359.9966296317176
  0
DIMENSION
  5
277
330
1F
100
AcDbEntity
  8
KOTY
100
AcDbDimension
  2
*D4
 10
270.4597376015381
 20
208.4729878647452
 30
0.0
 11
259.8097346474631
 21
211.4809878647452
 31
0.0
 70
    32
  3
STANDARD
100
AcDbAlignedDimension
 13
249.1597316933882
 23
190.5075497027541
 33
0.0
 14
270.4597376015381
 24
190.6267500851796
 34
0.0
100
AcDbRotatedDimension
1001
ACAD
1000
DSTYLE
1002
{
1070
   271
1070
     0
1070
   278
1070
    44
1070
    73
1070
     0
1070
    77
1070
     1
1070
   140
1040
4.0
1070
   147
1040
1.0
1070
    41
1040
4.0
1002
}
  0
DIMENSION
  5
278
330
1F
100
AcDbEntity
  8
KOTY
100
AcDbDimension
  2
*D5
 10
361.2969746954896
 20
208.4729878647452
 30
0.0
 11
335.0468800738126
 21
211.5149878647452
 31
0.0
 70
    32
  3
STANDARD
100
AcDbAlignedDimension
 13
308.7967854521356
 23
188.7267786716637
 33
0.0
 14
361.2969746954896
 24
188.7267786716637
 34
0.0
100
AcDbRotatedDimension
1001
ACAD
1000
DSTYLE
1002
{
1070
   271
1070
     0
1070
   278
1070
    44
1070
    73
1070
     0
1070
    77
1070
     1
1070
   140
1040
4.0
1070
   147
1040
1.0
1070
    41
1040
4.0
1002
}
  0
DIMENSION
  5
279
330
1F
100
AcDbEntity
  8
KOTY
100
AcDbDimension
  2
*D6
 10
381.7511310484834
 20
136.8268977126345
 30
0.0
 11
381.7511310484834
 21
163.002947868275
 31
0.0
 70
   160
  3
STANDARD
100
AcDbAlignedDimension
 13
359.1969998977703
 23
190.8267380158828
 33
0.0
 14
347.0656203671258
 24
136.8268977126345
 34
0.0
 50
90.0
100
AcDbRotatedDimension
1001
ACAD
1000
DSTYLE
1002
{
1070
   271
1070
     0
1070
   278
1070
    44
1070
    73
1070
     0
1070
    77
1070
     1
1070
   140
1040
4.0
1070
   147
1040
1.0
1070
    41
1040
4.0
1002
}
  0
LWPOLYLINE
  5
27A
330
1F
100
AcDbEntity
  8
OBRYS
100
AcDbPolyline
 90
        2
 70
     0
 43
0.0
 10
339.5466810585042
 20
197.0783846565145
 10
339.5466810585042
 20
190.8267380100293
  0
ARC
  5
27B
330
1F
100
AcDbEntity
  8
OBRYS
100
AcDbCircle
 10
335.0466943670546
 20
197.0783846565144
 30
0.0
 40
4.49998669144955
100
AcDbArc
 50
0.0000000000007238
 51
179.9999999999993
  0
LWPOLYLINE
  5
27C
330
1F
100
AcDbEntity
  8
OBRYS
100
AcDbPolyline
 90
        2
 70
     0
 43
0.0
 10
330.546707675605
 20
197.0783846565145
 10
330.546707675605
 20
190.8267380100293
  0
CIRCLE
  5
27D
330
1F
100
AcDbEntity
  8
OBRYS
100
AcDbCircle
 10
335.0466943670547
 20
197.0782124016265
 30
0.0
 40
2.15
  0
LINE
  5
27E
330
1F
100
AcDbEntity
  8
OBRYS
100
AcDbLine
 10
268.9601545622157
 20
190.8267380100293
 30
0.0
 11
268.9601545622157
 21
201.5768210539729
 31
0.0
  0
LINE
  5
27F
330
1F
100
AcDbEntity
  8
OBRYS
100
AcDbLine
 10
270.159737601538
 20
190.8267380100293
 30
0.0
 11
270.159737601538
 21
201.5768210539729
 31
0.0
  0
LINE
  5
280
330
1F
100
AcDbEntity
  8
OBRYS
100
AcDbLine
 10
270.159737601538
 20
201.5768210539729
 30
0.0
 11
268.9601545622157
 21
201.5768210539729
 31
0.0
  0
ARC
  5
281
330
1F
100
AcDbEntity
  8
OBRYS
100
AcDbCircle
 10
327.54690225473
 20
184.8767096722536
 30
0.0
 40
1.808944027644164
100
AcDbArc
 50
326.9596440713286
 51
123.0333709507134
  0
LINE
  5
283
330
1F
100
AcDbEntity
  8
OBRYS
100
AcDbLine
 10
329.1415068662988
 20
183.8122194809987
 30
0.0
 11
326.4849525448921
 21
186.4690976849795
 31
0.0
  0
LINE
  5
284
330
1F
100
AcDbEntity
  8
OBRYS
100
AcDbLine
 10
329.1415068662988
 20
183.8122194809987
 30
0.0
 11
328.6113234955043
 21
183.2820017630049
 31
0.0
  0
LINE
  5
285
330
1F
100
AcDbEntity
  8
OBRYS
100
AcDbLine
 10
328.6113063213484
 20
183.2820189360484
 30
0.0
 11
325.9522076168657
 21
185.9409453856432
 31
0.0
  0
ARC
  5
287
330
1F
100
AcDbEntity
  8
OBRYS
100
AcDbCircle
 10
327.54690225473
 20
184.8767096722535
 30
0.0
 40
1.80894402764416
100
AcDbArc
 50
146.9671969593146
 51
303.0365147486169
  0
LINE
  5
288
330
1F
100
AcDbEntity
  8
OBRYS
100
AcDbLine
 10
325.9522076168657
 20
185.9409453856432
 30
0.0
 11
326.4849525448921
 21
186.4690976849795
 31
0.0
  0
ARC
  5
289
330
1F
100
AcDbEntity
  8
OBRYS
100
AcDbCircle
 10
335.0468800738126
 20
184.8767096722536
 30
0.0
 40
1.808944027644164
100
AcDbArc
 50
326.9596440713286
 51
123.0333709507134
  0
LINE
  5
28B
330
1F
100
AcDbEntity
  8
OBRYS
100
AcDbLine
 10
336.6414846853814
 20
183.8122194809987
 30
0.0
 11
333.9849303639747
 21
186.4690976849795
 31
0.0
  0
LINE
  5
28C
330
1F
100
AcDbEntity
  8
OBRYS
100
AcDbLine
 10
336.6414846853814
 20
183.8122194809987
 30
0.0
 11
336.111301314587
 21
183.2820017630049
 31
0.0
  0
LINE
  5
28D
330
1F
100
AcDbEntity
  8
OBRYS
100
AcDbLine
 10
336.1112841404311
 20
183.2820189360484
 30
0.0
 11
333.4521854359484
 21
185.9409453856432
 31
0.0
  0
ARC
  5
28F
330
1F
100
AcDbEntity
  8
OBRYS
100
AcDbCircle
 10
335.0468800738126
 20
184.8767096722535
 30
0.0
 40
1.80894402764416
100
AcDbArc
 50
146.9671969593146
 51
303.0365147486169
  0
LINE
  5
290
330
1F
100
AcDbEntity
  8
OBRYS
100
AcDbLine
 10
333.4521854359484
 20
185.9409453856432
 30
0.0
 11
333.9849303639747
 21
186.4690976849795
 31
0.0
  0
ARC
  5
291
330
1F
100
AcDbEntity
  8
OBRYS
100
AcDbCircle
 10
342.5470301477831
 20
184.8767096722536
 30
0.0
 40
1.808944027644164
100
AcDbArc
 50
326.9596440713286
 51
123.0333709507134
  0
LINE
  5
293
330
1F
100
AcDbEntity
  8
OBRYS
100
AcDbLine
 10
344.1416347593519
 20
183.8122194809987
 30
0.0
 11
341.4850804379452
 21
186.4690976849795
 31
0.0
  0
LINE
  5
294
330
1F
100
AcDbEntity
  8
OBRYS
100
AcDbLine
 10
344.1416347593519
 20
183.8122194809987
 30
0.0
 11
343.6114513885574
 21
183.2820017630049
 31
0.0
  0
LINE
  5
295
330
1F
100
AcDbEntity
  8
OBRYS
100
AcDbLine
 10
343.6114342144015
 20
183.2820189360484
 30
0.0
 11
340.9523355099188
 21
185.9409453856432
 31
0.0
  0
ARC
  5
297
330
1F
100
AcDbEntity
  8
OBRYS
100
AcDbCircle
 10
342.5470301477831
 20
184.8767096722535
 30
0.0
 40
1.80894402764416
100
AcDbArc
 50
146.9671969593146
 51
303.0365147486169
  0
LINE
  5
298
330
1F
100
AcDbEntity
  8
OBRYS
100
AcDbLine
 10
340.9523355099188
 20
185.9409453856432
 30
0.0
 11
341.4850804379452
 21
186.4690976849795
 31
0.0
  0
ARC
  5
300
330
1F
100
AcDbEntity
  8
OBRYS
100
AcDbCircle
 10
331.2970634191593
 20
142.7765815406344
 30
0.0
 40
1.808944027644164
100
AcDbArc
 50
326.9596440713286
 51
123.0333709507134
  0
LINE
  5
302
330
1F
100
AcDbEntity
  8
OBRYS
100
AcDbLine
 10
332.8916680307281
 20
141.7120913493795
 30
0.0
 11
330.2351137093214
 21
144.3689695533603
 31
0.0
  0
LINE
  5
303
330
1F
100
AcDbEntity
  8
OBRYS
100
AcDbLine
 10
332.8916680307281
 20
141.7120913493795
 30
0.0
 11
332.3614846599336
 21
141.1818736313857
 31
0.0
  0
LINE
  5
304
330
1F
100
AcDbEntity
  8
OBRYS
100
AcDbLine
 10
332.3614674857777
 20
141.1818908044292
 30
0.0
 11
329.702368781295
 21
143.840817254024
 31
0.0
  0
ARC
  5
306
330
1F
100
AcDbEntity
  8
OBRYS
100
AcDbCircle
 10
331.2970634191593
 20
142.7765815406343
 30
0.0
 40
1.80894402764416
100
AcDbArc
 50
146.9671969593146
 51
303.0365147486169
  0
LINE
  5
307
330
1F
100
AcDbEntity
  8
OBRYS
100
AcDbLine
 10
329.702368781295
 20
143.840817254024
 30
0.0
 11
330.2351137093214
 21
144.3689695533603
 31
0.0
  0
ARC
  5
308
330
1F
100
AcDbEntity
  8
OBRYS
100
AcDbCircle
 10
338.7970412382417
 20
142.7765815406344
 30
0.0
 40
1.808944027644164
100
AcDbArc
 50
326.9596440713286
 51
123.0333709507134
  0
LINE
  5
30A
330
1F
100
AcDbEntity
  8
OBRYS
100
AcDbLine
 10
340.3916458498105
 20
141.7120913493795
 30
0.0
 11
337.7350915284038
 21
144.3689695533603
 31
0.0
  0
LINE
  5
30B
330
1F
100
AcDbEntity
  8
OBRYS
100
AcDbLine
 10
340.3916458498105
 20
141.7120913493795
 30
0.0
 11
339.861462479016
 21
141.1818736313857
 31
0.0
  0
LINE
  5
30C
330
1F
100
AcDbEntity
  8
OBRYS
100
AcDbLine
 10
339.8614453048601
 20
141.1818908044292
 30
0.0
 11
337.2023466003774
 21
143.840817254024
 31
0.0
  0
ARC
  5
30E
330
1F
100
AcDbEntity
  8
OBRYS
100
AcDbCircle
 10
338.7970412382417
 20
142.7765815406343
 30
0.0
 40
1.80894402764416
100
AcDbArc
 50
146.9671969593146
 51
303.0365147486169
  0
LINE
  5
30F
330
1F
100
AcDbEntity
  8
OBRYS
100
AcDbLine
 10
337.2023466003774
 20
143.840817254024
 30
0.0
 11
337.7350915284038
 21
144.3689695533603
 31
0.0
  0
ENDSEC
  0
SECTION
  2
OBJECTS
  0
DICTIONARY
  5
C
330
0
100
AcDbDictionary
  3
ACAD_GROUP
350
D
  3
ACAD_IMAGE_VARS
350
DC
  3
ACAD_MLINESTYLE
350
17
  3
ACAD_SCALELIST
350
312
  3
ACDBVARIABLEDICTIONARY
350
66
  3
APPDATA
350
E1
  3
DWGPROPS
350
34E
  0
DICTIONARY
  5
2BF
330
2
100
AcDbDictionary
280
     1
  3
ACAD_LAYERSTATES
360
2C0
  3
ACLYDICTIONARY
360
2C2
  0
DICTIONARY
  5
D
102
{ACAD_REACTORS
330
C
102
}
330
C
100
AcDbDictionary
  0
RASTERVARIABLES
  5
DC
102
{ACAD_REACTORS
330
C
102
}
330
C
100
AcDbRasterVariables
 90
        0
 70
     1
 71
     1
 72
     5
  0
DICTIONARY
  5
17
102
{ACAD_REACTORS
330
C
102
}
330
C
100
AcDbDictionary
  3
STANDARD
350
18
  0
DICTIONARY
  5
312
102
{ACAD_REACTORS
330
C
102
}
330
C
100
AcDbDictionary
  0
DICTIONARY
  5
66
102
{ACAD_REACTORS
330
C
102
}
330
C
100
AcDbDictionary
  3
CANNOSCALE
350
34F
  3
DIMASSOC
350
67
  3
HIDETEXT
350
6B
  0
DICTIONARY
  5
E1
102
{ACAD_REACTORS
330
C
102
}
330
C
100
AcDbDictionary
  0
XRECORD
  5
34E
102
{ACAD_REACTORS
330
C
102
}
330
C
100
AcDbXrecord
  1
DWGPROPS COOKIE
  2

  3

  4

  6

  7

  8
jaromir.podrabsky
  9

300
=
301
=
302
=
303
=
304
=
305
=
306
=
307
=
308
=
309
=
 40
0.0
 41
2452643.063384259
 42
2457953.241282674
  1

 90
        0
  0
DICTIONARY
  5
2C0
102
{ACAD_REACTORS
330
2BF
102
}
330
2BF
100
AcDbDictionary
  0
DICTIONARY
  5
2C2
102
{ACAD_REACTORS
330
2BF
102
}
330
2BF
100
AcDbDictionary
1001
ACAD
1000
<All
  0
MLINESTYLE
  5
18
102
{ACAD_REACTORS
330
17
102
}
330
17
100
AcDbMlineStyle
  2
STANDARD
 70
     0
  3

 62
   256
 51
90.0
 52
90.0
 71
     2
 49
0.5
 62
   256
  6
BYLAYER
 49
-0.5
 62
   256
  6
BYLAYER
  0
DICTIONARYVAR
  5
34F
102
{ACAD_REACTORS
330
66
102
}
330
66
100
DictionaryVariables
280
     0
  1
1:1
  0
DICTIONARYVAR
  5
67
102
{ACAD_REACTORS
330
66
102
}
330
66
100
DictionaryVariables
280
     0
  1
2
  0
DICTIONARYVAR
  5
6B
102
{ACAD_REACTORS
330
66
102
}
330
66
100
DictionaryVariables
280
     0
  1
1
  0
ENDSEC
  0
EOF
