  0
SECTION
  2
HEADER
  9
$ACADVER
  1
AC1014
  9
$ACADMAINTVER
 70
     9
  9
$DWGCODEPAGE
  3
ANSI_1252
  9
$INSBASE
 10
0.0
 20
0.0
 30
0.0
  9
$EXTMIN
 10
474.8194838198361
 20
120.5603624161284
 30
0.0
  9
$EXTMAX
 10
613.8183262956527
 20
277.6097857224183
 30
0.0
  9
$LIMMIN
 10
0.0
 20
0.0
  9
$LIMMAX
 10
12.0
 20
9.0
  9
$ORTHOMODE
 70
     0
  9
$REGENMODE
 70
     1
  9
$FILLMODE
 70
     1
  9
$QTEXTMODE
 70
     0
  9
$MIRRTEXT
 70
     0
  9
$DRAGMODE
 70
     2
  9
$LTSCALE
 40
1.0
  9
$OSMODE
 70
   511
  9
$ATTMODE
 70
     1
  9
$TEXTSIZE
 40
0.2
  9
$TRACEWID
 40
0.05
  9
$TEXTSTYLE
  7
STANDARD
  9
$CLAYER
  8
0
  9
$CELTYPE
  6
BYLAYER
  9
$CECOLOR
 62
   256
  9
$CELTSCALE
 40
1.0
  9
$DELOBJ
 70
     1
  9
$DISPSILH
 70
     0
  9
$DIMSCALE
 40
1.0
  9
$DIMASZ
 40
0.18
  9
$DIMEXO
 40
0.0625
  9
$DIMDLI
 40
0.38
  9
$DIMRND
 40
0.0
  9
$DIMDLE
 40
0.0
  9
$DIMEXE
 40
0.18
  9
$DIMTP
 40
0.0
  9
$DIMTM
 40
0.0
  9
$DIMTXT
 40
0.18
  9
$DIMCEN
 40
0.09
  9
$DIMTSZ
 40
0.0
  9
$DIMTOL
 70
     0
  9
$DIMLIM
 70
     0
  9
$DIMTIH
 70
     1
  9
$DIMTOH
 70
     1
  9
$DIMSE1
 70
     0
  9
$DIMSE2
 70
     0
  9
$DIMTAD
 70
     0
  9
$DIMZIN
 70
     0
  9
$DIMBLK
  1

  9
$DIMASO
 70
     1
  9
$DIMSHO
 70
     1
  9
$DIMPOST
  1

  9
$DIMAPOST
  1

  9
$DIMALT
 70
     0
  9
$DIMALTD
 70
     2
  9
$DIMALTF
 40
25.4
  9
$DIMLFAC
 40
1.0
  9
$DIMTOFL
 70
     0
  9
$DIMTVP
 40
0.0
  9
$DIMTIX
 70
     0
  9
$DIMSOXD
 70
     0
  9
$DIMSAH
 70
     0
  9
$DIMBLK1
  1

  9
$DIMBLK2
  1

  9
$DIMSTYLE
  2
STANDARD
  9
$DIMCLRD
 70
     0
  9
$DIMCLRE
 70
     0
  9
$DIMCLRT
 70
     0
  9
$DIMTFAC
 40
1.0
  9
$DIMGAP
 40
0.09
  9
$DIMJUST
 70
     0
  9
$DIMSD1
 70
     0
  9
$DIMSD2
 70
     0
  9
$DIMTOLJ
 70
     1
  9
$DIMTZIN
 70
     0
  9
$DIMALTZ
 70
     0
  9
$DIMALTTZ
 70
     0
  9
$DIMFIT
 70
     5
  9
$DIMUPT
 70
     0
  9
$DIMUNIT
 70
     2
  9
$DIMDEC
 70
     4
  9
$DIMTDEC
 70
     4
  9
$DIMALTU
 70
     2
  9
$DIMALTTD
 70
     2
  9
$DIMTXSTY
  7
STANDARD
  9
$DIMAUNIT
 70
     0
  9
$LUNITS
 70
     2
  9
$LUPREC
 70
     4
  9
$SKETCHINC
 40
0.1
  9
$FILLETRAD
 40
0.0
  9
$AUNITS
 70
     0
  9
$AUPREC
 70
     0
  9
$MENU
  1
.
  9
$ELEVATION
 40
0.0
  9
$PELEVATION
 40
0.0
  9
$THICKNESS
 40
0.0
  9
$LIMCHECK
 70
     0
  9
$CHAMFERA
 40
0.0
  9
$CHAMFERB
 40
0.0
  9
$CHAMFERC
 40
0.0
  9
$CHAMFERD
 40
0.0
  9
$SKPOLY
 70
     0
  9
$TDCREATE
 40
2452643.146717593
  9
$TDUPDATE
 40
2457953.598799687
  9
$TDINDWG
 40
0.0425323727
  9
$TDUSRTIMER
 40
2457953.513365602
  9
$USRTIMER
 70
     1
  9
$ANGBASE
 50
0.0
  9
$ANGDIR
 70
     0
  9
$PDMODE
 70
     0
  9
$PDSIZE
 40
0.0
  9
$PLINEWID
 40
0.0
  9
$COORDS
 70
     1
  9
$SPLFRAME
 70
     0
  9
$SPLINETYPE
 70
     6
  9
$SPLINESEGS
 70
     8
  9
$ATTDIA
 70
     0
  9
$ATTREQ
 70
     1
  9
$HANDLING
 70
     1
  9
$HANDSEED
  5
572
  9
$SURFTAB1
 70
     6
  9
$SURFTAB2
 70
     6
  9
$SURFTYPE
 70
     6
  9
$SURFU
 70
     6
  9
$SURFV
 70
     6
  9
$UCSNAME
  2

  9
$UCSORG
 10
0.0
 20
0.0
 30
0.0
  9
$UCSXDIR
 10
1.0
 20
0.0
 30
0.0
  9
$UCSYDIR
 10
0.0
 20
1.0
 30
0.0
  9
$PUCSNAME
  2

  9
$PUCSORG
 10
0.0
 20
0.0
 30
0.0
  9
$PUCSXDIR
 10
1.0
 20
0.0
 30
0.0
  9
$PUCSYDIR
 10
0.0
 20
1.0
 30
0.0
  9
$USERI1
 70
     0
  9
$USERI2
 70
     0
  9
$USERI3
 70
     0
  9
$USERI4
 70
     0
  9
$USERI5
 70
     0
  9
$USERR1
 40
0.0
  9
$USERR2
 40
0.0
  9
$USERR3
 40
0.0
  9
$USERR4
 40
0.0
  9
$USERR5
 40
0.0
  9
$WORLDVIEW
 70
     1
  9
$SHADEDGE
 70
     3
  9
$SHADEDIF
 70
    70
  9
$TILEMODE
 70
     1
  9
$MAXACTVP
 70
    64
  9
$PINSBASE
 10
0.0
 20
0.0
 30
0.0
  9
$PLIMCHECK
 70
     0
  9
$PEXTMIN
 10
0.0
 20
0.0
 30
0.0
  9
$PEXTMAX
 10
0.0
 20
0.0
 30
0.0
  9
$PLIMMIN
 10
0.0
 20
0.0
  9
$PLIMMAX
 10
0.0
 20
0.0
  9
$UNITMODE
 70
     0
  9
$VISRETAIN
 70
     1
  9
$PLINEGEN
 70
     0
  9
$PSLTSCALE
 70
     1
  9
$TREEDEPTH
 70
  3020
  9
$PICKSTYLE
 70
     1
  9
$CMLSTYLE
  2
STANDARD
  9
$CMLJUST
 70
     0
  9
$CMLSCALE
 40
1.0
  9
$PROXYGRAPHICS
 70
     1
  9
$MEASUREMENT
 70
     0
  0
ENDSEC
  0
SECTION
  2
CLASSES
  0
CLASS
  1
ACDBDICTIONARYWDFLT
  2
AcDbDictionaryWithDefault
  3
ObjectDBX Classes
 90
        0
280
     0
281
     0
  0
CLASS
  1
ACDBPLACEHOLDER
  2
AcDbPlaceHolder
  3
ObjectDBX Classes
 90
        0
280
     0
281
     0
  0
CLASS
  1
LAYOUT
  2
AcDbLayout
  3
ObjectDBX Classes
 90
        0
280
     0
281
     0
  0
CLASS
  1
DICTIONARYVAR
  2
AcDbDictionaryVar
  3
ObjectDBX Classes
 90
        0
280
     0
281
     0
  0
CLASS
  1
TABLESTYLE
  2
AcDbTableStyle
  3
ObjectDBX Classes
 90
     4095
280
     0
281
     0
  0
CLASS
  1
MATERIAL
  2
AcDbMaterial
  3
ObjectDBX Classes
 90
     1153
280
     0
281
     0
  0
CLASS
  1
VISUALSTYLE
  2
AcDbVisualStyle
  3
ObjectDBX Classes
 90
     4095
280
     0
281
     0
  0
CLASS
  1
SCALE
  2
AcDbScale
  3
ObjectDBX Classes
 90
     1153
280
     0
281
     0
  0
CLASS
  1
CELLSTYLEMAP
  2
AcDbCellStyleMap
  3
ObjectDBX Classes
 90
     1152
280
     0
281
     0
  0
CLASS
  1
RASTERVARIABLES
  2
AcDbRasterVariables
  3
ISM
 90
        0
280
     0
281
     0
  0
CLASS
  1
XRECORD
  2
AcDbXrecord
  3
AutoCAD 2000
 90
        0
280
     0
281
     0
  0
CLASS
  1
LWPOLYLINE
  2
AcDbPolyline
  3
AutoCAD 2000
 90
        0
280
     0
281
     1
  0
CLASS
  1
HATCH
  2
AcDbHatch
  3
AutoCAD 2000
 90
        0
280
     0
281
     1
  0
ENDSEC
  0
SECTION
  2
TABLES
  0
TABLE
  2
VPORT
  5
8
330
0
100
AcDbSymbolTable
 70
     1
  0
VPORT
  5
94
330
8
100
AcDbSymbolTableRecord
100
AcDbViewportTableRecord
  2
*ACTIVE
 70
     0
 10
0.0
 20
0.0
 11
1.0
 21
1.0
 12
582.4618869811769
 22
237.5510176565052
 13
0.0
 23
0.0
 14
0.5
 24
0.5
 15
0.5
 25
0.5
 16
0.0
 26
0.0
 36
1.0
 17
-27.66959356597988
 27
-19.53870295786203
 37
0.0
 40
138.1430318357508
 41
2.040251572327044
 42
50.0
 43
0.0
 44
0.0
 50
0.0
 51
0.0
 71
    16
 72
  1000
 73
     1
 74
     3
 75
     0
 76
     0
 77
     0
 78
     0
  0
ENDTAB
  0
TABLE
  2
LTYPE
  5
5
330
0
100
AcDbSymbolTable
 70
     1
  0
LTYPE
  5
14
330
5
100
AcDbSymbolTableRecord
100
AcDbLinetypeTableRecord
  2
BYBLOCK
 70
     0
  3

 72
    65
 73
     0
 40
0.0
  0
LTYPE
  5
15
330
5
100
AcDbSymbolTableRecord
100
AcDbLinetypeTableRecord
  2
BYLAYER
 70
     0
  3

 72
    65
 73
     0
 40
0.0
  0
LTYPE
  5
16
330
5
100
AcDbSymbolTableRecord
100
AcDbLinetypeTableRecord
  2
CONTINUOUS
 70
     0
  3
Solid line
 72
    65
 73
     0
 40
0.0
  0
ENDTAB
  0
TABLE
  2
LAYER
  5
2
102
{ACAD_XDICTIONARY
360
565
102
}
330
0
100
AcDbSymbolTable
 70
     6
  0
LAYER
  5
10
330
2
100
AcDbSymbolTableRecord
100
AcDbLayerTableRecord
  2
0
 70
     0
 62
     7
  6
CONTINUOUS
  0
LAYER
  5
E4
330
2
100
AcDbSymbolTableRecord
100
AcDbLayerTableRecord
  2
DEFPOINTS
 70
     0
 62
     7
  6
CONTINUOUS
  0
LAYER
  5
E5
330
2
100
AcDbSymbolTableRecord
100
AcDbLayerTableRecord
  2
KOTY
 70
     0
 62
     1
  6
CONTINUOUS
1001
ACAECLAYERSTANDARD
1000

1000

  0
LAYER
  5
E8
330
2
100
AcDbSymbolTableRecord
100
AcDbLayerTableRecord
  2
OBRYS
 70
     0
 62
     5
  6
CONTINUOUS
1001
ACAECLAYERSTANDARD
1000

1000

  0
LAYER
  5
EA
330
2
100
AcDbSymbolTableRecord
100
AcDbLayerTableRecord
  2
POPIS_VODICU
 70
     0
 62
     3
  6
CONTINUOUS
  0
ENDTAB
  0
TABLE
  2
STYLE
  5
3
330
0
100
AcDbSymbolTable
 70
     1
  0
STYLE
  5
11
330
3
100
AcDbSymbolTableRecord
100
AcDbTextStyleTableRecord
  2
STANDARD
 70
     0
 40
0.0
 41
1.0
 50
0.0
 71
     0
 42
0.2
  3
arial.ttf
  4

1001
ACAD
1000
Arial
1071
        0
  0
ENDTAB
  0
TABLE
  2
VIEW
  5
6
330
0
100
AcDbSymbolTable
 70
     0
  0
ENDTAB
  0
TABLE
  2
UCS
  5
7
330
0
100
AcDbSymbolTable
 70
     0
  0
ENDTAB
  0
TABLE
  2
APPID
  5
9
330
0
100
AcDbSymbolTable
 70
     2
  0
APPID
  5
12
330
9
100
AcDbSymbolTableRecord
100
AcDbRegAppTableRecord
  2
ACAD
 70
     0
  0
APPID
  5
E7
330
9
100
AcDbSymbolTableRecord
100
AcDbRegAppTableRecord
  2
ACAECLAYERSTANDARD
 70
     0
  0
ENDTAB
  0
TABLE
  2
DIMSTYLE
  5
A
330
0
100
AcDbSymbolTable
 70
     1
  0
DIMSTYLE
105
27
102
{ACAD_REACTORS
330
41E
330
41F
330
420
330
421
102
}
330
A
100
AcDbSymbolTableRecord
100
AcDbDimStyleTableRecord
  2
STANDARD
 70
     0
  3

  4

  5

  6

  7

 40
1.0
 41
0.18
 42
0.0625
 43
0.38
 44
0.18
 45
0.0
 46
0.0
 47
0.0
 48
0.0
140
0.18
141
0.09
142
0.0
143
25.4
144
1.0
145
0.0
146
1.0
147
0.09
 71
     0
 72
     0
 73
     1
 74
     1
 75
     0
 76
     0
 77
     0
 78
     0
170
     0
171
     2
172
     0
173
     0
174
     0
175
     0
176
     0
177
     0
178
     0
270
     2
271
     4
272
     4
273
     2
274
     2
340
11
275
     0
280
     0
281
     0
282
     0
283
     1
284
     0
285
     0
286
     0
287
     3
288
     0
  0
ENDTAB
  0
TABLE
  2
BLOCK_RECORD
  5
1
330
0
100
AcDbSymbolTable
 70
    17
  0
BLOCK_RECORD
  5
1F
330
1
100
AcDbSymbolTableRecord
100
AcDbBlockTableRecord
  2
*MODEL_SPACE
  0
BLOCK_RECORD
  5
58
330
1
100
AcDbSymbolTableRecord
100
AcDbBlockTableRecord
  2
*PAPER_SPACE
  0
BLOCK_RECORD
  5
5D
330
1
100
AcDbSymbolTableRecord
100
AcDbBlockTableRecord
  2
*PAPER_SPACE0
  0
BLOCK_RECORD
  5
1C2
330
1
100
AcDbSymbolTableRecord
100
AcDbBlockTableRecord
  2
*D1
  0
BLOCK_RECORD
  5
1CF
330
1
100
AcDbSymbolTableRecord
100
AcDbBlockTableRecord
  2
*D2
  0
BLOCK_RECORD
  5
1DC
330
1
100
AcDbSymbolTableRecord
100
AcDbBlockTableRecord
  2
*D3
  0
BLOCK_RECORD
  5
1E9
330
1
100
AcDbSymbolTableRecord
100
AcDbBlockTableRecord
  2
*D4
  0
BLOCK_RECORD
  5
1F6
330
1
100
AcDbSymbolTableRecord
100
AcDbBlockTableRecord
  2
*D5
  0
BLOCK_RECORD
  5
20D
330
1
100
AcDbSymbolTableRecord
100
AcDbBlockTableRecord
  2
BLOCK_2
  0
BLOCK_RECORD
  5
2FF
330
1
100
AcDbSymbolTableRecord
100
AcDbBlockTableRecord
  2
*D7
  0
BLOCK_RECORD
  5
30C
330
1
100
AcDbSymbolTableRecord
100
AcDbBlockTableRecord
  2
*D8
  0
BLOCK_RECORD
  5
319
330
1
100
AcDbSymbolTableRecord
100
AcDbBlockTableRecord
  2
*D9
  0
BLOCK_RECORD
  5
326
330
1
100
AcDbSymbolTableRecord
100
AcDbBlockTableRecord
  2
*D10
  0
BLOCK_RECORD
  5
333
330
1
100
AcDbSymbolTableRecord
100
AcDbBlockTableRecord
  2
*D11
  0
BLOCK_RECORD
  5
431
330
1
100
AcDbSymbolTableRecord
100
AcDbBlockTableRecord
  2
*D12
  0
BLOCK_RECORD
  5
43B
330
1
100
AcDbSymbolTableRecord
100
AcDbBlockTableRecord
  2
*D13
  0
BLOCK_RECORD
  5
445
330
1
100
AcDbSymbolTableRecord
100
AcDbBlockTableRecord
  2
*D14
  0
BLOCK_RECORD
  5
44F
330
1
100
AcDbSymbolTableRecord
100
AcDbBlockTableRecord
  2
*D15
  0
BLOCK_RECORD
  5
459
330
1
100
AcDbSymbolTableRecord
100
AcDbBlockTableRecord
  2
*D16
  0
ENDTAB
  0
ENDSEC
  0
SECTION
  2
BLOCKS
  0
BLOCK
  5
20
330
1F
100
AcDbEntity
  8
0
100
AcDbBlockBegin
  2
*MODEL_SPACE
 70
     0
 10
0.0
 20
0.0
 30
0.0
  3
*MODEL_SPACE
  1

  0
ENDBLK
  5
21
330
1F
100
AcDbEntity
  8
0
100
AcDbBlockEnd
  0
BLOCK
  5
5A
330
58
100
AcDbEntity
 67
     1
  8
0
100
AcDbBlockBegin
  2
*PAPER_SPACE
 70
     0
 10
0.0
 20
0.0
 30
0.0
  3
*PAPER_SPACE
  1

  0
ENDBLK
  5
5B
330
58
100
AcDbEntity
 67
     1
  8
0
100
AcDbBlockEnd
  0
BLOCK
  5
5F
330
5D
100
AcDbEntity
  8
0
100
AcDbBlockBegin
  2
*PAPER_SPACE0
 70
     0
 10
0.0
 20
0.0
 30
0.0
  3
*PAPER_SPACE0
  1

  0
ENDBLK
  5
60
330
5D
100
AcDbEntity
  8
0
100
AcDbBlockEnd
  0
BLOCK
  5
1C3
330
1C2
100
AcDbEntity
  8
0
100
AcDbBlockBegin
  2
*D1
 70
     1
 10
0.0
 20
0.0
 30
0.0
  3
*D1
  1

  0
LINE
  5
1C4
330
1C2
100
AcDbEntity
  8
KOTY
 62
     0
100
AcDbLine
 10
0.0
 20
102.9243296172698
 30
0.0
 11
0.0
 21
142.8206372128194
 31
0.0
  0
LINE
  5
1C5
330
1C2
100
AcDbEntity
  8
KOTY
 62
     0
100
AcDbLine
 10
21.30000590814979
 20
103.0435299996953
 30
0.0
 11
21.30000590814979
 21
142.8206372128194
 31
0.0
  0
LINE
  5
1C6
330
1C2
100
AcDbEntity
  8
KOTY
 62
     0
100
AcDbLine
 10
4.0
 20
142.6406372128194
 30
0.0
 11
17.30000590814979
 21
142.6406372128194
 31
0.0
  0
SOLID
  5
1C7
330
1C2
100
AcDbEntity
  8
KOTY
 62
     0
100
AcDbTrace
 10
4.0
 20
143.3073038794861
 30
0.0
 11
4.0
 21
141.9739705461527
 31
0.0
 12
0.0
 22
142.6406372128194
 32
0.0
 13
0.0
 23
142.6406372128194
 33
0.0
  0
SOLID
  5
1C8
330
1C2
100
AcDbEntity
  8
KOTY
 62
     0
100
AcDbTrace
 10
17.30000590814979
 20
141.9739705461527
 30
0.0
 11
17.30000590814979
 21
143.3073038794861
 31
0.0
 12
21.30000590814979
 22
142.6406372128194
 32
0.0
 13
21.30000590814979
 23
142.6406372128194
 33
0.0
  0
MTEXT
  5
1C9
330
1C2
100
AcDbEntity
  8
KOTY
 62
     0
100
AcDbMText
 10
10.65000295407489
 20
145.6486372128194
 30
0.0
 40
4.0
 41
0.0
 71
     5
 72
     1
  1
\A1;21
  0
POINT
  5
1CA
330
1C2
100
AcDbEntity
  8
DEFPOINTS
 62
     0
100
AcDbPoint
 10
0.0
 20
102.8618296172698
 30
0.0
  0
POINT
  5
1CB
330
1C2
100
AcDbEntity
  8
DEFPOINTS
 62
     0
100
AcDbPoint
 10
21.30000590814979
 20
102.9810299996953
 30
0.0
  0
POINT
  5
1CC
330
1C2
100
AcDbEntity
  8
DEFPOINTS
 62
     0
100
AcDbPoint
 10
21.30000590814979
 20
142.6406372128194
 30
0.0
  0
ENDBLK
  5
1CD
330
1C2
100
AcDbEntity
  8
0
100
AcDbBlockEnd
  0
BLOCK
  5
1D0
330
1CF
100
AcDbEntity
  8
0
100
AcDbBlockBegin
  2
*D2
 70
     1
 10
0.0
 20
0.0
 30
0.0
  3
*D2
  1

  0
LINE
  5
1D1
330
1CF
100
AcDbEntity
  8
KOTY
 62
     0
100
AcDbLine
 10
59.63705375874747
 20
101.1435585861794
 30
0.0
 11
59.63705375874747
 21
142.8206372128194
 31
0.0
  0
LINE
  5
1D2
330
1CF
100
AcDbEntity
  8
KOTY
 62
     0
100
AcDbLine
 10
112.1372430021014
 20
101.1435585861794
 30
0.0
 11
112.1372430021014
 21
142.8206372128194
 31
0.0
  0
LINE
  5
1D3
330
1CF
100
AcDbEntity
  8
KOTY
 62
     0
100
AcDbLine
 10
63.63705375874747
 20
142.6406372128194
 30
0.0
 11
108.1372430021014
 21
142.6406372128194
 31
0.0
  0
SOLID
  5
1D4
330
1CF
100
AcDbEntity
  8
KOTY
 62
     0
100
AcDbTrace
 10
63.63705375874747
 20
143.3073038794861
 30
0.0
 11
63.63705375874747
 21
141.9739705461527
 31
0.0
 12
59.63705375874747
 22
142.6406372128194
 32
0.0
 13
59.63705375874747
 23
142.6406372128194
 33
0.0
  0
SOLID
  5
1D5
330
1CF
100
AcDbEntity
  8
KOTY
 62
     0
100
AcDbTrace
 10
108.1372430021014
 20
141.9739705461527
 30
0.0
 11
108.1372430021014
 21
143.3073038794861
 31
0.0
 12
112.1372430021014
 22
142.6406372128194
 32
0.0
 13
112.1372430021014
 23
142.6406372128194
 33
0.0
  0
MTEXT
  5
1D6
330
1CF
100
AcDbEntity
  8
KOTY
 62
     0
100
AcDbMText
 10
85.88714838042443
 20
145.6826372128194
 30
0.0
 40
4.0
 41
0.0
 71
     5
 72
     1
  1
\A1;53
  0
POINT
  5
1D7
330
1CF
100
AcDbEntity
  8
DEFPOINTS
 62
     0
100
AcDbPoint
 10
59.63705375874747
 20
101.0810585861794
 30
0.0
  0
POINT
  5
1D8
330
1CF
100
AcDbEntity
  8
DEFPOINTS
 62
     0
100
AcDbPoint
 10
112.1372430021014
 20
101.0810585861794
 30
0.0
  0
POINT
  5
1D9
330
1CF
100
AcDbEntity
  8
DEFPOINTS
 62
     0
100
AcDbPoint
 10
112.1372430021014
 20
142.6406372128194
 30
0.0
  0
ENDBLK
  5
1DA
330
1CF
100
AcDbEntity
  8
0
100
AcDbBlockEnd
  0
BLOCK
  5
1DD
330
1DC
100
AcDbEntity
  8
0
100
AcDbBlockBegin
  2
*D3
 70
     1
 10
0.0
 20
0.0
 30
0.0
  3
*D3
  1

  0
LINE
  5
1DE
330
1DC
100
AcDbEntity
  8
KOTY
 62
     0
100
AcDbLine
 10
110.0997682043821
 20
103.1810179303984
 30
0.0
 11
132.7713993550952
 21
103.1810179303984
 31
0.0
  0
LINE
  5
1DF
330
1DC
100
AcDbEntity
  8
KOTY
 62
     0
100
AcDbLine
 10
97.96838867373748
 20
49.18117762715021
 30
0.0
 11
132.7713993550952
 21
49.18117762715021
 31
0.0
  0
LINE
  5
1E0
330
1DC
100
AcDbEntity
  8
KOTY
 62
     0
100
AcDbLine
 10
132.5913993550952
 20
99.1810179303984
 30
0.0
 11
132.5913993550952
 21
53.18117762715021
 31
0.0
  0
SOLID
  5
1E1
330
1DC
100
AcDbEntity
  8
KOTY
 62
     0
100
AcDbTrace
 10
133.2580660217618
 20
99.1810179303984
 30
0.0
 11
131.9247326884285
 21
99.1810179303984
 31
0.0
 12
132.5913993550952
 22
103.1810179303984
 32
0.0
 13
132.5913993550952
 23
103.1810179303984
 33
0.0
  0
SOLID
  5
1E2
330
1DC
100
AcDbEntity
  8
KOTY
 62
     0
100
AcDbTrace
 10
131.9247326884285
 20
53.18117762715021
 30
0.0
 11
133.2580660217618
 21
53.18117762715021
 31
0.0
 12
132.5913993550952
 22
49.18117762715021
 32
0.0
 13
132.5913993550952
 23
49.18117762715021
 33
0.0
  0
MTEXT
  5
1E3
330
1DC
100
AcDbEntity
  8
KOTY
 62
     0
100
AcDbMText
 10
129.5573993550952
 20
75.3572277827907
 30
0.0
 40
4.0
 41
0.0
 71
     5
 72
     1
  1
\A1;54
 11
0.0
 21
1.0
 31
0.0
  0
POINT
  5
1E4
330
1DC
100
AcDbEntity
  8
DEFPOINTS
 62
     0
100
AcDbPoint
 10
110.0372682043821
 20
103.1810179303984
 30
0.0
  0
POINT
  5
1E5
330
1DC
100
AcDbEntity
  8
DEFPOINTS
 62
     0
100
AcDbPoint
 10
97.90588867373748
 20
49.18117762715021
 30
0.0
  0
POINT
  5
1E6
330
1DC
100
AcDbEntity
  8
DEFPOINTS
 62
     0
100
AcDbPoint
 10
132.5913993550952
 20
49.18117762715021
 30
0.0
  0
ENDBLK
  5
1E7
330
1DC
100
AcDbEntity
  8
0
100
AcDbBlockEnd
  0
BLOCK
  5
1EA
330
1E9
100
AcDbEntity
  8
0
100
AcDbBlockBegin
  2
*D4
 70
     1
 10
0.0
 20
0.0
 30
0.0
  3
*D4
  1

  0
LINE
  5
1EB
330
1E9
100
AcDbEntity
  8
KOTY
 62
     0
100
AcDbLine
 10
95.49963162038222
 20
136.5865805895084
 30
0.0
 11
132.7713993550952
 21
136.5865805895084
 31
0.0
  0
LINE
  5
1EC
330
1E9
100
AcDbEntity
  8
KOTY
 62
     0
100
AcDbLine
 10
110.099611408848
 20
103.1810179245449
 30
0.0
 11
132.7713993550952
 21
103.1810179245449
 31
0.0
  0
LINE
  5
1ED
330
1E9
100
AcDbEntity
  8
KOTY
 62
     0
100
AcDbLine
 10
132.5913993550952
 20
132.5865805895084
 30
0.0
 11
132.5913993550952
 21
107.1810179245449
 31
0.0
  0
SOLID
  5
1EE
330
1E9
100
AcDbEntity
  8
KOTY
 62
     0
100
AcDbTrace
 10
133.2580660217618
 20
132.5865805895084
 30
0.0
 11
131.9247326884285
 21
132.5865805895084
 31
0.0
 12
132.5913993550952
 22
136.5865805895084
 32
0.0
 13
132.5913993550952
 23
136.5865805895084
 33
0.0
  0
SOLID
  5
1EF
330
1E9
100
AcDbEntity
  8
KOTY
 62
     0
100
AcDbTrace
 10
131.9247326884285
 20
107.1810179245449
 30
0.0
 11
133.2580660217618
 21
107.1810179245449
 31
0.0
 12
132.5913993550952
 22
103.1810179245449
 32
0.0
 13
132.5913993550952
 23
103.1810179245449
 33
0.0
  0
MTEXT
  5
1F0
330
1E9
100
AcDbEntity
  8
KOTY
 62
     0
100
AcDbMText
 10
129.5493993550952
 20
119.8837992570267
 30
0.0
 40
4.0
 41
0.0
 71
     5
 72
     1
  1
\A1;150
 11
0.0
 21
1.0
 31
0.0
  0
POINT
  5
1F1
330
1E9
100
AcDbEntity
  8
DEFPOINTS
 62
     0
100
AcDbPoint
 10
95.43713162038222
 20
136.5865805895084
 30
0.0
  0
POINT
  5
1F2
330
1E9
100
AcDbEntity
  8
DEFPOINTS
 62
     0
100
AcDbPoint
 10
110.037111408848
 20
103.1810179245449
 30
0.0
  0
POINT
  5
1F3
330
1E9
100
AcDbEntity
  8
DEFPOINTS
 62
     0
100
AcDbPoint
 10
132.5913993550952
 20
103.1810179245449
 30
0.0
  0
ENDBLK
  5
1F4
330
1E9
100
AcDbEntity
  8
0
100
AcDbBlockEnd
  0
BLOCK
  5
1F7
330
1F6
100
AcDbEntity
  8
0
100
AcDbBlockBegin
  2
*D5
 70
     1
 10
0.0
 20
0.0
 30
0.0
  3
*D5
  1

  0
LINE
  5
1F8
330
1F6
100
AcDbEntity
  8
KOTY
 62
     0
100
AcDbLine
 10
97.9683886737377
 20
49.18083311737441
 30
0.0
 11
132.7713993550952
 21
49.18083311737441
 31
0.0
  0
LINE
  5
1F9
330
1F6
100
AcDbEntity
  8
KOTY
 62
     0
100
AcDbLine
 10
91.74964271084082
 20
14.0115526552226
 30
0.0
 11
132.7713993550952
 21
14.0115526552226
 31
0.0
  0
LINE
  5
1FA
330
1F6
100
AcDbEntity
  8
KOTY
 62
     0
100
AcDbLine
 10
132.5913993550952
 20
45.18083311737441
 30
0.0
 11
132.5913993550952
 21
18.0115526552226
 31
0.0
  0
SOLID
  5
1FB
330
1F6
100
AcDbEntity
  8
KOTY
 62
     0
100
AcDbTrace
 10
133.2580660217618
 20
45.18083311737441
 30
0.0
 11
131.9247326884285
 21
45.18083311737441
 31
0.0
 12
132.5913993550952
 22
49.18083311737441
 32
0.0
 13
132.5913993550952
 23
49.18083311737441
 33
0.0
  0
SOLID
  5
1FC
330
1F6
100
AcDbEntity
  8
KOTY
 62
     0
100
AcDbTrace
 10
131.9247326884285
 20
18.0115526552226
 30
0.0
 11
133.2580660217618
 21
18.0115526552226
 31
0.0
 12
132.5913993550952
 22
14.0115526552226
 32
0.0
 13
132.5913993550952
 23
14.0115526552226
 33
0.0
  0
MTEXT
  5
1FD
330
1F6
100
AcDbEntity
  8
KOTY
 62
     0
100
AcDbMText
 10
129.5493993550952
 20
31.5961928862985
 30
0.0
 40
4.0
 41
0.0
 71
     5
 72
     1
  1
\A1;150
 11
0.0
 21
1.0
 31
0.0
  0
POINT
  5
1FE
330
1F6
100
AcDbEntity
  8
DEFPOINTS
 62
     0
100
AcDbPoint
 10
97.9058886737377
 20
49.18083311737441
 30
0.0
  0
POINT
  5
1FF
330
1F6
100
AcDbEntity
  8
DEFPOINTS
 62
     0
100
AcDbPoint
 10
91.68714271084082
 20
14.0115526552226
 30
0.0
  0
POINT
  5
200
330
1F6
100
AcDbEntity
  8
DEFPOINTS
 62
     0
100
AcDbPoint
 10
132.5913993550952
 20
14.0115526552226
 30
0.0
  0
ENDBLK
  5
201
330
1F6
100
AcDbEntity
  8
0
100
AcDbBlockEnd
  0
BLOCK
  5
20E
330
20D
100
AcDbEntity
  8
0
100
AcDbBlockBegin
  2
BLOCK_2
 70
     0
 10
0.0
 20
0.0
 30
0.0
  3
BLOCK_2
  1

  0
SPLINE
  5
20F
330
20D
100
AcDbEntity
  8
POPIS_VODICU
100
AcDbSpline
210
0.0
220
0.0
230
1.0
 70
    11
 71
     3
 72
    68
 73
    64
 74
     0
 42
0.0000000001
 43
0.0000000001
 40
0.0
 40
0.0
 40
0.0
 40
0.0
 40
1.0
 40
1.0
 40
1.0
 40
2.0
 40
2.0
 40
2.0
 40
3.0
 40
3.0
 40
3.0
 40
4.0
 40
4.0
 40
4.0
 40
5.0
 40
5.0
 40
5.0
 40
6.0
 40
6.0
 40
6.0
 40
7.0
 40
7.0
 40
7.0
 40
8.0
 40
8.0
 40
8.0
 40
9.0
 40
9.0
 40
9.0
 40
10.0
 40
10.0
 40
10.0
 40
11.0
 40
11.0
 40
11.0
 40
12.0
 40
12.0
 40
12.0
 40
13.0
 40
13.0
 40
13.0
 40
14.0
 40
14.0
 40
14.0
 40
15.0
 40
15.0
 40
15.0
 40
16.0
 40
16.0
 40
16.0
 40
17.0
 40
17.0
 40
17.0
 40
18.0
 40
18.0
 40
18.0
 40
19.0
 40
19.0
 40
19.0
 40
20.0
 40
20.0
 40
20.0
 40
21.0
 40
21.0
 40
21.0
 40
21.0
 10
181.1229140368536
 20
268.9491356903467
 30
0.0
 10
181.1229140368536
 20
268.9491356903467
 30
0.0
 10
181.1229140368536
 20
268.0499651755187
 30
0.0
 10
181.1229140368536
 20
268.0499651755187
 30
0.0
 10
181.1229140368536
 20
268.0499651755187
 30
0.0
 10
177.7294927452614
 20
268.0499651755187
 30
0.0
 10
177.7294927452614
 20
268.0499651755187
 30
0.0
 10
177.7661830363836
 20
268.3898240693417
 30
0.0
 10
177.8764261646384
 20
268.7119407097111
 30
0.0
 10
178.0602221300257
 20
269.016315096627
 30
0.0
 10
178.2440180954129
 20
269.3206894835429
 30
0.0
 10
178.6067868893263
 20
269.7242826858881
 30
0.0
 10
179.1488730215416
 20
270.2272669585505
 30
0.0
 10
179.5851946525874
 20
270.63378849399
 30
0.0
 10
179.852878748381
 20
270.9093963146269
 30
0.0
 10
179.9515807991466
 20
271.0540904204613
 30
0.0
 10
180.0847338274918
 20
271.2539060904231
 30
0.0
 10
180.1513964691084
 20
271.4514824468422
 30
0.0
 10
180.1513964691084
 20
271.6466472348307
 30
0.0
 10
180.1513964691084
 20
271.862482609367
 30
0.0
 10
180.0933465718867
 20
272.0285363213008
 30
0.0
 10
179.9774190323313
 20
272.1444638608562
 30
0.0
 10
179.8614914927759
 20
272.2603914004116
 30
0.0
 10
179.7012944470307
 20
272.3184412976333
 30
0.0
 10
179.4968278950957
 20
272.3184412976333
 30
0.0
 10
179.2947729115912
 20
272.3184412976333
 30
0.0
 10
179.1338868462944
 20
272.2576353222053
 30
0.0
 10
179.014514208981
 20
272.1358511164613
 30
0.0
 10
178.8951415716677
 20
272.0140669107174
 30
0.0
 10
178.8262396165084
 20
271.8120119272129
 30
0.0
 10
178.8078083435034
 20
271.52951391106
 30
0.0
 10
178.8078083435034
 20
271.52951391106
 30
0.0
 10
177.8431809712741
 20
271.625976648283
 30
0.0
 10
177.8431809712741
 20
271.625976648283
 30
0.0
 10
177.9005418489441
 20
272.1587610165518
 30
0.0
 10
178.0808927165734
 20
272.5411668676855
 30
0.0
 10
178.3840613192741
 20
272.7731942016842
 30
0.0
 10
178.6872299219747
 20
273.0052215356829
 30
0.0
 10
179.0661906753505
 20
273.1211490752383
 30
0.0
 10
179.5209435794014
 20
273.1211490752383
 30
0.0
 10
180.0192769700906
 20
273.1211490752383
 30
0.0
 10
180.4109845851708
 20
272.9867902626778
 30
0.0
 10
180.6957219148664
 20
272.7180726375568
 30
0.0
 10
180.9804592445619
 20
272.4493550124358
 30
0.0
 10
181.1229140368536
 20
272.1151805299135
 30
0.0
 10
181.1229140368536
 20
271.71554918999
 30
0.0
 10
181.1229140368536
 20
271.4881727379645
 30
0.0
 10
181.0820896284218
 20
271.2716483438766
 30
0.0
 10
181.000613066446
 20
271.0661482626142
 30
0.0
 10
180.9191365044702
 20
270.8606481813518
 30
0.0
 10
180.7899453385466
 20
270.6453295714792
 30
0.0
 10
180.6130395686753
 20
270.4201924329964
 30
0.0
 10
180.4959062449046
 20
270.2708474451887
 30
0.0
 10
180.2845494974536
 20
270.0562178548677
 30
0.0
 10
179.9791415812103
 20
269.7759591522575
 30
0.0
 10
179.673733664967
 20
269.4957004496474
 30
0.0
 10
179.4801191709696
 20
269.3096651707174
 30
0.0
 10
179.3986426089938
 20
269.2178533154677
 30
0.0
 10
179.317166047018
 20
269.1260414602181
 30
0.0
 10
179.2510201700651
 20
269.036468918511
 30
0.0
 10
179.200549487911
 20
268.9491356903467
 30
0.0
 10
179.200549487911
 20
268.9491356903467
 30
0.0
 10
181.1229140368536
 20
268.9491356903467
 30
0.0
 10
181.1229140368536
 20
268.9491356903467
 30
0.0
  0
HATCH
  5
210
330
20D
100
AcDbEntity
  8
POPIS_VODICU
 62
    98
100
AcDbHatch
 10
0.0
 20
0.0
 30
0.0
210
0.0
220
0.0
230
1.0
  2
SOLID
 70
     1
 71
     0
 91
        1
 92
        1
 93
        1
 72
     4
 94
        3
 73
     0
 74
     1
 95
       68
 96
       64
 40
0.0
 40
0.0
 40
0.0
 40
0.0
 40
1.0
 40
1.0
 40
1.0
 40
2.0
 40
2.0
 40
2.0
 40
3.0
 40
3.0
 40
3.0
 40
4.0
 40
4.0
 40
4.0
 40
5.0
 40
5.0
 40
5.0
 40
6.0
 40
6.0
 40
6.0
 40
7.0
 40
7.0
 40
7.0
 40
8.0
 40
8.0
 40
8.0
 40
9.0
 40
9.0
 40
9.0
 40
10.0
 40
10.0
 40
10.0
 40
11.0
 40
11.0
 40
11.0
 40
12.0
 40
12.0
 40
12.0
 40
13.0
 40
13.0
 40
13.0
 40
14.0
 40
14.0
 40
14.0
 40
15.0
 40
15.0
 40
15.0
 40
16.0
 40
16.0
 40
16.0
 40
17.0
 40
17.0
 40
17.0
 40
18.0
 40
18.0
 40
18.0
 40
19.0
 40
19.0
 40
19.0
 40
20.0
 40
20.0
 40
20.0
 40
21.0
 40
21.0
 40
21.0
 40
21.0
 10
181.1229140368536
 20
268.9491356903467
 10
181.1229140368536
 20
268.9491356903467
 10
181.1229140368536
 20
268.0499651755187
 10
181.1229140368536
 20
268.0499651755187
 10
181.1229140368536
 20
268.0499651755187
 10
177.7294927452614
 20
268.0499651755187
 10
177.7294927452614
 20
268.0499651755187
 10
177.7661830363836
 20
268.3898240693417
 10
177.8764261646384
 20
268.7119407097111
 10
178.0602221300257
 20
269.016315096627
 10
178.2440180954129
 20
269.3206894835429
 10
178.6067868893263
 20
269.7242826858881
 10
179.1488730215416
 20
270.2272669585505
 10
179.5851946525874
 20
270.63378849399
 10
179.852878748381
 20
270.9093963146269
 10
179.9515807991466
 20
271.0540904204613
 10
180.0847338274918
 20
271.2539060904231
 10
180.1513964691084
 20
271.4514824468422
 10
180.1513964691084
 20
271.6466472348307
 10
180.1513964691084
 20
271.862482609367
 10
180.0933465718867
 20
272.0285363213008
 10
179.9774190323313
 20
272.1444638608562
 10
179.8614914927759
 20
272.2603914004116
 10
179.7012944470307
 20
272.3184412976333
 10
179.4968278950957
 20
272.3184412976333
 10
179.2947729115912
 20
272.3184412976333
 10
179.1338868462944
 20
272.2576353222053
 10
179.014514208981
 20
272.1358511164613
 10
178.8951415716677
 20
272.0140669107174
 10
178.8262396165084
 20
271.8120119272129
 10
178.8078083435034
 20
271.52951391106
 10
178.8078083435034
 20
271.52951391106
 10
177.8431809712741
 20
271.625976648283
 10
177.8431809712741
 20
271.625976648283
 10
177.9005418489441
 20
272.1587610165518
 10
178.0808927165734
 20
272.5411668676855
 10
178.3840613192741
 20
272.7731942016842
 10
178.6872299219747
 20
273.0052215356829
 10
179.0661906753505
 20
273.1211490752383
 10
179.5209435794014
 20
273.1211490752383
 10
180.0192769700906
 20
273.1211490752383
 10
180.4109845851708
 20
272.9867902626778
 10
180.6957219148664
 20
272.7180726375568
 10
180.9804592445619
 20
272.4493550124358
 10
181.1229140368536
 20
272.1151805299135
 10
181.1229140368536
 20
271.71554918999
 10
181.1229140368536
 20
271.4881727379645
 10
181.0820896284218
 20
271.2716483438766
 10
181.000613066446
 20
271.0661482626142
 10
180.9191365044702
 20
270.8606481813518
 10
180.7899453385466
 20
270.6453295714792
 10
180.6130395686753
 20
270.4201924329964
 10
180.4959062449046
 20
270.2708474451887
 10
180.2845494974536
 20
270.0562178548677
 10
179.9791415812103
 20
269.7759591522575
 10
179.673733664967
 20
269.4957004496474
 10
179.4801191709696
 20
269.3096651707174
 10
179.3986426089938
 20
269.2178533154677
 10
179.317166047018
 20
269.1260414602181
 10
179.2510201700651
 20
269.036468918511
 10
179.200549487911
 20
268.9491356903467
 10
179.200549487911
 20
268.9491356903467
 10
181.1229140368536
 20
268.9491356903467
 10
181.1229140368536
 20
268.9491356903467
 97
        0
 75
     2
 76
     1
 98
        0
  0
SPLINE
  5
211
330
20D
100
AcDbEntity
  8
POPIS_VODICU
100
AcDbSpline
210
0.0
220
0.0
230
1.0
 70
    11
 71
     3
 72
    35
 73
    31
 74
     0
 42
0.0000000001
 43
0.0000000001
 40
0.0
 40
0.0
 40
0.0
 40
0.0
 40
1.0
 40
1.0
 40
1.0
 40
2.0
 40
2.0
 40
2.0
 40
3.0
 40
3.0
 40
3.0
 40
4.0
 40
4.0
 40
4.0
 40
5.0
 40
5.0
 40
5.0
 40
6.0
 40
6.0
 40
6.0
 40
7.0
 40
7.0
 40
7.0
 40
8.0
 40
8.0
 40
8.0
 40
9.0
 40
9.0
 40
9.0
 40
10.0
 40
10.0
 40
10.0
 40
10.0
 10
181.9600727920383
 20
269.018037645506
 30
0.0
 10
181.9600727920383
 20
269.018037645506
 30
0.0
 10
182.9281452620255
 20
269.018037645506
 30
0.0
 10
182.9281452620255
 20
269.018037645506
 30
0.0
 10
182.9281452620255
 20
269.018037645506
 30
0.0
 10
182.9281452620255
 20
268.3255729961556
 30
0.0
 10
182.9281452620255
 20
268.3255729961556
 30
0.0
 10
182.9281452620255
 20
268.0453142935455
 30
0.0
 10
182.9040295777198
 20
267.8243112723723
 30
0.0
 10
182.8557982091083
 20
267.662391677748
 30
0.0
 10
182.8075668404969
 20
267.5004720831238
 30
0.0
 10
182.7162717499109
 20
267.3552612126257
 30
0.0
 10
182.5819129373504
 20
267.2265868113659
 30
0.0
 10
182.4475541247899
 20
267.097912410106
 30
0.0
 10
182.2770217857708
 20
266.9969710457977
 30
0.0
 10
182.0703159202931
 20
266.9234182086652
 30
0.0
 10
182.0703159202931
 20
266.9234182086652
 30
0.0
 10
181.8808355436052
 20
267.3230495485888
 30
0.0
 10
181.8808355436052
 20
267.3230495485888
 30
0.0
 10
182.0760003315937
 20
267.3873006217748
 30
0.0
 10
182.2150100261275
 20
267.4758396341544
 30
0.0
 10
182.2976923723186
 20
267.5883220759519
 30
0.0
 10
182.3803747185096
 20
267.7008045177493
 30
0.0
 10
182.4239552051478
 20
267.8548003875302
 30
0.0
 10
182.4286060871211
 20
268.0499651755187
 30
0.0
 10
182.4286060871211
 20
268.0499651755187
 30
0.0
 10
181.9600727920383
 20
268.0499651755187
 30
0.0
 10
181.9600727920383
 20
268.0499651755187
 30
0.0
 10
181.9600727920383
 20
268.0499651755187
 30
0.0
 10
181.9600727920383
 20
269.018037645506
 30
0.0
 10
181.9600727920383
 20
269.018037645506
 30
0.0
  0
HATCH
  5
212
330
20D
100
AcDbEntity
  8
POPIS_VODICU
 62
    98
100
AcDbHatch
 10
0.0
 20
0.0
 30
0.0
210
0.0
220
0.0
230
1.0
  2
SOLID
 70
     1
 71
     0
 91
        1
 92
        1
 93
        1
 72
     4
 94
        3
 73
     0
 74
     1
 95
       35
 96
       31
 40
0.0
 40
0.0
 40
0.0
 40
0.0
 40
1.0
 40
1.0
 40
1.0
 40
2.0
 40
2.0
 40
2.0
 40
3.0
 40
3.0
 40
3.0
 40
4.0
 40
4.0
 40
4.0
 40
5.0
 40
5.0
 40
5.0
 40
6.0
 40
6.0
 40
6.0
 40
7.0
 40
7.0
 40
7.0
 40
8.0
 40
8.0
 40
8.0
 40
9.0
 40
9.0
 40
9.0
 40
10.0
 40
10.0
 40
10.0
 40
10.0
 10
181.9600727920383
 20
269.018037645506
 10
181.9600727920383
 20
269.018037645506
 10
182.9281452620255
 20
269.018037645506
 10
182.9281452620255
 20
269.018037645506
 10
182.9281452620255
 20
269.018037645506
 10
182.9281452620255
 20
268.3255729961556
 10
182.9281452620255
 20
268.3255729961556
 10
182.9281452620255
 20
268.0453142935455
 10
182.9040295777198
 20
267.8243112723723
 10
182.8557982091083
 20
267.662391677748
 10
182.8075668404969
 20
267.5004720831238
 10
182.7162717499109
 20
267.3552612126257
 10
182.5819129373504
 20
267.2265868113659
 10
182.4475541247899
 20
267.097912410106
 10
182.2770217857708
 20
266.9969710457977
 10
182.0703159202931
 20
266.9234182086652
 10
182.0703159202931
 20
266.9234182086652
 10
181.8808355436052
 20
267.3230495485888
 10
181.8808355436052
 20
267.3230495485888
 10
182.0760003315937
 20
267.3873006217748
 10
182.2150100261275
 20
267.4758396341544
 10
182.2976923723186
 20
267.5883220759519
 10
182.3803747185096
 20
267.7008045177493
 10
182.4239552051478
 20
267.8548003875302
 10
182.4286060871211
 20
268.0499651755187
 10
182.4286060871211
 20
268.0499651755187
 10
181.9600727920383
 20
268.0499651755187
 10
181.9600727920383
 20
268.0499651755187
 10
181.9600727920383
 20
268.0499651755187
 10
181.9600727920383
 20
269.018037645506
 10
181.9600727920383
 20
269.018037645506
 97
        0
 75
     2
 76
     1
 98
        0
  0
SPLINE
  5
213
330
20D
100
AcDbEntity
  8
POPIS_VODICU
100
AcDbSpline
210
0.0
220
0.0
230
1.0
 70
    11
 71
     3
 72
    68
 73
    64
 74
     0
 42
0.0000000001
 43
0.0000000001
 40
0.0
 40
0.0
 40
0.0
 40
0.0
 40
1.0
 40
1.0
 40
1.0
 40
2.0
 40
2.0
 40
2.0
 40
3.0
 40
3.0
 40
3.0
 40
4.0
 40
4.0
 40
4.0
 40
5.0
 40
5.0
 40
5.0
 40
6.0
 40
6.0
 40
6.0
 40
7.0
 40
7.0
 40
7.0
 40
8.0
 40
8.0
 40
8.0
 40
9.0
 40
9.0
 40
9.0
 40
10.0
 40
10.0
 40
10.0
 40
11.0
 40
11.0
 40
11.0
 40
12.0
 40
12.0
 40
12.0
 40
13.0
 40
13.0
 40
13.0
 40
14.0
 40
14.0
 40
14.0
 40
15.0
 40
15.0
 40
15.0
 40
16.0
 40
16.0
 40
16.0
 40
17.0
 40
17.0
 40
17.0
 40
18.0
 40
18.0
 40
18.0
 40
19.0
 40
19.0
 40
19.0
 40
20.0
 40
20.0
 40
20.0
 40
21.0
 40
21.0
 40
21.0
 40
21.0
 10
183.7515236261784
 20
269.3487670302703
 30
0.0
 10
183.7515236261784
 20
269.3487670302703
 30
0.0
 10
184.7161509984076
 20
269.4486748652512
 30
0.0
 10
184.7161509984076
 20
269.4486748652512
 30
0.0
 10
184.7437117804713
 20
269.2304279222843
 30
0.0
 10
184.8251883424471
 20
269.0576562697225
 30
0.0
 10
184.9607529392229
 20
268.9301876526779
 30
0.0
 10
185.0963175359987
 20
268.8027190356333
 30
0.0
 10
185.2523804644344
 20
268.7389847271111
 30
0.0
 10
185.4292862343057
 20
268.7389847271111
 30
0.0
 10
185.6313412178102
 20
268.7389847271111
 30
0.0
 10
185.8025625763809
 20
268.8211503086384
 30
0.0
 10
185.942605800242
 20
268.9853092168053
 30
0.0
 10
186.0826490241031
 20
269.1494681249722
 30
0.0
 10
186.1527567634777
 20
269.3969983988817
 30
0.0
 10
186.1527567634777
 20
269.7277277836461
 30
0.0
 10
186.1527567634777
 20
270.0377865818626
 30
0.0
 10
186.0833380436547
 20
270.270330680525
 30
0.0
 10
185.944328349121
 20
270.4253600796333
 30
0.0
 10
185.8053186545872
 20
270.5803894787416
 30
0.0
 10
185.6244510222942
 20
270.6579041782957
 30
0.0
 10
185.401725452242
 20
270.6579041782957
 30
0.0
 10
185.1238783180624
 20
270.6579041782957
 30
0.0
 10
184.8746254952739
 20
270.5350864432244
 30
0.0
 10
184.6541392387643
 20
270.2892787181938
 30
0.0
 10
184.6541392387643
 20
270.2892787181938
 30
0.0
 10
183.8686569499491
 20
270.4029669442066
 30
0.0
 10
183.8686569499491
 20
270.4029669442066
 30
0.0
 10
183.8686569499491
 20
270.4029669442066
 30
0.0
 10
184.3647510270956
 20
273.0315765335313
 30
0.0
 10
184.3647510270956
 20
273.0315765335313
 30
0.0
 10
184.3647510270956
 20
273.0315765335313
 30
0.0
 10
186.9244586612611
 20
273.0315765335313
 30
0.0
 10
186.9244586612611
 20
273.0315765335313
 30
0.0
 10
186.9244586612611
 20
273.0315765335313
 30
0.0
 10
186.9244586612611
 20
272.1255158231874
 30
0.0
 10
186.9244586612611
 20
272.1255158231874
 30
0.0
 10
186.9244586612611
 20
272.1255158231874
 30
0.0
 10
185.0985568495414
 20
272.1255158231874
 30
0.0
 10
185.0985568495414
 20
272.1255158231874
 30
0.0
 10
185.0985568495414
 20
272.1255158231874
 30
0.0
 10
184.9469725481911
 20
271.2676864814549
 30
0.0
 10
184.9469725481911
 20
271.2676864814549
 30
0.0
 10
185.1628079227274
 20
271.375690296167
 30
0.0
 10
185.3832941792369
 20
271.4296060760792
 30
0.0
 10
185.6084313177197
 20
271.4296060760792
 30
0.0
 10
186.0378627532496
 20
271.4296060760792
 30
0.0
 10
186.4020095862662
 20
271.2733708927556
 30
0.0
 10
186.7005273069936
 20
270.9610727809963
 30
0.0
 10
186.999045027721
 20
270.6487746692371
 30
0.0
 10
187.1483900155286
 20
270.243286663125
 30
0.0
 10
187.1483900155286
 20
269.7449532724359
 30
0.0
 10
187.1483900155286
 20
269.3293022279378
 30
0.0
 10
187.0278115939999
 20
268.9582651994053
 30
0.0
 10
186.7866547509426
 20
268.6321866966143
 30
0.0
 10
186.458164679721
 20
268.1865633016219
 30
0.0
 10
186.0023782463426
 20
267.9638377315697
 30
0.0
 10
185.4189509410318
 20
267.9638377315697
 30
0.0
 10
184.9526569594917
 20
267.9638377315697
 30
0.0
 10
184.5726626767886
 20
268.0890670350716
 30
0.0
 10
184.2786235831465
 20
268.3393533871875
 30
0.0
 10
183.9845844895045
 20
268.5896397393034
 30
0.0
 10
183.8088845038484
 20
268.9262257902563
 30
0.0
 10
183.7515236261784
 20
269.3487670302703
 30
0.0
  0
HATCH
  5
214
330
20D
100
AcDbEntity
  8
POPIS_VODICU
 62
    98
100
AcDbHatch
 10
0.0
 20
0.0
 30
0.0
210
0.0
220
0.0
230
1.0
  2
SOLID
 70
     1
 71
     0
 91
        1
 92
        1
 93
        1
 72
     4
 94
        3
 73
     0
 74
     1
 95
       68
 96
       64
 40
0.0
 40
0.0
 40
0.0
 40
0.0
 40
1.0
 40
1.0
 40
1.0
 40
2.0
 40
2.0
 40
2.0
 40
3.0
 40
3.0
 40
3.0
 40
4.0
 40
4.0
 40
4.0
 40
5.0
 40
5.0
 40
5.0
 40
6.0
 40
6.0
 40
6.0
 40
7.0
 40
7.0
 40
7.0
 40
8.0
 40
8.0
 40
8.0
 40
9.0
 40
9.0
 40
9.0
 40
10.0
 40
10.0
 40
10.0
 40
11.0
 40
11.0
 40
11.0
 40
12.0
 40
12.0
 40
12.0
 40
13.0
 40
13.0
 40
13.0
 40
14.0
 40
14.0
 40
14.0
 40
15.0
 40
15.0
 40
15.0
 40
16.0
 40
16.0
 40
16.0
 40
17.0
 40
17.0
 40
17.0
 40
18.0
 40
18.0
 40
18.0
 40
19.0
 40
19.0
 40
19.0
 40
20.0
 40
20.0
 40
20.0
 40
21.0
 40
21.0
 40
21.0
 40
21.0
 10
183.7515236261784
 20
269.3487670302703
 10
183.7515236261784
 20
269.3487670302703
 10
184.7161509984076
 20
269.4486748652512
 10
184.7161509984076
 20
269.4486748652512
 10
184.7437117804713
 20
269.2304279222843
 10
184.8251883424471
 20
269.0576562697225
 10
184.9607529392229
 20
268.9301876526779
 10
185.0963175359987
 20
268.8027190356333
 10
185.2523804644344
 20
268.7389847271111
 10
185.4292862343057
 20
268.7389847271111
 10
185.6313412178102
 20
268.7389847271111
 10
185.8025625763809
 20
268.8211503086384
 10
185.942605800242
 20
268.9853092168053
 10
186.0826490241031
 20
269.1494681249722
 10
186.1527567634777
 20
269.3969983988817
 10
186.1527567634777
 20
269.7277277836461
 10
186.1527567634777
 20
270.0377865818626
 10
186.0833380436547
 20
270.270330680525
 10
185.944328349121
 20
270.4253600796333
 10
185.8053186545872
 20
270.5803894787416
 10
185.6244510222942
 20
270.6579041782957
 10
185.401725452242
 20
270.6579041782957
 10
185.1238783180624
 20
270.6579041782957
 10
184.8746254952739
 20
270.5350864432244
 10
184.6541392387643
 20
270.2892787181938
 10
184.6541392387643
 20
270.2892787181938
 10
183.8686569499491
 20
270.4029669442066
 10
183.8686569499491
 20
270.4029669442066
 10
183.8686569499491
 20
270.4029669442066
 10
184.3647510270956
 20
273.0315765335313
 10
184.3647510270956
 20
273.0315765335313
 10
184.3647510270956
 20
273.0315765335313
 10
186.9244586612611
 20
273.0315765335313
 10
186.9244586612611
 20
273.0315765335313
 10
186.9244586612611
 20
273.0315765335313
 10
186.9244586612611
 20
272.1255158231874
 10
186.9244586612611
 20
272.1255158231874
 10
186.9244586612611
 20
272.1255158231874
 10
185.0985568495414
 20
272.1255158231874
 10
185.0985568495414
 20
272.1255158231874
 10
185.0985568495414
 20
272.1255158231874
 10
184.9469725481911
 20
271.2676864814549
 10
184.9469725481911
 20
271.2676864814549
 10
185.1628079227274
 20
271.375690296167
 10
185.3832941792369
 20
271.4296060760792
 10
185.6084313177197
 20
271.4296060760792
 10
186.0378627532496
 20
271.4296060760792
 10
186.4020095862662
 20
271.2733708927556
 10
186.7005273069936
 20
270.9610727809963
 10
186.999045027721
 20
270.6487746692371
 10
187.1483900155286
 20
270.243286663125
 10
187.1483900155286
 20
269.7449532724359
 10
187.1483900155286
 20
269.3293022279378
 10
187.0278115939999
 20
268.9582651994053
 10
186.7866547509426
 20
268.6321866966143
 10
186.458164679721
 20
268.1865633016219
 10
186.0023782463426
 20
267.9638377315697
 10
185.4189509410318
 20
267.9638377315697
 10
184.9526569594917
 20
267.9638377315697
 10
184.5726626767886
 20
268.0890670350716
 10
184.2786235831465
 20
268.3393533871875
 10
183.9845844895045
 20
268.5896397393034
 10
183.8088845038484
 20
268.9262257902563
 10
183.7515236261784
 20
269.3487670302703
 97
        0
 75
     2
 76
     1
 98
        0
  0
SPLINE
  5
215
330
20D
100
AcDbEntity
  8
POPIS_VODICU
100
AcDbSpline
210
0.0
220
0.0
230
1.0
 70
    11
 71
     3
 72
    95
 73
    91
 74
     0
 42
0.0000000001
 43
0.0000000001
 40
0.0
 40
0.0
 40
0.0
 40
0.0
 40
1.0
 40
1.0
 40
1.0
 40
2.0
 40
2.0
 40
2.0
 40
3.0
 40
3.0
 40
3.0
 40
4.0
 40
4.0
 40
4.0
 40
5.0
 40
5.0
 40
5.0
 40
6.0
 40
6.0
 40
6.0
 40
7.0
 40
7.0
 40
7.0
 40
8.0
 40
8.0
 40
8.0
 40
9.0
 40
9.0
 40
9.0
 40
10.0
 40
10.0
 40
10.0
 40
11.0
 40
11.0
 40
11.0
 40
12.0
 40
12.0
 40
12.0
 40
13.0
 40
13.0
 40
13.0
 40
14.0
 40
14.0
 40
14.0
 40
15.0
 40
15.0
 40
15.0
 40
16.0
 40
16.0
 40
16.0
 40
17.0
 40
17.0
 40
17.0
 40
18.0
 40
18.0
 40
18.0
 40
19.0
 40
19.0
 40
19.0
 40
20.0
 40
20.0
 40
20.0
 40
21.0
 40
21.0
 40
21.0
 40
22.0
 40
22.0
 40
22.0
 40
23.0
 40
23.0
 40
23.0
 40
24.0
 40
24.0
 40
24.0
 40
25.0
 40
25.0
 40
25.0
 40
26.0
 40
26.0
 40
26.0
 40
27.0
 40
27.0
 40
27.0
 40
28.0
 40
28.0
 40
28.0
 40
29.0
 40
29.0
 40
29.0
 40
30.0
 40
30.0
 40
30.0
 40
30.0
 10
189.7563290183056
 20
271.708658994474
 30
0.0
 10
189.7563290183056
 20
271.708658994474
 30
0.0
 10
190.6486093376177
 20
271.708658994474
 30
0.0
 10
190.6486093376177
 20
271.708658994474
 30
0.0
 10
190.6486093376177
 20
271.708658994474
 30
0.0
 10
190.6486093376177
 20
271.2091198195696
 30
0.0
 10
190.6486093376177
 20
271.2091198195696
 30
0.0
 10
190.9677976448928
 20
271.597210082004
 30
0.0
 10
191.3479641824839
 20
271.7913413406651
 30
0.0
 10
191.788936695503
 20
271.7913413406651
 30
0.0
 10
192.0232033430444
 20
271.7913413406651
 30
0.0
 10
192.2264641107641
 20
271.7431099720537
 30
0.0
 10
192.3987189986622
 20
271.6466472348307
 30
0.0
 10
192.5709738865603
 20
271.5501844976078
 30
0.0
 10
192.7122228946367
 20
271.4042846075581
 30
0.0
 10
192.8224660228915
 20
271.2091198195696
 30
0.0
 10
192.9831798333004
 20
271.4042846075581
 30
0.0
 10
193.1566405054138
 20
271.5501844976078
 30
0.0
 10
193.3426757843437
 20
271.6466472348307
 30
0.0
 10
193.5287110632736
 20
271.7431099720537
 30
0.0
 10
193.7273209490201
 20
271.7913413406651
 30
0.0
 10
193.9386776964711
 20
271.7913413406651
 30
0.0
 10
194.2073953215921
 20
271.7913413406651
 30
0.0
 10
194.4347717736176
 20
271.7367365412014
 30
0.0
 10
194.6208070525475
 20
271.6276991971619
 30
0.0
 10
194.8068423314774
 20
271.5186618531225
 30
0.0
 10
194.9458520260112
 20
271.3584648073772
 30
0.0
 10
195.0376638812609
 20
271.1471080599263
 30
0.0
 10
195.1043265228774
 20
270.9908728766027
 30
0.0
 10
195.1375717162418
 20
270.7383472109441
 30
0.0
 10
195.1375717162418
 20
270.3891865531747
 30
0.0
 10
195.1375717162418
 20
270.3891865531747
 30
0.0
 10
195.1375717162418
 20
268.0499651755187
 30
0.0
 10
195.1375717162418
 20
268.0499651755187
 30
0.0
 10
195.1375717162418
 20
268.0499651755187
 30
0.0
 10
194.1694992462545
 20
268.0499651755187
 30
0.0
 10
194.1694992462545
 20
268.0499651755187
 30
0.0
 10
194.1694992462545
 20
268.0499651755187
 30
0.0
 10
194.1694992462545
 20
270.1411395146015
 30
0.0
 10
194.1694992462545
 20
270.1411395146015
 30
0.0
 10
194.1694992462545
 20
270.5040805634027
 30
0.0
 10
194.1362540528902
 20
270.7383472109441
 30
0.0
 10
194.0695914112736
 20
270.8439394572256
 30
0.0
 10
193.9800188695666
 20
270.9817433675441
 30
0.0
 10
193.8422149592482
 20
271.0506453227034
 30
0.0
 10
193.6561796803182
 20
271.0506453227034
 30
0.0
 10
193.5206150835424
 20
271.0506453227034
 30
0.0
 10
193.3931464664979
 20
271.0093041496078
 30
0.0
 10
193.2737738291845
 20
270.9266218034167
 30
0.0
 10
193.1544011918711
 20
270.8439394572256
 30
0.0
 10
193.0682737479221
 20
270.7228442710333
 30
0.0
 10
193.0153914973374
 20
270.5631639899518
 30
0.0
 10
192.9625092467526
 20
270.4034837088702
 30
0.0
 10
192.9361542489042
 20
270.1514748078753
 30
0.0
 10
192.9361542489042
 20
269.8069650320792
 30
0.0
 10
192.9361542489042
 20
269.8069650320792
 30
0.0
 10
192.9361542489042
 20
268.0499651755187
 30
0.0
 10
192.9361542489042
 20
268.0499651755187
 30
0.0
 10
192.9361542489042
 20
268.0499651755187
 30
0.0
 10
191.968081778917
 20
268.0499651755187
 30
0.0
 10
191.968081778917
 20
268.0499651755187
 30
0.0
 10
191.968081778917
 20
268.0499651755187
 30
0.0
 10
191.968081778917
 20
270.0550120706524
 30
0.0
 10
191.968081778917
 20
270.0550120706524
 30
0.0
 10
191.968081778917
 20
270.4110629239378
 30
0.0
 10
191.9508562901272
 20
270.6406786895059
 30
0.0
 10
191.9164053125476
 20
270.7440316222448
 30
0.0
 10
191.881954334968
 20
270.8473845549836
 30
0.0
 10
191.8285553197196
 20
270.9243824898741
 30
0.0
 10
191.7562082668024
 20
270.9748531720282
 30
0.0
 10
191.6838612138852
 20
271.0253238541823
 30
0.0
 10
191.5856759277833
 20
271.0506453227034
 30
0.0
 10
191.4616524084966
 20
271.0506453227034
 30
0.0
 10
191.312307420689
 20
271.0506453227034
 30
0.0
 10
191.1779486081285
 20
271.0105099338231
 30
0.0
 10
191.0585759708151
 20
270.9300669011747
 30
0.0
 10
190.9392033335018
 20
270.8496238685263
 30
0.0
 10
190.8535926542164
 20
270.7336963289709
 30
0.0
 10
190.801916187847
 20
270.5821120276206
 30
0.0
 10
190.7502397214776
 20
270.4305277262703
 30
0.0
 10
190.7244014882928
 20
270.1790355899391
 30
0.0
 10
190.7244014882928
 20
269.827635618627
 30
0.0
 10
190.7244014882928
 20
269.827635618627
 30
0.0
 10
190.7244014882928
 20
268.0499651755187
 30
0.0
 10
190.7244014882928
 20
268.0499651755187
 30
0.0
 10
190.7244014882928
 20
268.0499651755187
 30
0.0
 10
189.7563290183056
 20
268.0499651755187
 30
0.0
 10
189.7563290183056
 20
268.0499651755187
 30
0.0
 10
189.7563290183056
 20
268.0499651755187
 30
0.0
 10
189.7563290183056
 20
271.708658994474
 30
0.0
 10
189.7563290183056
 20
271.708658994474
 30
0.0
  0
HATCH
  5
216
330
20D
100
AcDbEntity
  8
POPIS_VODICU
 62
    98
100
AcDbHatch
 10
0.0
 20
0.0
 30
0.0
210
0.0
220
0.0
230
1.0
  2
SOLID
 70
     1
 71
     0
 91
        1
 92
        1
 93
        1
 72
     4
 94
        3
 73
     0
 74
     1
 95
       95
 96
       91
 40
0.0
 40
0.0
 40
0.0
 40
0.0
 40
1.0
 40
1.0
 40
1.0
 40
2.0
 40
2.0
 40
2.0
 40
3.0
 40
3.0
 40
3.0
 40
4.0
 40
4.0
 40
4.0
 40
5.0
 40
5.0
 40
5.0
 40
6.0
 40
6.0
 40
6.0
 40
7.0
 40
7.0
 40
7.0
 40
8.0
 40
8.0
 40
8.0
 40
9.0
 40
9.0
 40
9.0
 40
10.0
 40
10.0
 40
10.0
 40
11.0
 40
11.0
 40
11.0
 40
12.0
 40
12.0
 40
12.0
 40
13.0
 40
13.0
 40
13.0
 40
14.0
 40
14.0
 40
14.0
 40
15.0
 40
15.0
 40
15.0
 40
16.0
 40
16.0
 40
16.0
 40
17.0
 40
17.0
 40
17.0
 40
18.0
 40
18.0
 40
18.0
 40
19.0
 40
19.0
 40
19.0
 40
20.0
 40
20.0
 40
20.0
 40
21.0
 40
21.0
 40
21.0
 40
22.0
 40
22.0
 40
22.0
 40
23.0
 40
23.0
 40
23.0
 40
24.0
 40
24.0
 40
24.0
 40
25.0
 40
25.0
 40
25.0
 40
26.0
 40
26.0
 40
26.0
 40
27.0
 40
27.0
 40
27.0
 40
28.0
 40
28.0
 40
28.0
 40
29.0
 40
29.0
 40
29.0
 40
30.0
 40
30.0
 40
30.0
 40
30.0
 10
189.7563290183056
 20
271.708658994474
 10
189.7563290183056
 20
271.708658994474
 10
190.6486093376177
 20
271.708658994474
 10
190.6486093376177
 20
271.708658994474
 10
190.6486093376177
 20
271.708658994474
 10
190.6486093376177
 20
271.2091198195696
 10
190.6486093376177
 20
271.2091198195696
 10
190.9677976448928
 20
271.597210082004
 10
191.3479641824839
 20
271.7913413406651
 10
191.788936695503
 20
271.7913413406651
 10
192.0232033430444
 20
271.7913413406651
 10
192.2264641107641
 20
271.7431099720537
 10
192.3987189986622
 20
271.6466472348307
 10
192.5709738865603
 20
271.5501844976078
 10
192.7122228946367
 20
271.4042846075581
 10
192.8224660228915
 20
271.2091198195696
 10
192.9831798333004
 20
271.4042846075581
 10
193.1566405054138
 20
271.5501844976078
 10
193.3426757843437
 20
271.6466472348307
 10
193.5287110632736
 20
271.7431099720537
 10
193.7273209490201
 20
271.7913413406651
 10
193.9386776964711
 20
271.7913413406651
 10
194.2073953215921
 20
271.7913413406651
 10
194.4347717736176
 20
271.7367365412014
 10
194.6208070525475
 20
271.6276991971619
 10
194.8068423314774
 20
271.5186618531225
 10
194.9458520260112
 20
271.3584648073772
 10
195.0376638812609
 20
271.1471080599263
 10
195.1043265228774
 20
270.9908728766027
 10
195.1375717162418
 20
270.7383472109441
 10
195.1375717162418
 20
270.3891865531747
 10
195.1375717162418
 20
270.3891865531747
 10
195.1375717162418
 20
268.0499651755187
 10
195.1375717162418
 20
268.0499651755187
 10
195.1375717162418
 20
268.0499651755187
 10
194.1694992462545
 20
268.0499651755187
 10
194.1694992462545
 20
268.0499651755187
 10
194.1694992462545
 20
268.0499651755187
 10
194.1694992462545
 20
270.1411395146015
 10
194.1694992462545
 20
270.1411395146015
 10
194.1694992462545
 20
270.5040805634027
 10
194.1362540528902
 20
270.7383472109441
 10
194.0695914112736
 20
270.8439394572256
 10
193.9800188695666
 20
270.9817433675441
 10
193.8422149592482
 20
271.0506453227034
 10
193.6561796803182
 20
271.0506453227034
 10
193.5206150835424
 20
271.0506453227034
 10
193.3931464664979
 20
271.0093041496078
 10
193.2737738291845
 20
270.9266218034167
 10
193.1544011918711
 20
270.8439394572256
 10
193.0682737479221
 20
270.7228442710333
 10
193.0153914973374
 20
270.5631639899518
 10
192.9625092467526
 20
270.4034837088702
 10
192.9361542489042
 20
270.1514748078753
 10
192.9361542489042
 20
269.8069650320792
 10
192.9361542489042
 20
269.8069650320792
 10
192.9361542489042
 20
268.0499651755187
 10
192.9361542489042
 20
268.0499651755187
 10
192.9361542489042
 20
268.0499651755187
 10
191.968081778917
 20
268.0499651755187
 10
191.968081778917
 20
268.0499651755187
 10
191.968081778917
 20
268.0499651755187
 10
191.968081778917
 20
270.0550120706524
 10
191.968081778917
 20
270.0550120706524
 10
191.968081778917
 20
270.4110629239378
 10
191.9508562901272
 20
270.6406786895059
 10
191.9164053125476
 20
270.7440316222448
 10
191.881954334968
 20
270.8473845549836
 10
191.8285553197196
 20
270.9243824898741
 10
191.7562082668024
 20
270.9748531720282
 10
191.6838612138852
 20
271.0253238541823
 10
191.5856759277833
 20
271.0506453227034
 10
191.4616524084966
 20
271.0506453227034
 10
191.312307420689
 20
271.0506453227034
 10
191.1779486081285
 20
271.0105099338231
 10
191.0585759708151
 20
270.9300669011747
 10
190.9392033335018
 20
270.8496238685263
 10
190.8535926542164
 20
270.7336963289709
 10
190.801916187847
 20
270.5821120276206
 10
190.7502397214776
 20
270.4305277262703
 10
190.7244014882928
 20
270.1790355899391
 10
190.7244014882928
 20
269.827635618627
 10
190.7244014882928
 20
269.827635618627
 10
190.7244014882928
 20
268.0499651755187
 10
190.7244014882928
 20
268.0499651755187
 10
190.7244014882928
 20
268.0499651755187
 10
189.7563290183056
 20
268.0499651755187
 10
189.7563290183056
 20
268.0499651755187
 10
189.7563290183056
 20
268.0499651755187
 10
189.7563290183056
 20
271.708658994474
 10
189.7563290183056
 20
271.708658994474
 97
        0
 75
     2
 76
     1
 98
        0
  0
SPLINE
  5
217
330
20D
100
AcDbEntity
  8
POPIS_VODICU
100
AcDbSpline
210
0.0
220
0.0
230
1.0
 70
    11
 71
     3
 72
    95
 73
    91
 74
     0
 42
0.0000000001
 43
0.0000000001
 40
0.0
 40
0.0
 40
0.0
 40
0.0
 40
1.0
 40
1.0
 40
1.0
 40
2.0
 40
2.0
 40
2.0
 40
3.0
 40
3.0
 40
3.0
 40
4.0
 40
4.0
 40
4.0
 40
5.0
 40
5.0
 40
5.0
 40
6.0
 40
6.0
 40
6.0
 40
7.0
 40
7.0
 40
7.0
 40
8.0
 40
8.0
 40
8.0
 40
9.0
 40
9.0
 40
9.0
 40
10.0
 40
10.0
 40
10.0
 40
11.0
 40
11.0
 40
11.0
 40
12.0
 40
12.0
 40
12.0
 40
13.0
 40
13.0
 40
13.0
 40
14.0
 40
14.0
 40
14.0
 40
15.0
 40
15.0
 40
15.0
 40
16.0
 40
16.0
 40
16.0
 40
17.0
 40
17.0
 40
17.0
 40
18.0
 40
18.0
 40
18.0
 40
19.0
 40
19.0
 40
19.0
 40
20.0
 40
20.0
 40
20.0
 40
21.0
 40
21.0
 40
21.0
 40
22.0
 40
22.0
 40
22.0
 40
23.0
 40
23.0
 40
23.0
 40
24.0
 40
24.0
 40
24.0
 40
25.0
 40
25.0
 40
25.0
 40
26.0
 40
26.0
 40
26.0
 40
27.0
 40
27.0
 40
27.0
 40
28.0
 40
28.0
 40
28.0
 40
29.0
 40
29.0
 40
29.0
 40
30.0
 40
30.0
 40
30.0
 40
30.0
 10
196.0298520355538
 20
271.708658994474
 30
0.0
 10
196.0298520355538
 20
271.708658994474
 30
0.0
 10
196.9221323548659
 20
271.708658994474
 30
0.0
 10
196.9221323548659
 20
271.708658994474
 30
0.0
 10
196.9221323548659
 20
271.708658994474
 30
0.0
 10
196.9221323548659
 20
271.2091198195696
 30
0.0
 10
196.9221323548659
 20
271.2091198195696
 30
0.0
 10
197.241320662141
 20
271.597210082004
 30
0.0
 10
197.6214871997321
 20
271.7913413406651
 30
0.0
 10
198.0624597127512
 20
271.7913413406651
 30
0.0
 10
198.2967263602926
 20
271.7913413406651
 30
0.0
 10
198.4999871280124
 20
271.7431099720537
 30
0.0
 10
198.6722420159105
 20
271.6466472348307
 30
0.0
 10
198.8444969038085
 20
271.5501844976078
 30
0.0
 10
198.9857459118849
 20
271.4042846075581
 30
0.0
 10
199.0959890401397
 20
271.2091198195696
 30
0.0
 10
199.2567028505486
 20
271.4042846075581
 30
0.0
 10
199.430163522662
 20
271.5501844976078
 30
0.0
 10
199.616198801592
 20
271.6466472348307
 30
0.0
 10
199.8022340805219
 20
271.7431099720537
 30
0.0
 10
200.0008439662684
 20
271.7913413406651
 30
0.0
 10
200.2122007137193
 20
271.7913413406651
 30
0.0
 10
200.4809183388403
 20
271.7913413406651
 30
0.0
 10
200.7082947908658
 20
271.7367365412014
 30
0.0
 10
200.8943300697957
 20
271.6276991971619
 30
0.0
 10
201.0803653487257
 20
271.5186618531225
 30
0.0
 10
201.2193750432594
 20
271.3584648073772
 30
0.0
 10
201.3111868985091
 20
271.1471080599263
 30
0.0
 10
201.3778495401257
 20
270.9908728766027
 30
0.0
 10
201.41109473349
 20
270.7383472109441
 30
0.0
 10
201.41109473349
 20
270.3891865531747
 30
0.0
 10
201.41109473349
 20
270.3891865531747
 30
0.0
 10
201.41109473349
 20
268.0499651755187
 30
0.0
 10
201.41109473349
 20
268.0499651755187
 30
0.0
 10
201.41109473349
 20
268.0499651755187
 30
0.0
 10
200.4430222635027
 20
268.0499651755187
 30
0.0
 10
200.4430222635027
 20
268.0499651755187
 30
0.0
 10
200.4430222635027
 20
268.0499651755187
 30
0.0
 10
200.4430222635027
 20
270.1411395146015
 30
0.0
 10
200.4430222635027
 20
270.1411395146015
 30
0.0
 10
200.4430222635027
 20
270.5040805634027
 30
0.0
 10
200.4097770701384
 20
270.7383472109441
 30
0.0
 10
200.3431144285219
 20
270.8439394572256
 30
0.0
 10
200.2535418868149
 20
270.9817433675441
 30
0.0
 10
200.1157379764964
 20
271.0506453227034
 30
0.0
 10
199.9297026975665
 20
271.0506453227034
 30
0.0
 10
199.7941381007907
 20
271.0506453227034
 30
0.0
 10
199.6666694837461
 20
271.0093041496078
 30
0.0
 10
199.5472968464327
 20
270.9266218034167
 30
0.0
 10
199.4279242091193
 20
270.8439394572256
 30
0.0
 10
199.3417967651703
 20
270.7228442710333
 30
0.0
 10
199.2889145145856
 20
270.5631639899518
 30
0.0
 10
199.2360322640009
 20
270.4034837088702
 30
0.0
 10
199.2096772661525
 20
270.1514748078753
 30
0.0
 10
199.2096772661525
 20
269.8069650320792
 30
0.0
 10
199.2096772661525
 20
269.8069650320792
 30
0.0
 10
199.2096772661525
 20
268.0499651755187
 30
0.0
 10
199.2096772661525
 20
268.0499651755187
 30
0.0
 10
199.2096772661525
 20
268.0499651755187
 30
0.0
 10
198.2416047961652
 20
268.0499651755187
 30
0.0
 10
198.2416047961652
 20
268.0499651755187
 30
0.0
 10
198.2416047961652
 20
268.0499651755187
 30
0.0
 10
198.2416047961652
 20
270.0550120706524
 30
0.0
 10
198.2416047961652
 20
270.0550120706524
 30
0.0
 10
198.2416047961652
 20
270.4110629239378
 30
0.0
 10
198.2243793073754
 20
270.6406786895059
 30
0.0
 10
198.1899283297958
 20
270.7440316222448
 30
0.0
 10
198.1554773522162
 20
270.8473845549836
 30
0.0
 10
198.1020783369678
 20
270.9243824898741
 30
0.0
 10
198.0297312840506
 20
270.9748531720282
 30
0.0
 10
197.9573842311334
 20
271.0253238541823
 30
0.0
 10
197.8591989450315
 20
271.0506453227034
 30
0.0
 10
197.7351754257449
 20
271.0506453227034
 30
0.0
 10
197.5858304379372
 20
271.0506453227034
 30
0.0
 10
197.4514716253767
 20
271.0105099338231
 30
0.0
 10
197.3320989880633
 20
270.9300669011747
 30
0.0
 10
197.21272635075
 20
270.8496238685263
 30
0.0
 10
197.1271156714646
 20
270.7336963289709
 30
0.0
 10
197.0754392050952
 20
270.5821120276206
 30
0.0
 10
197.0237627387258
 20
270.4305277262703
 30
0.0
 10
196.9979245055411
 20
270.1790355899391
 30
0.0
 10
196.9979245055411
 20
269.827635618627
 30
0.0
 10
196.9979245055411
 20
269.827635618627
 30
0.0
 10
196.9979245055411
 20
268.0499651755187
 30
0.0
 10
196.9979245055411
 20
268.0499651755187
 30
0.0
 10
196.9979245055411
 20
268.0499651755187
 30
0.0
 10
196.0298520355538
 20
268.0499651755187
 30
0.0
 10
196.0298520355538
 20
268.0499651755187
 30
0.0
 10
196.0298520355538
 20
268.0499651755187
 30
0.0
 10
196.0298520355538
 20
271.708658994474
 30
0.0
 10
196.0298520355538
 20
271.708658994474
 30
0.0
  0
HATCH
  5
218
330
20D
100
AcDbEntity
  8
POPIS_VODICU
 62
    98
100
AcDbHatch
 10
0.0
 20
0.0
 30
0.0
210
0.0
220
0.0
230
1.0
  2
SOLID
 70
     1
 71
     0
 91
        1
 92
        1
 93
        1
 72
     4
 94
        3
 73
     0
 74
     1
 95
       95
 96
       91
 40
0.0
 40
0.0
 40
0.0
 40
0.0
 40
1.0
 40
1.0
 40
1.0
 40
2.0
 40
2.0
 40
2.0
 40
3.0
 40
3.0
 40
3.0
 40
4.0
 40
4.0
 40
4.0
 40
5.0
 40
5.0
 40
5.0
 40
6.0
 40
6.0
 40
6.0
 40
7.0
 40
7.0
 40
7.0
 40
8.0
 40
8.0
 40
8.0
 40
9.0
 40
9.0
 40
9.0
 40
10.0
 40
10.0
 40
10.0
 40
11.0
 40
11.0
 40
11.0
 40
12.0
 40
12.0
 40
12.0
 40
13.0
 40
13.0
 40
13.0
 40
14.0
 40
14.0
 40
14.0
 40
15.0
 40
15.0
 40
15.0
 40
16.0
 40
16.0
 40
16.0
 40
17.0
 40
17.0
 40
17.0
 40
18.0
 40
18.0
 40
18.0
 40
19.0
 40
19.0
 40
19.0
 40
20.0
 40
20.0
 40
20.0
 40
21.0
 40
21.0
 40
21.0
 40
22.0
 40
22.0
 40
22.0
 40
23.0
 40
23.0
 40
23.0
 40
24.0
 40
24.0
 40
24.0
 40
25.0
 40
25.0
 40
25.0
 40
26.0
 40
26.0
 40
26.0
 40
27.0
 40
27.0
 40
27.0
 40
28.0
 40
28.0
 40
28.0
 40
29.0
 40
29.0
 40
29.0
 40
30.0
 40
30.0
 40
30.0
 40
30.0
 10
196.0298520355538
 20
271.708658994474
 10
196.0298520355538
 20
271.708658994474
 10
196.9221323548659
 20
271.708658994474
 10
196.9221323548659
 20
271.708658994474
 10
196.9221323548659
 20
271.708658994474
 10
196.9221323548659
 20
271.2091198195696
 10
196.9221323548659
 20
271.2091198195696
 10
197.241320662141
 20
271.597210082004
 10
197.6214871997321
 20
271.7913413406651
 10
198.0624597127512
 20
271.7913413406651
 10
198.2967263602926
 20
271.7913413406651
 10
198.4999871280124
 20
271.7431099720537
 10
198.6722420159105
 20
271.6466472348307
 10
198.8444969038085
 20
271.5501844976078
 10
198.9857459118849
 20
271.4042846075581
 10
199.0959890401397
 20
271.2091198195696
 10
199.2567028505486
 20
271.4042846075581
 10
199.430163522662
 20
271.5501844976078
 10
199.616198801592
 20
271.6466472348307
 10
199.8022340805219
 20
271.7431099720537
 10
200.0008439662684
 20
271.7913413406651
 10
200.2122007137193
 20
271.7913413406651
 10
200.4809183388403
 20
271.7913413406651
 10
200.7082947908658
 20
271.7367365412014
 10
200.8943300697957
 20
271.6276991971619
 10
201.0803653487257
 20
271.5186618531225
 10
201.2193750432594
 20
271.3584648073772
 10
201.3111868985091
 20
271.1471080599263
 10
201.3778495401257
 20
270.9908728766027
 10
201.41109473349
 20
270.7383472109441
 10
201.41109473349
 20
270.3891865531747
 10
201.41109473349
 20
270.3891865531747
 10
201.41109473349
 20
268.0499651755187
 10
201.41109473349
 20
268.0499651755187
 10
201.41109473349
 20
268.0499651755187
 10
200.4430222635027
 20
268.0499651755187
 10
200.4430222635027
 20
268.0499651755187
 10
200.4430222635027
 20
268.0499651755187
 10
200.4430222635027
 20
270.1411395146015
 10
200.4430222635027
 20
270.1411395146015
 10
200.4430222635027
 20
270.5040805634027
 10
200.4097770701384
 20
270.7383472109441
 10
200.3431144285219
 20
270.8439394572256
 10
200.2535418868149
 20
270.9817433675441
 10
200.1157379764964
 20
271.0506453227034
 10
199.9297026975665
 20
271.0506453227034
 10
199.7941381007907
 20
271.0506453227034
 10
199.6666694837461
 20
271.0093041496078
 10
199.5472968464327
 20
270.9266218034167
 10
199.4279242091193
 20
270.8439394572256
 10
199.3417967651703
 20
270.7228442710333
 10
199.2889145145856
 20
270.5631639899518
 10
199.2360322640009
 20
270.4034837088702
 10
199.2096772661525
 20
270.1514748078753
 10
199.2096772661525
 20
269.8069650320792
 10
199.2096772661525
 20
269.8069650320792
 10
199.2096772661525
 20
268.0499651755187
 10
199.2096772661525
 20
268.0499651755187
 10
199.2096772661525
 20
268.0499651755187
 10
198.2416047961652
 20
268.0499651755187
 10
198.2416047961652
 20
268.0499651755187
 10
198.2416047961652
 20
268.0499651755187
 10
198.2416047961652
 20
270.0550120706524
 10
198.2416047961652
 20
270.0550120706524
 10
198.2416047961652
 20
270.4110629239378
 10
198.2243793073754
 20
270.6406786895059
 10
198.1899283297958
 20
270.7440316222448
 10
198.1554773522162
 20
270.8473845549836
 10
198.1020783369678
 20
270.9243824898741
 10
198.0297312840506
 20
270.9748531720282
 10
197.9573842311334
 20
271.0253238541823
 10
197.8591989450315
 20
271.0506453227034
 10
197.7351754257449
 20
271.0506453227034
 10
197.5858304379372
 20
271.0506453227034
 10
197.4514716253767
 20
271.0105099338231
 10
197.3320989880633
 20
270.9300669011747
 10
197.21272635075
 20
270.8496238685263
 10
197.1271156714646
 20
270.7336963289709
 10
197.0754392050952
 20
270.5821120276206
 10
197.0237627387258
 20
270.4305277262703
 10
196.9979245055411
 20
270.1790355899391
 10
196.9979245055411
 20
269.827635618627
 10
196.9979245055411
 20
269.827635618627
 10
196.9979245055411
 20
268.0499651755187
 10
196.9979245055411
 20
268.0499651755187
 10
196.9979245055411
 20
268.0499651755187
 10
196.0298520355538
 20
268.0499651755187
 10
196.0298520355538
 20
268.0499651755187
 10
196.0298520355538
 20
268.0499651755187
 10
196.0298520355538
 20
271.708658994474
 10
196.0298520355538
 20
271.708658994474
 97
        0
 75
     2
 76
     1
 98
        0
  0
SPLINE
  5
219
330
20D
100
AcDbEntity
  8
POPIS_VODICU
100
AcDbSpline
210
0.0
220
0.0
230
1.0
 70
    11
 71
     3
 72
    68
 73
    64
 74
     0
 42
0.0000000001
 43
0.0000000001
 40
0.0
 40
0.0
 40
0.0
 40
0.0
 40
1.0
 40
1.0
 40
1.0
 40
2.0
 40
2.0
 40
2.0
 40
3.0
 40
3.0
 40
3.0
 40
4.0
 40
4.0
 40
4.0
 40
5.0
 40
5.0
 40
5.0
 40
6.0
 40
6.0
 40
6.0
 40
7.0
 40
7.0
 40
7.0
 40
8.0
 40
8.0
 40
8.0
 40
9.0
 40
9.0
 40
9.0
 40
10.0
 40
10.0
 40
10.0
 40
11.0
 40
11.0
 40
11.0
 40
12.0
 40
12.0
 40
12.0
 40
13.0
 40
13.0
 40
13.0
 40
14.0
 40
14.0
 40
14.0
 40
15.0
 40
15.0
 40
15.0
 40
16.0
 40
16.0
 40
16.0
 40
17.0
 40
17.0
 40
17.0
 40
18.0
 40
18.0
 40
18.0
 40
19.0
 40
19.0
 40
19.0
 40
20.0
 40
20.0
 40
20.0
 40
21.0
 40
21.0
 40
21.0
 40
21.0
 10
204.3676776293727
 20
271.1488306088053
 30
0.0
 10
204.3676776293727
 20
271.1488306088053
 30
0.0
 10
204.3676776293727
 20
270.5194112484257
 30
0.0
 10
204.3676776293727
 20
270.5194112484257
 30
0.0
 10
204.3676776293727
 20
270.5194112484257
 30
0.0
 10
201.9922827252581
 20
270.5194112484257
 30
0.0
 10
201.9922827252581
 20
270.5194112484257
 30
0.0
 10
202.0179487035549
 20
270.7572952486129
 30
0.0
 10
202.0951188933333
 20
270.9827768968715
 30
0.0
 10
202.2237932945932
 20
271.1958561932015
 30
0.0
 10
202.352467695853
 20
271.4089354895314
 30
0.0
 10
202.6063714006148
 20
271.6914335056842
 30
0.0
 10
202.9858489186543
 20
272.0435224965479
 30
0.0
 10
203.2912568348976
 20
272.3280875713555
 30
0.0
 10
203.4786701529307
 20
272.5210130458014
 30
0.0
 10
203.5477443629778
 20
272.6222989198855
 30
0.0
 10
203.6409342573307
 20
272.7621698888588
 30
0.0
 10
203.6876153319511
 20
272.9004905638409
 30
0.0
 10
203.6876153319511
 20
273.0370886899441
 30
0.0
 10
203.6876153319511
 20
273.1881562266307
 30
0.0
 10
203.6469631784071
 20
273.3044282759619
 30
0.0
 10
203.5658311262071
 20
273.3855603281619
 30
0.0
 10
203.4846990740071
 20
273.4666923803619
 30
0.0
 10
203.3725611419855
 20
273.5073445339058
 30
0.0
 10
203.2294173301422
 20
273.5073445339058
 30
0.0
 10
203.0879960671778
 20
273.5073445339058
 30
0.0
 10
202.9753413704925
 20
273.464797576595
 30
0.0
 10
202.8917977498619
 20
273.3795314070854
 30
0.0
 10
202.8082541292314
 20
273.2942652375759
 30
0.0
 10
202.7600227606199
 20
273.1528439746116
 30
0.0
 10
202.7471036440275
 20
272.9550953633046
 30
0.0
 10
202.7471036440275
 20
272.9550953633046
 30
0.0
 10
202.071864483467
 20
273.0226192793606
 30
0.0
 10
202.071864483467
 20
273.0226192793606
 30
0.0
 10
202.1119998723473
 20
273.39555111166
 30
0.0
 10
202.2382627051766
 20
273.6632352074536
 30
0.0
 10
202.450480727067
 20
273.8256715667415
 30
0.0
 10
202.6626987489575
 20
273.9881079260294
 30
0.0
 10
202.9279712763205
 20
274.0692399782294
 30
0.0
 10
203.2462983091562
 20
274.0692399782294
 30
0.0
 10
203.5951144571498
 20
274.0692399782294
 30
0.0
 10
203.8693442386835
 20
273.975188809437
 30
0.0
 10
204.0686431439816
 20
273.7870864718523
 30
0.0
 10
204.2679420492797
 20
273.5989841342676
 30
0.0
 10
204.3676776293727
 20
273.365061996502
 30
0.0
 10
204.3676776293727
 20
273.0853200585555
 30
0.0
 10
204.3676776293727
 20
272.9261565421377
 30
0.0
 10
204.3390833179816
 20
272.7745722407874
 30
0.0
 10
204.2820669500874
 20
272.6307394093925
 30
0.0
 10
204.2250505821931
 20
272.4869065779976
 30
0.0
 10
204.1346167660466
 20
272.3361835510868
 30
0.0
 10
204.0107655016479
 20
272.17857032866
 30
0.0
 10
203.9287721750084
 20
272.0740116117059
 30
0.0
 10
203.7808052263039
 20
271.9238053494587
 30
0.0
 10
203.5670369104224
 20
271.7276070321428
 30
0.0
 10
203.3532685945409
 20
271.5314087148269
 30
0.0
 10
203.2177039977651
 20
271.401184019576
 30
0.0
 10
203.1606876298708
 20
271.33693294639
 30
0.0
 10
203.1036712619766
 20
271.272681873204
 30
0.0
 10
203.057334697132
 20
271.2099810940091
 30
0.0
 10
203.0220224451129
 20
271.1488306088053
 30
0.0
 10
203.0220224451129
 20
271.1488306088053
 30
0.0
 10
204.3676776293727
 20
271.1488306088053
 30
0.0
 10
204.3676776293727
 20
271.1488306088053
 30
0.0
  0
HATCH
  5
21A
330
20D
100
AcDbEntity
  8
POPIS_VODICU
 62
    98
100
AcDbHatch
 10
0.0
 20
0.0
 30
0.0
210
0.0
220
0.0
230
1.0
  2
SOLID
 70
     1
 71
     0
 91
        1
 92
        1
 93
        1
 72
     4
 94
        3
 73
     0
 74
     1
 95
       68
 96
       64
 40
0.0
 40
0.0
 40
0.0
 40
0.0
 40
1.0
 40
1.0
 40
1.0
 40
2.0
 40
2.0
 40
2.0
 40
3.0
 40
3.0
 40
3.0
 40
4.0
 40
4.0
 40
4.0
 40
5.0
 40
5.0
 40
5.0
 40
6.0
 40
6.0
 40
6.0
 40
7.0
 40
7.0
 40
7.0
 40
8.0
 40
8.0
 40
8.0
 40
9.0
 40
9.0
 40
9.0
 40
10.0
 40
10.0
 40
10.0
 40
11.0
 40
11.0
 40
11.0
 40
12.0
 40
12.0
 40
12.0
 40
13.0
 40
13.0
 40
13.0
 40
14.0
 40
14.0
 40
14.0
 40
15.0
 40
15.0
 40
15.0
 40
16.0
 40
16.0
 40
16.0
 40
17.0
 40
17.0
 40
17.0
 40
18.0
 40
18.0
 40
18.0
 40
19.0
 40
19.0
 40
19.0
 40
20.0
 40
20.0
 40
20.0
 40
21.0
 40
21.0
 40
21.0
 40
21.0
 10
204.3676776293727
 20
271.1488306088053
 10
204.3676776293727
 20
271.1488306088053
 10
204.3676776293727
 20
270.5194112484257
 10
204.3676776293727
 20
270.5194112484257
 10
204.3676776293727
 20
270.5194112484257
 10
201.9922827252581
 20
270.5194112484257
 10
201.9922827252581
 20
270.5194112484257
 10
202.0179487035549
 20
270.7572952486129
 10
202.0951188933333
 20
270.9827768968715
 10
202.2237932945932
 20
271.1958561932015
 10
202.352467695853
 20
271.4089354895314
 10
202.6063714006148
 20
271.6914335056842
 10
202.9858489186543
 20
272.0435224965479
 10
203.2912568348976
 20
272.3280875713555
 10
203.4786701529307
 20
272.5210130458014
 10
203.5477443629778
 20
272.6222989198855
 10
203.6409342573307
 20
272.7621698888588
 10
203.6876153319511
 20
272.9004905638409
 10
203.6876153319511
 20
273.0370886899441
 10
203.6876153319511
 20
273.1881562266307
 10
203.6469631784071
 20
273.3044282759619
 10
203.5658311262071
 20
273.3855603281619
 10
203.4846990740071
 20
273.4666923803619
 10
203.3725611419855
 20
273.5073445339058
 10
203.2294173301422
 20
273.5073445339058
 10
203.0879960671778
 20
273.5073445339058
 10
202.9753413704925
 20
273.464797576595
 10
202.8917977498619
 20
273.3795314070854
 10
202.8082541292314
 20
273.2942652375759
 10
202.7600227606199
 20
273.1528439746116
 10
202.7471036440275
 20
272.9550953633046
 10
202.7471036440275
 20
272.9550953633046
 10
202.071864483467
 20
273.0226192793606
 10
202.071864483467
 20
273.0226192793606
 10
202.1119998723473
 20
273.39555111166
 10
202.2382627051766
 20
273.6632352074536
 10
202.450480727067
 20
273.8256715667415
 10
202.6626987489575
 20
273.9881079260294
 10
202.9279712763205
 20
274.0692399782294
 10
203.2462983091562
 20
274.0692399782294
 10
203.5951144571498
 20
274.0692399782294
 10
203.8693442386835
 20
273.975188809437
 10
204.0686431439816
 20
273.7870864718523
 10
204.2679420492797
 20
273.5989841342676
 10
204.3676776293727
 20
273.365061996502
 10
204.3676776293727
 20
273.0853200585555
 10
204.3676776293727
 20
272.9261565421377
 10
204.3390833179816
 20
272.7745722407874
 10
204.2820669500874
 20
272.6307394093925
 10
204.2250505821931
 20
272.4869065779976
 10
204.1346167660466
 20
272.3361835510868
 10
204.0107655016479
 20
272.17857032866
 10
203.9287721750084
 20
272.0740116117059
 10
203.7808052263039
 20
271.9238053494587
 10
203.5670369104224
 20
271.7276070321428
 10
203.3532685945409
 20
271.5314087148269
 10
203.2177039977651
 20
271.401184019576
 10
203.1606876298708
 20
271.33693294639
 10
203.1036712619766
 20
271.272681873204
 10
203.057334697132
 20
271.2099810940091
 10
203.0220224451129
 20
271.1488306088053
 10
203.0220224451129
 20
271.1488306088053
 10
204.3676776293727
 20
271.1488306088053
 10
204.3676776293727
 20
271.1488306088053
 97
        0
 75
     2
 76
     1
 98
        0
  0
ENDBLK
  5
21B
330
20D
100
AcDbEntity
  8
0
100
AcDbBlockEnd
  0
BLOCK
  5
300
330
2FF
100
AcDbEntity
  8
0
100
AcDbBlockBegin
  2
*D7
 70
     1
 10
0.0
 20
0.0
 30
0.0
  3
*D7
  1

  0
LINE
  5
301
330
2FF
100
AcDbEntity
  8
KOTY
 62
     0
100
AcDbLine
 10
0.0
 20
102.9243296172698
 30
0.0
 11
0.0
 21
142.8206372128194
 31
0.0
  0
LINE
  5
302
330
2FF
100
AcDbEntity
  8
KOTY
 62
     0
100
AcDbLine
 10
21.30000590814979
 20
103.0435299996953
 30
0.0
 11
21.30000590814979
 21
142.8206372128194
 31
0.0
  0
LINE
  5
303
330
2FF
100
AcDbEntity
  8
KOTY
 62
     0
100
AcDbLine
 10
4.0
 20
142.6406372128194
 30
0.0
 11
17.30000590814979
 21
142.6406372128194
 31
0.0
  0
SOLID
  5
304
330
2FF
100
AcDbEntity
  8
KOTY
 62
     0
100
AcDbTrace
 10
4.0
 20
143.3073038794861
 30
0.0
 11
4.0
 21
141.9739705461527
 31
0.0
 12
0.0
 22
142.6406372128194
 32
0.0
 13
0.0
 23
142.6406372128194
 33
0.0
  0
SOLID
  5
305
330
2FF
100
AcDbEntity
  8
KOTY
 62
     0
100
AcDbTrace
 10
17.30000590814979
 20
141.9739705461527
 30
0.0
 11
17.30000590814979
 21
143.3073038794861
 31
0.0
 12
21.30000590814979
 22
142.6406372128194
 32
0.0
 13
21.30000590814979
 23
142.6406372128194
 33
0.0
  0
MTEXT
  5
306
330
2FF
100
AcDbEntity
  8
KOTY
 62
     0
100
AcDbMText
 10
10.65000295407489
 20
145.6486372128194
 30
0.0
 40
4.0
 41
0.0
 71
     5
 72
     1
  1
\A1;21
  0
POINT
  5
307
330
2FF
100
AcDbEntity
  8
DEFPOINTS
 62
     0
100
AcDbPoint
 10
0.0
 20
102.8618296172698
 30
0.0
  0
POINT
  5
308
330
2FF
100
AcDbEntity
  8
DEFPOINTS
 62
     0
100
AcDbPoint
 10
21.30000590814979
 20
102.9810299996953
 30
0.0
  0
POINT
  5
309
330
2FF
100
AcDbEntity
  8
DEFPOINTS
 62
     0
100
AcDbPoint
 10
21.30000590814979
 20
142.6406372128194
 30
0.0
  0
ENDBLK
  5
30A
330
2FF
100
AcDbEntity
  8
0
100
AcDbBlockEnd
  0
BLOCK
  5
30D
330
30C
100
AcDbEntity
  8
0
100
AcDbBlockBegin
  2
*D8
 70
     1
 10
0.0
 20
0.0
 30
0.0
  3
*D8
  1

  0
LINE
  5
30E
330
30C
100
AcDbEntity
  8
KOTY
 62
     0
100
AcDbLine
 10
59.63705375874747
 20
101.1435585861794
 30
0.0
 11
59.63705375874747
 21
142.8206372128194
 31
0.0
  0
LINE
  5
30F
330
30C
100
AcDbEntity
  8
KOTY
 62
     0
100
AcDbLine
 10
112.1372430021014
 20
101.1435585861794
 30
0.0
 11
112.1372430021014
 21
142.8206372128194
 31
0.0
  0
LINE
  5
310
330
30C
100
AcDbEntity
  8
KOTY
 62
     0
100
AcDbLine
 10
63.63705375874747
 20
142.6406372128194
 30
0.0
 11
108.1372430021014
 21
142.6406372128194
 31
0.0
  0
SOLID
  5
311
330
30C
100
AcDbEntity
  8
KOTY
 62
     0
100
AcDbTrace
 10
63.63705375874747
 20
143.3073038794861
 30
0.0
 11
63.63705375874747
 21
141.9739705461527
 31
0.0
 12
59.63705375874747
 22
142.6406372128194
 32
0.0
 13
59.63705375874747
 23
142.6406372128194
 33
0.0
  0
SOLID
  5
312
330
30C
100
AcDbEntity
  8
KOTY
 62
     0
100
AcDbTrace
 10
108.1372430021014
 20
141.9739705461527
 30
0.0
 11
108.1372430021014
 21
143.3073038794861
 31
0.0
 12
112.1372430021014
 22
142.6406372128194
 32
0.0
 13
112.1372430021014
 23
142.6406372128194
 33
0.0
  0
MTEXT
  5
313
330
30C
100
AcDbEntity
  8
KOTY
 62
     0
100
AcDbMText
 10
85.88714838042443
 20
145.6826372128194
 30
0.0
 40
4.0
 41
0.0
 71
     5
 72
     1
  1
\A1;53
  0
POINT
  5
314
330
30C
100
AcDbEntity
  8
DEFPOINTS
 62
     0
100
AcDbPoint
 10
59.63705375874747
 20
101.0810585861794
 30
0.0
  0
POINT
  5
315
330
30C
100
AcDbEntity
  8
DEFPOINTS
 62
     0
100
AcDbPoint
 10
112.1372430021014
 20
101.0810585861794
 30
0.0
  0
POINT
  5
316
330
30C
100
AcDbEntity
  8
DEFPOINTS
 62
     0
100
AcDbPoint
 10
112.1372430021014
 20
142.6406372128194
 30
0.0
  0
ENDBLK
  5
317
330
30C
100
AcDbEntity
  8
0
100
AcDbBlockEnd
  0
BLOCK
  5
31A
330
319
100
AcDbEntity
  8
0
100
AcDbBlockBegin
  2
*D9
 70
     1
 10
0.0
 20
0.0
 30
0.0
  3
*D9
  1

  0
LINE
  5
31B
330
319
100
AcDbEntity
  8
KOTY
 62
     0
100
AcDbLine
 10
110.0997682043821
 20
103.1810179303984
 30
0.0
 11
132.7713993550952
 21
103.1810179303984
 31
0.0
  0
LINE
  5
31C
330
319
100
AcDbEntity
  8
KOTY
 62
     0
100
AcDbLine
 10
97.96838867373748
 20
49.18117762715021
 30
0.0
 11
132.7713993550952
 21
49.18117762715021
 31
0.0
  0
LINE
  5
31D
330
319
100
AcDbEntity
  8
KOTY
 62
     0
100
AcDbLine
 10
132.5913993550952
 20
99.1810179303984
 30
0.0
 11
132.5913993550952
 21
53.18117762715021
 31
0.0
  0
SOLID
  5
31E
330
319
100
AcDbEntity
  8
KOTY
 62
     0
100
AcDbTrace
 10
133.2580660217618
 20
99.1810179303984
 30
0.0
 11
131.9247326884285
 21
99.1810179303984
 31
0.0
 12
132.5913993550952
 22
103.1810179303984
 32
0.0
 13
132.5913993550952
 23
103.1810179303984
 33
0.0
  0
SOLID
  5
31F
330
319
100
AcDbEntity
  8
KOTY
 62
     0
100
AcDbTrace
 10
131.9247326884285
 20
53.18117762715021
 30
0.0
 11
133.2580660217618
 21
53.18117762715021
 31
0.0
 12
132.5913993550952
 22
49.18117762715021
 32
0.0
 13
132.5913993550952
 23
49.18117762715021
 33
0.0
  0
MTEXT
  5
320
330
319
100
AcDbEntity
  8
KOTY
 62
     0
100
AcDbMText
 10
129.5573993550952
 20
75.3572277827907
 30
0.0
 40
4.0
 41
0.0
 71
     5
 72
     1
  1
\A1;54
 11
0.0
 21
1.0
 31
0.0
  0
POINT
  5
321
330
319
100
AcDbEntity
  8
DEFPOINTS
 62
     0
100
AcDbPoint
 10
110.0372682043821
 20
103.1810179303984
 30
0.0
  0
POINT
  5
322
330
319
100
AcDbEntity
  8
DEFPOINTS
 62
     0
100
AcDbPoint
 10
97.90588867373748
 20
49.18117762715021
 30
0.0
  0
POINT
  5
323
330
319
100
AcDbEntity
  8
DEFPOINTS
 62
     0
100
AcDbPoint
 10
132.5913993550952
 20
49.18117762715021
 30
0.0
  0
ENDBLK
  5
324
330
319
100
AcDbEntity
  8
0
100
AcDbBlockEnd
  0
BLOCK
  5
327
330
326
100
AcDbEntity
  8
0
100
AcDbBlockBegin
  2
*D10
 70
     1
 10
0.0
 20
0.0
 30
0.0
  3
*D10
  1

  0
LINE
  5
328
330
326
100
AcDbEntity
  8
KOTY
 62
     0
100
AcDbLine
 10
95.49963162038222
 20
136.5865805895084
 30
0.0
 11
132.7713993550952
 21
136.5865805895084
 31
0.0
  0
LINE
  5
329
330
326
100
AcDbEntity
  8
KOTY
 62
     0
100
AcDbLine
 10
110.099611408848
 20
103.1810179245449
 30
0.0
 11
132.7713993550952
 21
103.1810179245449
 31
0.0
  0
LINE
  5
32A
330
326
100
AcDbEntity
  8
KOTY
 62
     0
100
AcDbLine
 10
132.5913993550952
 20
132.5865805895084
 30
0.0
 11
132.5913993550952
 21
107.1810179245449
 31
0.0
  0
SOLID
  5
32B
330
326
100
AcDbEntity
  8
KOTY
 62
     0
100
AcDbTrace
 10
133.2580660217618
 20
132.5865805895084
 30
0.0
 11
131.9247326884285
 21
132.5865805895084
 31
0.0
 12
132.5913993550952
 22
136.5865805895084
 32
0.0
 13
132.5913993550952
 23
136.5865805895084
 33
0.0
  0
SOLID
  5
32C
330
326
100
AcDbEntity
  8
KOTY
 62
     0
100
AcDbTrace
 10
131.9247326884285
 20
107.1810179245449
 30
0.0
 11
133.2580660217618
 21
107.1810179245449
 31
0.0
 12
132.5913993550952
 22
103.1810179245449
 32
0.0
 13
132.5913993550952
 23
103.1810179245449
 33
0.0
  0
MTEXT
  5
32D
330
326
100
AcDbEntity
  8
KOTY
 62
     0
100
AcDbMText
 10
129.5493993550952
 20
119.8837992570267
 30
0.0
 40
4.0
 41
0.0
 71
     5
 72
     1
  1
\A1;150
 11
0.0
 21
1.0
 31
0.0
  0
POINT
  5
32E
330
326
100
AcDbEntity
  8
DEFPOINTS
 62
     0
100
AcDbPoint
 10
95.43713162038222
 20
136.5865805895084
 30
0.0
  0
POINT
  5
32F
330
326
100
AcDbEntity
  8
DEFPOINTS
 62
     0
100
AcDbPoint
 10
110.037111408848
 20
103.1810179245449
 30
0.0
  0
POINT
  5
330
330
326
100
AcDbEntity
  8
DEFPOINTS
 62
     0
100
AcDbPoint
 10
132.5913993550952
 20
103.1810179245449
 30
0.0
  0
ENDBLK
  5
331
330
326
100
AcDbEntity
  8
0
100
AcDbBlockEnd
  0
BLOCK
  5
334
330
333
100
AcDbEntity
  8
0
100
AcDbBlockBegin
  2
*D11
 70
     1
 10
0.0
 20
0.0
 30
0.0
  3
*D11
  1

  0
LINE
  5
335
330
333
100
AcDbEntity
  8
KOTY
 62
     0
100
AcDbLine
 10
97.9683886737377
 20
49.18083311737441
 30
0.0
 11
132.7713993550952
 21
49.18083311737441
 31
0.0
  0
LINE
  5
336
330
333
100
AcDbEntity
  8
KOTY
 62
     0
100
AcDbLine
 10
91.74964271084082
 20
14.0115526552226
 30
0.0
 11
132.7713993550952
 21
14.0115526552226
 31
0.0
  0
LINE
  5
337
330
333
100
AcDbEntity
  8
KOTY
 62
     0
100
AcDbLine
 10
132.5913993550952
 20
45.18083311737441
 30
0.0
 11
132.5913993550952
 21
18.0115526552226
 31
0.0
  0
SOLID
  5
338
330
333
100
AcDbEntity
  8
KOTY
 62
     0
100
AcDbTrace
 10
133.2580660217618
 20
45.18083311737441
 30
0.0
 11
131.9247326884285
 21
45.18083311737441
 31
0.0
 12
132.5913993550952
 22
49.18083311737441
 32
0.0
 13
132.5913993550952
 23
49.18083311737441
 33
0.0
  0
SOLID
  5
339
330
333
100
AcDbEntity
  8
KOTY
 62
     0
100
AcDbTrace
 10
131.9247326884285
 20
18.0115526552226
 30
0.0
 11
133.2580660217618
 21
18.0115526552226
 31
0.0
 12
132.5913993550952
 22
14.0115526552226
 32
0.0
 13
132.5913993550952
 23
14.0115526552226
 33
0.0
  0
MTEXT
  5
33A
330
333
100
AcDbEntity
  8
KOTY
 62
     0
100
AcDbMText
 10
129.5493993550952
 20
31.5961928862985
 30
0.0
 40
4.0
 41
0.0
 71
     5
 72
     1
  1
\A1;150
 11
0.0
 21
1.0
 31
0.0
  0
POINT
  5
33B
330
333
100
AcDbEntity
  8
DEFPOINTS
 62
     0
100
AcDbPoint
 10
97.9058886737377
 20
49.18083311737441
 30
0.0
  0
POINT
  5
33C
330
333
100
AcDbEntity
  8
DEFPOINTS
 62
     0
100
AcDbPoint
 10
91.68714271084082
 20
14.0115526552226
 30
0.0
  0
POINT
  5
33D
330
333
100
AcDbEntity
  8
DEFPOINTS
 62
     0
100
AcDbPoint
 10
132.5913993550952
 20
14.0115526552226
 30
0.0
  0
ENDBLK
  5
33E
330
333
100
AcDbEntity
  8
0
100
AcDbBlockEnd
  0
BLOCK
  5
463
330
431
100
AcDbEntity
  8
0
100
AcDbBlockBegin
  2
*D12
 70
     1
 10
0.0
 20
0.0
 30
0.0
  3
*D12
  1

  0
LINE
  5
432
330
431
100
AcDbEntity
  8
KOTY
 62
     0
100
AcDbLine
 10
474.8194838198361
 20
223.4846920333982
 30
0.0
 11
474.8194838198361
 21
263.3809996289478
 31
0.0
  0
LINE
  5
433
330
431
100
AcDbEntity
  8
KOTY
 62
     0
100
AcDbLine
 10
496.1194897279859
 20
223.6038924158237
 30
0.0
 11
496.1194897279859
 21
263.3809996289478
 31
0.0
  0
LINE
  5
434
330
431
100
AcDbEntity
  8
KOTY
 62
     0
100
AcDbLine
 10
478.8194838198361
 20
263.2009996289478
 30
0.0
 11
492.1194897279859
 21
263.2009996289478
 31
0.0
  0
SOLID
  5
435
330
431
100
AcDbEntity
  8
KOTY
 62
     0
100
AcDbTrace
 10
478.8194838198361
 20
263.8676662956145
 30
0.0
 11
478.8194838198361
 21
262.5343329622811
 31
0.0
 12
474.8194838198361
 22
263.2009996289478
 32
0.0
 13
474.8194838198361
 23
263.2009996289478
 33
0.0
  0
SOLID
  5
436
330
431
100
AcDbEntity
  8
KOTY
 62
     0
100
AcDbTrace
 10
492.1194897279859
 20
262.5343329622811
 30
0.0
 11
492.1194897279859
 21
263.8676662956145
 31
0.0
 12
496.1194897279859
 22
263.2009996289478
 32
0.0
 13
496.1194897279859
 23
263.2009996289478
 33
0.0
  0
MTEXT
  5
437
330
431
100
AcDbEntity
  8
KOTY
 62
     0
100
AcDbMText
 10
485.4694867739109
 20
266.2089996289478
 30
0.0
 40
4.0
 41
0.0
 71
     5
 72
     1
  1
\A1;21
  0
POINT
  5
438
330
431
100
AcDbEntity
  8
DEFPOINTS
 62
     0
100
AcDbPoint
 10
474.8194838198361
 20
223.4221920333982
 30
0.0
  0
POINT
  5
439
330
431
100
AcDbEntity
  8
DEFPOINTS
 62
     0
100
AcDbPoint
 10
496.1194897279859
 20
223.5413924158237
 30
0.0
  0
POINT
  5
43A
330
431
100
AcDbEntity
  8
DEFPOINTS
 62
     0
100
AcDbPoint
 10
496.1194897279859
 20
263.2009996289478
 30
0.0
  0
ENDBLK
  5
464
330
431
100
AcDbEntity
  8
0
100
AcDbBlockEnd
  0
BLOCK
  5
465
330
43B
100
AcDbEntity
  8
0
100
AcDbBlockBegin
  2
*D13
 70
     1
 10
0.0
 20
0.0
 30
0.0
  3
*D13
  1

  0
LINE
  5
43C
330
43B
100
AcDbEntity
  8
KOTY
 62
     0
100
AcDbLine
 10
534.4565375785835
 20
221.7039210023078
 30
0.0
 11
534.4565375785835
 21
263.3809996289478
 31
0.0
  0
LINE
  5
43D
330
43B
100
AcDbEntity
  8
KOTY
 62
     0
100
AcDbLine
 10
586.9567268219375
 20
221.7039210023078
 30
0.0
 11
586.9567268219375
 21
263.3809996289478
 31
0.0
  0
LINE
  5
43E
330
43B
100
AcDbEntity
  8
KOTY
 62
     0
100
AcDbLine
 10
538.4565375785835
 20
263.2009996289478
 30
0.0
 11
582.9567268219375
 21
263.2009996289478
 31
0.0
  0
SOLID
  5
43F
330
43B
100
AcDbEntity
  8
KOTY
 62
     0
100
AcDbTrace
 10
538.4565375785835
 20
263.8676662956145
 30
0.0
 11
538.4565375785835
 21
262.5343329622811
 31
0.0
 12
534.4565375785835
 22
263.2009996289478
 32
0.0
 13
534.4565375785835
 23
263.2009996289478
 33
0.0
  0
SOLID
  5
440
330
43B
100
AcDbEntity
  8
KOTY
 62
     0
100
AcDbTrace
 10
582.9567268219375
 20
262.5343329622811
 30
0.0
 11
582.9567268219375
 21
263.8676662956145
 31
0.0
 12
586.9567268219375
 22
263.2009996289478
 32
0.0
 13
586.9567268219375
 23
263.2009996289478
 33
0.0
  0
MTEXT
  5
441
330
43B
100
AcDbEntity
  8
KOTY
 62
     0
100
AcDbMText
 10
560.7066322002605
 20
266.2429996289478
 30
0.0
 40
4.0
 41
0.0
 71
     5
 72
     1
  1
\A1;53
  0
POINT
  5
442
330
43B
100
AcDbEntity
  8
DEFPOINTS
 62
     0
100
AcDbPoint
 10
534.4565375785835
 20
221.6414210023078
 30
0.0
  0
POINT
  5
443
330
43B
100
AcDbEntity
  8
DEFPOINTS
 62
     0
100
AcDbPoint
 10
586.9567268219375
 20
221.6414210023078
 30
0.0
  0
POINT
  5
444
330
43B
100
AcDbEntity
  8
DEFPOINTS
 62
     0
100
AcDbPoint
 10
586.9567268219375
 20
263.2009996289478
 30
0.0
  0
ENDBLK
  5
466
330
43B
100
AcDbEntity
  8
0
100
AcDbBlockEnd
  0
BLOCK
  5
467
330
445
100
AcDbEntity
  8
0
100
AcDbBlockBegin
  2
*D14
 70
     1
 10
0.0
 20
0.0
 30
0.0
  3
*D14
  1

  0
LINE
  5
446
330
445
100
AcDbEntity
  8
KOTY
 62
     0
100
AcDbLine
 10
584.9192520242182
 20
223.7413803465267
 30
0.0
 11
607.5908831749313
 21
223.7413803465267
 31
0.0
  0
LINE
  5
447
330
445
100
AcDbEntity
  8
KOTY
 62
     0
100
AcDbLine
 10
572.7878724935736
 20
169.7415400432786
 30
0.0
 11
607.5908831749313
 21
169.7415400432786
 31
0.0
  0
LINE
  5
448
330
445
100
AcDbEntity
  8
KOTY
 62
     0
100
AcDbLine
 10
607.4108831749313
 20
219.7413803465267
 30
0.0
 11
607.4108831749313
 21
173.7415400432786
 31
0.0
  0
SOLID
  5
449
330
445
100
AcDbEntity
  8
KOTY
 62
     0
100
AcDbTrace
 10
608.0775498415979
 20
219.7413803465267
 30
0.0
 11
606.7442165082647
 21
219.7413803465267
 31
0.0
 12
607.4108831749313
 22
223.7413803465267
 32
0.0
 13
607.4108831749313
 23
223.7413803465267
 33
0.0
  0
SOLID
  5
44A
330
445
100
AcDbEntity
  8
KOTY
 62
     0
100
AcDbTrace
 10
606.7442165082647
 20
173.7415400432786
 30
0.0
 11
608.0775498415979
 21
173.7415400432786
 31
0.0
 12
607.4108831749313
 22
169.7415400432786
 32
0.0
 13
607.4108831749313
 23
169.7415400432786
 33
0.0
  0
MTEXT
  5
44B
330
445
100
AcDbEntity
  8
KOTY
 62
     0
100
AcDbMText
 10
604.3768831749313
 20
195.9175901989191
 30
0.0
 40
4.0
 41
0.0
 71
     5
 72
     1
  1
\A1;54
 11
0.0
 21
1.0
 31
0.0
  0
POINT
  5
44C
330
445
100
AcDbEntity
  8
DEFPOINTS
 62
     0
100
AcDbPoint
 10
584.8567520242182
 20
223.7413803465267
 30
0.0
  0
POINT
  5
44D
330
445
100
AcDbEntity
  8
DEFPOINTS
 62
     0
100
AcDbPoint
 10
572.7253724935736
 20
169.7415400432786
 30
0.0
  0
POINT
  5
44E
330
445
100
AcDbEntity
  8
DEFPOINTS
 62
     0
100
AcDbPoint
 10
607.4108831749313
 20
169.7415400432786
 30
0.0
  0
ENDBLK
  5
468
330
445
100
AcDbEntity
  8
0
100
AcDbBlockEnd
  0
BLOCK
  5
469
330
44F
100
AcDbEntity
  8
0
100
AcDbBlockBegin
  2
*D15
 70
     1
 10
0.0
 20
0.0
 30
0.0
  3
*D15
  1

  0
LINE
  5
450
330
44F
100
AcDbEntity
  8
KOTY
 62
     0
100
AcDbLine
 10
570.3191154402183
 20
257.1469430056368
 30
0.0
 11
607.5908831749313
 21
257.1469430056368
 31
0.0
  0
LINE
  5
451
330
44F
100
AcDbEntity
  8
KOTY
 62
     0
100
AcDbLine
 10
584.919095228684
 20
223.7413803406732
 30
0.0
 11
607.5908831749313
 21
223.7413803406732
 31
0.0
  0
LINE
  5
452
330
44F
100
AcDbEntity
  8
KOTY
 62
     0
100
AcDbLine
 10
607.4108831749313
 20
253.1469430056368
 30
0.0
 11
607.4108831749313
 21
227.7413803406732
 31
0.0
  0
SOLID
  5
453
330
44F
100
AcDbEntity
  8
KOTY
 62
     0
100
AcDbTrace
 10
608.0775498415979
 20
253.1469430056368
 30
0.0
 11
606.7442165082647
 21
253.1469430056368
 31
0.0
 12
607.4108831749313
 22
257.1469430056368
 32
0.0
 13
607.4108831749313
 23
257.1469430056368
 33
0.0
  0
SOLID
  5
454
330
44F
100
AcDbEntity
  8
KOTY
 62
     0
100
AcDbTrace
 10
606.7442165082647
 20
227.7413803406732
 30
0.0
 11
608.0775498415979
 21
227.7413803406732
 31
0.0
 12
607.4108831749313
 22
223.7413803406732
 32
0.0
 13
607.4108831749313
 23
223.7413803406732
 33
0.0
  0
MTEXT
  5
455
330
44F
100
AcDbEntity
  8
KOTY
 62
     0
100
AcDbMText
 10
604.3688831749313
 20
240.444161673155
 30
0.0
 40
4.0
 41
0.0
 71
     5
 72
     1
  1
\A1;150
 11
0.0
 21
1.0
 31
0.0
  0
POINT
  5
456
330
44F
100
AcDbEntity
  8
DEFPOINTS
 62
     0
100
AcDbPoint
 10
570.2566154402183
 20
257.1469430056368
 30
0.0
  0
POINT
  5
457
330
44F
100
AcDbEntity
  8
DEFPOINTS
 62
     0
100
AcDbPoint
 10
584.856595228684
 20
223.7413803406732
 30
0.0
  0
POINT
  5
458
330
44F
100
AcDbEntity
  8
DEFPOINTS
 62
     0
100
AcDbPoint
 10
607.4108831749313
 20
223.7413803406732
 30
0.0
  0
ENDBLK
  5
46A
330
44F
100
AcDbEntity
  8
0
100
AcDbBlockEnd
  0
BLOCK
  5
46B
330
459
100
AcDbEntity
  8
0
100
AcDbBlockBegin
  2
*D16
 70
     1
 10
0.0
 20
0.0
 30
0.0
  3
*D16
  1

  0
LINE
  5
45A
330
459
100
AcDbEntity
  8
KOTY
 62
     0
100
AcDbLine
 10
572.7878724935738
 20
169.7411955335028
 30
0.0
 11
607.5908831749313
 21
169.7411955335028
 31
0.0
  0
LINE
  5
45B
330
459
100
AcDbEntity
  8
KOTY
 62
     0
100
AcDbLine
 10
566.5691265306768
 20
134.571915071351
 30
0.0
 11
607.5908831749313
 21
134.571915071351
 31
0.0
  0
LINE
  5
45C
330
459
100
AcDbEntity
  8
KOTY
 62
     0
100
AcDbLine
 10
607.4108831749313
 20
165.7411955335028
 30
0.0
 11
607.4108831749313
 21
138.571915071351
 31
0.0
  0
SOLID
  5
45D
330
459
100
AcDbEntity
  8
KOTY
 62
     0
100
AcDbTrace
 10
608.0775498415979
 20
165.7411955335028
 30
0.0
 11
606.7442165082647
 21
165.7411955335028
 31
0.0
 12
607.4108831749313
 22
169.7411955335028
 32
0.0
 13
607.4108831749313
 23
169.7411955335028
 33
0.0
  0
SOLID
  5
45E
330
459
100
AcDbEntity
  8
KOTY
 62
     0
100
AcDbTrace
 10
606.7442165082647
 20
138.571915071351
 30
0.0
 11
608.0775498415979
 21
138.571915071351
 31
0.0
 12
607.4108831749313
 22
134.571915071351
 32
0.0
 13
607.4108831749313
 23
134.571915071351
 33
0.0
  0
MTEXT
  5
45F
330
459
100
AcDbEntity
  8
KOTY
 62
     0
100
AcDbMText
 10
604.3688831749313
 20
152.1565553024269
 30
0.0
 40
4.0
 41
0.0
 71
     5
 72
     1
  1
\A1;150
 11
0.0
 21
1.0
 31
0.0
  0
POINT
  5
460
330
459
100
AcDbEntity
  8
DEFPOINTS
 62
     0
100
AcDbPoint
 10
572.7253724935738
 20
169.7411955335028
 30
0.0
  0
POINT
  5
461
330
459
100
AcDbEntity
  8
DEFPOINTS
 62
     0
100
AcDbPoint
 10
566.5066265306768
 20
134.571915071351
 30
0.0
  0
POINT
  5
462
330
459
100
AcDbEntity
  8
DEFPOINTS
 62
     0
100
AcDbPoint
 10
607.4108831749313
 20
134.571915071351
 30
0.0
  0
ENDBLK
  5
46C
330
459
100
AcDbEntity
  8
0
100
AcDbBlockEnd
  0
ENDSEC
  0
SECTION
  2
ENTITIES
  0
LINE
  5
369
330
1F
100
AcDbEntity
  8
OBRYS
100
AcDbLine
 10
484.1195252174537
 20
239.7893347168105
 30
0.0
 11
484.6745304662614
 21
242.2157170677428
 31
0.0
  0
ARC
  5
36A
330
1F
100
AcDbEntity
  8
OBRYS
100
AcDbCircle
 10
485.0899404394027
 20
242.0471832262696
 30
0.0
 40
0.4482957745808294
100
AcDbArc
 50
22.08263323987815
 51
157.9173667601185
  0
LINE
  5
36B
330
1F
100
AcDbEntity
  8
OBRYS
100
AcDbLine
 10
485.505350412544
 20
242.2157170677428
 30
0.0
 11
486.8337108641136
 21
237.3629523658781
 31
0.0
  0
ARC
  5
36C
330
1F
100
AcDbEntity
  8
OBRYS
100
AcDbCircle
 10
487.2491208372548
 20
237.5314862073513
 30
0.0
 40
0.4482957745808294
100
AcDbArc
 50
202.0826332398815
 51
337.9173667601219
  0
LINE
  5
36D
330
1F
100
AcDbEntity
  8
OBRYS
100
AcDbLine
 10
488.2195360592038
 20
239.7893347168105
 30
0.0
 11
487.6645308103963
 21
237.3629523658781
 31
0.0
  0
LINE
  5
36E
330
1F
100
AcDbEntity
  8
OBRYS
100
AcDbLine
 10
484.1195252174537
 20
245.7893169720766
 30
0.0
 11
484.6745304662614
 21
248.2156993230089
 31
0.0
  0
ARC
  5
36F
330
1F
100
AcDbEntity
  8
OBRYS
100
AcDbCircle
 10
485.0899404394027
 20
248.0471654815357
 30
0.0
 40
0.4482957745808294
100
AcDbArc
 50
22.08263323987815
 51
157.9173667601185
  0
LINE
  5
370
330
1F
100
AcDbEntity
  8
OBRYS
100
AcDbLine
 10
485.505350412544
 20
248.2156993230089
 30
0.0
 11
486.8337108641136
 21
243.3629346211442
 31
0.0
  0
ARC
  5
371
330
1F
100
AcDbEntity
  8
OBRYS
100
AcDbCircle
 10
487.2491208372548
 20
243.5314684626175
 30
0.0
 40
0.4482957745808294
100
AcDbArc
 50
202.0826332398815
 51
337.9173667601219
  0
LINE
  5
372
330
1F
100
AcDbEntity
  8
OBRYS
100
AcDbLine
 10
488.2195360592038
 20
245.7893169720766
 30
0.0
 11
487.6645308103963
 21
243.3629346211442
 31
0.0
  0
LINE
  5
374
330
1F
100
AcDbEntity
  8
OBRYS
100
AcDbLine
 10
484.1195252174537
 20
257.7198627627857
 30
0.0
 11
484.1195252174537
 21
245.7893169720766
 31
0.0
  0
LINE
  5
375
330
1F
100
AcDbEntity
  8
OBRYS
100
AcDbLine
 10
488.2195360592038
 20
245.7893169720766
 30
0.0
 11
488.2195360592038
 21
257.7198627627857
 31
0.0
  0
LINE
  5
376
330
1F
100
AcDbEntity
  8
OBRYS
100
AcDbLine
 10
490.5036358727324
 20
193.2247044006486
 30
0.0
 11
493.4695205325618
 21
193.2763808670181
 31
0.0
  0
LINE
  5
377
330
1F
100
AcDbEntity
  8
OBRYS
100
AcDbLine
 10
490.5036358727324
 20
189.8578103617926
 30
0.0
 11
493.4695205325618
 21
189.8061338954233
 31
0.0
  0
LINE
  5
378
330
1F
100
AcDbEntity
  8
OBRYS
100
AcDbLine
 10
490.5036358727324
 20
193.2247044006486
 30
0.0
 11
490.5036358727324
 21
189.8578103617926
 31
0.0
  0
LINE
  5
379
330
1F
100
AcDbEntity
  8
OBRYS
100
AcDbLine
 10
490.5036358727324
 20
215.3747881805755
 30
0.0
 11
493.4695205325618
 21
215.419574451429
 31
0.0
  0
LINE
  5
37A
330
1F
100
AcDbEntity
  8
OBRYS
100
AcDbLine
 10
490.5036358727324
 20
212.0080663966074
 30
0.0
 11
493.4695205325618
 21
211.9560454204621
 31
0.0
  0
LINE
  5
37B
330
1F
100
AcDbEntity
  8
OBRYS
100
AcDbLine
 10
490.5036358727324
 20
212.0080663966074
 30
0.0
 11
490.5036358727324
 21
215.3747881805755
 31
0.0
  0
LINE
  5
37C
330
1F
100
AcDbEntity
  8
OBRYS
100
AcDbLine
 10
493.4695205325618
 20
211.9560454204621
 30
0.0
 11
493.4695205325618
 21
215.4266369018328
 31
0.0
  0
LINE
  5
37D
330
1F
100
AcDbEntity
  8
OBRYS
100
AcDbLine
 10
493.0657550753286
 20
211.9632801257538
 30
0.0
 11
493.0657550753286
 21
215.419574451429
 31
0.0
  0
LINE
  5
37E
330
1F
100
AcDbEntity
  8
OBRYS
100
AcDbLine
 10
493.0657550753286
 20
193.2694906715022
 30
0.0
 11
493.0657550753286
 21
189.813368600715
 31
0.0
  0
LINE
  5
37F
330
1F
100
AcDbEntity
  8
OBRYS
100
AcDbLine
 10
493.4695205325618
 20
193.2763808670181
 30
0.0
 11
493.4695205325618
 21
189.8061338954233
 31
0.0
  0
LINE
  5
380
330
1F
100
AcDbEntity
  8
OBRYS
100
AcDbLine
 10
475.1195518345546
 20
170.055388449029
 30
0.0
 11
475.1195518345546
 21
170.1394488343232
 31
0.0
  0
LINE
  5
381
330
1F
100
AcDbEntity
  8
OBRYS
100
AcDbLine
 10
476.1196637136909
 20
169.8414478782594
 30
0.0
 11
475.3159224067585
 21
169.8555727790671
 31
0.0
  0
LINE
  5
382
330
1F
100
AcDbEntity
  8
OBRYS
100
AcDbLine
 10
495.9196740580241
 20
169.7411955335028
 30
0.0
 11
476.1196637136909
 21
169.7415400432786
 31
0.0
  0
LINE
  5
383
330
1F
100
AcDbEntity
  8
OBRYS
100
AcDbLine
 10
476.1196637136909
 20
181.5912982915636
 30
0.0
 11
475.0161989018158
 21
181.6105908390082
 31
0.0
  0
LINE
  5
384
330
1F
100
AcDbEntity
  8
OBRYS
100
AcDbLine
 10
475.0161989018158
 20
223.6221799582478
 30
0.0
 11
475.0751100734769
 21
223.6232134875751
 31
0.0
  0
LINE
  5
385
330
1F
100
AcDbEntity
  8
OBRYS
100
AcDbLine
 10
475.0751100734769
 20
223.6232134875751
 30
0.0
 11
475.1340212451381
 21
223.6242470169025
 31
0.0
  0
LINE
  5
386
330
1F
100
AcDbEntity
  8
OBRYS
100
AcDbLine
 10
475.1340212451381
 20
223.6242470169025
 30
0.0
 11
476.1196637136909
 21
223.6414725056924
 31
0.0
  0
LINE
  5
387
330
1F
100
AcDbEntity
  8
OBRYS
100
AcDbLine
 10
494.1196104794891
 20
181.4913904565827
 30
0.0
 11
476.1196637136909
 21
181.4913904565827
 31
0.0
  0
LINE
  5
388
330
1F
100
AcDbEntity
  8
OBRYS
100
AcDbLine
 10
476.1196637136909
 20
223.7413803406732
 30
0.0
 11
495.9196740580241
 21
223.7413803406732
 31
0.0
  0
LINE
  5
389
330
1F
100
AcDbEntity
  8
OBRYS
100
AcDbLine
 10
494.1196104794891
 20
169.7415400432786
 30
0.0
 11
494.1196104794891
 21
169.8941578739563
 31
0.0
  0
LINE
  5
38A
330
1F
100
AcDbEntity
  8
OBRYS
100
AcDbLine
 10
494.1196104794891
 20
169.8941578739563
 30
0.0
 11
494.1196104794891
 21
170.33065175989
 31
0.0
  0
LINE
  5
38B
330
1F
100
AcDbEntity
  8
OBRYS
100
AcDbLine
 10
494.1196104794891
 20
170.33065175989
 30
0.0
 11
494.1196104794891
 21
170.9872873925576
 31
0.0
  0
LINE
  5
38C
330
1F
100
AcDbEntity
  8
OBRYS
100
AcDbLine
 10
494.1196104794891
 20
170.9872873925576
 30
0.0
 11
494.1196104794891
 21
171.7679465445116
 31
0.0
  0
LINE
  5
38D
330
1F
100
AcDbEntity
  8
OBRYS
100
AcDbLine
 10
494.1196104794891
 20
171.7679465445116
 30
0.0
 11
494.1196104794891
 21
176.5211479211715
 31
0.0
  0
LINE
  5
38E
330
1F
100
AcDbEntity
  8
OBRYS
100
AcDbLine
 10
494.1196104794891
 20
176.5211479211715
 30
0.0
 11
494.1196104794891
 21
177.6370150849751
 31
0.0
  0
LINE
  5
38F
330
1F
100
AcDbEntity
  8
OBRYS
100
AcDbLine
 10
494.1196104794891
 20
177.6370150849751
 30
0.0
 11
494.1196104794891
 21
178.6908704891356
 31
0.0
  0
LINE
  5
390
330
1F
100
AcDbEntity
  8
OBRYS
100
AcDbLine
 10
494.1196104794891
 20
178.6908704891356
 30
0.0
 11
494.1196104794891
 21
179.6320711966109
 31
0.0
  0
LINE
  5
391
330
1F
100
AcDbEntity
  8
OBRYS
100
AcDbLine
 10
494.1196104794891
 20
179.6320711966109
 30
0.0
 11
494.1196104794891
 21
180.4154864267713
 31
0.0
  0
LINE
  5
392
330
1F
100
AcDbEntity
  8
OBRYS
100
AcDbLine
 10
494.1196104794891
 20
180.4154864267713
 30
0.0
 11
494.1196104794891
 21
181.0032201042795
 31
0.0
  0
LINE
  5
393
330
1F
100
AcDbEntity
  8
OBRYS
100
AcDbLine
 10
494.1196104794891
 20
181.0032201042795
 30
0.0
 11
494.1196104794891
 21
181.3677114470719
 31
0.0
  0
LINE
  5
394
330
1F
100
AcDbEntity
  8
OBRYS
100
AcDbLine
 10
494.1196104794891
 20
181.3677114470719
 30
0.0
 11
494.1196104794891
 21
181.4913904565827
 31
0.0
  0
LINE
  5
395
330
1F
100
AcDbEntity
  8
OBRYS
100
AcDbLine
 10
490.4512703868116
 20
211.7231568120239
 30
0.0
 11
493.637985812926
 21
211.7231568120239
 31
0.0
  0
LINE
  5
396
330
1F
100
AcDbEntity
  8
OBRYS
100
AcDbLine
 10
490.4512703868116
 20
189.5729007772093
 30
0.0
 11
493.637985812926
 21
189.5729007772093
 31
0.0
  0
LINE
  5
397
330
1F
100
AcDbEntity
  8
OBRYS
100
AcDbLine
 10
493.637985812926
 20
211.7231568120239
 30
0.0
 11
493.637985812926
 21
215.6596977651589
 31
0.0
  0
LINE
  5
398
330
1F
100
AcDbEntity
  8
OBRYS
100
AcDbLine
 10
493.637985812926
 20
215.6596977651589
 30
0.0
 11
490.4512703868116
 21
215.6596977651589
 31
0.0
  0
LINE
  5
399
330
1F
100
AcDbEntity
  8
OBRYS
100
AcDbLine
 10
493.637985812926
 20
189.5729007772093
 30
0.0
 11
493.637985812926
 21
193.5096139852321
 31
0.0
  0
LINE
  5
39A
330
1F
100
AcDbEntity
  8
OBRYS
100
AcDbLine
 10
494.1196104794891
 20
181.4913904565827
 30
0.0
 11
494.1196104794891
 21
181.5940543697699
 31
0.0
  0
LINE
  5
39B
330
1F
100
AcDbEntity
  8
OBRYS
100
AcDbLine
 10
494.1196104794891
 20
181.5940543697699
 30
0.0
 11
494.1196104794891
 21
181.8923998356095
 31
0.0
  0
LINE
  5
39C
330
1F
100
AcDbEntity
  8
OBRYS
100
AcDbLine
 10
494.1196104794891
 20
181.8923998356095
 30
0.0
 11
494.1196104794891
 21
182.3571435231586
 31
0.0
  0
LINE
  5
39D
330
1F
100
AcDbEntity
  8
OBRYS
100
AcDbLine
 10
494.1196104794891
 20
182.3571435231586
 30
0.0
 11
494.1196104794891
 21
182.9424656322362
 31
0.0
  0
LINE
  5
39E
330
1F
100
AcDbEntity
  8
OBRYS
100
AcDbLine
 10
494.1196104794891
 20
182.9424656322362
 30
0.0
 11
494.1196104794891
 21
183.5915220498362
 31
0.0
  0
LINE
  5
39F
330
1F
100
AcDbEntity
  8
OBRYS
100
AcDbLine
 10
493.637985812926
 20
193.5096139852321
 30
0.0
 11
490.4512703868116
 21
193.5096139852321
 31
0.0
  0
LINE
  5
3A0
330
1F
100
AcDbEntity
  8
OBRYS
100
AcDbLine
 10
490.4512703868116
 20
193.5096139852321
 30
0.0
 11
490.4512703868116
 21
189.5729007772093
 31
0.0
  0
LINE
  5
3A1
330
1F
100
AcDbEntity
  8
OBRYS
100
AcDbLine
 10
494.1196104794891
 20
183.5915220498362
 30
0.0
 11
494.1196104794891
 21
185.7192144251534
 31
0.0
  0
LINE
  5
3A2
330
1F
100
AcDbEntity
  8
OBRYS
100
AcDbLine
 10
490.4512703868116
 20
215.6596977651589
 30
0.0
 11
490.4512703868116
 21
211.7231568120239
 31
0.0
  0
LINE
  5
3A5
330
1F
100
AcDbEntity
  8
OBRYS
100
AcDbLine
 10
484.1195252174537
 20
239.7893347168105
 30
0.0
 11
484.1195252174537
 21
223.7429306346643
 31
0.0
  0
LINE
  5
3A6
330
1F
100
AcDbEntity
  8
OBRYS
100
AcDbLine
 10
488.2195360592038
 20
223.7429306346643
 30
0.0
 11
488.2195360592038
 21
239.7893347168105
 31
0.0
  0
LINE
  5
3A8
330
1F
100
AcDbEntity
  8
OBRYS
100
AcDbLine
 10
558.6569712891612
 20
246.5618144129779
 30
0.0
 11
558.6569712891612
 21
257.1469430056368
 31
0.0
  0
LINE
  5
3A9
330
1F
100
AcDbEntity
  8
OBRYS
100
AcDbLine
 10
562.7566376211355
 20
257.1469430056368
 30
0.0
 11
562.7566376211355
 21
243.1656739092726
 31
0.0
  0
LINE
  5
3AA
330
1F
100
AcDbEntity
  8
OBRYS
100
AcDbLine
 10
566.156604598468
 20
257.1469430056368
 30
0.0
 11
566.156604598468
 21
241.8792992594844
 31
0.0
  0
LINE
  5
3AB
330
1F
100
AcDbEntity
  8
OBRYS
100
AcDbLine
 10
570.2566154402183
 20
244.8636192045121
 30
0.0
 11
570.2566154402183
 21
257.1469430056368
 31
0.0
  0
LINE
  5
3AC
330
1F
100
AcDbEntity
  8
OBRYS
100
AcDbLine
 10
551.1566489603028
 20
257.1469430056368
 30
0.0
 11
551.1566489603028
 21
244.8636192045121
 31
0.0
  0
LINE
  5
3AD
330
1F
100
AcDbEntity
  8
OBRYS
100
AcDbLine
 10
555.256659802053
 20
247.8477015071808
 30
0.0
 11
555.256659802053
 21
257.1469430056368
 31
0.0
  0
LINE
  5
3AE
330
1F
100
AcDbEntity
  8
OBRYS
100
AcDbLine
 10
546.5891383527971
 20
171.7679465445116
 30
0.0
 11
546.4230846408634
 21
176.5211479211715
 31
0.0
  0
LINE
  5
3AF
330
1F
100
AcDbEntity
  8
OBRYS
100
AcDbLine
 10
572.7253724935736
 20
169.7415400432786
 30
0.0
 11
548.6878919069475
 21
169.7415400432786
 31
0.0
  0
LINE
  5
3B0
330
1F
100
AcDbEntity
  8
OBRYS
100
AcDbLine
 10
574.9901797596576
 20
176.5211479211715
 30
0.0
 11
574.8241260477238
 21
171.7679465445116
 31
0.0
  0
LINE
  5
3B1
330
1F
100
AcDbEntity
  8
OBRYS
100
AcDbLine
 10
584.856595228684
 20
181.4913904565827
 30
0.0
 11
580.1371558100523
 21
181.4913904565827
 31
0.0
  0
LINE
  5
3B2
330
1F
100
AcDbEntity
  8
OBRYS
100
AcDbLine
 10
586.9567268219375
 20
221.6414210023078
 30
0.0
 11
586.9567268219375
 21
183.5915220498362
 31
0.0
  0
LINE
  5
3B3
330
1F
100
AcDbEntity
  8
OBRYS
100
AcDbLine
 10
536.556669171837
 20
223.7413803406732
 30
0.0
 11
584.856595228684
 21
223.7413803406732
 31
0.0
  0
LINE
  5
3B4
330
1F
100
AcDbEntity
  8
OBRYS
100
AcDbLine
 10
534.4565375785835
 20
183.5915220498362
 30
0.0
 11
534.4565375785835
 21
221.6414210023078
 31
0.0
  0
LINE
  5
3B5
330
1F
100
AcDbEntity
  8
OBRYS
100
AcDbLine
 10
541.2764531002445
 20
181.4913904565827
 30
0.0
 11
536.556669171837
 21
181.4913904565827
 31
0.0
  0
LINE
  5
3B6
330
1F
100
AcDbEntity
  8
OBRYS
100
AcDbLine
 10
573.7068808448169
 20
195.9415084925773
 30
0.0
 11
573.7068808448169
 21
197.5414118913747
 31
0.0
  0
LINE
  5
3B7
330
1F
100
AcDbEntity
  8
OBRYS
100
AcDbLine
 10
573.4068128300984
 20
197.8414799060932
 30
0.0
 11
570.006845852766
 21
197.8414799060932
 31
0.0
  0
LINE
  5
3B8
330
1F
100
AcDbEntity
  8
OBRYS
100
AcDbLine
 10
551.7068310722493
 20
195.9415084925773
 30
0.0
 11
551.7068310722493
 21
197.5414118913747
 31
0.0
  0
LINE
  5
3B9
330
1F
100
AcDbEntity
  8
OBRYS
100
AcDbLine
 10
570.006845852766
 20
195.6414404778587
 30
0.0
 11
573.4068128300984
 21
195.6414404778587
 31
0.0
  0
LINE
  5
3BA
330
1F
100
AcDbEntity
  8
OBRYS
100
AcDbLine
 10
548.0067960801985
 20
195.6414404778587
 30
0.0
 11
551.4067630575307
 21
195.6414404778587
 31
0.0
  0
LINE
  5
3BB
330
1F
100
AcDbEntity
  8
OBRYS
100
AcDbLine
 10
551.4067630575307
 20
197.8414799060932
 30
0.0
 11
548.0067960801985
 21
197.8414799060932
 31
0.0
  0
LINE
  5
3BC
330
1F
100
AcDbEntity
  8
OBRYS
100
AcDbLine
 10
569.7067778380474
 20
197.5414118913747
 30
0.0
 11
569.7067778380474
 21
195.9415084925773
 31
0.0
  0
LINE
  5
3BD
330
1F
100
AcDbEntity
  8
OBRYS
100
AcDbLine
 10
547.70672806548
 20
197.5414118913747
 30
0.0
 11
547.70672806548
 21
195.9415084925773
 31
0.0
  0
LINE
  5
3BE
330
1F
100
AcDbEntity
  8
OBRYS
100
AcDbLine
 10
558.6569712891612
 20
223.7429306346643
 30
0.0
 11
558.6569712891612
 21
240.5618758433923
 31
0.0
  0
LINE
  5
3BF
330
1F
100
AcDbEntity
  8
OBRYS
100
AcDbLine
 10
562.7566376211355
 20
237.1656916540065
 30
0.0
 11
562.7566376211355
 21
223.7429306346643
 31
0.0
  0
LINE
  5
3C0
330
1F
100
AcDbEntity
  8
OBRYS
100
AcDbLine
 10
566.156604598468
 20
235.8793170042184
 30
0.0
 11
566.156604598468
 21
223.7429306346643
 31
0.0
  0
LINE
  5
3C1
330
1F
100
AcDbEntity
  8
OBRYS
100
AcDbLine
 10
570.2566154402183
 20
223.7429306346643
 30
0.0
 11
570.2566154402183
 21
238.8636369492461
 31
0.0
  0
LINE
  5
3C6
330
1F
100
AcDbEntity
  8
OBRYS
100
AcDbLine
 10
540.9567480283057
 20
169.8466155248964
 30
0.0
 11
548.0309117645043
 21
169.8466155248964
 31
0.0
  0
LINE
  5
3C7
330
1F
100
AcDbEntity
  8
OBRYS
100
AcDbLine
 10
573.3823526360169
 20
169.8466155248964
 30
0.0
 11
580.4568608819911
 21
169.8466155248964
 31
0.0
  0
LINE
  5
3C8
330
1F
100
AcDbEntity
  8
OBRYS
100
AcDbLine
 10
534.5619575699772
 20
182.9345419073929
 30
0.0
 11
534.5619575699772
 21
176.241405983225
 31
0.0
  0
LINE
  5
3C9
330
1F
100
AcDbEntity
  8
OBRYS
100
AcDbLine
 10
586.8513068305439
 20
176.241405983225
 30
0.0
 11
586.8513068305439
 21
182.9345419073929
 31
0.0
  0
LINE
  5
3CA
330
1F
100
AcDbEntity
  8
OBRYS
100
AcDbLine
 10
551.1566489603028
 20
238.8636369492461
 30
0.0
 11
551.1566489603028
 21
223.7429306346643
 31
0.0
  0
LINE
  5
3CB
330
1F
100
AcDbEntity
  8
OBRYS
100
AcDbLine
 10
555.256659802053
 20
223.7429306346643
 30
0.0
 11
555.256659802053
 21
241.8477192519148
 31
0.0
  0
LINE
  5
3D0
330
1F
100
AcDbEntity
  8
OBRYS
100
AcDbLine
 10
545.2066206225272
 20
209.6912381543781
 30
0.0
 11
576.2066437779938
 21
209.6912381543781
 31
0.0
  0
LINE
  5
3D1
330
1F
100
AcDbEntity
  8
OBRYS
100
AcDbLine
 10
542.0068138249324
 20
186.9914890271685
 30
0.0
 11
542.0068138249324
 21
206.4914313567834
 31
0.0
  0
LINE
  5
3D2
330
1F
100
AcDbEntity
  8
OBRYS
100
AcDbLine
 10
579.4067950853645
 20
206.4914313567834
 30
0.0
 11
579.4067950853645
 21
186.9914890271685
 31
0.0
  0
LINE
  5
3D3
330
1F
100
AcDbEntity
  8
OBRYS
100
AcDbLine
 10
576.2066437779938
 20
183.791337719798
 30
0.0
 11
545.2066206225272
 21
183.791337719798
 31
0.0
  0
LINE
  5
3D4
330
1F
100
AcDbEntity
  8
OBRYS
100
AcDbLine
 10
580.9154033935758
 20
201.0629908195631
 30
0.0
 11
580.9154033935758
 21
181.4913904565827
 31
0.0
  0
LINE
  5
3D5
330
1F
100
AcDbEntity
  8
OBRYS
100
AcDbLine
 10
583.3125024135657
 20
204.264175656261
 30
0.0
 11
581.4838445236396
 21
202.4358622761109
 31
0.0
  0
LINE
  5
3D6
330
1F
100
AcDbEntity
  8
OBRYS
100
AcDbLine
 10
583.9153945212089
 20
223.7413803406732
 30
0.0
 11
583.9153945212089
 21
205.7197294589998
 31
0.0
  0
LINE
  5
3D8
330
1F
100
AcDbEntity
  8
OBRYS
100
AcDbLine
 10
496.1194897279859
 20
223.5413924158237
 30
0.0
 11
496.1194897279859
 21
169.9413557132403
 31
0.0
  0
ARC
  5
3D9
330
1F
100
AcDbEntity
  8
OBRYS
100
AcDbCircle
 10
495.9194568979898
 20
169.9412282862095
 30
0.0
 40
0.2000328705835669
100
AcDbArc
 50
270.0622015564374
 51
0.0364991590306267
  0
LINE
  5
3DA
330
1F
100
AcDbEntity
  8
OBRYS
100
AcDbLine
 10
496.1194897279859
 20
185.7192144251534
 30
0.0
 11
494.1196104794891
 21
185.7192144251534
 31
0.0
  0
ARC
  5
3DB
330
1F
100
AcDbEntity
  8
OBRYS
100
AcDbCircle
 10
495.9194937420208
 20
223.5413844358354
 30
0.0
 40
0.1999959861242201
100
AcDbArc
 50
0.0022861441523145
 51
89.948342226437
  0
LINE
  5
3DC
330
1F
100
AcDbEntity
  8
OBRYS
100
AcDbLine
 10
495.9196740580241
 20
169.7411955335028
 30
0.0
 11
495.9196740580241
 21
223.7413803406732
 31
0.0
  0
ARC
  5
3DD
330
1F
100
AcDbEntity
  8
OBRYS
100
AcDbCircle
 10
475.3191737064447
 20
170.0551682931846
 30
0.0
 40
0.1996219932910792
100
AcDbArc
 50
179.9368105534846
 51
269.0667662212799
  0
LINE
  5
3DE
330
1F
100
AcDbEntity
  8
OBRYS
100
AcDbLine
 10
475.3159224067585
 20
181.6054231923712
 30
0.0
 11
475.3159224067585
 21
169.8555727790671
 31
0.0
  0
LINE
  5
3DF
330
1F
100
AcDbEntity
  8
OBRYS
100
AcDbLine
 10
475.1195518345546
 20
181.6088682901292
 30
0.0
 11
475.1195518345546
 21
170.1394488343232
 31
0.0
  0
LINE
  5
3E0
330
1F
100
AcDbEntity
  8
OBRYS
100
AcDbLine
 10
476.1196637136909
 20
223.7413803406732
 30
0.0
 11
476.1196637136909
 21
169.7415400432786
 31
0.0
  0
ARC
  5
3E1
330
1F
100
AcDbEntity
  8
OBRYS
100
AcDbCircle
 10
475.0221638257879
 20
181.8131978264557
 30
0.0
 40
0.2026947746750418
100
AcDbArc
 50
180.6916565080085
 51
268.3136500812511
  0
LINE
  5
3E2
330
1F
100
AcDbEntity
  8
OBRYS
100
AcDbLine
 10
475.0161989018158
 20
223.6221799582478
 30
0.0
 11
475.0161989018158
 21
181.6105908390082
 31
0.0
  0
LINE
  5
3E3
330
1F
100
AcDbEntity
  8
OBRYS
100
AcDbLine
 10
474.8194838198361
 20
223.4221920333982
 30
0.0
 11
474.8194838198361
 21
181.8107510187457
 31
0.0
  0
ARC
  5
3E4
330
1F
100
AcDbEntity
  8
OBRYS
100
AcDbCircle
 10
475.0222719134856
 20
223.4194644702957
 30
0.0
 40
0.2028064361070356
100
AcDbArc
 50
91.71597098848115
 51
179.2294003646005
  0
LINE
  5
3E5
330
1F
100
AcDbEntity
  8
OBRYS
100
AcDbLine
 10
484.1195252174537
 20
257.7198627627857
 30
0.0
 11
488.2195360592038
 21
257.7198627627857
 31
0.0
  0
LINE
  5
3E6
330
1F
100
AcDbEntity
  8
OBRYS
100
AcDbLine
 10
551.1566489603028
 20
257.1469430056368
 30
0.0
 11
555.256659802053
 21
257.1469430056368
 31
0.0
  0
LINE
  5
3E7
330
1F
100
AcDbEntity
  8
OBRYS
100
AcDbLine
 10
558.6569712891612
 20
257.1469430056368
 30
0.0
 11
562.7566376211355
 21
257.1469430056368
 31
0.0
  0
LINE
  5
3E8
330
1F
100
AcDbEntity
  8
OBRYS
100
AcDbLine
 10
566.156604598468
 20
257.1469430056368
 30
0.0
 11
570.2566154402183
 21
257.1469430056368
 31
0.0
  0
CIRCLE
  5
3E9
330
1F
100
AcDbEntity
  8
OBRYS
100
AcDbCircle
 10
540.9567480283057
 20
176.241405983225
 30
0.0
 40
2.15
  0
CIRCLE
  5
3EA
330
1F
100
AcDbEntity
  8
OBRYS
100
AcDbCircle
 10
556.9568155456072
 20
175.6912238712785
 30
0.0
 40
2.15
  0
CIRCLE
  5
3EB
330
1F
100
AcDbEntity
  8
OBRYS
100
AcDbCircle
 10
564.4567933646897
 20
175.6912238712785
 30
0.0
 40
2.15
  0
CIRCLE
  5
3EC
330
1F
100
AcDbEntity
  8
OBRYS
100
AcDbCircle
 10
580.4566886271033
 20
176.241405983225
 30
0.0
 40
2.15
  0
ARC
  5
3ED
330
1F
100
AcDbEntity
  8
OBRYS
100
AcDbCircle
 10
540.9565316959704
 20
176.2411896508897
 30
0.0
 40
6.394574129652628
100
AcDbArc
 50
179.9980616489023
 51
270.0019383510972
  0
ARC
  5
3EE
330
1F
100
AcDbEntity
  8
OBRYS
100
AcDbCircle
 10
548.6881137689957
 20
171.8414578160836
 30
0.0
 40
2.100262294299001
100
AcDbArc
 50
182.005819020395
 51
269.9939475373812
  0
ARC
  5
3EF
330
1F
100
AcDbEntity
  8
OBRYS
100
AcDbCircle
 10
541.2762393395676
 20
176.341407633224
 30
0.0
 40
5.149982827794959
100
AcDbArc
 50
2.000094392602883
 51
89.99762182030076
  0
ARC
  5
3F0
330
1F
100
AcDbEntity
  8
OBRYS
100
AcDbCircle
 10
536.5567696677126
 20
183.591622545712
 30
0.0
 40
2.100232091533566
100
AcDbArc
 50
180.0027415967826
 51
269.9972584032236
  0
ARC
  5
3F1
330
1F
100
AcDbEntity
  8
OBRYS
100
AcDbCircle
 10
536.5567329140171
 20
221.6411849929463
 30
0.0
 40
2.100195348694325
100
AcDbArc
 50
90.00173896104266
 51
179.9935613892407
  0
ARC
  5
3F2
330
1F
100
AcDbEntity
  8
OBRYS
100
AcDbCircle
 10
581.8560801130124
 20
205.7200637103302
 30
0.0
 40
2.059314435322977
100
AcDbArc
 50
315.0105105791239
 51
359.9907002105761
  0
ARC
  5
3F3
330
1F
100
AcDbEntity
  8
OBRYS
100
AcDbCircle
 10
583.0361108291388
 20
200.9890242049572
 30
0.0
 40
2.121996957426671
100
AcDbArc
 50
137.0133032175924
 51
178.0024318613283
  0
ARC
  5
3F4
330
1F
100
AcDbEntity
  8
OBRYS
100
AcDbCircle
 10
584.8567520242182
 20
221.6414055487506
 30
0.0
 40
2.099974797776166
100
AcDbArc
 50
0.0004216353450741
 51
90.00427801436743
  0
ARC
  5
3F5
330
1F
100
AcDbEntity
  8
OBRYS
100
AcDbCircle
 10
584.8567152686493
 20
183.5914020098709
 30
0.0
 40
2.100011556719063
100
AcDbArc
 50
269.9967248830804
 51
0.0032751169211513
  0
ARC
  5
3F6
330
1F
100
AcDbEntity
  8
OBRYS
100
AcDbCircle
 10
580.1370990950306
 20
176.3413309637419
 30
0.0
 40
5.150059493153169
100
AcDbArc
 50
89.99936903032311
 51
177.9990819049851
  0
ARC
  5
3F7
330
1F
100
AcDbEntity
  8
OBRYS
100
AcDbCircle
 10
572.7253727946719
 20
171.8412277603487
 30
0.0
 40
2.100032226845847
100
AcDbArc
 50
269.9999917850541
 51
358.0002416571731
  0
ARC
  5
3F8
330
1F
100
AcDbEntity
  8
OBRYS
100
AcDbCircle
 10
580.456806222888
 20
176.2411161388877
 30
0.0
 40
6.394500614224847
100
AcDbArc
 50
270.0004897545739
 51
0.0025970530379673
  0
CIRCLE
  5
3F9
330
1F
100
AcDbEntity
  8
OBRYS
100
AcDbCircle
 10
553.2066543811779
 20
217.7913520028977
 30
0.0
 40
2.15
  0
CIRCLE
  5
3FA
330
1F
100
AcDbEntity
  8
OBRYS
100
AcDbCircle
 10
560.7066322002604
 20
217.7913520028977
 30
0.0
 40
2.15
  0
CIRCLE
  5
3FB
330
1F
100
AcDbEntity
  8
OBRYS
100
AcDbCircle
 10
568.206782274231
 20
217.7913520028977
 30
0.0
 40
2.15
  0
ARC
  5
3FE
330
1F
100
AcDbEntity
  8
OBRYS
100
AcDbCircle
 10
545.2064533539649
 20
206.4915986253454
 30
0.0
 40
3.199639533404799
100
AcDbArc
 50
89.99700473051266
 51
180.0029952694863
  0
ARC
  5
3FF
330
1F
100
AcDbEntity
  8
OBRYS
100
AcDbCircle
 10
576.2052988239993
 20
206.4875313733364
 30
0.0
 40
3.203707063355558
100
AcDbArc
 50
357.8713163121053
 51
89.97594655558004
  0
ARC
  5
400
330
1F
100
AcDbEntity
  8
OBRYS
100
AcDbCircle
 10
576.2065674497153
 20
186.9915653554472
 30
0.0
 40
3.200227636559462
100
AcDbArc
 50
270.0013665553558
 51
359.9986334446422
  0
ARC
  5
401
330
1F
100
AcDbEntity
  8
OBRYS
100
AcDbCircle
 10
545.2067474048256
 20
186.9912713045866
 30
0.0
 40
3.199933587300143
100
AcDbArc
 50
179.9961016112604
 51
269.9977299245696
  0
ARC
  5
402
330
1F
100
AcDbEntity
  8
OBRYS
100
AcDbCircle
 10
548.0068137324449
 20
197.5413942391282
 30
0.0
 40
0.3000856674840494
100
AcDbArc
 50
90.0033703683042
 51
179.9966296317067
  0
ARC
  5
403
330
1F
100
AcDbEntity
  8
OBRYS
100
AcDbCircle
 10
548.0068137324447
 20
195.9415261448236
 30
0.0
 40
0.3000856674840209
100
AcDbArc
 50
180.0033703682825
 51
269.9966296317392
  0
ARC
  5
404
330
1F
100
AcDbEntity
  8
OBRYS
100
AcDbCircle
 10
551.4067454052844
 20
195.9415261448237
 30
0.0
 40
0.3000856674840778
100
AcDbArc
 50
270.0033703682824
 51
359.9966296317176
  0
ARC
  5
405
330
1F
100
AcDbEntity
  8
OBRYS
100
AcDbCircle
 10
551.4067454052844
 20
197.5413942391282
 30
0.0
 40
0.3000856674840778
100
AcDbArc
 50
0.0033703682933429
 51
89.99662963171751
  0
ARC
  5
406
330
1F
100
AcDbEntity
  8
OBRYS
100
AcDbCircle
 10
570.0068635050122
 20
195.9415261448236
 30
0.0
 40
0.3000856674840209
100
AcDbArc
 50
180.0033703682825
 51
269.9966296317392
  0
ARC
  5
407
330
1F
100
AcDbEntity
  8
OBRYS
100
AcDbCircle
 10
570.0068635050122
 20
197.5413942391282
 30
0.0
 40
0.3000856674840494
100
AcDbArc
 50
90.00337036826078
 51
179.9966296317067
  0
ARC
  5
408
330
1F
100
AcDbEntity
  8
OBRYS
100
AcDbCircle
 10
573.4067951778518
 20
197.5413942391282
 30
0.0
 40
0.3000856674840778
100
AcDbArc
 50
0.0033703682933429
 51
89.99662963169581
  0
ARC
  5
409
330
1F
100
AcDbEntity
  8
OBRYS
100
AcDbCircle
 10
573.4067951778518
 20
195.9415261448237
 30
0.0
 40
0.3000856674840778
100
AcDbArc
 50
270.0033703683042
 51
359.9966296317176
  0
LINE
  5
40A
330
1F
100
AcDbEntity
  8
OBRYS
100
AcDbLine
 10
551.1566489603028
 20
244.8636192045121
 30
0.0
 11
553.1248333094263
 21
246.8696996289733
 31
0.0
  0
LINE
  5
40B
330
1F
100
AcDbEntity
  8
OBRYS
100
AcDbLine
 10
558.2927036944191
 20
246.8636192045121
 30
0.0
 11
563.1212596305636
 21
242.8636192045121
 31
0.0
  0
ARC
  5
40C
330
1F
100
AcDbEntity
  8
OBRYS
100
AcDbCircle
 10
555.7057857211441
 20
244.0579531967746
 30
0.0
 40
3.816268641936283
100
AcDbArc
 50
47.32290706868544
 51
132.6770929313146
  0
LINE
  5
40D
330
1F
100
AcDbEntity
  8
OBRYS
100
AcDbLine
 10
570.2566154402183
 20
244.8636192045121
 30
0.0
 11
568.294287497321
 21
242.8636192045121
 31
0.0
  0
ARC
  5
40E
330
1F
100
AcDbEntity
  8
OBRYS
100
AcDbCircle
 10
565.7077735639424
 20
245.6674429529348
 30
0.0
 40
3.814640473200779
100
AcDbArc
 50
227.3086116598812
 51
312.6913883401183
  0
LINE
  5
40F
330
1F
100
AcDbEntity
  8
OBRYS
100
AcDbLine
 10
551.1566489603028
 20
238.8636369492461
 30
0.0
 11
553.1248333094263
 21
240.8697173737073
 31
0.0
  0
ARC
  5
410
330
1F
100
AcDbEntity
  8
OBRYS
100
AcDbCircle
 10
555.7057857211441
 20
238.0579709415086
 30
0.0
 40
3.816268641936283
100
AcDbArc
 50
47.32290706868544
 51
132.6770929313146
  0
LINE
  5
411
330
1F
100
AcDbEntity
  8
OBRYS
100
AcDbLine
 10
558.2927036944191
 20
240.8636369492461
 30
0.0
 11
563.1212596305636
 21
236.8636369492461
 31
0.0
  0
ARC
  5
412
330
1F
100
AcDbEntity
  8
OBRYS
100
AcDbCircle
 10
565.7077735639424
 20
239.6674606976687
 30
0.0
 40
3.814640473200779
100
AcDbArc
 50
227.3086116598812
 51
312.6913883401183
  0
LINE
  5
413
330
1F
100
AcDbEntity
  8
OBRYS
100
AcDbLine
 10
570.2566154402183
 20
238.8636369492461
 30
0.0
 11
568.294287497321
 21
236.8636369492461
 31
0.0
  0
DIMENSION
  5
41E
330
1F
100
AcDbEntity
  8
KOTY
100
AcDbDimension
  2
*D12
 10
496.1194897279859
 20
263.2009996289478
 30
0.0
 11
485.4694867739109
 21
266.2089996289478
 31
0.0
 70
    32
  3
STANDARD
100
AcDbAlignedDimension
 13
474.8194838198361
 23
223.4221920333982
 33
0.0
 14
496.1194897279859
 24
223.5413924158237
 34
0.0
100
AcDbRotatedDimension
1001
ACAD
1000
DSTYLE
1002
{
1070
   271
1070
     0
1070
   278
1070
    44
1070
    73
1070
     0
1070
    77
1070
     1
1070
   140
1040
4.0
1070
   147
1040
1.0
1070
    41
1040
4.0
1002
}
  0
DIMENSION
  5
41F
330
1F
100
AcDbEntity
  8
KOTY
100
AcDbDimension
  2
*D13
 10
586.9567268219375
 20
263.2009996289478
 30
0.0
 11
560.7066322002605
 21
266.2429996289478
 31
0.0
 70
    32
  3
STANDARD
100
AcDbAlignedDimension
 13
534.4565375785835
 23
221.6414210023078
 33
0.0
 14
586.9567268219375
 24
221.6414210023078
 34
0.0
100
AcDbRotatedDimension
1001
ACAD
1000
DSTYLE
1002
{
1070
   271
1070
     0
1070
   278
1070
    44
1070
    73
1070
     0
1070
    77
1070
     1
1070
   140
1040
4.0
1070
   147
1040
1.0
1070
    41
1040
4.0
1002
}
  0
DIMENSION
  5
420
330
1F
100
AcDbEntity
  8
KOTY
100
AcDbDimension
  2
*D14
 10
607.4108831749313
 20
169.7415400432786
 30
0.0
 11
607.4108831749313
 21
195.9175901989191
 31
0.0
 70
   160
  3
STANDARD
100
AcDbAlignedDimension
 13
584.8567520242182
 23
223.7413803465267
 33
0.0
 14
572.7253724935736
 24
169.7415400432786
 34
0.0
 50
90.0
100
AcDbRotatedDimension
1001
ACAD
1000
DSTYLE
1002
{
1070
   271
1070
     0
1070
   278
1070
    44
1070
    73
1070
     0
1070
    77
1070
     1
1070
   140
1040
4.0
1070
   147
1040
1.0
1070
    41
1040
4.0
1002
}
  0
DIMENSION
  5
421
330
1F
100
AcDbEntity
  8
KOTY
100
AcDbDimension
  2
*D15
 10
607.4108831749313
 20
223.7413803406732
 30
0.0
 11
604.3688831749313
 21
240.444161673155
 31
0.0
 70
    32
  1
150
  3
STANDARD
100
AcDbAlignedDimension
 13
570.2566154402183
 23
257.1469430056368
 33
0.0
 14
584.856595228684
 24
223.7413803406732
 34
0.0
 50
90.0
100
AcDbRotatedDimension
1001
ACAD
1000
DSTYLE
1002
{
1070
   287
1070
     5
1070
   140
1040
4.0
1070
    73
1070
     0
1070
    77
1070
     1
1070
   147
1040
1.0
1070
    41
1040
4.0
1070
   279
1070
     2
1002
}
  0
HATCH
  5
425
330
1F
100
AcDbEntity
  8
POPIS_VODICU
100
AcDbHatch
 10
0.0
 20
0.0
 30
0.0
210
0.0
220
0.0
230
1.0
  2
SOLID
 70
     1
 71
     0
 91
        1
 92
        1
 93
        1
 72
     4
 94
        3
 73
     0
 74
     1
 95
       17
 96
       13
 40
0.0
 40
0.0
 40
0.0
 40
0.0
 40
1.0
 40
1.0
 40
1.0
 40
2.0
 40
2.0
 40
2.0
 40
3.0
 40
3.0
 40
3.0
 40
4.0
 40
4.0
 40
4.0
 40
4.0
 10
568.5065057791737
 20
255.6467707507487
 10
568.5065057791737
 20
255.4807170388151
 10
568.3721469666132
 20
255.3467027360304
 10
568.206782274231
 20
255.3467027360304
 10
568.041073072073
 20
255.3467027360304
 10
567.9067142595126
 20
255.4807170388151
 10
567.9067142595126
 20
255.6467707507487
 10
567.9067142595126
 20
255.812135443131
 10
568.041073072073
 20
255.9464942556915
 10
568.206782274231
 20
255.9464942556915
 10
568.3721469666132
 20
255.9464942556915
 10
568.5065057791737
 20
255.812135443131
 10
568.5065057791737
 20
255.6467707507487
 97
        0
 75
     0
 76
     1
 98
        0
  0
HATCH
  5
426
330
1F
100
AcDbEntity
  8
POPIS_VODICU
100
AcDbHatch
 10
0.0
 20
0.0
 30
0.0
210
0.0
220
0.0
230
1.0
  2
SOLID
 70
     1
 71
     0
 91
        1
 92
        1
 93
        1
 72
     4
 94
        3
 73
     0
 74
     1
 95
       17
 96
       13
 40
0.0
 40
0.0
 40
0.0
 40
0.0
 40
1.0
 40
1.0
 40
1.0
 40
2.0
 40
2.0
 40
2.0
 40
3.0
 40
3.0
 40
3.0
 40
4.0
 40
4.0
 40
4.0
 40
4.0
 10
561.0067002149789
 20
255.6467707507487
 10
561.0067002149789
 20
255.4807170388151
 10
560.8723414024184
 20
255.3467027360304
 10
560.7069767100363
 20
255.3467027360304
 10
560.5412675078783
 20
255.3467027360304
 10
560.4069086953177
 20
255.4807170388151
 10
560.4069086953177
 20
255.6467707507487
 10
560.4069086953177
 20
255.812135443131
 10
560.5412675078783
 20
255.9464942556915
 10
560.7069767100363
 20
255.9464942556915
 10
560.8723414024184
 20
255.9464942556915
 10
561.0067002149789
 20
255.812135443131
 10
561.0067002149789
 20
255.6467707507487
 97
        0
 75
     0
 76
     1
 98
        0
  0
HATCH
  5
427
330
1F
100
AcDbEntity
  8
POPIS_VODICU
100
AcDbHatch
 10
0.0
 20
0.0
 30
0.0
210
0.0
220
0.0
230
1.0
  2
SOLID
 70
     1
 71
     0
 91
        1
 92
        1
 93
        1
 72
     4
 94
        3
 73
     0
 74
     1
 95
       17
 96
       13
 40
0.0
 40
0.0
 40
0.0
 40
0.0
 40
1.0
 40
1.0
 40
1.0
 40
2.0
 40
2.0
 40
2.0
 40
3.0
 40
3.0
 40
3.0
 40
4.0
 40
4.0
 40
4.0
 40
4.0
 10
553.5063778861206
 20
255.6469430056366
 10
553.5063778861206
 20
255.4812338034788
 10
553.3720190735601
 20
255.3470472458062
 10
553.2066543811779
 20
255.3470472458062
 10
553.0409451790199
 20
255.3470472458062
 10
552.9065863664595
 20
255.4812338034788
 10
552.9065863664595
 20
255.6469430056366
 10
552.9065863664595
 20
255.8126522077947
 10
553.0409451790199
 20
255.9468387654673
 10
553.2066543811779
 20
255.9468387654673
 10
553.3720190735601
 20
255.9468387654673
 10
553.5063778861206
 20
255.8126522077947
 10
553.5063778861206
 20
255.6469430056366
 97
        0
 75
     0
 76
     1
 98
        0
  0
LINE
  5
428
330
1F
100
AcDbEntity
  8
POPIS_VODICU
100
AcDbLine
 10
553.20648212629
 20
255.6469430056368
 30
0.0
 11
587.0044414258853
 21
269.063014949579
 31
0.0
  0
LINE
  5
429
330
1F
100
AcDbEntity
  8
POPIS_VODICU
100
AcDbLine
 10
560.7068044551484
 20
255.646598495861
 30
0.0
 11
587.0044414258853
 21
269.063014949579
 31
0.0
  0
LINE
  5
42A
330
1F
100
AcDbEntity
  8
POPIS_VODICU
100
AcDbLine
 10
568.2066100193431
 20
255.646598495861
 30
0.0
 11
587.0044414258853
 21
269.063014949579
 31
0.0
  0
INSERT
  5
42D
330
1F
100
AcDbEntity
  8
POPIS_VODICU
100
AcDbBlockReference
  2
BLOCK_2
 10
409.45064866628
 20
3.540545744188947
 30
0.0
  0
LINE
  5
42E
330
1F
100
AcDbEntity
  8
POPIS_VODICU
100
AcDbLine
 10
587.0044414258853
 20
269.063014949579
 30
0.0
 11
610.9265112376197
 21
269.063014949579
 31
0.0
  0
ARC
  5
4DB
330
1F
100
AcDbEntity
  8
OBRYS
100
AcDbCircle
 10
556.9568155456072
 20
175.6912238712786
 30
0.0
 40
1.808944027644164
100
AcDbArc
 50
326.9596440713261
 51
123.0333709507174
  0
LINE
  5
4DC
330
1F
100
AcDbEntity
  8
OBRYS
100
AcDbLine
 10
558.5514201571759
 20
174.6267336800237
 30
0.0
 11
555.8948658357692
 21
177.2836118840045
 31
0.0
  0
LINE
  5
4DD
330
1F
100
AcDbEntity
  8
OBRYS
100
AcDbLine
 10
558.5514201571759
 20
174.6267336800237
 30
0.0
 11
558.0212367863815
 21
174.0965159620299
 31
0.0
  0
LINE
  5
4DE
330
1F
100
AcDbEntity
  8
OBRYS
100
AcDbLine
 10
558.0212196122257
 20
174.0965331350734
 30
0.0
 11
555.3621209077428
 21
176.7554595846682
 31
0.0
  0
ARC
  5
4DF
330
1F
100
AcDbEntity
  8
OBRYS
100
AcDbCircle
 10
556.9568155456072
 20
175.6912238712785
 30
0.0
 40
1.80894402764416
100
AcDbArc
 50
146.9671969593164
 51
303.0365147486129
  0
LINE
  5
4E0
330
1F
100
AcDbEntity
  8
OBRYS
100
AcDbLine
 10
555.3621209077428
 20
176.7554595846682
 30
0.0
 11
555.8948658357692
 21
177.2836118840045
 31
0.0
  0
ARC
  5
4E1
330
1F
100
AcDbEntity
  8
OBRYS
100
AcDbCircle
 10
564.4567933646897
 20
175.6912238712786
 30
0.0
 40
1.808944027644164
100
AcDbArc
 50
326.9596440713261
 51
123.0333709507174
  0
LINE
  5
4E2
330
1F
100
AcDbEntity
  8
OBRYS
100
AcDbLine
 10
566.0513979762584
 20
174.6267336800237
 30
0.0
 11
563.3948436548517
 21
177.2836118840045
 31
0.0
  0
LINE
  5
4E3
330
1F
100
AcDbEntity
  8
OBRYS
100
AcDbLine
 10
566.0513979762584
 20
174.6267336800237
 30
0.0
 11
565.5212146054639
 21
174.0965159620299
 31
0.0
  0
LINE
  5
4E4
330
1F
100
AcDbEntity
  8
OBRYS
100
AcDbLine
 10
565.5211974313081
 20
174.0965331350734
 30
0.0
 11
562.8620987268253
 21
176.7554595846682
 31
0.0
  0
ARC
  5
4E5
330
1F
100
AcDbEntity
  8
OBRYS
100
AcDbCircle
 10
564.4567933646897
 20
175.6912238712785
 30
0.0
 40
1.80894402764416
100
AcDbArc
 50
146.9671969593164
 51
303.0365147486129
  0
LINE
  5
4E6
330
1F
100
AcDbEntity
  8
OBRYS
100
AcDbLine
 10
562.8620987268253
 20
176.7554595846682
 30
0.0
 11
563.3948436548517
 21
177.2836118840045
 31
0.0
  0
ENDSEC
  0
SECTION
  2
OBJECTS
  0
DICTIONARY
  5
C
330
0
100
AcDbDictionary
  3
ACAD_GROUP
350
D
  3
ACAD_IMAGE_VARS
350
DC
  3
ACAD_MLINESTYLE
350
17
  3
ACAD_SCALELIST
350
529
  3
ACDBVARIABLEDICTIONARY
350
66
  3
APPDATA
350
E1
  3
DWGPROPS
350
570
  0
DICTIONARY
  5
565
330
2
100
AcDbDictionary
280
     1
  3
ACAD_LAYERSTATES
360
568
  3
ACLYDICTIONARY
360
56D
  0
DICTIONARY
  5
D
102
{ACAD_REACTORS
330
C
102
}
330
C
100
AcDbDictionary
  0
RASTERVARIABLES
  5
DC
102
{ACAD_REACTORS
330
C
102
}
330
C
100
AcDbRasterVariables
 90
        0
 70
     1
 71
     1
 72
     5
  0
DICTIONARY
  5
17
102
{ACAD_REACTORS
330
C
102
}
330
C
100
AcDbDictionary
  3
STANDARD
350
18
  0
DICTIONARY
  5
529
102
{ACAD_REACTORS
330
C
102
}
330
C
100
AcDbDictionary
  0
DICTIONARY
  5
66
102
{ACAD_REACTORS
330
C
102
}
330
C
100
AcDbDictionary
  3
CANNOSCALE
350
571
  3
DIMASSOC
350
67
  3
HIDETEXT
350
6B
  0
DICTIONARY
  5
E1
102
{ACAD_REACTORS
330
C
102
}
330
C
100
AcDbDictionary
  0
XRECORD
  5
570
102
{ACAD_REACTORS
330
C
102
}
330
C
100
AcDbXrecord
  1
DWGPROPS COOKIE
  2

  3

  4

  6

  7

  8
jaromir.podrabsky
  9

300
=
301
=
302
=
303
=
304
=
305
=
306
=
307
=
308
=
309
=
 40
0.0
 41
2452643.063384259
 42
2457953.515466354
  1

 90
        0
  0
DICTIONARY
  5
568
102
{ACAD_REACTORS
330
565
102
}
330
565
100
AcDbDictionary
  0
DICTIONARY
  5
56D
102
{ACAD_REACTORS
330
565
102
}
330
565
100
AcDbDictionary
1001
ACAD
1000
<All
  0
MLINESTYLE
  5
18
102
{ACAD_REACTORS
330
17
102
}
330
17
100
AcDbMlineStyle
  2
STANDARD
 70
     0
  3

 62
   256
 51
90.0
 52
90.0
 71
     2
 49
0.5
 62
   256
  6
BYLAYER
 49
-0.5
 62
   256
  6
BYLAYER
  0
DICTIONARYVAR
  5
571
102
{ACAD_REACTORS
330
66
102
}
330
66
100
DictionaryVariables
280
     0
  1
1:1
  0
DICTIONARYVAR
  5
67
102
{ACAD_REACTORS
330
66
102
}
330
66
100
DictionaryVariables
280
     0
  1
2
  0
DICTIONARYVAR
  5
6B
102
{ACAD_REACTORS
330
66
102
}
330
66
100
DictionaryVariables
280
     0
  1
1
  0
ENDSEC
  0
EOF
