  0
SECTION
  2
HEADER
  9
$ACADVER
  1
AC1014
  9
$ACADMAINTVER
 70
     9
  9
$DWGCODEPAGE
  3
ANSI_1250
  9
$INSBASE
 10
0.0
 20
0.0
 30
0.0
  9
$EXTMIN
 10
-42.39053792749456
 20
-19.92301445135331
 30
0.0
  9
$EXTMAX
 10
156.0
 20
117.2898776146186
 30
0.0
  9
$LIMMIN
 10
0.0
 20
0.0
  9
$LIMMAX
 10
12.0
 20
9.0
  9
$ORTHOMODE
 70
     0
  9
$REGENMODE
 70
     1
  9
$FILLMODE
 70
     1
  9
$QTEXTMODE
 70
     0
  9
$MIRRTEXT
 70
     0
  9
$DRAGMODE
 70
     2
  9
$LTSCALE
 40
1.0
  9
$OSMODE
 70
   511
  9
$ATTMODE
 70
     1
  9
$TEXTSIZE
 40
0.2
  9
$TRACEWID
 40
0.05
  9
$TEXTSTYLE
  7
STANDARD
  9
$CLAYER
  8
KOTY
  9
$CELTYPE
  6
BYLAYER
  9
$CECOLOR
 62
     1
  9
$CELTSCALE
 40
1.0
  9
$DELOBJ
 70
     1
  9
$DISPSILH
 70
     0
  9
$DIMSCALE
 40
1.0
  9
$DIMASZ
 40
0.18
  9
$DIMEXO
 40
0.0625
  9
$DIMDLI
 40
0.38
  9
$DIMRND
 40
0.0
  9
$DIMDLE
 40
0.0
  9
$DIMEXE
 40
0.18
  9
$DIMTP
 40
0.0
  9
$DIMTM
 40
0.0
  9
$DIMTXT
 40
0.18
  9
$DIMCEN
 40
0.09
  9
$DIMTSZ
 40
0.0
  9
$DIMTOL
 70
     0
  9
$DIMLIM
 70
     0
  9
$DIMTIH
 70
     1
  9
$DIMTOH
 70
     1
  9
$DIMSE1
 70
     0
  9
$DIMSE2
 70
     0
  9
$DIMTAD
 70
     0
  9
$DIMZIN
 70
     0
  9
$DIMBLK
  1

  9
$DIMASO
 70
     1
  9
$DIMSHO
 70
     1
  9
$DIMPOST
  1

  9
$DIMAPOST
  1

  9
$DIMALT
 70
     0
  9
$DIMALTD
 70
     2
  9
$DIMALTF
 40
25.4
  9
$DIMLFAC
 40
1.0
  9
$DIMTOFL
 70
     0
  9
$DIMTVP
 40
0.0
  9
$DIMTIX
 70
     0
  9
$DIMSOXD
 70
     0
  9
$DIMSAH
 70
     0
  9
$DIMBLK1
  1

  9
$DIMBLK2
  1

  9
$DIMSTYLE
  2
STANDARD
  9
$DIMCLRD
 70
     0
  9
$DIMCLRE
 70
     0
  9
$DIMCLRT
 70
     0
  9
$DIMTFAC
 40
1.0
  9
$DIMGAP
 40
0.09
  9
$DIMJUST
 70
     0
  9
$DIMSD1
 70
     0
  9
$DIMSD2
 70
     0
  9
$DIMTOLJ
 70
     1
  9
$DIMTZIN
 70
     0
  9
$DIMALTZ
 70
     0
  9
$DIMALTTZ
 70
     0
  9
$DIMFIT
 70
     5
  9
$DIMUPT
 70
     0
  9
$DIMUNIT
 70
     2
  9
$DIMDEC
 70
     4
  9
$DIMTDEC
 70
     4
  9
$DIMALTU
 70
     2
  9
$DIMALTTD
 70
     2
  9
$DIMTXSTY
  7
STANDARD
  9
$DIMAUNIT
 70
     0
  9
$LUNITS
 70
     2
  9
$LUPREC
 70
     4
  9
$SKETCHINC
 40
0.1
  9
$FILLETRAD
 40
0.6968703693801268
  9
$AUNITS
 70
     0
  9
$AUPREC
 70
     0
  9
$MENU
  1
.
  9
$ELEVATION
 40
0.0
  9
$PELEVATION
 40
0.0
  9
$THICKNESS
 40
0.0
  9
$LIMCHECK
 70
     0
  9
$CHAMFERA
 40
0.0
  9
$CHAMFERB
 40
0.0
  9
$CHAMFERC
 40
0.0
  9
$CHAMFERD
 40
0.0
  9
$SKPOLY
 70
     0
  9
$TDCREATE
 40
2452643.105050926
  9
$TDUPDATE
 40
2458213.479224687
  9
$TDINDWG
 40
0.5875518171
  9
$TDUSRTIMER
 40
2458213.395751586
  9
$USRTIMER
 70
     1
  9
$ANGBASE
 50
0.0
  9
$ANGDIR
 70
     0
  9
$PDMODE
 70
     0
  9
$PDSIZE
 40
0.0
  9
$PLINEWID
 40
0.0
  9
$COORDS
 70
     1
  9
$SPLFRAME
 70
     0
  9
$SPLINETYPE
 70
     6
  9
$SPLINESEGS
 70
     8
  9
$ATTDIA
 70
     0
  9
$ATTREQ
 70
     1
  9
$HANDLING
 70
     1
  9
$HANDSEED
  5
13A1
  9
$SURFTAB1
 70
     6
  9
$SURFTAB2
 70
     6
  9
$SURFTYPE
 70
     6
  9
$SURFU
 70
     6
  9
$SURFV
 70
     6
  9
$UCSNAME
  2

  9
$UCSORG
 10
0.0
 20
0.0
 30
0.0
  9
$UCSXDIR
 10
1.0
 20
0.0
 30
0.0
  9
$UCSYDIR
 10
0.0
 20
1.0
 30
0.0
  9
$PUCSNAME
  2

  9
$PUCSORG
 10
0.0
 20
0.0
 30
0.0
  9
$PUCSXDIR
 10
1.0
 20
0.0
 30
0.0
  9
$PUCSYDIR
 10
0.0
 20
1.0
 30
0.0
  9
$USERI1
 70
     0
  9
$USERI2
 70
     0
  9
$USERI3
 70
     0
  9
$USERI4
 70
     0
  9
$USERI5
 70
     0
  9
$USERR1
 40
0.0
  9
$USERR2
 40
0.0
  9
$USERR3
 40
0.0
  9
$USERR4
 40
0.0
  9
$USERR5
 40
0.0
  9
$WORLDVIEW
 70
     1
  9
$SHADEDGE
 70
     3
  9
$SHADEDIF
 70
    70
  9
$TILEMODE
 70
     0
  9
$MAXACTVP
 70
    64
  9
$PINSBASE
 10
0.0
 20
0.0
 30
0.0
  9
$PLIMCHECK
 70
     0
  9
$PEXTMIN
 10
0.0
 20
0.0
 30
0.0
  9
$PEXTMAX
 10
0.0
 20
0.0
 30
0.0
  9
$PLIMMIN
 10
-0.25
 20
-0.7499999999999999
  9
$PLIMMAX
 10
10.75
 20
7.75
  9
$UNITMODE
 70
     0
  9
$VISRETAIN
 70
     1
  9
$PLINEGEN
 70
     0
  9
$PSLTSCALE
 70
     1
  9
$TREEDEPTH
 70
  3020
  9
$PICKSTYLE
 70
     1
  9
$CMLSTYLE
  2
STANDARD
  9
$CMLJUST
 70
     0
  9
$CMLSCALE
 40
1.0
  9
$PROXYGRAPHICS
 70
     1
  9
$MEASUREMENT
 70
     0
  0
ENDSEC
  0
SECTION
  2
CLASSES
  0
CLASS
  1
ACDBDICTIONARYWDFLT
  2
AcDbDictionaryWithDefault
  3
ObjectDBX Classes
 90
        0
280
     0
281
     0
  0
CLASS
  1
ACDBPLACEHOLDER
  2
AcDbPlaceHolder
  3
ObjectDBX Classes
 90
        0
280
     0
281
     0
  0
CLASS
  1
LAYOUT
  2
AcDbLayout
  3
ObjectDBX Classes
 90
        0
280
     0
281
     0
  0
CLASS
  1
DICTIONARYVAR
  2
AcDbDictionaryVar
  3
ObjectDBX Classes
 90
        0
280
     0
281
     0
  0
CLASS
  1
TABLESTYLE
  2
AcDbTableStyle
  3
ObjectDBX Classes
 90
     4095
280
     0
281
     0
  0
CLASS
  1
MATERIAL
  2
AcDbMaterial
  3
ObjectDBX Classes
 90
     1153
280
     0
281
     0
  0
CLASS
  1
VISUALSTYLE
  2
AcDbVisualStyle
  3
ObjectDBX Classes
 90
     4095
280
     0
281
     0
  0
CLASS
  1
SCALE
  2
AcDbScale
  3
ObjectDBX Classes
 90
     1153
280
     0
281
     0
  0
CLASS
  1
CELLSTYLEMAP
  2
AcDbCellStyleMap
  3
ObjectDBX Classes
 90
     1152
280
     0
281
     0
  0
CLASS
  1
RASTERVARIABLES
  2
AcDbRasterVariables
  3
ISM
 90
        0
280
     0
281
     0
  0
CLASS
  1
DIMASSOC
  2
AcDbDimAssoc
  3
"AcDbDimAssoc|Product Desc:     AcDim ARX App For Dimension|Company:          Autodesk, Inc.|WEB Address:      www.autodesk.com"
 90
        0
280
     0
281
     0
  0
CLASS
  1
SUN
  2
AcDbSun
  3
SCENEOE
 90
     1024
280
     0
281
     0
  0
CLASS
  1
XRECORD
  2
AcDbXrecord
  3
AutoCAD 2000
 90
        0
280
     0
281
     0
  0
CLASS
  1
LWPOLYLINE
  2
AcDbPolyline
  3
AutoCAD 2000
 90
        0
280
     0
281
     1
  0
CLASS
  1
HATCH
  2
AcDbHatch
  3
AutoCAD 2000
 90
        0
280
     0
281
     1
  0
ENDSEC
  0
SECTION
  2
TABLES
  0
TABLE
  2
VPORT
  5
8
330
0
100
AcDbSymbolTable
 70
     1
  0
VPORT
  5
94
330
8
100
AcDbSymbolTableRecord
100
AcDbViewportTableRecord
  2
*ACTIVE
 70
     0
 10
0.0
 20
0.0
 11
1.0
 21
1.0
 12
107.7503545669695
 22
67.66215080924424
 13
0.0
 23
0.0
 14
0.5
 24
0.5
 15
0.5
 25
0.5
 16
0.0
 26
0.0
 36
1.0
 17
-27.66959356598079
 27
-19.53870295786157
 37
0.0
 40
146.6929637232772
 41
2.074168797953964
 42
50.0
 43
0.0
 44
0.0
 50
0.0
 51
0.0
 71
    16
 72
  1000
 73
     1
 74
     3
 75
     0
 76
     0
 77
     0
 78
     0
  0
ENDTAB
  0
TABLE
  2
LTYPE
  5
5
330
0
100
AcDbSymbolTable
 70
     2
  0
LTYPE
  5
14
330
5
100
AcDbSymbolTableRecord
100
AcDbLinetypeTableRecord
  2
BYBLOCK
 70
     0
  3

 72
    65
 73
     0
 40
0.0
  0
LTYPE
  5
15
330
5
100
AcDbSymbolTableRecord
100
AcDbLinetypeTableRecord
  2
BYLAYER
 70
     0
  3

 72
    65
 73
     0
 40
0.0
  0
LTYPE
  5
16
330
5
100
AcDbSymbolTableRecord
100
AcDbLinetypeTableRecord
  2
CONTINUOUS
 70
     0
  3
Solid line
 72
    65
 73
     0
 40
0.0
  0
LTYPE
  5
710
330
5
100
AcDbSymbolTableRecord
100
AcDbLinetypeTableRecord
  2
HIDDEN
 70
     0
  3
 Hidden _ _ _ _ _ _ _ _ _ _ _ _ _ _ _ _ _ _ _ _
 72
    65
 73
     2
 40
0.375
 49
0.25
 74
     0
 49
-0.125
 74
     0
  0
ENDTAB
  0
TABLE
  2
LAYER
  5
2
102
{ACAD_XDICTIONARY
360
754
102
}
330
0
100
AcDbSymbolTable
 70
     5
  0
LAYER
  5
10
330
2
100
AcDbSymbolTableRecord
100
AcDbLayerTableRecord
  2
0
 70
     0
 62
     7
  6
CONTINUOUS
  0
LAYER
  5
101
330
2
100
AcDbSymbolTableRecord
100
AcDbLayerTableRecord
  2
DEFPOINTS
 70
     0
 62
     7
  6
CONTINUOUS
  0
LAYER
  5
75C
330
2
100
AcDbSymbolTableRecord
100
AcDbLayerTableRecord
  2
OBRYS
 70
     0
 62
     5
  6
CONTINUOUS
1001
ACAECLAYERSTANDARD
1000

1000

  0
LAYER
  5
75E
330
2
100
AcDbSymbolTableRecord
100
AcDbLayerTableRecord
  2
KOTY
 70
     0
 62
     1
  6
CONTINUOUS
1001
ACAECLAYERSTANDARD
1000

1000

  0
LAYER
  5
8B3
330
2
100
AcDbSymbolTableRecord
100
AcDbLayerTableRecord
  2
1
 70
     0
 62
     7
  6
CONTINUOUS
  0
ENDTAB
  0
TABLE
  2
STYLE
  5
3
330
0
100
AcDbSymbolTable
 70
     1
  0
STYLE
  5
11
330
3
100
AcDbSymbolTableRecord
100
AcDbTextStyleTableRecord
  2
STANDARD
 70
     0
 40
0.0
 41
1.0
 50
0.0
 71
     0
 42
0.2
  3
arial.ttf
  4

1001
ACAD
1000
Arial
1071
        0
  0
ENDTAB
  0
TABLE
  2
VIEW
  5
6
330
0
100
AcDbSymbolTable
 70
     0
  0
ENDTAB
  0
TABLE
  2
UCS
  5
7
330
0
100
AcDbSymbolTable
 70
     0
  0
ENDTAB
  0
TABLE
  2
APPID
  5
9
330
0
100
AcDbSymbolTable
 70
     2
  0
APPID
  5
12
330
9
100
AcDbSymbolTableRecord
100
AcDbRegAppTableRecord
  2
ACAD
 70
     0
  0
APPID
  5
75D
330
9
100
AcDbSymbolTableRecord
100
AcDbRegAppTableRecord
  2
ACAECLAYERSTANDARD
 70
     0
  0
ENDTAB
  0
TABLE
  2
DIMSTYLE
  5
A
330
0
100
AcDbSymbolTable
 70
     1
  0
DIMSTYLE
105
27
102
{ACAD_REACTORS
330
6EF
330
1287
330
1288
330
1289
330
128A
330
128B
330
128C
330
1290
102
}
330
A
100
AcDbSymbolTableRecord
100
AcDbDimStyleTableRecord
  2
STANDARD
 70
     0
  3

  4

  5

  6

  7

 40
1.0
 41
0.18
 42
0.0625
 43
0.38
 44
0.18
 45
0.0
 46
0.0
 47
0.0
 48
0.0
140
0.18
141
0.09
142
0.0
143
25.4
144
1.0
145
0.0
146
1.0
147
0.09
 71
     0
 72
     0
 73
     1
 74
     1
 75
     0
 76
     0
 77
     0
 78
     0
170
     0
171
     2
172
     0
173
     0
174
     0
175
     0
176
     0
177
     0
178
     0
270
     2
271
     4
272
     4
273
     2
274
     2
340
11
275
     0
280
     0
281
     0
282
     0
283
     1
284
     0
285
     0
286
     0
287
     3
288
     0
  0
ENDTAB
  0
TABLE
  2
BLOCK_RECORD
  5
1
330
0
100
AcDbSymbolTable
 70
    43
  0
BLOCK_RECORD
  5
1F
330
1
100
AcDbSymbolTableRecord
100
AcDbBlockTableRecord
  2
*MODEL_SPACE
  0
BLOCK_RECORD
  5
1399
330
1
100
AcDbSymbolTableRecord
100
AcDbBlockTableRecord
  2
*PAPER_SPACE
  0
BLOCK_RECORD
  5
2F1
330
1
100
AcDbSymbolTableRecord
100
AcDbBlockTableRecord
  2
KRAJ
  0
BLOCK_RECORD
  5
30C
330
1
100
AcDbSymbolTableRecord
100
AcDbBlockTableRecord
  2
FRONT
  0
BLOCK_RECORD
  5
562
330
1
100
AcDbSymbolTableRecord
100
AcDbBlockTableRecord
  2
*D2
  0
BLOCK_RECORD
  5
572
330
1
100
AcDbSymbolTableRecord
100
AcDbBlockTableRecord
  2
*D3
  0
BLOCK_RECORD
  5
582
330
1
100
AcDbSymbolTableRecord
100
AcDbBlockTableRecord
  2
*D4
  0
BLOCK_RECORD
  5
5B2
330
1
100
AcDbSymbolTableRecord
100
AcDbBlockTableRecord
  2
*D5
  0
BLOCK_RECORD
  5
5C2
330
1
100
AcDbSymbolTableRecord
100
AcDbBlockTableRecord
  2
*D6
  0
BLOCK_RECORD
  5
5DD
330
1
100
AcDbSymbolTableRecord
100
AcDbBlockTableRecord
  2
*D7
  0
BLOCK_RECORD
  5
5ED
330
1
100
AcDbSymbolTableRecord
100
AcDbBlockTableRecord
  2
*D8
  0
BLOCK_RECORD
  5
607
330
1
100
AcDbSymbolTableRecord
100
AcDbBlockTableRecord
  2
_CLOSEDBLANK
  0
BLOCK_RECORD
  5
60D
330
1
100
AcDbSymbolTableRecord
100
AcDbBlockTableRecord
  2
_CLOSED
  0
BLOCK_RECORD
  5
614
330
1
100
AcDbSymbolTableRecord
100
AcDbBlockTableRecord
  2
_DOT
  0
BLOCK_RECORD
  5
619
330
1
100
AcDbSymbolTableRecord
100
AcDbBlockTableRecord
  2
_ARCHTICK
  0
BLOCK_RECORD
  5
6F2
330
1
100
AcDbSymbolTableRecord
100
AcDbBlockTableRecord
  2
*D13
  0
BLOCK_RECORD
  5
702
330
1
100
AcDbSymbolTableRecord
100
AcDbBlockTableRecord
  2
*D14
  0
BLOCK_RECORD
  5
735
330
1
100
AcDbSymbolTableRecord
100
AcDbBlockTableRecord
  2
*D15
  0
BLOCK_RECORD
  5
BC3
330
1
100
AcDbSymbolTableRecord
100
AcDbBlockTableRecord
  2
*D16
  0
BLOCK_RECORD
  5
BD3
330
1
100
AcDbSymbolTableRecord
100
AcDbBlockTableRecord
  2
*D17
  0
BLOCK_RECORD
  5
C01
330
1
100
AcDbSymbolTableRecord
100
AcDbBlockTableRecord
  2
*D18
  0
BLOCK_RECORD
  5
C11
330
1
100
AcDbSymbolTableRecord
100
AcDbBlockTableRecord
  2
*D19
  0
BLOCK_RECORD
  5
D84
330
1
100
AcDbSymbolTableRecord
100
AcDbBlockTableRecord
  2
*D20
  0
BLOCK_RECORD
  5
D94
330
1
100
AcDbSymbolTableRecord
100
AcDbBlockTableRecord
  2
*D21
  0
BLOCK_RECORD
  5
E42
330
1
100
AcDbSymbolTableRecord
100
AcDbBlockTableRecord
  2
*D22
  0
BLOCK_RECORD
  5
E52
330
1
100
AcDbSymbolTableRecord
100
AcDbBlockTableRecord
  2
*D23
  0
BLOCK_RECORD
  5
E80
330
1
100
AcDbSymbolTableRecord
100
AcDbBlockTableRecord
  2
*D24
  0
BLOCK_RECORD
  5
E90
330
1
100
AcDbSymbolTableRecord
100
AcDbBlockTableRecord
  2
*D25
  0
BLOCK_RECORD
  5
F80
330
1
100
AcDbSymbolTableRecord
100
AcDbBlockTableRecord
  2
*D26
  0
BLOCK_RECORD
  5
104F
330
1
100
AcDbSymbolTableRecord
100
AcDbBlockTableRecord
  2
*D27
  0
BLOCK_RECORD
  5
11D2
330
1
100
AcDbSymbolTableRecord
100
AcDbBlockTableRecord
  2
*D28
  0
BLOCK_RECORD
  5
11DF
330
1
100
AcDbSymbolTableRecord
100
AcDbBlockTableRecord
  2
*D29
  0
BLOCK_RECORD
  5
11EC
330
1
100
AcDbSymbolTableRecord
100
AcDbBlockTableRecord
  2
*D30
  0
BLOCK_RECORD
  5
11F9
330
1
100
AcDbSymbolTableRecord
100
AcDbBlockTableRecord
  2
*D31
  0
BLOCK_RECORD
  5
1206
330
1
100
AcDbSymbolTableRecord
100
AcDbBlockTableRecord
  2
*D32
  0
BLOCK_RECORD
  5
1213
330
1
100
AcDbSymbolTableRecord
100
AcDbBlockTableRecord
  2
*D33
  0
BLOCK_RECORD
  5
1223
330
1
100
AcDbSymbolTableRecord
100
AcDbBlockTableRecord
  2
*D34
  0
BLOCK_RECORD
  5
1291
330
1
100
AcDbSymbolTableRecord
100
AcDbBlockTableRecord
  2
*D35
  0
BLOCK_RECORD
  5
129B
330
1
100
AcDbSymbolTableRecord
100
AcDbBlockTableRecord
  2
*D36
  0
BLOCK_RECORD
  5
12A5
330
1
100
AcDbSymbolTableRecord
100
AcDbBlockTableRecord
  2
*D37
  0
BLOCK_RECORD
  5
12AF
330
1
100
AcDbSymbolTableRecord
100
AcDbBlockTableRecord
  2
*D38
  0
BLOCK_RECORD
  5
12B9
330
1
100
AcDbSymbolTableRecord
100
AcDbBlockTableRecord
  2
*D39
  0
BLOCK_RECORD
  5
12C3
330
1
100
AcDbSymbolTableRecord
100
AcDbBlockTableRecord
  2
*D40
  0
BLOCK_RECORD
  5
12CD
330
1
100
AcDbSymbolTableRecord
100
AcDbBlockTableRecord
  2
*D41
  0
ENDTAB
  0
ENDSEC
  0
SECTION
  2
BLOCKS
  0
BLOCK
  5
20
330
1F
100
AcDbEntity
  8
0
100
AcDbBlockBegin
  2
*MODEL_SPACE
 70
     0
 10
0.0
 20
0.0
 30
0.0
  3
*MODEL_SPACE
  1

  0
ENDBLK
  5
21
330
1F
100
AcDbEntity
  8
0
100
AcDbBlockEnd
  0
BLOCK
  5
139B
330
1399
100
AcDbEntity
 67
     1
  8
0
100
AcDbBlockBegin
  2
*PAPER_SPACE
 70
     0
 10
0.0
 20
0.0
 30
0.0
  3
*PAPER_SPACE
  1

  0
ENDBLK
  5
139C
330
1399
100
AcDbEntity
 67
     1
  8
0
100
AcDbBlockEnd
  0
BLOCK
  5
2F2
330
2F1
100
AcDbEntity
  8
0
100
AcDbBlockBegin
  2
KRAJ
 70
     0
 10
0.0
 20
0.0
 30
0.0
  3
KRAJ
  1
KRAJ
  0
LINE
  5
2F4
330
2F1
100
AcDbEntity
  8
0
100
AcDbLine
 10
23.17858802006699
 20
11.88396178886323
 30
0.0
 11
23.60596071879165
 21
11.63561481963468
 31
0.0
  0
LINE
  5
2F5
330
2F1
100
AcDbEntity
  8
0
100
AcDbLine
 10
28.08586695810881
 20
9.034769131708918
 30
0.0
 11
28.51846735840103
 21
8.783581802506982
 31
0.0
  0
LINE
  5
2F6
330
2F1
100
AcDbEntity
  8
0
100
AcDbLine
 10
23.17858802006699
 20
11.88396178886323
 30
0.0
 11
23.73102181544385
 21
12.83537554756782
 31
0.0
  0
LINE
  5
2F7
330
2F1
100
AcDbEntity
  8
0
100
AcDbLine
 10
28.51846735840103
 20
8.783581802506982
 30
0.0
 11
29.07081642752618
 21
9.73484964377808
 31
0.0
  0
LINE
  5
2F8
330
2F1
100
AcDbEntity
  8
0
100
AcDbLine
 10
27.83479919941555
 20
8.602374658403873
 30
0.0
 11
28.08586695810881
 21
9.034769131708918
 31
0.0
  0
LINE
  5
2F9
330
2F1
100
AcDbEntity
  8
0
100
AcDbLine
 10
23.35474539744931
 20
11.20330606154289
 30
0.0
 11
23.60581314151945
 21
11.63570050966369
 31
0.0
  0
LINE
  5
2FA
330
2F1
100
AcDbEntity
  8
0
100
AcDbLine
 10
23.73102181544385
 20
12.83537554756782
 30
0.0
 11
29.07081642752618
 21
9.73484964377808
 31
0.0
  0
ELLIPSE
  5
2FB
330
2F1
100
AcDbEntity
  8
0
100
AcDbEllipse
 10
26.40091912148502
 20
11.28511259567295
 30
0.0
 11
-1.039943320270123
 21
0.6038380569310341
 31
0.0
210
0.0
220
0.0
230
1.0
 40
0.6385440653482459
 41
6.283185307179586
 42
9.42477796076938
  0
LINE
  5
2FC
330
2F1
100
AcDbEntity
  8
0
100
AcDbLine
 10
24.60098340460934
 20
12.33023656031044
 30
0.0
 11
24.09875154992429
 21
11.46515194972255
 31
0.0
  0
LINE
  5
2FD
330
2F1
100
AcDbEntity
  8
0
100
AcDbLine
 10
28.20211116541818
 20
10.23925915080853
 30
0.0
 11
27.70001548530882
 21
9.374409098281191
 31
0.0
  0
LINE
  5
2FE
330
2F1
100
AcDbEntity
  8
0
100
AcDbLine
 10
27.70001548530882
 20
9.374409098281191
 30
0.0
 11
24.09875154992429
 21
11.46515194972255
 31
0.0
  0
ENDBLK
  5
2F3
330
2F1
100
AcDbEntity
  8
0
100
AcDbBlockEnd
  0
BLOCK
  5
30D
330
30C
100
AcDbEntity
  8
0
100
AcDbBlockBegin
  2
FRONT
 70
     0
 10
0.0
 20
0.0
 30
0.0
  3
FRONT
  1
FRONT
  0
LINE
  5
30F
330
30C
100
AcDbEntity
  8
0
100
AcDbLine
 10
124.7071067811866
 20
0.0
 30
0.0
 11
133.2928932188134
 21
0.0
 31
0.0
  0
LINE
  5
310
330
30C
100
AcDbEntity
  8
0
100
AcDbLine
 10
120.0
 20
8.1
 30
0.0
 11
138.0
 21
8.1
 31
0.0
  0
LINE
  5
311
330
30C
100
AcDbEntity
  8
0
100
AcDbLine
 10
123.15
 20
6.2
 30
0.0
 11
134.85
 21
6.2
 31
0.0
  0
LINE
  5
312
330
30C
100
AcDbEntity
  8
0
100
AcDbLine
 10
123.15
 20
6.2
 30
0.0
 11
121.95
 21
8.1
 31
0.0
  0
LINE
  5
313
330
30C
100
AcDbEntity
  8
0
100
AcDbLine
 10
134.85
 20
6.2
 30
0.0
 11
136.05
 21
8.1
 31
0.0
  0
LINE
  5
314
330
30C
100
AcDbEntity
  8
0
100
AcDbLine
 10
125.7071067811866
 20
1.0
 30
0.0
 11
132.2928932188134
 21
1.0
 31
0.0
  0
LINE
  5
315
330
30C
100
AcDbEntity
  8
0
100
AcDbLine
 10
125.0
 20
1.707106781186548
 30
0.0
 11
125.0
 21
6.2
 31
0.0
  0
LINE
  5
316
330
30C
100
AcDbEntity
  8
0
100
AcDbLine
 10
133.0
 20
1.707106781186548
 30
0.0
 11
133.0
 21
6.2
 31
0.0
  0
ARC
  5
317
330
30C
100
AcDbEntity
  8
0
100
AcDbCircle
 10
125.7071067811866
 20
1.707106781186548
 30
0.0
 40
0.707106781186548
100
AcDbArc
 50
180.0
 51
270.0
  0
ARC
  5
318
330
30C
100
AcDbEntity
  8
0
100
AcDbCircle
 10
132.2928932188134
 20
1.707106781186548
 30
0.0
 40
0.707106781186548
100
AcDbArc
 50
270.0
 51
359.9999999999998
  0
LINE
  5
319
330
30C
100
AcDbEntity
  8
0
100
AcDbLine
 10
121.7
 20
8.1
 30
0.0
 11
121.7
 21
5.207106781186549
 31
0.0
  0
LINE
  5
31A
330
30C
100
AcDbEntity
  8
0
100
AcDbLine
 10
125.0
 20
4.5
 30
0.0
 11
122.4071067811866
 21
4.500000000000001
 31
0.0
  0
ARC
  5
31B
330
30C
100
AcDbEntity
  8
0
100
AcDbCircle
 10
122.4071067811866
 20
5.207106781186549
 30
0.0
 40
0.707106781186548
100
AcDbArc
 50
180.0
 51
270.0
  0
LINE
  5
31C
330
30C
100
AcDbEntity
  8
0
100
AcDbLine
 10
136.3
 20
8.100000000000001
 30
0.0
 11
136.3
 21
5.207106781186541
 31
0.0
  0
LINE
  5
31D
330
30C
100
AcDbEntity
  8
0
100
AcDbLine
 10
133.0170014197672
 20
4.5
 30
0.0
 11
135.5928932188135
 21
4.5
 31
0.0
  0
ARC
  5
31E
330
30C
100
AcDbEntity
  8
0
100
AcDbCircle
 10
135.5928932188135
 20
5.207106781186548
 30
0.0
 40
0.7071067811865475
100
AcDbArc
 50
270.0
 51
359.9999999999993
  0
LINE
  5
31F
330
30C
100
AcDbEntity
  8
0
100
AcDbLine
 10
124.0
 20
4.5
 30
0.0
 11
124.0
 21
0.7071067811865479
 31
0.0
  0
LINE
  5
320
330
30C
100
AcDbEntity
  8
0
100
AcDbLine
 10
134.0
 20
4.5
 30
0.0
 11
134.0
 21
0.7071067811865479
 31
0.0
  0
ARC
  5
321
330
30C
100
AcDbEntity
  8
0
100
AcDbCircle
 10
133.2928932188134
 20
0.707106781186548
 30
0.0
 40
0.707106781186548
100
AcDbArc
 50
270.0
 51
359.9999999999998
  0
ARC
  5
322
330
30C
100
AcDbEntity
  8
0
100
AcDbCircle
 10
124.7071067811866
 20
0.7071067811865479
 30
0.0
 40
0.707106781186548
100
AcDbArc
 50
180.0
 51
270.0
  0
LINE
  5
323
330
30C
100
AcDbEntity
  8
0
100
AcDbLine
 10
120.0
 20
8.1
 30
0.0
 11
120.0
 21
90.1
 31
0.0
  0
LINE
  5
324
330
30C
100
AcDbEntity
  8
0
100
AcDbLine
 10
120.0
 20
90.1
 30
0.0
 11
138.0
 21
90.1
 31
0.0
  0
LINE
  5
325
330
30C
100
AcDbEntity
  8
0
100
AcDbLine
 10
138.0
 20
90.1
 30
0.0
 11
138.0
 21
8.1
 31
0.0
  0
LINE
  5
326
330
30C
100
AcDbEntity
  8
0
100
AcDbLine
 10
123.15
 20
91.99999999999999
 30
0.0
 11
121.95
 21
90.1
 31
0.0
  0
LINE
  5
327
330
30C
100
AcDbEntity
  8
0
100
AcDbLine
 10
123.15
 20
91.99999999999999
 30
0.0
 11
134.85
 21
91.99999999999999
 31
0.0
  0
LINE
  5
328
330
30C
100
AcDbEntity
  8
0
100
AcDbLine
 10
134.85
 20
91.99999999999999
 30
0.0
 11
136.05
 21
90.1
 31
0.0
  0
LINE
  5
329
330
30C
100
AcDbEntity
  8
0
100
AcDbLine
 10
120.0
 20
26.1
 30
0.0
 11
138.0
 21
26.1
 31
0.0
  0
LINE
  5
32A
330
30C
100
AcDbEntity
  8
0
100
AcDbLine
 10
120.0
 20
26.6
 30
0.0
 11
138.0
 21
26.6
 31
0.0
  0
LINE
  5
32B
330
30C
100
AcDbEntity
  8
0
100
AcDbLine
 10
120.0
 20
71.6
 30
0.0
 11
138.0
 21
71.6
 31
0.0
  0
LINE
  5
32C
330
30C
100
AcDbEntity
  8
0
100
AcDbLine
 10
120.0
 20
72.1
 30
0.0
 11
138.0
 21
72.1
 31
0.0
  0
LWPOLYLINE
  5
32D
330
30C
100
AcDbEntity
  8
0
100
AcDbPolyline
 90
        4
 70
     1
 43
0.0
 10
123.0
 20
54.2
 10
123.0
 20
59.89999999999999
 10
135.0
 20
59.89999999999999
 10
135.0
 20
54.2
  0
LINE
  5
32E
330
30C
100
AcDbEntity
  8
0
100
AcDbLine
 10
127.3
 20
26.1
 30
0.0
 11
127.3
 21
24.6
 31
0.0
  0
LINE
  5
32F
330
30C
100
AcDbEntity
  8
0
100
AcDbLine
 10
127.3
 20
24.6
 30
0.0
 11
129.0
 21
24.6
 31
0.0
  0
LINE
  5
330
330
30C
100
AcDbEntity
  8
0
100
AcDbLine
 10
129.0
 20
24.6
 30
0.0
 11
129.0
 21
26.1
 31
0.0
  0
LINE
  5
331
330
30C
100
AcDbEntity
  8
0
100
AcDbLine
 10
126.45
 20
26.1
 30
0.0
 11
126.45
 21
23.6
 31
0.0
  0
LINE
  5
332
330
30C
100
AcDbEntity
  8
0
100
AcDbLine
 10
126.45
 20
23.6
 30
0.0
 11
129.85
 21
23.6
 31
0.0
  0
LINE
  5
333
330
30C
100
AcDbEntity
  8
0
100
AcDbLine
 10
129.85
 20
23.6
 30
0.0
 11
129.85
 21
26.1
 31
0.0
  0
LINE
  5
334
330
30C
100
AcDbEntity
  8
0
100
AcDbLine
 10
126.45
 20
23.6
 30
0.0
 11
127.3
 21
24.6
 31
0.0
  0
LINE
  5
335
330
30C
100
AcDbEntity
  8
0
100
AcDbLine
 10
129.0
 20
24.6
 30
0.0
 11
129.85
 21
23.6
 31
0.0
  0
LINE
  5
336
330
30C
100
AcDbEntity
  8
0
100
AcDbLine
 10
127.3
 20
72.1
 30
0.0
 11
127.3
 21
73.6
 31
0.0
  0
LINE
  5
337
330
30C
100
AcDbEntity
  8
0
100
AcDbLine
 10
127.3
 20
73.6
 30
0.0
 11
129.0
 21
73.6
 31
0.0
  0
LINE
  5
338
330
30C
100
AcDbEntity
  8
0
100
AcDbLine
 10
129.0
 20
73.6
 30
0.0
 11
129.0
 21
72.1
 31
0.0
  0
LINE
  5
339
330
30C
100
AcDbEntity
  8
0
100
AcDbLine
 10
126.45
 20
72.1
 30
0.0
 11
126.45
 21
74.6
 31
0.0
  0
LINE
  5
33A
330
30C
100
AcDbEntity
  8
0
100
AcDbLine
 10
126.45
 20
74.6
 30
0.0
 11
129.85
 21
74.6
 31
0.0
  0
LINE
  5
33B
330
30C
100
AcDbEntity
  8
0
100
AcDbLine
 10
129.85
 20
74.6
 30
0.0
 11
129.85
 21
72.1
 31
0.0
  0
LINE
  5
33C
330
30C
100
AcDbEntity
  8
0
100
AcDbLine
 10
126.45
 20
74.6
 30
0.0
 11
127.3
 21
73.6
 31
0.0
  0
LINE
  5
33D
330
30C
100
AcDbEntity
  8
0
100
AcDbLine
 10
129.0
 20
73.6
 30
0.0
 11
129.85
 21
74.6
 31
0.0
  0
CIRCLE
  5
33E
330
30C
100
AcDbEntity
  8
0
100
AcDbCircle
 10
129.0
 20
16.85
 30
0.0
 40
3.2
  0
LINE
  5
33F
330
30C
100
AcDbEntity
  8
0
100
AcDbLine
 10
120.0
 20
11.7
 30
0.0
 11
138.0
 21
11.7
 31
0.0
  0
LINE
  5
340
330
30C
100
AcDbEntity
  8
0
100
AcDbLine
 10
120.0
 20
86.5
 30
0.0
 11
138.0
 21
86.5
 31
0.0
  0
LINE
  5
341
330
30C
100
AcDbEntity
  8
0
100
AcDbLine
 10
128.35
 20
18.20710678118655
 30
0.0
 11
128.35
 21
19.98328900677866
 31
0.0
  0
LINE
  5
342
330
30C
100
AcDbEntity
  8
0
100
AcDbLine
 10
128.35
 20
13.71671099322134
 30
0.0
 11
128.35
 21
15.49289321881345
 31
0.0
  0
LINE
  5
343
330
30C
100
AcDbEntity
  8
0
100
AcDbLine
 10
129.65
 20
18.20710678118655
 30
0.0
 11
129.65
 21
19.98328900677866
 31
0.0
  0
LINE
  5
344
330
30C
100
AcDbEntity
  8
0
100
AcDbLine
 10
129.65
 20
13.71671099322134
 30
0.0
 11
129.65
 21
15.49289321881345
 31
0.0
  0
ARC
  5
345
330
30C
100
AcDbEntity
  8
0
100
AcDbCircle
 10
127.6428932188135
 20
18.20710678118655
 30
0.0
 40
0.707106781186548
100
AcDbArc
 50
270.0
 51
0.0
  0
ARC
  5
346
330
30C
100
AcDbEntity
  8
0
100
AcDbCircle
 10
130.3571067811866
 20
18.20710678118655
 30
0.0
 40
0.707106781186548
100
AcDbArc
 50
180.0
 51
270.0
  0
ARC
  5
347
330
30C
100
AcDbEntity
  8
0
100
AcDbCircle
 10
130.3571067811866
 20
15.49289321881345
 30
0.0
 40
0.707106781186548
100
AcDbArc
 50
90.0
 51
180.0
  0
ARC
  5
348
330
30C
100
AcDbEntity
  8
0
100
AcDbCircle
 10
127.6428932188135
 20
15.49289321881345
 30
0.0
 40
0.707106781186548
100
AcDbArc
 50
0.0
 51
90.0
  0
LINE
  5
349
330
30C
100
AcDbEntity
  8
0
100
AcDbLine
 10
126.75
 20
16.2
 30
0.0
 11
126.75
 21
17.5
 31
0.0
  0
LINE
  5
34A
330
30C
100
AcDbEntity
  8
0
100
AcDbLine
 10
131.25
 20
16.2
 30
0.0
 11
131.25
 21
17.5
 31
0.0
  0
LINE
  5
34B
330
30C
100
AcDbEntity
  8
0
100
AcDbLine
 10
130.3571067811866
 20
16.2
 30
0.0
 11
131.2451978939826
 21
16.2
 31
0.0
  0
LINE
  5
34C
330
30C
100
AcDbEntity
  8
0
100
AcDbLine
 10
130.3571067811866
 20
17.5
 30
0.0
 11
131.2451978939826
 21
17.5
 31
0.0
  0
LINE
  5
34D
330
30C
100
AcDbEntity
  8
0
100
AcDbLine
 10
126.7548021060174
 20
17.5
 30
0.0
 11
127.6428932188135
 21
17.5
 31
0.0
  0
LINE
  5
34E
330
30C
100
AcDbEntity
  8
0
100
AcDbLine
 10
129.8571067811866
 20
17.70710678118655
 30
0.0
 11
130.3571067811866
 21
18.20710678118655
 31
0.0
  0
LINE
  5
34F
330
30C
100
AcDbEntity
  8
0
100
AcDbLine
 10
126.7548021060174
 20
16.2
 30
0.0
 11
127.6428932188135
 21
16.2
 31
0.0
  0
LINE
  5
350
330
30C
100
AcDbEntity
  8
0
100
AcDbLine
 10
129.8571067811866
 20
15.99289321881345
 30
0.0
 11
130.3571067811866
 21
15.49289321881345
 31
0.0
  0
LINE
  5
351
330
30C
100
AcDbEntity
  8
0
100
AcDbLine
 10
128.1428932188135
 20
17.70710678118655
 30
0.0
 11
127.6428932188135
 21
18.20710678118655
 31
0.0
  0
LINE
  5
352
330
30C
100
AcDbEntity
  8
0
100
AcDbLine
 10
128.1428932188135
 20
15.99289321881345
 30
0.0
 11
127.6428932188135
 21
15.49289321881345
 31
0.0
  0
CIRCLE
  5
353
330
30C
100
AcDbEntity
  8
0
100
AcDbCircle
 10
129.0
 20
16.85
 30
0.0
 40
0.7
  0
CIRCLE
  5
354
330
30C
100
AcDbEntity
  8
0
100
AcDbCircle
 10
129.0
 20
81.35
 30
0.0
 40
3.2
  0
LINE
  5
355
330
30C
100
AcDbEntity
  8
0
100
AcDbLine
 10
128.35
 20
78.21671099322133
 30
0.0
 11
128.35
 21
79.99289321881345
 31
0.0
  0
LINE
  5
356
330
30C
100
AcDbEntity
  8
0
100
AcDbLine
 10
128.35
 20
82.70710678118654
 30
0.0
 11
128.35
 21
84.48328900677866
 31
0.0
  0
LINE
  5
357
330
30C
100
AcDbEntity
  8
0
100
AcDbLine
 10
129.65
 20
78.21671099322133
 30
0.0
 11
129.65
 21
79.99289321881345
 31
0.0
  0
LINE
  5
358
330
30C
100
AcDbEntity
  8
0
100
AcDbLine
 10
129.65
 20
82.70710678118654
 30
0.0
 11
129.65
 21
84.48328900677865
 31
0.0
  0
ARC
  5
359
330
30C
100
AcDbEntity
  8
0
100
AcDbCircle
 10
127.6428932188135
 20
82.70710678118654
 30
0.0
 40
0.707106781186548
100
AcDbArc
 50
270.0
 51
0.0
  0
ARC
  5
35A
330
30C
100
AcDbEntity
  8
0
100
AcDbCircle
 10
130.3571067811866
 20
82.70710678118654
 30
0.0
 40
0.707106781186548
100
AcDbArc
 50
180.0
 51
270.0
  0
ARC
  5
35B
330
30C
100
AcDbEntity
  8
0
100
AcDbCircle
 10
130.3571067811866
 20
79.99289321881345
 30
0.0
 40
0.707106781186548
100
AcDbArc
 50
90.0
 51
180.0
  0
ARC
  5
35C
330
30C
100
AcDbEntity
  8
0
100
AcDbCircle
 10
127.6428932188135
 20
79.99289321881345
 30
0.0
 40
0.707106781186548
100
AcDbArc
 50
0.0
 51
90.0
  0
LINE
  5
35D
330
30C
100
AcDbEntity
  8
0
100
AcDbLine
 10
126.75
 20
80.69999999999999
 30
0.0
 11
126.75
 21
81.99999999999999
 31
0.0
  0
LINE
  5
35E
330
30C
100
AcDbEntity
  8
0
100
AcDbLine
 10
131.25
 20
80.69999999999999
 30
0.0
 11
131.25
 21
81.99999999999999
 31
0.0
  0
LINE
  5
35F
330
30C
100
AcDbEntity
  8
0
100
AcDbLine
 10
130.3571067811866
 20
80.69999999999999
 30
0.0
 11
131.2451978939826
 21
80.69999999999999
 31
0.0
  0
LINE
  5
360
330
30C
100
AcDbEntity
  8
0
100
AcDbLine
 10
130.3571067811866
 20
81.99999999999999
 30
0.0
 11
131.2451978939826
 21
81.99999999999999
 31
0.0
  0
LINE
  5
361
330
30C
100
AcDbEntity
  8
0
100
AcDbLine
 10
126.7548021060174
 20
81.99999999999999
 30
0.0
 11
127.6428932188135
 21
81.99999999999999
 31
0.0
  0
LINE
  5
362
330
30C
100
AcDbEntity
  8
0
100
AcDbLine
 10
129.8571067811866
 20
82.20710678118654
 30
0.0
 11
130.3571067811866
 21
82.70710678118654
 31
0.0
  0
LINE
  5
363
330
30C
100
AcDbEntity
  8
0
100
AcDbLine
 10
126.7548021060174
 20
80.69999999999999
 30
0.0
 11
127.6428932188135
 21
80.69999999999999
 31
0.0
  0
LINE
  5
364
330
30C
100
AcDbEntity
  8
0
100
AcDbLine
 10
129.8571067811866
 20
80.49289321881345
 30
0.0
 11
130.3571067811866
 21
79.99289321881345
 31
0.0
  0
LINE
  5
365
330
30C
100
AcDbEntity
  8
0
100
AcDbLine
 10
128.1428932188135
 20
82.20710678118654
 30
0.0
 11
127.6428932188135
 21
82.70710678118654
 31
0.0
  0
LINE
  5
366
330
30C
100
AcDbEntity
  8
0
100
AcDbLine
 10
128.1428932188135
 20
80.49289321881345
 30
0.0
 11
127.6428932188135
 21
79.99289321881345
 31
0.0
  0
CIRCLE
  5
367
330
30C
100
AcDbEntity
  8
0
100
AcDbCircle
 10
129.0
 20
81.35
 30
0.0
 40
0.7
  0
LINE
  5
368
330
30C
100
AcDbEntity
  8
0
100
AcDbLine
 10
132.0
 20
26.6
 30
0.0
 11
132.0
 21
45.6069647979778
 31
0.0
  0
LINE
  5
369
330
30C
100
AcDbEntity
  8
0
100
AcDbLine
 10
135.0
 20
71.6
 30
0.0
 11
135.0004309006888
 21
51.59527469691521
 31
0.0
  0
LINE
  5
36A
330
30C
100
AcDbEntity
  8
0
100
AcDbLine
 10
132.6112875855771
 20
47.4150501141028
 30
0.0
 11
134.4004309006888
 21
49.79527469691521
 31
0.0
  0
ARC
  5
36B
330
30C
100
AcDbEntity
  8
0
100
AcDbCircle
 10
135.0096524697065
 20
45.6163229958218
 30
0.0
 40
3.0
100
AcDbArc
 50
143.1301023541561
 51
180.0
  0
ARC
  5
36C
330
30C
100
AcDbEntity
  8
0
100
AcDbCircle
 10
135.0096524697065
 20
45.6163229958218
 30
0.0
 40
3.0
100
AcDbArc
 50
143.1301023541561
 51
180.0
  0
ARC
  5
36D
330
30C
100
AcDbEntity
  8
0
100
AcDbCircle
 10
132.0004309006888
 20
51.59527469691521
 30
0.0
 40
3.0
100
AcDbArc
 50
323.1301023541561
 51
0.0
  0
ENDBLK
  5
30E
330
30C
100
AcDbEntity
  8
0
100
AcDbBlockEnd
  0
BLOCK
  5
56D
330
562
100
AcDbEntity
  8
0
100
AcDbBlockBegin
  2
*D2
 70
     1
 10
0.0
 20
0.0
 30
0.0
  3
*D2
  1
*D26
  0
LINE
  5
563
330
562
100
AcDbEntity
  8
KOTY
 62
     0
100
AcDbLine
 10
48.5
 20
38.68170698643668
 30
0.0
 11
48.5
 21
38.79920698643668
 31
0.0
  0
LINE
  5
564
330
562
100
AcDbEntity
  8
KOTY
 62
     0
100
AcDbLine
 10
66.5
 20
38.68170698643668
 30
0.0
 11
66.5
 21
38.79920698643668
 31
0.0
  0
LINE
  5
565
330
562
100
AcDbEntity
  8
KOTY
 62
     0
100
AcDbLine
 10
52.5
 20
38.61920698643668
 30
0.0
 11
62.5
 21
38.61920698643668
 31
0.0
  0
SOLID
  5
566
330
562
100
AcDbEntity
  8
KOTY
 62
     0
100
AcDbTrace
 10
52.5
 20
39.28587365310334
 30
0.0
 11
52.5
 21
37.95254031977002
 31
0.0
 12
48.5
 22
38.61920698643668
 32
0.0
 13
48.5
 23
38.61920698643668
 33
0.0
  0
SOLID
  5
567
330
562
100
AcDbEntity
  8
KOTY
 62
     0
100
AcDbTrace
 10
62.5
 20
37.95254031977002
 30
0.0
 11
62.5
 21
39.28587365310334
 31
0.0
 12
66.5
 22
38.61920698643668
 32
0.0
 13
66.5
 23
38.61920698643668
 33
0.0
  0
MTEXT
  5
568
330
562
100
AcDbEntity
  8
KOTY
 62
     0
100
AcDbMText
 10
57.31093343209884
 20
41.66120698643668
 30
0.0
 40
4.0
 41
0.0
 71
     5
 72
     1
  1
\A1;18
  0
POINT
  5
569
330
562
100
AcDbEntity
  8
DEFPOINTS
 62
     0
100
AcDbPoint
 10
48.5
 20
38.61920698643668
 30
0.0
  0
POINT
  5
56A
330
562
100
AcDbEntity
  8
DEFPOINTS
 62
     0
100
AcDbPoint
 10
66.5
 20
38.61920698643668
 30
0.0
  0
POINT
  5
56B
330
562
100
AcDbEntity
  8
DEFPOINTS
 62
     0
100
AcDbPoint
 10
66.5
 20
38.61920698643668
 30
0.0
  0
ENDBLK
  5
56E
330
562
100
AcDbEntity
  8
0
100
AcDbBlockEnd
  0
BLOCK
  5
57D
330
572
100
AcDbEntity
  8
0
100
AcDbBlockBegin
  2
*D3
 70
     1
 10
0.0
 20
0.0
 30
0.0
  3
*D3
  1
*D27
  0
LINE
  5
573
330
572
100
AcDbEntity
  8
KOTY
 62
     0
100
AcDbLine
 10
72.5625
 20
0.0
 30
0.0
 11
82.68
 21
0.0
 31
0.0
  0
LINE
  5
574
330
572
100
AcDbEntity
  8
KOTY
 62
     0
100
AcDbLine
 10
61.7125
 20
92.0
 30
0.0
 11
82.68
 21
92.0
 31
0.0
  0
LINE
  5
575
330
572
100
AcDbEntity
  8
KOTY
 62
     0
100
AcDbLine
 10
82.5
 20
4.0
 30
0.0
 11
82.5
 21
88.0
 31
0.0
  0
SOLID
  5
576
330
572
100
AcDbEntity
  8
KOTY
 62
     0
100
AcDbTrace
 10
81.83333333333333
 20
4.0
 30
0.0
 11
83.16666666666667
 21
4.0
 31
0.0
 12
82.5
 22
0.0
 32
0.0
 13
82.5
 23
0.0
 33
0.0
  0
SOLID
  5
577
330
572
100
AcDbEntity
  8
KOTY
 62
     0
100
AcDbTrace
 10
83.16666666666667
 20
88.0
 30
0.0
 11
81.83333333333333
 21
88.0
 31
0.0
 12
82.5
 22
92.0
 32
0.0
 13
82.5
 23
92.0
 33
0.0
  0
MTEXT
  5
578
330
572
100
AcDbEntity
  8
KOTY
 62
     0
100
AcDbMText
 10
79.458
 20
46.0
 30
0.0
 40
4.0
 41
0.0
 71
     5
 72
     1
  1
\A1;92
 11
0.0
 21
1.0
 31
0.0
  0
POINT
  5
579
330
572
100
AcDbEntity
  8
DEFPOINTS
 62
     0
100
AcDbPoint
 10
72.5
 20
0.0
 30
0.0
  0
POINT
  5
57A
330
572
100
AcDbEntity
  8
DEFPOINTS
 62
     0
100
AcDbPoint
 10
61.65
 20
92.0
 30
0.0
  0
POINT
  5
57B
330
572
100
AcDbEntity
  8
DEFPOINTS
 62
     0
100
AcDbPoint
 10
82.5
 20
92.0
 30
0.0
  0
ENDBLK
  5
57E
330
572
100
AcDbEntity
  8
0
100
AcDbBlockEnd
  0
BLOCK
  5
58D
330
582
100
AcDbEntity
  8
0
100
AcDbBlockBegin
  2
*D4
 70
     1
 10
0.0
 20
0.0
 30
0.0
  3
*D4
  1
*D28
  0
LINE
  5
583
330
582
100
AcDbEntity
  8
KOTY
 62
     0
100
AcDbLine
 10
0.0
 20
71.6625
 30
0.0
 11
0.0
 21
109.2047350794162
 31
0.0
  0
LINE
  5
584
330
582
100
AcDbEntity
  8
KOTY
 62
     0
100
AcDbLine
 10
72.5
 20
83.3625
 30
0.0
 11
72.5
 21
109.2047350794162
 31
0.0
  0
LINE
  5
585
330
582
100
AcDbEntity
  8
KOTY
 62
     0
100
AcDbLine
 10
4.0
 20
109.0247350794162
 30
0.0
 11
68.5
 21
109.0247350794162
 31
0.0
  0
SOLID
  5
586
330
582
100
AcDbEntity
  8
KOTY
 62
     0
100
AcDbTrace
 10
4.0
 20
109.6914017460829
 30
0.0
 11
4.0
 21
108.3580684127495
 31
0.0
 12
0.0
 22
109.0247350794162
 32
0.0
 13
0.0
 23
109.0247350794162
 33
0.0
  0
SOLID
  5
587
330
582
100
AcDbEntity
  8
KOTY
 62
     0
100
AcDbTrace
 10
68.5
 20
108.3580684127495
 30
0.0
 11
68.5
 21
109.6914017460829
 31
0.0
 12
72.5
 22
109.0247350794162
 32
0.0
 13
72.5
 23
109.0247350794162
 33
0.0
  0
MTEXT
  5
588
330
582
100
AcDbEntity
  8
KOTY
 62
     0
100
AcDbMText
 10
35.7276944940928
 20
112.0327350794162
 30
0.0
 40
4.0
 41
0.0
 71
     5
 72
     1
  1
\A1;72
  0
POINT
  5
589
330
582
100
AcDbEntity
  8
DEFPOINTS
 62
     0
100
AcDbPoint
 10
0.0
 20
71.6
 30
0.0
  0
POINT
  5
58A
330
582
100
AcDbEntity
  8
DEFPOINTS
 62
     0
100
AcDbPoint
 10
72.5
 20
83.3
 30
0.0
  0
POINT
  5
58B
330
582
100
AcDbEntity
  8
DEFPOINTS
 62
     0
100
AcDbPoint
 10
72.5
 20
109.0247350794162
 30
0.0
  0
ENDBLK
  5
58E
330
582
100
AcDbEntity
  8
0
100
AcDbBlockEnd
  0
BLOCK
  5
5BD
330
5B2
100
AcDbEntity
  8
0
100
AcDbBlockBegin
  2
*D5
 70
     1
 10
0.0
 20
0.0
 30
0.0
  3
*D5
  1
*D31
  0
LINE
  5
5B3
330
5B2
100
AcDbEntity
  8
KOTY
 62
     0
100
AcDbLine
 10
-0.0625
 20
26.6
 30
0.0
 11
-10.18
 21
26.6
 31
0.0
  0
LINE
  5
5B4
330
5B2
100
AcDbEntity
  8
KOTY
 62
     0
100
AcDbLine
 10
-0.0625
 20
71.6
 30
0.0
 11
-10.18
 21
71.6
 31
0.0
  0
LINE
  5
5B5
330
5B2
100
AcDbEntity
  8
KOTY
 62
     0
100
AcDbLine
 10
-10.0
 20
30.6
 30
0.0
 11
-9.999999999999998
 21
67.6
 31
0.0
  0
SOLID
  5
5B6
330
5B2
100
AcDbEntity
  8
KOTY
 62
     0
100
AcDbTrace
 10
-10.66666666666667
 20
30.6
 30
0.0
 11
-9.333333333333336
 21
30.6
 31
0.0
 12
-10.0
 22
26.6
 32
0.0
 13
-10.0
 23
26.6
 33
0.0
  0
SOLID
  5
5B7
330
5B2
100
AcDbEntity
  8
KOTY
 62
     0
100
AcDbTrace
 10
-9.333333333333332
 20
67.6
 30
0.0
 11
-10.66666666666666
 21
67.6
 31
0.0
 12
-9.999999999999998
 22
71.6
 32
0.0
 13
-9.999999999999998
 23
71.6
 33
0.0
  0
MTEXT
  5
5B8
330
5B2
100
AcDbEntity
  8
KOTY
 62
     0
100
AcDbMText
 10
-13.034
 20
46.0
 30
0.0
 40
4.0
 41
0.0
 71
     5
 72
     1
  1
\A1;45
 11
7.894919286223337E-17
 21
1.0
 31
0.0
  0
POINT
  5
5B9
330
5B2
100
AcDbEntity
  8
DEFPOINTS
 62
     0
100
AcDbPoint
 10
0.0
 20
26.6
 30
0.0
  0
POINT
  5
5BA
330
5B2
100
AcDbEntity
  8
DEFPOINTS
 62
     0
100
AcDbPoint
 10
0.0
 20
71.6
 30
0.0
  0
POINT
  5
5BB
330
5B2
100
AcDbEntity
  8
DEFPOINTS
 62
     0
100
AcDbPoint
 10
-9.999999999999998
 20
71.6
 30
0.0
  0
ENDBLK
  5
5BE
330
5B2
100
AcDbEntity
  8
0
100
AcDbBlockEnd
  0
BLOCK
  5
5CD
330
5C2
100
AcDbEntity
  8
0
100
AcDbBlockBegin
  2
*D6
 70
     1
 10
0.0
 20
0.0
 30
0.0
  3
*D6
  1
*D32
  0
LINE
  5
5C3
330
5C2
100
AcDbEntity
  8
KOTY
 62
     0
100
AcDbLine
 10
28.6375
 20
8.1
 30
0.0
 11
-23.76954035246861
 21
8.099999999999994
 31
0.0
  0
LINE
  5
5C4
330
5C2
100
AcDbEntity
  8
KOTY
 62
     0
100
AcDbLine
 10
28.6375
 20
90.1
 30
0.0
 11
-23.76954035246861
 21
90.1
 31
0.0
  0
LINE
  5
5C5
330
5C2
100
AcDbEntity
  8
KOTY
 62
     0
100
AcDbLine
 10
-23.58954035246861
 20
12.09999999999999
 30
0.0
 11
-23.58954035246861
 21
86.1
 31
0.0
  0
SOLID
  5
5C6
330
5C2
100
AcDbEntity
  8
KOTY
 62
     0
100
AcDbTrace
 10
-24.25620701913528
 20
12.09999999999999
 30
0.0
 11
-22.92287368580194
 21
12.09999999999999
 31
0.0
 12
-23.58954035246861
 22
8.099999999999994
 32
0.0
 13
-23.58954035246861
 23
8.099999999999994
 33
0.0
  0
SOLID
  5
5C7
330
5C2
100
AcDbEntity
  8
KOTY
 62
     0
100
AcDbTrace
 10
-22.92287368580194
 20
86.1
 30
0.0
 11
-24.25620701913527
 21
86.1
 31
0.0
 12
-23.58954035246861
 22
90.1
 32
0.0
 13
-23.58954035246861
 23
90.1
 33
0.0
  0
MTEXT
  5
5C8
330
5C2
100
AcDbEntity
  8
KOTY
 62
     0
100
AcDbMText
 10
-26.63154035246861
 20
31.19114584875269
 30
0.0
 40
4.0
 41
0.0
 71
     5
 72
     1
  1
\A1;82
 11
4.332577657073782E-17
 21
1.0
 31
0.0
  0
POINT
  5
5C9
330
5C2
100
AcDbEntity
  8
DEFPOINTS
 62
     0
100
AcDbPoint
 10
28.7
 20
8.1
 30
0.0
  0
POINT
  5
5CA
330
5C2
100
AcDbEntity
  8
DEFPOINTS
 62
     0
100
AcDbPoint
 10
28.7
 20
90.1
 30
0.0
  0
POINT
  5
5CB
330
5C2
100
AcDbEntity
  8
DEFPOINTS
 62
     0
100
AcDbPoint
 10
-23.58954035246861
 20
90.1
 30
0.0
  0
ENDBLK
  5
5CE
330
5C2
100
AcDbEntity
  8
0
100
AcDbBlockEnd
  0
BLOCK
  5
5E8
330
5DD
100
AcDbEntity
  8
0
100
AcDbBlockBegin
  2
*D7
 70
     1
 10
0.0
 20
0.0
 30
0.0
  3
*D7
  1
*D34
  0
LINE
  5
5DE
330
5DD
100
AcDbEntity
  8
KOTY
 62
     0
100
AcDbLine
 10
66.5
 20
30.4375
 30
0.0
 11
66.5
 21
-10.18
 31
0.0
  0
LINE
  5
5DF
330
5DD
100
AcDbEntity
  8
KOTY
 62
     0
100
AcDbLine
 10
22.5
 20
11.6375
 30
0.0
 11
22.5
 21
-10.18
 31
0.0
  0
LINE
  5
5E0
330
5DD
100
AcDbEntity
  8
KOTY
 62
     0
100
AcDbLine
 10
62.5
 20
-10.0
 30
0.0
 11
26.5
 21
-10.0
 31
0.0
  0
SOLID
  5
5E1
330
5DD
100
AcDbEntity
  8
KOTY
 62
     0
100
AcDbTrace
 10
62.5
 20
-10.66666666666667
 30
0.0
 11
62.5
 21
-9.333333333333334
 31
0.0
 12
66.5
 22
-10.0
 32
0.0
 13
66.5
 23
-10.0
 33
0.0
  0
SOLID
  5
5E2
330
5DD
100
AcDbEntity
  8
KOTY
 62
     0
100
AcDbTrace
 10
26.5
 20
-9.333333333333334
 30
0.0
 11
26.5
 21
-10.66666666666667
 31
0.0
 12
22.5
 22
-10.0
 32
0.0
 13
22.5
 23
-10.0
 33
0.0
  0
MTEXT
  5
5E3
330
5DD
100
AcDbEntity
  8
KOTY
 62
     0
100
AcDbMText
 10
44.5
 20
-7.0
 30
0.0
 40
4.0
 41
0.0
 71
     5
 72
     1
  1
\A1;44
  0
POINT
  5
5E4
330
5DD
100
AcDbEntity
  8
DEFPOINTS
 62
     0
100
AcDbPoint
 10
66.5
 20
30.5
 30
0.0
  0
POINT
  5
5E5
330
5DD
100
AcDbEntity
  8
DEFPOINTS
 62
     0
100
AcDbPoint
 10
22.5
 20
11.7
 30
0.0
  0
POINT
  5
5E6
330
5DD
100
AcDbEntity
  8
DEFPOINTS
 62
     0
100
AcDbPoint
 10
22.5
 20
-10.0
 30
0.0
  0
ENDBLK
  5
5E9
330
5DD
100
AcDbEntity
  8
0
100
AcDbBlockEnd
  0
BLOCK
  5
5F8
330
5ED
100
AcDbEntity
  8
0
100
AcDbBlockBegin
  2
*D8
 70
     1
 10
0.0
 20
0.0
 30
0.0
  3
*D8
  1
*D35
  0
LINE
  5
5EE
330
5ED
100
AcDbEntity
  8
KOTY
 62
     0
100
AcDbLine
 10
0.0
 20
26.5375
 30
0.0
 11
0.0
 21
-20.13502696258043
 31
0.0
  0
LINE
  5
5EF
330
5ED
100
AcDbEntity
  8
KOTY
 62
     0
100
AcDbLine
 10
66.5
 20
30.375
 30
0.0
 11
66.5
 21
-20.13502696258043
 31
0.0
  0
LINE
  5
5F0
330
5ED
100
AcDbEntity
  8
KOTY
 62
     0
100
AcDbLine
 10
4.0
 20
-19.95502696258043
 30
0.0
 11
62.5
 21
-19.95502696258043
 31
0.0
  0
SOLID
  5
5F1
330
5ED
100
AcDbEntity
  8
KOTY
 62
     0
100
AcDbTrace
 10
4.0
 20
-19.28836029591376
 30
0.0
 11
4.0
 21
-20.6216936292471
 31
0.0
 12
0.0
 22
-19.95502696258043
 32
0.0
 13
0.0
 23
-19.95502696258043
 33
0.0
  0
SOLID
  5
5F2
330
5ED
100
AcDbEntity
  8
KOTY
 62
     0
100
AcDbTrace
 10
62.5
 20
-20.6216936292471
 30
0.0
 11
62.5
 21
-19.28836029591376
 31
0.0
 12
66.5
 22
-19.95502696258043
 32
0.0
 13
66.5
 23
-19.95502696258043
 33
0.0
  0
MTEXT
  5
5F3
330
5ED
100
AcDbEntity
  8
KOTY
 62
     0
100
AcDbMText
 10
33.25
 20
-16.91302696258043
 30
0.0
 40
4.0
 41
0.0
 71
     5
 72
     1
  1
\A1;67
  0
POINT
  5
5F4
330
5ED
100
AcDbEntity
  8
DEFPOINTS
 62
     0
100
AcDbPoint
 10
0.0
 20
26.6
 30
0.0
  0
POINT
  5
5F5
330
5ED
100
AcDbEntity
  8
DEFPOINTS
 62
     0
100
AcDbPoint
 10
66.5
 20
30.4375
 30
0.0
  0
POINT
  5
5F6
330
5ED
100
AcDbEntity
  8
DEFPOINTS
 62
     0
100
AcDbPoint
 10
66.5
 20
-19.95502696258043
 30
0.0
  0
ENDBLK
  5
5F9
330
5ED
100
AcDbEntity
  8
0
100
AcDbBlockEnd
  0
BLOCK
  5
608
330
607
100
AcDbEntity
  8
0
100
AcDbBlockBegin
  2
_CLOSEDBLANK
 70
     0
 10
0.0
 20
0.0
 30
0.0
  3
_CLOSEDBLANK
  1
_CLOSEDBLANK
  0
LINE
  5
60A
330
607
100
AcDbEntity
  8
0
  6
BYBLOCK
 62
     0
100
AcDbLine
 10
-1.0
 20
0.166667
 30
0.0
 11
0.0
 21
0.0
 31
0.0
  0
LINE
  5
60B
330
607
100
AcDbEntity
  8
0
  6
BYBLOCK
 62
     0
100
AcDbLine
 10
0.0
 20
0.0
 30
0.0
 11
-1.0
 21
-0.166667
 31
0.0
  0
LINE
  5
60C
330
607
100
AcDbEntity
  8
0
  6
BYBLOCK
 62
     0
100
AcDbLine
 10
-1.0
 20
0.166667
 30
0.0
 11
-1.0
 21
-0.166667
 31
0.0
  0
ENDBLK
  5
609
330
607
100
AcDbEntity
  8
0
100
AcDbBlockEnd
  0
BLOCK
  5
60E
330
60D
100
AcDbEntity
  8
0
100
AcDbBlockBegin
  2
_CLOSED
 70
     0
 10
0.0
 20
0.0
 30
0.0
  3
_CLOSED
  1
_CLOSED
  0
LINE
  5
610
330
60D
100
AcDbEntity
  8
0
  6
BYBLOCK
 62
     0
100
AcDbLine
 10
-1.0
 20
0.166667
 30
0.0
 11
0.0
 21
0.0
 31
0.0
  0
LINE
  5
611
330
60D
100
AcDbEntity
  8
0
  6
BYBLOCK
 62
     0
100
AcDbLine
 10
0.0
 20
0.0
 30
0.0
 11
-1.0
 21
-0.166667
 31
0.0
  0
LINE
  5
612
330
60D
100
AcDbEntity
  8
0
  6
BYBLOCK
 62
     0
100
AcDbLine
 10
-1.0
 20
0.166667
 30
0.0
 11
-1.0
 21
-0.166667
 31
0.0
  0
LINE
  5
613
330
60D
100
AcDbEntity
  8
0
  6
BYBLOCK
 62
     0
100
AcDbLine
 10
0.0
 20
0.0
 30
0.0
 11
-1.0
 21
0.0
 31
0.0
  0
ENDBLK
  5
60F
330
60D
100
AcDbEntity
  8
0
100
AcDbBlockEnd
  0
BLOCK
  5
615
330
614
100
AcDbEntity
  8
0
100
AcDbBlockBegin
  2
_DOT
 70
     0
 10
0.0
 20
0.0
 30
0.0
  3
_DOT
  1
_DOT
  0
LWPOLYLINE
  5
617
330
614
100
AcDbEntity
  8
0
  6
BYBLOCK
 62
     0
100
AcDbPolyline
 90
        2
 70
     1
 43
0.5
 10
-0.25
 20
0.0
 42
1.0
 10
0.25
 20
0.0
 42
1.0
  0
LINE
  5
618
330
614
100
AcDbEntity
  8
0
  6
BYBLOCK
 62
     0
100
AcDbLine
 10
-0.5
 20
0.0
 30
0.0
 11
-1.0
 21
0.0
 31
0.0
  0
ENDBLK
  5
616
330
614
100
AcDbEntity
  8
0
100
AcDbBlockEnd
  0
BLOCK
  5
61A
330
619
100
AcDbEntity
  8
0
100
AcDbBlockBegin
  2
_ARCHTICK
 70
     0
 10
0.0
 20
0.0
 30
0.0
  3
_ARCHTICK
  1
_ARCHTICK
  0
LWPOLYLINE
  5
61C
330
619
100
AcDbEntity
  8
0
  6
BYBLOCK
 62
     0
100
AcDbPolyline
 90
        2
 70
     0
 43
0.15
 10
-0.5
 20
-0.5
 10
0.5
 20
0.5
  0
ENDBLK
  5
61B
330
619
100
AcDbEntity
  8
0
100
AcDbBlockEnd
  0
BLOCK
  5
6FD
330
6F2
100
AcDbEntity
  8
0
100
AcDbBlockBegin
  2
*D13
 70
     1
 10
0.0
 20
0.0
 30
0.0
  3
*D13
  1
*D43
  0
LINE
  5
6F3
330
6F2
100
AcDbEntity
  8
KOTY
 62
     0
100
AcDbLine
 10
120.0
 20
8.0375
 30
0.0
 11
120.0
 21
-10.18
 31
0.0
  0
LINE
  5
6F4
330
6F2
100
AcDbEntity
  8
KOTY
 62
     0
100
AcDbLine
 10
156.0
 20
8.037499999999994
 30
0.0
 11
156.0
 21
-10.18
 31
0.0
  0
LINE
  5
6F5
330
6F2
100
AcDbEntity
  8
KOTY
 62
     0
100
AcDbLine
 10
124.0
 20
-10.0
 30
0.0
 11
152.0
 21
-10.0
 31
0.0
  0
SOLID
  5
6F6
330
6F2
100
AcDbEntity
  8
KOTY
 62
     0
100
AcDbTrace
 10
124.0
 20
-9.333333333333334
 30
0.0
 11
124.0
 21
-10.66666666666667
 31
0.0
 12
120.0
 22
-10.0
 32
0.0
 13
120.0
 23
-10.0
 33
0.0
  0
SOLID
  5
6F7
330
6F2
100
AcDbEntity
  8
KOTY
 62
     0
100
AcDbTrace
 10
152.0
 20
-10.66666666666667
 30
0.0
 11
152.0
 21
-9.333333333333334
 31
0.0
 12
156.0
 22
-10.0
 32
0.0
 13
156.0
 23
-10.0
 33
0.0
  0
MTEXT
  5
6F8
330
6F2
100
AcDbEntity
  8
KOTY
 62
     0
100
AcDbMText
 10
138.0
 20
-6.958
 30
0.0
 40
4.0
 41
0.0
 71
     5
 72
     1
  1
\A1;36
  0
POINT
  5
6F9
330
6F2
100
AcDbEntity
  8
DEFPOINTS
 62
     0
100
AcDbPoint
 10
120.0
 20
8.1
 30
0.0
  0
POINT
  5
6FA
330
6F2
100
AcDbEntity
  8
DEFPOINTS
 62
     0
100
AcDbPoint
 10
156.0
 20
8.099999999999994
 30
0.0
  0
POINT
  5
6FB
330
6F2
100
AcDbEntity
  8
DEFPOINTS
 62
     0
100
AcDbPoint
 10
156.0
 20
-10.0
 30
0.0
  0
ENDBLK
  5
6FE
330
6F2
100
AcDbEntity
  8
0
100
AcDbBlockEnd
  0
BLOCK
  5
70D
330
702
100
AcDbEntity
  8
0
100
AcDbBlockBegin
  2
*D14
 70
     1
 10
0.0
 20
0.0
 30
0.0
  3
*D14
  1
*D44
  0
LINE
  5
703
330
702
100
AcDbEntity
  8
KOTY
 62
     0
100
AcDbLine
 10
147.0625
 20
81.35
 30
0.0
 11
166.18
 21
81.35
 31
0.0
  0
LINE
  5
704
330
702
100
AcDbEntity
  8
KOTY
 62
     0
100
AcDbLine
 10
147.0625
 20
16.85
 30
0.0
 11
166.18
 21
16.85
 31
0.0
  0
LINE
  5
705
330
702
100
AcDbEntity
  8
KOTY
 62
     0
100
AcDbLine
 10
166.0
 20
77.35
 30
0.0
 11
166.0
 21
20.85
 31
0.0
  0
SOLID
  5
706
330
702
100
AcDbEntity
  8
KOTY
 62
     0
100
AcDbTrace
 10
166.6666666666667
 20
77.35
 30
0.0
 11
165.3333333333333
 21
77.35
 31
0.0
 12
166.0
 22
81.35
 32
0.0
 13
166.0
 23
81.35
 33
0.0
  0
SOLID
  5
707
330
702
100
AcDbEntity
  8
KOTY
 62
     0
100
AcDbTrace
 10
165.3333333333333
 20
20.85
 30
0.0
 11
166.6666666666667
 21
20.85
 31
0.0
 12
166.0
 22
16.85
 32
0.0
 13
166.0
 23
16.85
 33
0.0
  0
MTEXT
  5
708
330
702
100
AcDbEntity
  8
KOTY
 62
     0
100
AcDbMText
 10
162.598
 20
49.09999999999999
 30
0.0
 40
4.0
 41
0.0
 71
     5
 72
     1
  1
\A1;64,5
 11
0.0
 21
1.0
 31
0.0
  0
POINT
  5
709
330
702
100
AcDbEntity
  8
DEFPOINTS
 62
     0
100
AcDbPoint
 10
147.0
 20
81.35
 30
0.0
  0
POINT
  5
70A
330
702
100
AcDbEntity
  8
DEFPOINTS
 62
     0
100
AcDbPoint
 10
147.0
 20
16.85
 30
0.0
  0
POINT
  5
70B
330
702
100
AcDbEntity
  8
DEFPOINTS
 62
     0
100
AcDbPoint
 10
166.0
 20
16.85
 30
0.0
  0
ENDBLK
  5
70E
330
702
100
AcDbEntity
  8
0
100
AcDbBlockEnd
  0
BLOCK
  5
740
330
735
100
AcDbEntity
  8
0
100
AcDbBlockBegin
  2
*D15
 70
     1
 10
0.0
 20
0.0
 30
0.0
  3
*D15
  1
*D46
  0
LINE
  5
736
330
735
100
AcDbEntity
  8
KOTY
 62
     0
100
AcDbLine
 10
36.00002989583506
 20
90.1625
 30
0.0
 11
36.00002989583506
 21
100.28
 31
0.0
  0
LINE
  5
737
330
735
100
AcDbEntity
  8
KOTY
 62
     0
100
AcDbLine
 10
66.5
 20
66.6625
 30
0.0
 11
66.5
 21
100.28
 31
0.0
  0
LINE
  5
738
330
735
100
AcDbEntity
  8
KOTY
 62
     0
100
AcDbLine
 10
40.00002989583506
 20
100.1
 30
0.0
 11
62.5
 21
100.1
 31
0.0
  0
SOLID
  5
739
330
735
100
AcDbEntity
  8
KOTY
 62
     0
100
AcDbTrace
 10
40.00002989583506
 20
100.7666666666667
 30
0.0
 11
40.00002989583506
 21
99.43333333333332
 31
0.0
 12
36.00002989583506
 22
100.1
 32
0.0
 13
36.00002989583506
 23
100.1
 33
0.0
  0
SOLID
  5
73A
330
735
100
AcDbEntity
  8
KOTY
 62
     0
100
AcDbTrace
 10
62.5
 20
99.43333333333332
 30
0.0
 11
62.5
 21
100.7666666666667
 31
0.0
 12
66.5
 22
100.1
 32
0.0
 13
66.5
 23
100.1
 33
0.0
  0
MTEXT
  5
73B
330
735
100
AcDbEntity
  8
KOTY
 62
     0
100
AcDbMText
 10
51.25001494791753
 20
103.502
 30
0.0
 40
4.0
 41
0.0
 71
     5
 72
     1
  1
\A1;30,5
  0
POINT
  5
73C
330
735
100
AcDbEntity
  8
DEFPOINTS
 62
     0
100
AcDbPoint
 10
36.00002989583506
 20
90.1
 30
0.0
  0
POINT
  5
73D
330
735
100
AcDbEntity
  8
DEFPOINTS
 62
     0
100
AcDbPoint
 10
66.5
 20
66.6
 30
0.0
  0
POINT
  5
73E
330
735
100
AcDbEntity
  8
DEFPOINTS
 62
     0
100
AcDbPoint
 10
66.5
 20
100.1
 30
0.0
  0
ENDBLK
  5
741
330
735
100
AcDbEntity
  8
0
100
AcDbBlockEnd
  0
BLOCK
  5
BC4
330
BC3
100
AcDbEntity
  8
0
100
AcDbBlockBegin
  2
*D16
 70
     1
 10
0.0
 20
0.0
 30
0.0
  3
*D16
  1
*D17
  0
LINE
  5
BC6
330
BC3
100
AcDbEntity
  8
KOTY
 62
     0
100
AcDbLine
 10
135.3350992160449
 20
86.5
 30
0.0
 11
132.8959525964715
 21
86.5
 31
0.0
  0
LINE
  5
BC7
330
BC3
100
AcDbEntity
  8
KOTY
 62
     0
100
AcDbLine
 10
134.7591212160449
 20
73.46275549151514
 30
0.0
 11
132.8959525964715
 21
73.46275549151514
 31
0.0
  0
LINE
  5
BC8
330
BC3
100
AcDbEntity
  8
KOTY
 62
     0
100
AcDbLine
 10
133.0759525964716
 20
86.32
 30
0.0
 11
133.0759525964716
 21
80.16326774575758
 31
0.0
  0
LINE
  5
BC9
330
BC3
100
AcDbEntity
  8
KOTY
 62
     0
100
AcDbLine
 10
133.0759525964716
 20
73.64275549151515
 30
0.0
 11
133.0759525964716
 21
79.79948774575756
 31
0.0
  0
SOLID
  5
BCA
330
BC3
100
AcDbEntity
  8
KOTY
 62
     0
100
AcDbTrace
 10
133.1059525964716
 20
86.32
 30
0.0
 11
133.0459525964716
 21
86.32
 31
0.0
 12
133.0759525964716
 22
86.5
 32
0.0
 13
133.0759525964716
 23
86.5
 33
0.0
  0
SOLID
  5
BCB
330
BC3
100
AcDbEntity
  8
KOTY
 62
     0
100
AcDbTrace
 10
133.0459525964716
 20
73.64275549151515
 30
0.0
 11
133.1059525964716
 21
73.64275549151515
 31
0.0
 12
133.0759525964716
 22
73.46275549151514
 32
0.0
 13
133.0759525964716
 23
73.46275549151514
 33
0.0
  0
MTEXT
  5
BCC
330
BC3
100
AcDbEntity
  8
KOTY
 62
     0
100
AcDbMText
 10
133.0759525964716
 20
79.98137774575757
 30
0.0
 40
0.18
 41
0.0
 71
     5
 72
     1
  1
\A1;13.0372
  0
POINT
  5
BCD
330
BC3
100
AcDbEntity
  8
DEFPOINTS
 62
     0
100
AcDbPoint
 10
135.3975992160449
 20
86.5
 30
0.0
  0
POINT
  5
BCE
330
BC3
100
AcDbEntity
  8
DEFPOINTS
 62
     0
100
AcDbPoint
 10
134.8216212160449
 20
73.46275549151514
 30
0.0
  0
POINT
  5
BCF
330
BC3
100
AcDbEntity
  8
DEFPOINTS
 62
     0
100
AcDbPoint
 10
133.0759525964716
 20
73.46275549151514
 30
0.0
  0
ENDBLK
  5
BC5
330
BC3
100
AcDbEntity
  8
0
100
AcDbBlockEnd
  0
BLOCK
  5
BD4
330
BD3
100
AcDbEntity
  8
0
100
AcDbBlockBegin
  2
*D17
 70
     1
 10
0.0
 20
0.0
 30
0.0
  3
*D17
  1
*D18
  0
LINE
  5
BD6
330
BD3
100
AcDbEntity
  8
KOTY
 62
     0
100
AcDbLine
 10
96.94996484256326
 20
113.4102193713617
 30
0.0
 11
95.73792592343908
 21
113.4102193713617
 31
0.0
  0
LINE
  5
BD7
330
BD3
100
AcDbEntity
  8
KOTY
 62
     0
100
AcDbLine
 10
96.94996484256326
 20
124.1853033713617
 30
0.0
 11
95.73792592343908
 21
124.1853033713617
 31
0.0
  0
LINE
  5
BD8
330
BD3
100
AcDbEntity
  8
KOTY
 62
     0
100
AcDbLine
 10
95.91792592343909
 20
113.5902193713618
 30
0.0
 11
95.91792592343909
 21
118.6158713713617
 31
0.0
  0
LINE
  5
BD9
330
BD3
100
AcDbEntity
  8
KOTY
 62
     0
100
AcDbLine
 10
95.91792592343909
 20
124.0053033713617
 30
0.0
 11
95.91792592343909
 21
118.9796513713618
 31
0.0
  0
SOLID
  5
BDA
330
BD3
100
AcDbEntity
  8
KOTY
 62
     0
100
AcDbTrace
 10
95.88792592343908
 20
113.5902193713618
 30
0.0
 11
95.94792592343909
 21
113.5902193713618
 31
0.0
 12
95.91792592343909
 22
113.4102193713617
 32
0.0
 13
95.91792592343909
 23
113.4102193713617
 33
0.0
  0
SOLID
  5
BDB
330
BD3
100
AcDbEntity
  8
KOTY
 62
     0
100
AcDbTrace
 10
95.94792592343909
 20
124.0053033713617
 30
0.0
 11
95.88792592343908
 21
124.0053033713617
 31
0.0
 12
95.91792592343909
 22
124.1853033713617
 32
0.0
 13
95.91792592343909
 23
124.1853033713617
 33
0.0
  0
MTEXT
  5
BDC
330
BD3
100
AcDbEntity
  8
KOTY
 62
     0
100
AcDbMText
 10
95.91792592343909
 20
118.7977613713617
 30
0.0
 40
0.18
 41
0.0
 71
     5
 72
     1
  1
\A1;10.7751
  0
POINT
  5
BDD
330
BD3
100
AcDbEntity
  8
DEFPOINTS
 62
     0
100
AcDbPoint
 10
97.01246484256326
 20
113.4102193713617
 30
0.0
  0
POINT
  5
BDE
330
BD3
100
AcDbEntity
  8
DEFPOINTS
 62
     0
100
AcDbPoint
 10
97.01246484256326
 20
124.1853033713617
 30
0.0
  0
POINT
  5
BDF
330
BD3
100
AcDbEntity
  8
DEFPOINTS
 62
     0
100
AcDbPoint
 10
95.91792592343909
 20
124.1853033713617
 30
0.0
  0
ENDBLK
  5
BD5
330
BD3
100
AcDbEntity
  8
0
100
AcDbBlockEnd
  0
BLOCK
  5
C02
330
C01
100
AcDbEntity
  8
0
100
AcDbBlockBegin
  2
*D18
 70
     1
 10
0.0
 20
0.0
 30
0.0
  3
*D18
  1
*D19
  0
LINE
  5
C04
330
C01
100
AcDbEntity
  8
KOTY
 62
     0
100
AcDbLine
 10
22.4375
 20
73.4628
 30
0.0
 11
21.22546108087582
 21
73.4628
 31
0.0
  0
LINE
  5
C05
330
C01
100
AcDbEntity
  8
KOTY
 62
     0
100
AcDbLine
 10
22.4375
 20
84.237884
 30
0.0
 11
21.22546108087582
 21
84.237884
 31
0.0
  0
LINE
  5
C06
330
C01
100
AcDbEntity
  8
KOTY
 62
     0
100
AcDbLine
 10
21.40546108087582
 20
73.64280000000001
 30
0.0
 11
21.40546108087582
 21
78.66845199999999
 31
0.0
  0
LINE
  5
C07
330
C01
100
AcDbEntity
  8
KOTY
 62
     0
100
AcDbLine
 10
21.40546108087582
 20
84.05788399999999
 30
0.0
 11
21.40546108087582
 21
79.03223200000001
 31
0.0
  0
SOLID
  5
C08
330
C01
100
AcDbEntity
  8
KOTY
 62
     0
100
AcDbTrace
 10
21.37546108087582
 20
73.64280000000001
 30
0.0
 11
21.43546108087583
 21
73.64280000000001
 31
0.0
 12
21.40546108087582
 22
73.4628
 32
0.0
 13
21.40546108087582
 23
73.4628
 33
0.0
  0
SOLID
  5
C09
330
C01
100
AcDbEntity
  8
KOTY
 62
     0
100
AcDbTrace
 10
21.43546108087583
 20
84.05788399999999
 30
0.0
 11
21.37546108087582
 21
84.05788399999999
 31
0.0
 12
21.40546108087582
 22
84.237884
 32
0.0
 13
21.40546108087582
 23
84.237884
 33
0.0
  0
MTEXT
  5
C0A
330
C01
100
AcDbEntity
  8
KOTY
 62
     0
100
AcDbMText
 10
21.40546108087582
 20
78.850342
 30
0.0
 40
0.18
 41
0.0
 71
     5
 72
     1
  1
\A1;10.7751
  0
POINT
  5
C0B
330
C01
100
AcDbEntity
  8
DEFPOINTS
 62
     0
100
AcDbPoint
 10
22.5
 20
73.4628
 30
0.0
  0
POINT
  5
C0C
330
C01
100
AcDbEntity
  8
DEFPOINTS
 62
     0
100
AcDbPoint
 10
22.5
 20
84.237884
 30
0.0
  0
POINT
  5
C0D
330
C01
100
AcDbEntity
  8
DEFPOINTS
 62
     0
100
AcDbPoint
 10
21.40546108087582
 20
84.237884
 30
0.0
  0
ENDBLK
  5
C03
330
C01
100
AcDbEntity
  8
0
100
AcDbBlockEnd
  0
BLOCK
  5
C12
330
C11
100
AcDbEntity
  8
0
100
AcDbBlockBegin
  2
*D19
 70
     1
 10
0.0
 20
0.0
 30
0.0
  3
*D19
  1
*D20
  0
LINE
  5
C14
330
C11
100
AcDbEntity
  8
KOTY
 62
     0
100
AcDbLine
 10
28.6375
 20
90.1
 30
0.0
 11
-25.92127328960625
 21
90.1
 31
0.0
  0
LINE
  5
C15
330
C11
100
AcDbEntity
  8
KOTY
 62
     0
100
AcDbLine
 10
28.6375
 20
8.1
 30
0.0
 11
-25.92127328960625
 21
8.100000000000003
 31
0.0
  0
LINE
  5
C16
330
C11
100
AcDbEntity
  8
KOTY
 62
     0
100
AcDbLine
 10
-25.74127328960625
 20
86.1
 30
0.0
 11
-25.74127328960626
 21
12.1
 31
0.0
  0
SOLID
  5
C17
330
C11
100
AcDbEntity
  8
KOTY
 62
     0
100
AcDbTrace
 10
-25.07460662293958
 20
86.1
 30
0.0
 11
-26.40793995627292
 21
86.1
 31
0.0
 12
-25.74127328960625
 22
90.1
 32
0.0
 13
-25.74127328960625
 23
90.1
 33
0.0
  0
SOLID
  5
C18
330
C11
100
AcDbEntity
  8
KOTY
 62
     0
100
AcDbTrace
 10
-26.40793995627292
 20
12.1
 30
0.0
 11
-25.07460662293959
 21
12.1
 31
0.0
 12
-25.74127328960626
 22
8.100000000000003
 32
0.0
 13
-25.74127328960626
 23
8.100000000000003
 33
0.0
  0
MTEXT
  5
C19
330
C11
100
AcDbEntity
  8
KOTY
 62
     0
100
AcDbMText
 10
-28.78327328960626
 20
49.1
 30
0.0
 40
4.0
 41
0.0
 71
     5
 72
     1
  1
\A1;82
 11
4.332577657073782E-17
 21
1.0
 31
0.0
  0
POINT
  5
C1A
330
C11
100
AcDbEntity
  8
DEFPOINTS
 62
     0
100
AcDbPoint
 10
28.7
 20
90.1
 30
0.0
  0
POINT
  5
C1B
330
C11
100
AcDbEntity
  8
DEFPOINTS
 62
     0
100
AcDbPoint
 10
28.7
 20
8.1
 30
0.0
  0
POINT
  5
C1C
330
C11
100
AcDbEntity
  8
DEFPOINTS
 62
     0
100
AcDbPoint
 10
-25.74127328960626
 20
8.100000000000003
 30
0.0
  0
ENDBLK
  5
C13
330
C11
100
AcDbEntity
  8
0
100
AcDbBlockEnd
  0
BLOCK
  5
D85
330
D84
100
AcDbEntity
  8
0
100
AcDbBlockBegin
  2
*D20
 70
     1
 10
0.0
 20
0.0
 30
0.0
  3
*D20
  1
*D22
  0
LINE
  5
D87
330
D84
100
AcDbEntity
  8
KOTY
 62
     0
100
AcDbLine
 10
133.9999622160449
 20
84.75126349151513
 30
0.0
 11
133.9999622160449
 21
85.61062278577543
 31
0.0
  0
LINE
  5
D88
330
D84
100
AcDbEntity
  8
KOTY
 62
     0
100
AcDbLine
 10
120.0
 20
84.75126349151513
 30
0.0
 11
120.0
 21
85.61062278577543
 31
0.0
  0
LINE
  5
D89
330
D84
100
AcDbEntity
  8
KOTY
 62
     0
100
AcDbLine
 10
133.8199622160449
 20
85.43062278577543
 30
0.0
 11
127.5242311080224
 21
85.43062278577543
 31
0.0
  0
LINE
  5
D8A
330
D84
100
AcDbEntity
  8
KOTY
 62
     0
100
AcDbLine
 10
120.18
 20
85.43062278577543
 30
0.0
 11
126.4757311080224
 21
85.43062278577543
 31
0.0
  0
SOLID
  5
D8B
330
D84
100
AcDbEntity
  8
KOTY
 62
     0
100
AcDbTrace
 10
133.8199622160449
 20
85.40062278577543
 30
0.0
 11
133.8199622160449
 21
85.46062278577543
 31
0.0
 12
133.9999622160449
 22
85.43062278577543
 32
0.0
 13
133.9999622160449
 23
85.43062278577543
 33
0.0
  0
SOLID
  5
D8C
330
D84
100
AcDbEntity
  8
KOTY
 62
     0
100
AcDbTrace
 10
120.18
 20
85.46062278577543
 30
0.0
 11
120.18
 21
85.40062278577543
 31
0.0
 12
120.0
 22
85.43062278577543
 32
0.0
 13
120.0
 23
85.43062278577543
 33
0.0
  0
MTEXT
  5
D8D
330
D84
100
AcDbEntity
  8
KOTY
 62
     0
100
AcDbMText
 10
126.9999811080224
 20
85.43062278577543
 30
0.0
 40
0.18
 41
0.0
 71
     5
 72
     1
  1
\A1;14.0000
  0
POINT
  5
D8E
330
D84
100
AcDbEntity
  8
DEFPOINTS
 62
     0
100
AcDbPoint
 10
133.9999622160449
 20
84.68876349151513
 30
0.0
  0
POINT
  5
D8F
330
D84
100
AcDbEntity
  8
DEFPOINTS
 62
     0
100
AcDbPoint
 10
120.0
 20
84.68876349151513
 30
0.0
  0
POINT
  5
D90
330
D84
100
AcDbEntity
  8
DEFPOINTS
 62
     0
100
AcDbPoint
 10
120.0
 20
85.43062278577543
 30
0.0
  0
ENDBLK
  5
D86
330
D84
100
AcDbEntity
  8
0
100
AcDbBlockEnd
  0
BLOCK
  5
D95
330
D94
100
AcDbEntity
  8
0
100
AcDbBlockBegin
  2
*D21
 70
     1
 10
0.0
 20
0.0
 30
0.0
  3
*D21
  1
*D23
  0
LINE
  5
D97
330
D94
100
AcDbEntity
  8
KOTY
 62
     0
100
AcDbLine
 10
141.9999622160449
 20
84.75126349151513
 30
0.0
 11
141.9999622160449
 21
85.83588175738453
 31
0.0
  0
LINE
  5
D98
330
D94
100
AcDbEntity
  8
KOTY
 62
     0
100
AcDbLine
 10
155.8196
 20
84.75126349151513
 30
0.0
 11
155.8196
 21
85.83588175738453
 31
0.0
  0
LINE
  5
D99
330
D94
100
AcDbEntity
  8
KOTY
 62
     0
100
AcDbLine
 10
142.1799622160449
 20
85.65588175738452
 30
0.0
 11
148.3851711080225
 21
85.65588175738452
 31
0.0
  0
LINE
  5
D9A
330
D94
100
AcDbEntity
  8
KOTY
 62
     0
100
AcDbLine
 10
155.6396
 20
85.65588175738452
 30
0.0
 11
149.4343911080225
 21
85.65588175738452
 31
0.0
  0
SOLID
  5
D9B
330
D94
100
AcDbEntity
  8
KOTY
 62
     0
100
AcDbTrace
 10
142.1799622160449
 20
85.68588175738452
 30
0.0
 11
142.1799622160449
 21
85.62588175738452
 31
0.0
 12
141.9999622160449
 22
85.65588175738452
 32
0.0
 13
141.9999622160449
 23
85.65588175738452
 33
0.0
  0
SOLID
  5
D9C
330
D94
100
AcDbEntity
  8
KOTY
 62
     0
100
AcDbTrace
 10
155.6396
 20
85.62588175738452
 30
0.0
 11
155.6396
 21
85.68588175738452
 31
0.0
 12
155.8196
 22
85.65588175738452
 32
0.0
 13
155.8196
 23
85.65588175738452
 33
0.0
  0
MTEXT
  5
D9D
330
D94
100
AcDbEntity
  8
KOTY
 62
     0
100
AcDbMText
 10
148.9097811080225
 20
85.65588175738452
 30
0.0
 40
0.18
 41
0.0
 71
     5
 72
     1
  1
\A1;13.8196
  0
POINT
  5
D9E
330
D94
100
AcDbEntity
  8
DEFPOINTS
 62
     0
100
AcDbPoint
 10
141.9999622160449
 20
84.68876349151513
 30
0.0
  0
POINT
  5
D9F
330
D94
100
AcDbEntity
  8
DEFPOINTS
 62
     0
100
AcDbPoint
 10
155.8196
 20
84.68876349151513
 30
0.0
  0
POINT
  5
DA0
330
D94
100
AcDbEntity
  8
DEFPOINTS
 62
     0
100
AcDbPoint
 10
155.8196
 20
85.65588175738452
 30
0.0
  0
ENDBLK
  5
D96
330
D94
100
AcDbEntity
  8
0
100
AcDbBlockEnd
  0
BLOCK
  5
E43
330
E42
100
AcDbEntity
  8
0
100
AcDbBlockBegin
  2
*D22
 70
     1
 10
0.0
 20
0.0
 30
0.0
  3
*D22
  1
*D24
  0
LINE
  5
E45
330
E42
100
AcDbEntity
  8
KOTY
 62
     0
100
AcDbLine
 10
134.0000060130739
 20
12.47409539317152
 30
0.0
 11
134.0000060130739
 21
12.95288730393274
 31
0.0
  0
LINE
  5
E46
330
E42
100
AcDbEntity
  8
KOTY
 62
     0
100
AcDbLine
 10
119.8375
 20
12.47409539317152
 30
0.0
 11
119.8375
 21
12.95288730393274
 31
0.0
  0
LINE
  5
E47
330
E42
100
AcDbEntity
  8
KOTY
 62
     0
100
AcDbLine
 10
133.8200060130739
 20
12.77288730393274
 30
0.0
 11
127.443993006537
 21
12.77288730393274
 31
0.0
  0
LINE
  5
E48
330
E42
100
AcDbEntity
  8
KOTY
 62
     0
100
AcDbLine
 10
120.0175
 20
12.77288730393274
 30
0.0
 11
126.393513006537
 21
12.77288730393274
 31
0.0
  0
SOLID
  5
E49
330
E42
100
AcDbEntity
  8
KOTY
 62
     0
100
AcDbTrace
 10
133.8200060130739
 20
12.74288730393274
 30
0.0
 11
133.8200060130739
 21
12.80288730393274
 31
0.0
 12
134.0000060130739
 22
12.77288730393274
 32
0.0
 13
134.0000060130739
 23
12.77288730393274
 33
0.0
  0
SOLID
  5
E4A
330
E42
100
AcDbEntity
  8
KOTY
 62
     0
100
AcDbTrace
 10
120.0175
 20
12.80288730393274
 30
0.0
 11
120.0175
 21
12.74288730393274
 31
0.0
 12
119.8375
 22
12.77288730393274
 32
0.0
 13
119.8375
 23
12.77288730393274
 33
0.0
  0
MTEXT
  5
E4B
330
E42
100
AcDbEntity
  8
KOTY
 62
     0
100
AcDbMText
 10
126.918753006537
 20
12.77288730393274
 30
0.0
 40
0.18
 41
0.0
 71
     5
 72
     1
  1
\A1;14.1625
  0
POINT
  5
E4C
330
E42
100
AcDbEntity
  8
DEFPOINTS
 62
     0
100
AcDbPoint
 10
134.0000060130739
 20
12.41159539317152
 30
0.0
  0
POINT
  5
E4D
330
E42
100
AcDbEntity
  8
DEFPOINTS
 62
     0
100
AcDbPoint
 10
119.8375
 20
12.41159539317152
 30
0.0
  0
POINT
  5
E4E
330
E42
100
AcDbEntity
  8
DEFPOINTS
 62
     0
100
AcDbPoint
 10
119.8375
 20
12.77288730393274
 30
0.0
  0
ENDBLK
  5
E44
330
E42
100
AcDbEntity
  8
0
100
AcDbBlockEnd
  0
BLOCK
  5
E53
330
E52
100
AcDbEntity
  8
0
100
AcDbBlockBegin
  2
*D23
 70
     1
 10
0.0
 20
0.0
 30
0.0
  3
*D23
  1
*D25
  0
LINE
  5
E55
330
E52
100
AcDbEntity
  8
KOTY
 62
     0
100
AcDbLine
 10
133.9375060130739
 20
13.51119539317152
 30
0.0
 11
132.4478217851015
 21
13.51119539317152
 31
0.0
  0
LINE
  5
E56
330
E52
100
AcDbEntity
  8
KOTY
 62
     0
100
AcDbLine
 10
133.9375060130739
 20
9.1996
 30
0.0
 11
132.4478217851015
 21
9.1996
 31
0.0
  0
LINE
  5
E57
330
E52
100
AcDbEntity
  8
KOTY
 62
     0
100
AcDbLine
 10
132.6278217851015
 20
13.33119539317152
 30
0.0
 11
132.6278217851015
 21
11.53728769658576
 31
0.0
  0
LINE
  5
E58
330
E52
100
AcDbEntity
  8
KOTY
 62
     0
100
AcDbLine
 10
132.6278217851015
 20
9.3796
 30
0.0
 11
132.6278217851015
 21
11.17350769658576
 31
0.0
  0
SOLID
  5
E59
330
E52
100
AcDbEntity
  8
KOTY
 62
     0
100
AcDbTrace
 10
132.6578217851015
 20
13.33119539317152
 30
0.0
 11
132.5978217851015
 21
13.33119539317152
 31
0.0
 12
132.6278217851015
 22
13.51119539317152
 32
0.0
 13
132.6278217851015
 23
13.51119539317152
 33
0.0
  0
SOLID
  5
E5A
330
E52
100
AcDbEntity
  8
KOTY
 62
     0
100
AcDbTrace
 10
132.5978217851015
 20
9.3796
 30
0.0
 11
132.6578217851015
 21
9.3796
 31
0.0
 12
132.6278217851015
 22
9.1996
 32
0.0
 13
132.6278217851015
 23
9.1996
 33
0.0
  0
MTEXT
  5
E5B
330
E52
100
AcDbEntity
  8
KOTY
 62
     0
100
AcDbMText
 10
132.6278217851015
 20
11.35539769658576
 30
0.0
 40
0.18
 41
0.0
 71
     5
 72
     1
  1
\A1;4.3116
  0
POINT
  5
E5C
330
E52
100
AcDbEntity
  8
DEFPOINTS
 62
     0
100
AcDbPoint
 10
134.0000060130739
 20
13.51119539317152
 30
0.0
  0
POINT
  5
E5D
330
E52
100
AcDbEntity
  8
DEFPOINTS
 62
     0
100
AcDbPoint
 10
134.0000060130739
 20
9.1996
 30
0.0
  0
POINT
  5
E5E
330
E52
100
AcDbEntity
  8
DEFPOINTS
 62
     0
100
AcDbPoint
 10
132.6278217851015
 20
9.1996
 30
0.0
  0
ENDBLK
  5
E54
330
E52
100
AcDbEntity
  8
0
100
AcDbBlockEnd
  0
BLOCK
  5
E81
330
E80
100
AcDbEntity
  8
0
100
AcDbBlockBegin
  2
*D24
 70
     1
 10
0.0
 20
0.0
 30
0.0
  3
*D24
  1
*D26
  0
LINE
  5
E83
330
E80
100
AcDbEntity
  8
KOTY
 62
     0
100
AcDbLine
 10
22.4375
 20
13.98621600000001
 30
0.0
 11
21.22546108087582
 21
13.98621600000001
 31
0.0
  0
LINE
  5
E84
330
E80
100
AcDbEntity
  8
KOTY
 62
     0
100
AcDbLine
 10
22.4375
 20
24.7613
 30
0.0
 11
21.22546108087582
 21
24.7613
 31
0.0
  0
LINE
  5
E85
330
E80
100
AcDbEntity
  8
KOTY
 62
     0
100
AcDbLine
 10
21.40546108087582
 20
14.16621600000001
 30
0.0
 11
21.40546108087582
 21
19.19186800000001
 31
0.0
  0
LINE
  5
E86
330
E80
100
AcDbEntity
  8
KOTY
 62
     0
100
AcDbLine
 10
21.40546108087582
 20
24.5813
 30
0.0
 11
21.40546108087582
 21
19.55564800000001
 31
0.0
  0
SOLID
  5
E87
330
E80
100
AcDbEntity
  8
KOTY
 62
     0
100
AcDbTrace
 10
21.37546108087582
 20
14.16621600000001
 30
0.0
 11
21.43546108087583
 21
14.16621600000001
 31
0.0
 12
21.40546108087582
 22
13.98621600000001
 32
0.0
 13
21.40546108087582
 23
13.98621600000001
 33
0.0
  0
SOLID
  5
E88
330
E80
100
AcDbEntity
  8
KOTY
 62
     0
100
AcDbTrace
 10
21.43546108087583
 20
24.5813
 30
0.0
 11
21.37546108087582
 21
24.5813
 31
0.0
 12
21.40546108087582
 22
24.7613
 32
0.0
 13
21.40546108087582
 23
24.7613
 33
0.0
  0
MTEXT
  5
E89
330
E80
100
AcDbEntity
  8
KOTY
 62
     0
100
AcDbMText
 10
21.40546108087582
 20
19.37375800000001
 30
0.0
 40
0.18
 41
0.0
 71
     5
 72
     1
  1
\A1;10.7751
  0
POINT
  5
E8A
330
E80
100
AcDbEntity
  8
DEFPOINTS
 62
     0
100
AcDbPoint
 10
22.5
 20
13.98621600000001
 30
0.0
  0
POINT
  5
E8B
330
E80
100
AcDbEntity
  8
DEFPOINTS
 62
     0
100
AcDbPoint
 10
22.5
 20
24.7613
 30
0.0
  0
POINT
  5
E8C
330
E80
100
AcDbEntity
  8
DEFPOINTS
 62
     0
100
AcDbPoint
 10
21.40546108087582
 20
24.7613
 30
0.0
  0
ENDBLK
  5
E82
330
E80
100
AcDbEntity
  8
0
100
AcDbBlockEnd
  0
BLOCK
  5
E91
330
E90
100
AcDbEntity
  8
0
100
AcDbBlockBegin
  2
*D25
 70
     1
 10
0.0
 20
0.0
 30
0.0
  3
*D25
  1
*D27
  0
LINE
  5
E93
330
E90
100
AcDbEntity
  8
KOTY
 62
     0
100
AcDbLine
 10
135.1661465130739
 20
24.76128339317152
 30
0.0
 11
132.8329763966166
 21
24.76128339317152
 31
0.0
  0
LINE
  5
E94
330
E90
100
AcDbEntity
  8
KOTY
 62
     0
100
AcDbLine
 10
135.1661465130739
 20
11.7
 30
0.0
 11
132.8329763966166
 21
11.7
 31
0.0
  0
LINE
  5
E95
330
E90
100
AcDbEntity
  8
KOTY
 62
     0
100
AcDbLine
 10
133.0129763966166
 20
24.58128339317152
 30
0.0
 11
133.0129763966166
 21
18.41253169658576
 31
0.0
  0
LINE
  5
E96
330
E90
100
AcDbEntity
  8
KOTY
 62
     0
100
AcDbLine
 10
133.0129763966166
 20
11.88
 30
0.0
 11
133.0129763966166
 21
18.04875169658576
 31
0.0
  0
SOLID
  5
E97
330
E90
100
AcDbEntity
  8
KOTY
 62
     0
100
AcDbTrace
 10
133.0429763966166
 20
24.58128339317152
 30
0.0
 11
132.9829763966166
 21
24.58128339317152
 31
0.0
 12
133.0129763966166
 22
24.76128339317152
 32
0.0
 13
133.0129763966166
 23
24.76128339317152
 33
0.0
  0
SOLID
  5
E98
330
E90
100
AcDbEntity
  8
KOTY
 62
     0
100
AcDbTrace
 10
132.9829763966166
 20
11.88
 30
0.0
 11
133.0429763966166
 21
11.88
 31
0.0
 12
133.0129763966166
 22
11.7
 32
0.0
 13
133.0129763966166
 23
11.7
 33
0.0
  0
MTEXT
  5
E99
330
E90
100
AcDbEntity
  8
KOTY
 62
     0
100
AcDbMText
 10
133.0129763966166
 20
18.23064169658576
 30
0.0
 40
0.18
 41
0.0
 71
     5
 72
     1
  1
\A1;13.0613
  0
POINT
  5
E9A
330
E90
100
AcDbEntity
  8
DEFPOINTS
 62
     0
100
AcDbPoint
 10
135.2286465130739
 20
24.76128339317152
 30
0.0
  0
POINT
  5
E9B
330
E90
100
AcDbEntity
  8
DEFPOINTS
 62
     0
100
AcDbPoint
 10
135.2286465130739
 20
11.7
 30
0.0
  0
POINT
  5
E9C
330
E90
100
AcDbEntity
  8
DEFPOINTS
 62
     0
100
AcDbPoint
 10
133.0129763966166
 20
11.7
 30
0.0
  0
ENDBLK
  5
E92
330
E90
100
AcDbEntity
  8
0
100
AcDbBlockEnd
  0
BLOCK
  5
F81
330
F80
100
AcDbEntity
  8
0
100
AcDbBlockBegin
  2
*D26
 70
     1
 10
0.0
 20
0.0
 30
0.0
  3
*D26
  1
*D29
  0
LINE
  5
F82
330
F80
100
AcDbEntity
  8
KOTY
 62
     0
100
AcDbLine
 10
1.449278919124183
 20
2.142609223586078
 30
0.0
 11
0.2372400000000061
 21
2.142609223586078
 31
0.0
  0
LINE
  5
F83
330
F80
100
AcDbEntity
  8
KOTY
 62
     0
100
AcDbLine
 10
1.449278919124183
 20
12.91769322358607
 30
0.0
 11
0.2372400000000067
 21
12.91769322358607
 31
0.0
  0
LINE
  5
F84
330
F80
100
AcDbEntity
  8
KOTY
 62
     0
100
AcDbLine
 10
0.4172400000000061
 20
2.322609223586078
 30
0.0
 11
0.4172400000000064
 21
7.348261223586074
 31
0.0
  0
LINE
  5
F85
330
F80
100
AcDbEntity
  8
KOTY
 62
     0
100
AcDbLine
 10
0.4172400000000067
 20
12.73769322358607
 30
0.0
 11
0.4172400000000064
 21
7.712041223586074
 31
0.0
  0
SOLID
  5
F86
330
F80
100
AcDbEntity
  8
KOTY
 62
     0
100
AcDbTrace
 10
0.387240000000006
 20
2.322609223586078
 30
0.0
 11
0.4472400000000061
 21
2.322609223586078
 31
0.0
 12
0.4172400000000061
 22
2.142609223586078
 32
0.0
 13
0.4172400000000061
 23
2.142609223586078
 33
0.0
  0
SOLID
  5
F87
330
F80
100
AcDbEntity
  8
KOTY
 62
     0
100
AcDbTrace
 10
0.4472400000000067
 20
12.73769322358607
 30
0.0
 11
0.3872400000000067
 21
12.73769322358607
 31
0.0
 12
0.4172400000000067
 22
12.91769322358607
 32
0.0
 13
0.4172400000000067
 23
12.91769322358607
 33
0.0
  0
MTEXT
  5
F88
330
F80
100
AcDbEntity
  8
KOTY
 62
     0
100
AcDbMText
 10
0.4172400000000064
 20
7.530151223586074
 30
0.0
 40
0.18
 41
0.0
 71
     5
 72
     1
  1
\A1;10.7751
  0
POINT
  5
F89
330
F80
100
AcDbEntity
  8
DEFPOINTS
 62
     0
100
AcDbPoint
 10
1.511778919124183
 20
2.142609223586078
 30
0.0
  0
POINT
  5
F8A
330
F80
100
AcDbEntity
  8
DEFPOINTS
 62
     0
100
AcDbPoint
 10
1.511778919124183
 20
12.91769322358607
 30
0.0
  0
POINT
  5
F8B
330
F80
100
AcDbEntity
  8
DEFPOINTS
 62
     0
100
AcDbPoint
 10
0.4172400000000067
 20
12.91769322358607
 30
0.0
  0
ENDBLK
  5
F8C
330
F80
100
AcDbEntity
  8
0
100
AcDbBlockEnd
  0
BLOCK
  5
1050
330
104F
100
AcDbEntity
  8
0
100
AcDbBlockBegin
  2
*D27
 70
     1
 10
0.0
 20
0.0
 30
0.0
  3
*D27
  1
*D30
  0
LINE
  5
1052
330
104F
100
AcDbEntity
  8
KOTY
 62
     0
100
AcDbLine
 10
80.78473397649493
 20
-75.21113371338981
 30
0.0
 11
79.57269505737075
 21
-75.21113371338981
 31
0.0
  0
LINE
  5
1053
330
104F
100
AcDbEntity
  8
KOTY
 62
     0
100
AcDbLine
 10
80.78473397649493
 20
-64.43604971338982
 30
0.0
 11
79.57269505737075
 21
-64.43604971338982
 31
0.0
  0
LINE
  5
1054
330
104F
100
AcDbEntity
  8
KOTY
 62
     0
100
AcDbLine
 10
79.75269505737076
 20
-75.0311337133898
 30
0.0
 11
79.75269505737076
 21
-70.00548171338983
 31
0.0
  0
LINE
  5
1055
330
104F
100
AcDbEntity
  8
KOTY
 62
     0
100
AcDbLine
 10
79.75269505737076
 20
-64.61604971338983
 30
0.0
 11
79.75269505737076
 21
-69.6417017133898
 31
0.0
  0
SOLID
  5
1056
330
104F
100
AcDbEntity
  8
KOTY
 62
     0
100
AcDbTrace
 10
79.72269505737076
 20
-75.0311337133898
 30
0.0
 11
79.78269505737076
 21
-75.0311337133898
 31
0.0
 12
79.75269505737076
 22
-75.21113371338981
 32
0.0
 13
79.75269505737076
 23
-75.21113371338981
 33
0.0
  0
SOLID
  5
1057
330
104F
100
AcDbEntity
  8
KOTY
 62
     0
100
AcDbTrace
 10
79.78269505737076
 20
-64.61604971338983
 30
0.0
 11
79.72269505737076
 21
-64.61604971338983
 31
0.0
 12
79.75269505737076
 22
-64.43604971338982
 32
0.0
 13
79.75269505737076
 23
-64.43604971338982
 33
0.0
  0
MTEXT
  5
1058
330
104F
100
AcDbEntity
  8
KOTY
 62
     0
100
AcDbMText
 10
79.75269505737076
 20
-69.82359171338982
 30
0.0
 40
0.18
 41
0.0
 71
     5
 72
     1
  1
\A1;10.7751
  0
POINT
  5
1059
330
104F
100
AcDbEntity
  8
DEFPOINTS
 62
     0
100
AcDbPoint
 10
80.84723397649493
 20
-75.21113371338981
 30
0.0
  0
POINT
  5
105A
330
104F
100
AcDbEntity
  8
DEFPOINTS
 62
     0
100
AcDbPoint
 10
80.84723397649493
 20
-64.43604971338982
 30
0.0
  0
POINT
  5
105B
330
104F
100
AcDbEntity
  8
DEFPOINTS
 62
     0
100
AcDbPoint
 10
79.75269505737076
 20
-64.43604971338982
 30
0.0
  0
ENDBLK
  5
1051
330
104F
100
AcDbEntity
  8
0
100
AcDbBlockEnd
  0
BLOCK
  5
11D3
330
11D2
100
AcDbEntity
  8
0
100
AcDbBlockBegin
  2
*D28
 70
     1
 10
0.0
 20
0.0
 30
0.0
  3
*D28
  1

  0
LINE
  5
11D4
330
11D2
100
AcDbEntity
  8
KOTY
 62
     0
100
AcDbLine
 10
114.9530379274946
 20
19.92301445135331
 30
0.0
 11
125.0705379274946
 21
19.92301445135331
 31
0.0
  0
LINE
  5
11D5
330
11D2
100
AcDbEntity
  8
KOTY
 62
     0
100
AcDbLine
 10
104.1030379274946
 20
111.9230144513533
 30
0.0
 11
125.0705379274946
 21
111.9230144513533
 31
0.0
  0
LINE
  5
11D6
330
11D2
100
AcDbEntity
  8
KOTY
 62
     0
100
AcDbLine
 10
124.8905379274946
 20
23.92301445135331
 30
0.0
 11
124.8905379274946
 21
107.9230144513533
 31
0.0
  0
SOLID
  5
11D7
330
11D2
100
AcDbEntity
  8
KOTY
 62
     0
100
AcDbTrace
 10
124.2238712608279
 20
23.92301445135331
 30
0.0
 11
125.5572045941613
 21
23.92301445135331
 31
0.0
 12
124.8905379274946
 22
19.92301445135331
 32
0.0
 13
124.8905379274946
 23
19.92301445135331
 33
0.0
  0
SOLID
  5
11D8
330
11D2
100
AcDbEntity
  8
KOTY
 62
     0
100
AcDbTrace
 10
125.5572045941613
 20
107.9230144513533
 30
0.0
 11
124.2238712608279
 21
107.9230144513533
 31
0.0
 12
124.8905379274946
 22
111.9230144513533
 32
0.0
 13
124.8905379274946
 23
111.9230144513533
 33
0.0
  0
MTEXT
  5
11D9
330
11D2
100
AcDbEntity
  8
KOTY
 62
     0
100
AcDbMText
 10
121.8485379274946
 20
65.92301445135331
 30
0.0
 40
4.0
 41
0.0
 71
     5
 72
     1
  1
\A1;92
 11
0.0
 21
1.0
 31
0.0
  0
POINT
  5
11DA
330
11D2
100
AcDbEntity
  8
DEFPOINTS
 62
     0
100
AcDbPoint
 10
114.8905379274946
 20
19.92301445135331
 30
0.0
  0
POINT
  5
11DB
330
11D2
100
AcDbEntity
  8
DEFPOINTS
 62
     0
100
AcDbPoint
 10
104.0405379274946
 20
111.9230144513533
 30
0.0
  0
POINT
  5
11DC
330
11D2
100
AcDbEntity
  8
DEFPOINTS
 62
     0
100
AcDbPoint
 10
124.8905379274946
 20
111.9230144513533
 30
0.0
  0
ENDBLK
  5
11DD
330
11D2
100
AcDbEntity
  8
0
100
AcDbBlockEnd
  0
BLOCK
  5
11E0
330
11DF
100
AcDbEntity
  8
0
100
AcDbBlockBegin
  2
*D29
 70
     1
 10
0.0
 20
0.0
 30
0.0
  3
*D29
  1

  0
LINE
  5
11E1
330
11DF
100
AcDbEntity
  8
KOTY
 62
     0
100
AcDbLine
 10
32.32803792749459
 20
46.52301445135331
 30
0.0
 11
20.3953554514489
 21
46.52301445135331
 31
0.0
  0
LINE
  5
11E2
330
11DF
100
AcDbEntity
  8
KOTY
 62
     0
100
AcDbLine
 10
32.32803792749459
 20
91.5230144513533
 30
0.0
 11
20.39535545144891
 21
91.5230144513533
 31
0.0
  0
LINE
  5
11E3
330
11DF
100
AcDbEntity
  8
KOTY
 62
     0
100
AcDbLine
 10
20.5753554514489
 20
50.52301445135331
 30
0.0
 11
20.57535545144891
 21
87.5230144513533
 31
0.0
  0
SOLID
  5
11E4
330
11DF
100
AcDbEntity
  8
KOTY
 62
     0
100
AcDbTrace
 10
19.90868878478224
 20
50.52301445135331
 30
0.0
 11
21.24202211811557
 21
50.52301445135331
 31
0.0
 12
20.5753554514489
 22
46.52301445135331
 32
0.0
 13
20.5753554514489
 23
46.52301445135331
 33
0.0
  0
SOLID
  5
11E5
330
11DF
100
AcDbEntity
  8
KOTY
 62
     0
100
AcDbTrace
 10
21.24202211811557
 20
87.5230144513533
 30
0.0
 11
19.90868878478224
 21
87.5230144513533
 31
0.0
 12
20.57535545144891
 22
91.5230144513533
 32
0.0
 13
20.57535545144891
 23
91.5230144513533
 33
0.0
  0
MTEXT
  5
11E6
330
11DF
100
AcDbEntity
  8
KOTY
 62
     0
100
AcDbMText
 10
17.5413554514489
 20
65.92301445135331
 30
0.0
 40
4.0
 41
0.0
 71
     5
 72
     1
  1
\A1;45
 11
7.894919286223337E-17
 21
1.0
 31
0.0
  0
POINT
  5
11E7
330
11DF
100
AcDbEntity
  8
DEFPOINTS
 62
     0
100
AcDbPoint
 10
32.39053792749459
 20
46.52301445135331
 30
0.0
  0
POINT
  5
11E8
330
11DF
100
AcDbEntity
  8
DEFPOINTS
 62
     0
100
AcDbPoint
 10
32.39053792749459
 20
91.5230144513533
 30
0.0
  0
POINT
  5
11E9
330
11DF
100
AcDbEntity
  8
DEFPOINTS
 62
     0
100
AcDbPoint
 10
20.57535545144891
 20
91.5230144513533
 30
0.0
  0
ENDBLK
  5
11EA
330
11DF
100
AcDbEntity
  8
0
100
AcDbBlockEnd
  0
BLOCK
  5
11ED
330
11EC
100
AcDbEntity
  8
0
100
AcDbBlockBegin
  2
*D30
 70
     1
 10
0.0
 20
0.0
 30
0.0
  3
*D30
  1

  0
LINE
  5
11EE
330
11EC
100
AcDbEntity
  8
KOTY
 62
     0
100
AcDbLine
 10
71.0280379274946
 20
28.02301445135331
 30
0.0
 11
4.912000000000032
 21
28.0230144513533
 31
0.0
  0
LINE
  5
11EF
330
11EC
100
AcDbEntity
  8
KOTY
 62
     0
100
AcDbLine
 10
71.0280379274946
 20
110.0230144513533
 30
0.0
 11
4.912000000000037
 21
110.0230144513533
 31
0.0
  0
LINE
  5
11F0
330
11EC
100
AcDbEntity
  8
KOTY
 62
     0
100
AcDbLine
 10
5.092000000000032
 20
32.0230144513533
 30
0.0
 11
5.092000000000037
 21
106.0230144513533
 31
0.0
  0
SOLID
  5
11F1
330
11EC
100
AcDbEntity
  8
KOTY
 62
     0
100
AcDbTrace
 10
4.425333333333365
 20
32.0230144513533
 30
0.0
 11
5.758666666666699
 21
32.0230144513533
 31
0.0
 12
5.092000000000032
 22
28.0230144513533
 32
0.0
 13
5.092000000000032
 23
28.0230144513533
 33
0.0
  0
SOLID
  5
11F2
330
11EC
100
AcDbEntity
  8
KOTY
 62
     0
100
AcDbTrace
 10
5.758666666666704
 20
106.0230144513533
 30
0.0
 11
4.42533333333337
 21
106.0230144513533
 31
0.0
 12
5.092000000000037
 22
110.0230144513533
 32
0.0
 13
5.092000000000037
 23
110.0230144513533
 33
0.0
  0
MTEXT
  5
11F3
330
11EC
100
AcDbEntity
  8
KOTY
 62
     0
100
AcDbMText
 10
2.050000000000033
 20
65.92301445135331
 30
0.0
 40
4.0
 41
0.0
 71
     5
 72
     1
  1
\A1;82
 11
6.498866485610672E-17
 21
1.0
 31
0.0
  0
POINT
  5
11F4
330
11EC
100
AcDbEntity
  8
DEFPOINTS
 62
     0
100
AcDbPoint
 10
71.0905379274946
 20
28.02301445135331
 30
0.0
  0
POINT
  5
11F5
330
11EC
100
AcDbEntity
  8
DEFPOINTS
 62
     0
100
AcDbPoint
 10
71.0905379274946
 20
110.0230144513533
 30
0.0
  0
POINT
  5
11F6
330
11EC
100
AcDbEntity
  8
DEFPOINTS
 62
     0
100
AcDbPoint
 10
5.092000000000041
 20
110.0230144513533
 30
0.0
  0
ENDBLK
  5
11F7
330
11EC
100
AcDbEntity
  8
0
100
AcDbBlockEnd
  0
BLOCK
  5
11FA
330
11F9
100
AcDbEntity
  8
0
100
AcDbBlockBegin
  2
*D31
 70
     1
 10
0.0
 20
0.0
 30
0.0
  3
*D31
  1

  0
LINE
  5
11FB
330
11F9
100
AcDbEntity
  8
KOTY
 62
     0
100
AcDbLine
 10
108.8905379274946
 20
50.36051445135331
 30
0.0
 11
108.8905379274946
 21
9.74301445135331
 31
0.0
  0
LINE
  5
11FC
330
11F9
100
AcDbEntity
  8
KOTY
 62
     0
100
AcDbLine
 10
64.89053792749459
 20
31.56051445135331
 30
0.0
 11
64.89053792749459
 21
9.74301445135331
 31
0.0
  0
LINE
  5
11FD
330
11F9
100
AcDbEntity
  8
KOTY
 62
     0
100
AcDbLine
 10
104.8905379274946
 20
9.92301445135331
 30
0.0
 11
68.89053792749459
 21
9.92301445135331
 31
0.0
  0
SOLID
  5
11FE
330
11F9
100
AcDbEntity
  8
KOTY
 62
     0
100
AcDbTrace
 10
104.8905379274946
 20
9.256347784686644
 30
0.0
 11
104.8905379274946
 21
10.58968111801998
 31
0.0
 12
108.8905379274946
 22
9.92301445135331
 32
0.0
 13
108.8905379274946
 23
9.92301445135331
 33
0.0
  0
SOLID
  5
11FF
330
11F9
100
AcDbEntity
  8
KOTY
 62
     0
100
AcDbTrace
 10
68.89053792749459
 20
10.58968111801998
 30
0.0
 11
68.89053792749459
 21
9.256347784686644
 31
0.0
 12
64.89053792749459
 22
9.92301445135331
 32
0.0
 13
64.89053792749459
 23
9.92301445135331
 33
0.0
  0
MTEXT
  5
1200
330
11F9
100
AcDbEntity
  8
KOTY
 62
     0
100
AcDbMText
 10
86.89053792749459
 20
12.92301445135331
 30
0.0
 40
4.0
 41
0.0
 71
     5
 72
     1
  1
\A1;44
  0
POINT
  5
1201
330
11F9
100
AcDbEntity
  8
DEFPOINTS
 62
     0
100
AcDbPoint
 10
108.8905379274946
 20
50.42301445135331
 30
0.0
  0
POINT
  5
1202
330
11F9
100
AcDbEntity
  8
DEFPOINTS
 62
     0
100
AcDbPoint
 10
64.89053792749459
 20
31.62301445135331
 30
0.0
  0
POINT
  5
1203
330
11F9
100
AcDbEntity
  8
DEFPOINTS
 62
     0
100
AcDbPoint
 10
64.89053792749459
 20
9.92301445135331
 30
0.0
  0
ENDBLK
  5
1204
330
11F9
100
AcDbEntity
  8
0
100
AcDbBlockEnd
  0
BLOCK
  5
1207
330
1206
100
AcDbEntity
  8
0
100
AcDbBlockBegin
  2
*D32
 70
     1
 10
0.0
 20
0.0
 30
0.0
  3
*D32
  1

  0
LINE
  5
1208
330
1206
100
AcDbEntity
  8
KOTY
 62
     0
100
AcDbLine
 10
32.39053792749459
 20
46.46051445135331
 30
0.0
 11
32.39053792749459
 21
0.4866666666666714
 31
0.0
  0
LINE
  5
1209
330
1206
100
AcDbEntity
  8
KOTY
 62
     0
100
AcDbLine
 10
108.8905379274946
 20
50.29801445135331
 30
0.0
 11
108.8905379274946
 21
0.4866666666666714
 31
0.0
  0
LINE
  5
120A
330
1206
100
AcDbEntity
  8
KOTY
 62
     0
100
AcDbLine
 10
36.39053792749459
 20
0.6666666666666714
 30
0.0
 11
104.8905379274946
 21
0.6666666666666714
 31
0.0
  0
SOLID
  5
120B
330
1206
100
AcDbEntity
  8
KOTY
 62
     0
100
AcDbTrace
 10
36.39053792749459
 20
1.333333333333338
 30
0.0
 11
36.39053792749459
 21
0.0000000000000048
 31
0.0
 12
32.39053792749459
 22
0.6666666666666714
 32
0.0
 13
32.39053792749459
 23
0.6666666666666714
 33
0.0
  0
SOLID
  5
120C
330
1206
100
AcDbEntity
  8
KOTY
 62
     0
100
AcDbTrace
 10
104.8905379274946
 20
0.0000000000000048
 30
0.0
 11
104.8905379274946
 21
1.333333333333338
 31
0.0
 12
108.8905379274946
 22
0.6666666666666714
 32
0.0
 13
108.8905379274946
 23
0.6666666666666714
 33
0.0
  0
MTEXT
  5
120D
330
1206
100
AcDbEntity
  8
KOTY
 62
     0
100
AcDbMText
 10
75.64053792749459
 20
3.666666666666671
 30
0.0
 40
4.0
 41
0.0
 71
     5
 72
     1
  1
\A1;77
  0
POINT
  5
120E
330
1206
100
AcDbEntity
  8
DEFPOINTS
 62
     0
100
AcDbPoint
 10
32.39053792749459
 20
46.52301445135331
 30
0.0
  0
POINT
  5
120F
330
1206
100
AcDbEntity
  8
DEFPOINTS
 62
     0
100
AcDbPoint
 10
108.8905379274946
 20
50.36051445135331
 30
0.0
  0
POINT
  5
1210
330
1206
100
AcDbEntity
  8
DEFPOINTS
 62
     0
100
AcDbPoint
 10
108.8905379274946
 20
0.6666666666666714
 30
0.0
  0
ENDBLK
  5
1211
330
1206
100
AcDbEntity
  8
0
100
AcDbBlockEnd
  0
BLOCK
  5
1214
330
1213
100
AcDbEntity
  8
0
100
AcDbBlockBegin
  2
*D33
 70
     1
 10
0.0
 20
0.0
 30
0.0
  3
*D33
  1

  0
LINE
  5
1215
330
1213
100
AcDbEntity
  8
KOTY
 62
     0
100
AcDbLine
 10
32.39053792749459
 20
91.5855144513533
 30
0.0
 11
32.39053792749459
 21
132.3008920659719
 31
0.0
  0
LINE
  5
1216
330
1213
100
AcDbEntity
  8
KOTY
 62
     0
100
AcDbLine
 10
114.8905379274946
 20
103.2855144513533
 30
0.0
 11
114.8905379274946
 21
132.3008920659719
 31
0.0
  0
LINE
  5
1217
330
1213
100
AcDbEntity
  8
KOTY
 62
     0
100
AcDbLine
 10
36.39053792749459
 20
132.1208920659719
 30
0.0
 11
110.8905379274946
 21
132.1208920659719
 31
0.0
  0
SOLID
  5
1218
330
1213
100
AcDbEntity
  8
KOTY
 62
     0
100
AcDbTrace
 10
36.39053792749459
 20
132.7875587326386
 30
0.0
 11
36.39053792749459
 21
131.4542253993053
 31
0.0
 12
32.39053792749459
 22
132.1208920659719
 32
0.0
 13
32.39053792749459
 23
132.1208920659719
 33
0.0
  0
SOLID
  5
1219
330
1213
100
AcDbEntity
  8
KOTY
 62
     0
100
AcDbTrace
 10
110.8905379274946
 20
131.4542253993053
 30
0.0
 11
110.8905379274946
 21
132.7875587326386
 31
0.0
 12
114.8905379274946
 22
132.1208920659719
 32
0.0
 13
114.8905379274946
 23
132.1208920659719
 33
0.0
  0
MTEXT
  5
121A
330
1213
100
AcDbEntity
  8
KOTY
 62
     0
100
AcDbMText
 10
73.64053792749459
 20
135.1628920659719
 30
0.0
 40
4.0
 41
0.0
 71
     5
 72
     1
  1
\A1;83
  0
POINT
  5
121B
330
1213
100
AcDbEntity
  8
DEFPOINTS
 62
     0
100
AcDbPoint
 10
32.39053792749459
 20
91.5230144513533
 30
0.0
  0
POINT
  5
121C
330
1213
100
AcDbEntity
  8
DEFPOINTS
 62
     0
100
AcDbPoint
 10
114.8905379274946
 20
103.2230144513533
 30
0.0
  0
POINT
  5
121D
330
1213
100
AcDbEntity
  8
DEFPOINTS
 62
     0
100
AcDbPoint
 10
114.8905379274946
 20
132.1208920659719
 30
0.0
  0
ENDBLK
  5
121E
330
1213
100
AcDbEntity
  8
0
100
AcDbBlockEnd
  0
BLOCK
  5
1224
330
1223
100
AcDbEntity
  8
0
100
AcDbBlockBegin
  2
*D34
 70
     1
 10
0.0
 20
0.0
 30
0.0
  3
*D34
  1

  0
LINE
  5
1225
330
1223
100
AcDbEntity
  8
KOTY
 62
     0
100
AcDbLine
 10
78.39056782332966
 20
110.0855144513533
 30
0.0
 11
78.39056782332966
 21
120.2030144513533
 31
0.0
  0
LINE
  5
1226
330
1223
100
AcDbEntity
  8
KOTY
 62
     0
100
AcDbLine
 10
108.8905379274946
 20
86.5855144513533
 30
0.0
 11
108.8905379274946
 21
120.2030144513533
 31
0.0
  0
LINE
  5
1227
330
1223
100
AcDbEntity
  8
KOTY
 62
     0
100
AcDbLine
 10
82.39056782332966
 20
120.0230144513533
 30
0.0
 11
104.8905379274946
 21
120.0230144513533
 31
0.0
  0
SOLID
  5
1228
330
1223
100
AcDbEntity
  8
KOTY
 62
     0
100
AcDbTrace
 10
82.39056782332966
 20
120.68968111802
 30
0.0
 11
82.39056782332966
 21
119.3563477846866
 31
0.0
 12
78.39056782332966
 22
120.0230144513533
 32
0.0
 13
78.39056782332966
 23
120.0230144513533
 33
0.0
  0
SOLID
  5
1229
330
1223
100
AcDbEntity
  8
KOTY
 62
     0
100
AcDbTrace
 10
104.8905379274946
 20
119.3563477846866
 30
0.0
 11
104.8905379274946
 21
120.68968111802
 31
0.0
 12
108.8905379274946
 22
120.0230144513533
 32
0.0
 13
108.8905379274946
 23
120.0230144513533
 33
0.0
  0
MTEXT
  5
122A
330
1223
100
AcDbEntity
  8
KOTY
 62
     0
100
AcDbMText
 10
93.64055287541211
 20
123.4250144513533
 30
0.0
 40
4.0
 41
0.0
 71
     5
 72
     1
  1
\A1;30,5
  0
POINT
  5
122B
330
1223
100
AcDbEntity
  8
DEFPOINTS
 62
     0
100
AcDbPoint
 10
78.39056782332966
 20
110.0230144513533
 30
0.0
  0
POINT
  5
122C
330
1223
100
AcDbEntity
  8
DEFPOINTS
 62
     0
100
AcDbPoint
 10
108.8905379274946
 20
86.5230144513533
 30
0.0
  0
POINT
  5
122D
330
1223
100
AcDbEntity
  8
DEFPOINTS
 62
     0
100
AcDbPoint
 10
108.8905379274946
 20
120.0230144513533
 30
0.0
  0
ENDBLK
  5
122E
330
1223
100
AcDbEntity
  8
0
100
AcDbBlockEnd
  0
BLOCK
  5
12D7
330
1291
100
AcDbEntity
  8
0
100
AcDbBlockBegin
  2
*D35
 70
     1
 10
0.0
 20
0.0
 30
0.0
  3
*D35
  1

  0
LINE
  5
1292
330
1291
100
AcDbEntity
  8
KOTY
 62
     0
100
AcDbLine
 10
72.5625
 20
0.0
 30
0.0
 11
82.68
 21
0.0
 31
0.0
  0
LINE
  5
1293
330
1291
100
AcDbEntity
  8
KOTY
 62
     0
100
AcDbLine
 10
61.71249999999999
 20
92.0
 30
0.0
 11
82.68
 21
92.0
 31
0.0
  0
LINE
  5
1294
330
1291
100
AcDbEntity
  8
KOTY
 62
     0
100
AcDbLine
 10
82.5
 20
4.0
 30
0.0
 11
82.5
 21
88.0
 31
0.0
  0
SOLID
  5
1295
330
1291
100
AcDbEntity
  8
KOTY
 62
     0
100
AcDbTrace
 10
81.83333333333333
 20
4.0
 30
0.0
 11
83.16666666666667
 21
4.0
 31
0.0
 12
82.5
 22
0.0
 32
0.0
 13
82.5
 23
0.0
 33
0.0
  0
SOLID
  5
1296
330
1291
100
AcDbEntity
  8
KOTY
 62
     0
100
AcDbTrace
 10
83.16666666666667
 20
88.0
 30
0.0
 11
81.83333333333333
 21
88.0
 31
0.0
 12
82.5
 22
92.0
 32
0.0
 13
82.5
 23
92.0
 33
0.0
  0
MTEXT
  5
1297
330
1291
100
AcDbEntity
  8
KOTY
 62
     0
100
AcDbMText
 10
79.458
 20
46.0
 30
0.0
 40
4.0
 41
0.0
 71
     5
 72
     1
  1
\A1;92
 11
0.0
 21
1.0
 31
0.0
  0
POINT
  5
1298
330
1291
100
AcDbEntity
  8
DEFPOINTS
 62
     0
100
AcDbPoint
 10
72.5
 20
0.0
 30
0.0
  0
POINT
  5
1299
330
1291
100
AcDbEntity
  8
DEFPOINTS
 62
     0
100
AcDbPoint
 10
61.64999999999999
 20
92.0
 30
0.0
  0
POINT
  5
129A
330
1291
100
AcDbEntity
  8
DEFPOINTS
 62
     0
100
AcDbPoint
 10
82.5
 20
92.0
 30
0.0
  0
ENDBLK
  5
12D8
330
1291
100
AcDbEntity
  8
0
100
AcDbBlockEnd
  0
BLOCK
  5
12D9
330
129B
100
AcDbEntity
  8
0
100
AcDbBlockBegin
  2
*D36
 70
     1
 10
0.0
 20
0.0
 30
0.0
  3
*D36
  1

  0
LINE
  5
129C
330
129B
100
AcDbEntity
  8
KOTY
 62
     0
100
AcDbLine
 10
-10.0625
 20
26.6
 30
0.0
 11
-21.99518247604569
 21
26.6
 31
0.0
  0
LINE
  5
129D
330
129B
100
AcDbEntity
  8
KOTY
 62
     0
100
AcDbLine
 10
-10.0625
 20
71.6
 30
0.0
 11
-21.99518247604569
 21
71.6
 31
0.0
  0
LINE
  5
129E
330
129B
100
AcDbEntity
  8
KOTY
 62
     0
100
AcDbLine
 10
-21.81518247604569
 20
30.6
 30
0.0
 11
-21.81518247604569
 21
67.6
 31
0.0
  0
SOLID
  5
129F
330
129B
100
AcDbEntity
  8
KOTY
 62
     0
100
AcDbTrace
 10
-22.48184914271236
 20
30.6
 30
0.0
 11
-21.14851580937902
 21
30.6
 31
0.0
 12
-21.81518247604569
 22
26.6
 32
0.0
 13
-21.81518247604569
 23
26.6
 33
0.0
  0
SOLID
  5
12A0
330
129B
100
AcDbEntity
  8
KOTY
 62
     0
100
AcDbTrace
 10
-21.14851580937902
 20
67.6
 30
0.0
 11
-22.48184914271236
 21
67.6
 31
0.0
 12
-21.81518247604569
 22
71.6
 32
0.0
 13
-21.81518247604569
 23
71.6
 33
0.0
  0
MTEXT
  5
12A1
330
129B
100
AcDbEntity
  8
KOTY
 62
     0
100
AcDbMText
 10
-24.84918247604569
 20
46.0
 30
0.0
 40
4.0
 41
0.0
 71
     5
 72
     1
  1
\A1;45
 11
7.894919286223337E-17
 21
1.0
 31
0.0
  0
POINT
  5
12A2
330
129B
100
AcDbEntity
  8
DEFPOINTS
 62
     0
100
AcDbPoint
 10
-10.0
 20
26.6
 30
0.0
  0
POINT
  5
12A3
330
129B
100
AcDbEntity
  8
DEFPOINTS
 62
     0
100
AcDbPoint
 10
-10.0
 20
71.6
 30
0.0
  0
POINT
  5
12A4
330
129B
100
AcDbEntity
  8
DEFPOINTS
 62
     0
100
AcDbPoint
 10
-21.81518247604569
 20
71.6
 30
0.0
  0
ENDBLK
  5
12DA
330
129B
100
AcDbEntity
  8
0
100
AcDbBlockEnd
  0
BLOCK
  5
12DB
330
12A5
100
AcDbEntity
  8
0
100
AcDbBlockBegin
  2
*D37
 70
     1
 10
0.0
 20
0.0
 30
0.0
  3
*D37
  1

  0
LINE
  5
12A6
330
12A5
100
AcDbEntity
  8
KOTY
 62
     0
100
AcDbLine
 10
28.6375
 20
8.100000000000001
 30
0.0
 11
-37.47853792749455
 21
8.099999999999994
 31
0.0
  0
LINE
  5
12A7
330
12A5
100
AcDbEntity
  8
KOTY
 62
     0
100
AcDbLine
 10
28.6375
 20
90.1
 30
0.0
 11
-37.47853792749454
 21
90.1
 31
0.0
  0
LINE
  5
12A8
330
12A5
100
AcDbEntity
  8
KOTY
 62
     0
100
AcDbLine
 10
-37.29853792749455
 20
12.09999999999999
 30
0.0
 11
-37.29853792749454
 21
86.1
 31
0.0
  0
SOLID
  5
12A9
330
12A5
100
AcDbEntity
  8
KOTY
 62
     0
100
AcDbTrace
 10
-37.96520459416121
 20
12.09999999999999
 30
0.0
 11
-36.63187126082789
 21
12.09999999999999
 31
0.0
 12
-37.29853792749455
 22
8.099999999999994
 32
0.0
 13
-37.29853792749455
 23
8.099999999999994
 33
0.0
  0
SOLID
  5
12AA
330
12A5
100
AcDbEntity
  8
KOTY
 62
     0
100
AcDbTrace
 10
-36.63187126082788
 20
86.1
 30
0.0
 11
-37.96520459416121
 21
86.1
 31
0.0
 12
-37.29853792749454
 22
90.1
 32
0.0
 13
-37.29853792749454
 23
90.1
 33
0.0
  0
MTEXT
  5
12AB
330
12A5
100
AcDbEntity
  8
KOTY
 62
     0
100
AcDbMText
 10
-40.34053792749455
 20
46.0
 30
0.0
 40
4.0
 41
0.0
 71
     5
 72
     1
  1
\A1;82
 11
8.665155314147564E-17
 21
1.0
 31
0.0
  0
POINT
  5
12AC
330
12A5
100
AcDbEntity
  8
DEFPOINTS
 62
     0
100
AcDbPoint
 10
28.7
 20
8.100000000000001
 30
0.0
  0
POINT
  5
12AD
330
12A5
100
AcDbEntity
  8
DEFPOINTS
 62
     0
100
AcDbPoint
 10
28.7
 20
90.1
 30
0.0
  0
POINT
  5
12AE
330
12A5
100
AcDbEntity
  8
DEFPOINTS
 62
     0
100
AcDbPoint
 10
-37.29853792749455
 20
90.1
 30
0.0
  0
ENDBLK
  5
12DC
330
12A5
100
AcDbEntity
  8
0
100
AcDbBlockEnd
  0
BLOCK
  5
12DD
330
12AF
100
AcDbEntity
  8
0
100
AcDbBlockBegin
  2
*D38
 70
     1
 10
0.0
 20
0.0
 30
0.0
  3
*D38
  1

  0
LINE
  5
12B0
330
12AF
100
AcDbEntity
  8
KOTY
 62
     0
100
AcDbLine
 10
66.5
 20
30.4375
 30
0.0
 11
66.5
 21
-10.18
 31
0.0
  0
LINE
  5
12B1
330
12AF
100
AcDbEntity
  8
KOTY
 62
     0
100
AcDbLine
 10
22.5
 20
11.6375
 30
0.0
 11
22.5
 21
-10.18
 31
0.0
  0
LINE
  5
12B2
330
12AF
100
AcDbEntity
  8
KOTY
 62
     0
100
AcDbLine
 10
62.5
 20
-10.0
 30
0.0
 11
26.5
 21
-10.0
 31
0.0
  0
SOLID
  5
12B3
330
12AF
100
AcDbEntity
  8
KOTY
 62
     0
100
AcDbTrace
 10
62.5
 20
-10.66666666666667
 30
0.0
 11
62.5
 21
-9.333333333333334
 31
0.0
 12
66.5
 22
-10.0
 32
0.0
 13
66.5
 23
-10.0
 33
0.0
  0
SOLID
  5
12B4
330
12AF
100
AcDbEntity
  8
KOTY
 62
     0
100
AcDbTrace
 10
26.5
 20
-9.333333333333334
 30
0.0
 11
26.5
 21
-10.66666666666667
 31
0.0
 12
22.5
 22
-10.0
 32
0.0
 13
22.5
 23
-10.0
 33
0.0
  0
MTEXT
  5
12B5
330
12AF
100
AcDbEntity
  8
KOTY
 62
     0
100
AcDbMText
 10
44.5
 20
-7.0
 30
0.0
 40
4.0
 41
0.0
 71
     5
 72
     1
  1
\A1;44
  0
POINT
  5
12B6
330
12AF
100
AcDbEntity
  8
DEFPOINTS
 62
     0
100
AcDbPoint
 10
66.5
 20
30.5
 30
0.0
  0
POINT
  5
12B7
330
12AF
100
AcDbEntity
  8
DEFPOINTS
 62
     0
100
AcDbPoint
 10
22.5
 20
11.7
 30
0.0
  0
POINT
  5
12B8
330
12AF
100
AcDbEntity
  8
DEFPOINTS
 62
     0
100
AcDbPoint
 10
22.5
 20
-10.0
 30
0.0
  0
ENDBLK
  5
12DE
330
12AF
100
AcDbEntity
  8
0
100
AcDbBlockEnd
  0
BLOCK
  5
12DF
330
12B9
100
AcDbEntity
  8
0
100
AcDbBlockBegin
  2
*D39
 70
     1
 10
0.0
 20
0.0
 30
0.0
  3
*D39
  1

  0
LINE
  5
12BA
330
12B9
100
AcDbEntity
  8
KOTY
 62
     0
100
AcDbLine
 10
-10.0
 20
26.5375
 30
0.0
 11
-10.0
 21
-19.43634778468664
 31
0.0
  0
LINE
  5
12BB
330
12B9
100
AcDbEntity
  8
KOTY
 62
     0
100
AcDbLine
 10
66.5
 20
30.375
 30
0.0
 11
66.5
 21
-19.43634778468664
 31
0.0
  0
LINE
  5
12BC
330
12B9
100
AcDbEntity
  8
KOTY
 62
     0
100
AcDbLine
 10
-6.0
 20
-19.25634778468664
 30
0.0
 11
62.5
 21
-19.25634778468664
 31
0.0
  0
SOLID
  5
12BD
330
12B9
100
AcDbEntity
  8
KOTY
 62
     0
100
AcDbTrace
 10
-6.0
 20
-18.58968111801997
 30
0.0
 11
-6.0
 21
-19.92301445135331
 31
0.0
 12
-10.0
 22
-19.25634778468664
 32
0.0
 13
-10.0
 23
-19.25634778468664
 33
0.0
  0
SOLID
  5
12BE
330
12B9
100
AcDbEntity
  8
KOTY
 62
     0
100
AcDbTrace
 10
62.5
 20
-19.92301445135331
 30
0.0
 11
62.5
 21
-18.58968111801997
 31
0.0
 12
66.5
 22
-19.25634778468664
 32
0.0
 13
66.5
 23
-19.25634778468664
 33
0.0
  0
MTEXT
  5
12BF
330
12B9
100
AcDbEntity
  8
KOTY
 62
     0
100
AcDbMText
 10
33.25
 20
-16.25634778468664
 30
0.0
 40
4.0
 41
0.0
 71
     5
 72
     1
  1
\A1;77
  0
POINT
  5
12C0
330
12B9
100
AcDbEntity
  8
DEFPOINTS
 62
     0
100
AcDbPoint
 10
-10.0
 20
26.6
 30
0.0
  0
POINT
  5
12C1
330
12B9
100
AcDbEntity
  8
DEFPOINTS
 62
     0
100
AcDbPoint
 10
66.5
 20
30.4375
 30
0.0
  0
POINT
  5
12C2
330
12B9
100
AcDbEntity
  8
DEFPOINTS
 62
     0
100
AcDbPoint
 10
66.5
 20
-19.25634778468664
 30
0.0
  0
ENDBLK
  5
12E0
330
12B9
100
AcDbEntity
  8
0
100
AcDbBlockEnd
  0
BLOCK
  5
12E1
330
12C3
100
AcDbEntity
  8
0
100
AcDbBlockBegin
  2
*D40
 70
     1
 10
0.0
 20
0.0
 30
0.0
  3
*D40
  1

  0
LINE
  5
12C4
330
12C3
100
AcDbEntity
  8
KOTY
 62
     0
100
AcDbLine
 10
-10.0
 20
71.6625
 30
0.0
 11
-10.0
 21
112.3778776146186
 31
0.0
  0
LINE
  5
12C5
330
12C3
100
AcDbEntity
  8
KOTY
 62
     0
100
AcDbLine
 10
72.5
 20
83.3625
 30
0.0
 11
72.5
 21
112.3778776146186
 31
0.0
  0
LINE
  5
12C6
330
12C3
100
AcDbEntity
  8
KOTY
 62
     0
100
AcDbLine
 10
-6.0
 20
112.1978776146186
 30
0.0
 11
68.5
 21
112.1978776146186
 31
0.0
  0
SOLID
  5
12C7
330
12C3
100
AcDbEntity
  8
KOTY
 62
     0
100
AcDbTrace
 10
-6.0
 20
112.8645442812853
 30
0.0
 11
-6.0
 21
111.5312109479519
 31
0.0
 12
-10.0
 22
112.1978776146186
 32
0.0
 13
-10.0
 23
112.1978776146186
 33
0.0
  0
SOLID
  5
12C8
330
12C3
100
AcDbEntity
  8
KOTY
 62
     0
100
AcDbTrace
 10
68.5
 20
111.5312109479519
 30
0.0
 11
68.5
 21
112.8645442812853
 31
0.0
 12
72.5
 22
112.1978776146186
 32
0.0
 13
72.5
 23
112.1978776146186
 33
0.0
  0
MTEXT
  5
12C9
330
12C3
100
AcDbEntity
  8
KOTY
 62
     0
100
AcDbMText
 10
31.25
 20
115.2398776146186
 30
0.0
 40
4.0
 41
0.0
 71
     5
 72
     1
  1
\A1;83
  0
POINT
  5
12CA
330
12C3
100
AcDbEntity
  8
DEFPOINTS
 62
     0
100
AcDbPoint
 10
-10.0
 20
71.6
 30
0.0
  0
POINT
  5
12CB
330
12C3
100
AcDbEntity
  8
DEFPOINTS
 62
     0
100
AcDbPoint
 10
72.5
 20
83.3
 30
0.0
  0
POINT
  5
12CC
330
12C3
100
AcDbEntity
  8
DEFPOINTS
 62
     0
100
AcDbPoint
 10
72.5
 20
112.1978776146186
 30
0.0
  0
ENDBLK
  5
12E2
330
12C3
100
AcDbEntity
  8
0
100
AcDbBlockEnd
  0
BLOCK
  5
12E3
330
12CD
100
AcDbEntity
  8
0
100
AcDbBlockBegin
  2
*D41
 70
     1
 10
0.0
 20
0.0
 30
0.0
  3
*D41
  1

  0
LINE
  5
12CE
330
12CD
100
AcDbEntity
  8
KOTY
 62
     0
100
AcDbLine
 10
36.00002989583507
 20
90.1625
 30
0.0
 11
36.00002989583507
 21
100.28
 31
0.0
  0
LINE
  5
12CF
330
12CD
100
AcDbEntity
  8
KOTY
 62
     0
100
AcDbLine
 10
66.5
 20
66.6625
 30
0.0
 11
66.5
 21
100.28
 31
0.0
  0
LINE
  5
12D0
330
12CD
100
AcDbEntity
  8
KOTY
 62
     0
100
AcDbLine
 10
40.00002989583507
 20
100.1
 30
0.0
 11
62.5
 21
100.1
 31
0.0
  0
SOLID
  5
12D1
330
12CD
100
AcDbEntity
  8
KOTY
 62
     0
100
AcDbTrace
 10
40.00002989583507
 20
100.7666666666667
 30
0.0
 11
40.00002989583507
 21
99.43333333333332
 31
0.0
 12
36.00002989583507
 22
100.1
 32
0.0
 13
36.00002989583507
 23
100.1
 33
0.0
  0
SOLID
  5
12D2
330
12CD
100
AcDbEntity
  8
KOTY
 62
     0
100
AcDbTrace
 10
62.5
 20
99.43333333333332
 30
0.0
 11
62.5
 21
100.7666666666667
 31
0.0
 12
66.5
 22
100.1
 32
0.0
 13
66.5
 23
100.1
 33
0.0
  0
MTEXT
  5
12D3
330
12CD
100
AcDbEntity
  8
KOTY
 62
     0
100
AcDbMText
 10
51.25001494791752
 20
103.502
 30
0.0
 40
4.0
 41
0.0
 71
     5
 72
     1
  1
\A1;30,5
  0
POINT
  5
12D4
330
12CD
100
AcDbEntity
  8
DEFPOINTS
 62
     0
100
AcDbPoint
 10
36.00002989583507
 20
90.1
 30
0.0
  0
POINT
  5
12D5
330
12CD
100
AcDbEntity
  8
DEFPOINTS
 62
     0
100
AcDbPoint
 10
66.5
 20
66.6
 30
0.0
  0
POINT
  5
12D6
330
12CD
100
AcDbEntity
  8
DEFPOINTS
 62
     0
100
AcDbPoint
 10
66.5
 20
100.1
 30
0.0
  0
ENDBLK
  5
12E4
330
12CD
100
AcDbEntity
  8
0
100
AcDbBlockEnd
  0
ENDSEC
  0
SECTION
  2
ENTITIES
  0
LINE
  5
3EF
330
1F
100
AcDbEntity
  8
OBRYS
 62
     5
100
AcDbLine
 10
134.3969719792858
 20
0.0000000000000033
 30
0.0
 11
141.3892480580031
 21
0.0000000000000007
 31
0.0
  0
LINE
  5
3F0
330
1F
100
AcDbEntity
  8
OBRYS
 62
     5
100
AcDbLine
 10
120.0
 20
8.1
 30
0.0
 11
138.0
 21
8.1
 31
0.0
  0
LINE
  5
3F1
330
1F
100
AcDbEntity
  8
OBRYS
 62
     5
100
AcDbLine
 10
123.15
 20
6.2
 30
0.0
 11
134.85
 21
6.2
 31
0.0
  0
LINE
  5
3F2
330
1F
100
AcDbEntity
  8
OBRYS
 62
     5
100
AcDbLine
 10
123.15
 20
6.2
 30
0.0
 11
121.95
 21
8.1
 31
0.0
  0
LINE
  5
3F3
330
1F
100
AcDbEntity
  8
OBRYS
 62
     5
100
AcDbLine
 10
134.85
 20
6.2
 30
0.0
 11
136.05
 21
8.1
 31
0.0
  0
LINE
  5
3F4
330
1F
100
AcDbEntity
  8
OBRYS
 62
     5
100
AcDbLine
 10
134.6071067811866
 20
1.0
 30
0.0
 11
141.1928932188135
 21
1.0
 31
0.0
  0
LINE
  5
3F5
330
1F
100
AcDbEntity
  8
OBRYS
 62
     5
100
AcDbLine
 10
133.9
 20
1.707106781186548
 30
0.0
 11
133.9
 21
6.2
 31
0.0
  0
LINE
  5
3F6
330
1F
100
AcDbEntity
  8
OBRYS
 62
     5
100
AcDbLine
 10
141.9
 20
1.707106781186548
 30
0.0
 11
141.9
 21
6.2
 31
0.0
  0
ARC
  5
3F7
330
1F
100
AcDbEntity
  8
OBRYS
 62
     5
100
AcDbCircle
 10
134.6071067811866
 20
1.707106781186548
 30
0.0
 40
0.707106781186548
100
AcDbArc
 50
180.0
 51
270.0
  0
ARC
  5
3F8
330
1F
100
AcDbEntity
  8
OBRYS
 62
     5
100
AcDbCircle
 10
141.1928932188135
 20
1.707106781186548
 30
0.0
 40
0.707106781186548
100
AcDbArc
 50
270.0
 51
359.9999999999998
  0
LINE
  5
3F9
330
1F
100
AcDbEntity
  8
OBRYS
 62
     5
100
AcDbLine
 10
130.6
 20
6.2
 30
0.0
 11
130.6
 21
5.207106781186549
 31
0.0
  0
LINE
  5
3FA
330
1F
100
AcDbEntity
  8
OBRYS
 62
     5
100
AcDbLine
 10
133.9
 20
4.5
 30
0.0
 11
131.3071067811865
 21
4.500000000000001
 31
0.0
  0
ARC
  5
3FB
330
1F
100
AcDbEntity
  8
OBRYS
 62
     5
100
AcDbCircle
 10
131.3071067811865
 20
5.207106781186549
 30
0.0
 40
0.707106781186548
100
AcDbArc
 50
180.0
 51
270.0
  0
LINE
  5
3FC
330
1F
100
AcDbEntity
  8
OBRYS
 62
     5
100
AcDbLine
 10
145.2
 20
6.2
 30
0.0
 11
145.2
 21
5.207106781186541
 31
0.0
  0
LINE
  5
3FD
330
1F
100
AcDbEntity
  8
OBRYS
 62
     5
100
AcDbLine
 10
141.9170014197672
 20
4.5
 30
0.0
 11
144.4928932188135
 21
4.5
 31
0.0
  0
ARC
  5
3FE
330
1F
100
AcDbEntity
  8
OBRYS
 62
     5
100
AcDbCircle
 10
144.4928932188135
 20
5.207106781186548
 30
0.0
 40
0.7071067811865475
100
AcDbArc
 50
270.0
 51
359.9999999999993
  0
LINE
  5
3FF
330
1F
100
AcDbEntity
  8
OBRYS
 62
     5
100
AcDbLine
 10
132.9
 20
4.5
 30
0.0
 11
132.8999990265624
 21
1.503194007024523
 31
0.0
  0
LINE
  5
400
330
1F
100
AcDbEntity
  8
OBRYS
 62
     5
100
AcDbLine
 10
142.9
 20
4.5
 30
0.0
 11
142.9
 21
1.49604698548332
 31
0.0
  0
ARC
  5
401
330
1F
100
AcDbEntity
  8
OBRYS
 62
     5
100
AcDbCircle
 10
141.3601391923747
 20
1.540219193746501
 30
0.0
 40
1.540494235900705
100
AcDbArc
 50
271.0827138285986
 51
358.356872755389
  0
ARC
  5
402
330
1F
100
AcDbEntity
  8
OBRYS
 62
     5
100
AcDbCircle
 10
134.4032078059073
 20
1.503195845114476
 30
0.0
 40
1.503208779346059
100
AcDbArc
 50
179.9347947880687
 51
269.7623167341435
  0
LINE
  5
403
330
1F
100
AcDbEntity
  8
OBRYS
 62
     5
100
AcDbLine
 10
120.0
 20
8.1
 30
0.0
 11
120.0
 21
90.1
 31
0.0
  0
LINE
  5
404
330
1F
100
AcDbEntity
  8
OBRYS
 62
     5
100
AcDbLine
 10
120.0
 20
90.1
 30
0.0
 11
138.0
 21
90.1
 31
0.0
  0
LINE
  5
406
330
1F
100
AcDbEntity
  8
OBRYS
 62
     5
100
AcDbLine
 10
123.15
 20
91.99999999999999
 30
0.0
 11
121.95
 21
90.1
 31
0.0
  0
LINE
  5
407
330
1F
100
AcDbEntity
  8
OBRYS
 62
     5
100
AcDbLine
 10
123.15
 20
91.99999999999999
 30
0.0
 11
134.85
 21
91.99999999999999
 31
0.0
  0
LINE
  5
408
330
1F
100
AcDbEntity
  8
OBRYS
 62
     5
100
AcDbLine
 10
134.85
 20
91.99999999999999
 30
0.0
 11
136.05
 21
90.1
 31
0.0
  0
LINE
  5
409
330
1F
100
AcDbEntity
  8
OBRYS
 62
     5
100
AcDbLine
 10
120.0
 20
26.1
 30
0.0
 11
138.0
 21
26.1
 31
0.0
  0
LINE
  5
40A
330
1F
100
AcDbEntity
  8
OBRYS
 62
     5
100
AcDbLine
 10
120.3
 20
26.6
 30
0.0
 11
137.7
 21
26.6
 31
0.0
  0
LINE
  5
40B
330
1F
100
AcDbEntity
  8
OBRYS
 62
     5
100
AcDbLine
 10
120.3
 20
71.6
 30
0.0
 11
137.7
 21
71.6
 31
0.0
  0
LINE
  5
40C
330
1F
100
AcDbEntity
  8
OBRYS
 62
     5
100
AcDbLine
 10
120.0
 20
72.1
 30
0.0
 11
138.0
 21
72.1
 31
0.0
  0
LINE
  5
40E
330
1F
100
AcDbEntity
  8
OBRYS
 62
     5
100
AcDbLine
 10
127.3
 20
26.1
 30
0.0
 11
127.3
 21
24.6
 31
0.0
  0
LINE
  5
40F
330
1F
100
AcDbEntity
  8
OBRYS
 62
     5
100
AcDbLine
 10
127.3
 20
24.6
 30
0.0
 11
129.0
 21
24.6
 31
0.0
  0
LINE
  5
410
330
1F
100
AcDbEntity
  8
OBRYS
 62
     5
100
AcDbLine
 10
129.0
 20
24.6
 30
0.0
 11
129.0
 21
26.1
 31
0.0
  0
LINE
  5
411
330
1F
100
AcDbEntity
  8
OBRYS
 62
     5
100
AcDbLine
 10
126.45
 20
26.1
 30
0.0
 11
126.45
 21
23.6
 31
0.0
  0
LINE
  5
412
330
1F
100
AcDbEntity
  8
OBRYS
 62
     5
100
AcDbLine
 10
126.45
 20
23.6
 30
0.0
 11
129.85
 21
23.6
 31
0.0
  0
LINE
  5
413
330
1F
100
AcDbEntity
  8
OBRYS
 62
     5
100
AcDbLine
 10
129.85
 20
23.6
 30
0.0
 11
129.85
 21
26.1
 31
0.0
  0
LINE
  5
414
330
1F
100
AcDbEntity
  8
OBRYS
 62
     5
100
AcDbLine
 10
126.45
 20
23.6
 30
0.0
 11
127.3
 21
24.6
 31
0.0
  0
LINE
  5
415
330
1F
100
AcDbEntity
  8
OBRYS
 62
     5
100
AcDbLine
 10
129.0
 20
24.6
 30
0.0
 11
129.85
 21
23.6
 31
0.0
  0
LINE
  5
416
330
1F
100
AcDbEntity
  8
OBRYS
 62
     5
100
AcDbLine
 10
127.3
 20
72.1
 30
0.0
 11
127.3
 21
73.6
 31
0.0
  0
LINE
  5
417
330
1F
100
AcDbEntity
  8
OBRYS
 62
     5
100
AcDbLine
 10
127.3
 20
73.6
 30
0.0
 11
129.0
 21
73.6
 31
0.0
  0
LINE
  5
418
330
1F
100
AcDbEntity
  8
OBRYS
 62
     5
100
AcDbLine
 10
129.0
 20
73.6
 30
0.0
 11
129.0
 21
72.1
 31
0.0
  0
LINE
  5
419
330
1F
100
AcDbEntity
  8
OBRYS
 62
     5
100
AcDbLine
 10
126.45
 20
72.1
 30
0.0
 11
126.45
 21
74.6
 31
0.0
  0
LINE
  5
41A
330
1F
100
AcDbEntity
  8
OBRYS
 62
     5
100
AcDbLine
 10
126.45
 20
74.6
 30
0.0
 11
129.85
 21
74.6
 31
0.0
  0
LINE
  5
41B
330
1F
100
AcDbEntity
  8
OBRYS
 62
     5
100
AcDbLine
 10
129.85
 20
74.6
 30
0.0
 11
129.85
 21
72.1
 31
0.0
  0
LINE
  5
41C
330
1F
100
AcDbEntity
  8
OBRYS
 62
     5
100
AcDbLine
 10
126.45
 20
74.6
 30
0.0
 11
127.3
 21
73.6
 31
0.0
  0
LINE
  5
41D
330
1F
100
AcDbEntity
  8
OBRYS
 62
     5
100
AcDbLine
 10
129.0
 20
73.6
 30
0.0
 11
129.85
 21
74.6
 31
0.0
  0
CIRCLE
  5
41E
330
1F
100
AcDbEntity
  8
OBRYS
 62
     5
100
AcDbCircle
 10
129.0
 20
16.85
 30
0.0
 40
3.2
  0
LINE
  5
41F
330
1F
100
AcDbEntity
  8
OBRYS
 62
     5
100
AcDbLine
 10
120.0
 20
11.7
 30
0.0
 11
138.0
 21
11.7
 31
0.0
  0
LINE
  5
420
330
1F
100
AcDbEntity
  8
OBRYS
 62
     5
100
AcDbLine
 10
120.0
 20
86.5
 30
0.0
 11
138.0
 21
86.5
 31
0.0
  0
LINE
  5
421
330
1F
100
AcDbEntity
  8
OBRYS
 62
     5
100
AcDbLine
 10
128.35
 20
18.20710678118655
 30
0.0
 11
128.35
 21
19.98328900677866
 31
0.0
  0
LINE
  5
422
330
1F
100
AcDbEntity
  8
OBRYS
 62
     5
100
AcDbLine
 10
128.35
 20
13.71671099322134
 30
0.0
 11
128.35
 21
15.49289321881345
 31
0.0
  0
LINE
  5
423
330
1F
100
AcDbEntity
  8
OBRYS
 62
     5
100
AcDbLine
 10
129.65
 20
18.20710678118655
 30
0.0
 11
129.65
 21
19.98328900677866
 31
0.0
  0
LINE
  5
424
330
1F
100
AcDbEntity
  8
OBRYS
 62
     5
100
AcDbLine
 10
129.65
 20
13.71671099322134
 30
0.0
 11
129.65
 21
15.49289321881345
 31
0.0
  0
ARC
  5
425
330
1F
100
AcDbEntity
  8
OBRYS
 62
     5
100
AcDbCircle
 10
127.6428932188135
 20
18.20710678118655
 30
0.0
 40
0.707106781186548
100
AcDbArc
 50
270.0
 51
0.0
  0
ARC
  5
426
330
1F
100
AcDbEntity
  8
OBRYS
 62
     5
100
AcDbCircle
 10
130.3571067811866
 20
18.20710678118655
 30
0.0
 40
0.707106781186548
100
AcDbArc
 50
180.0
 51
270.0
  0
ARC
  5
427
330
1F
100
AcDbEntity
  8
OBRYS
 62
     5
100
AcDbCircle
 10
130.3571067811866
 20
15.49289321881345
 30
0.0
 40
0.707106781186548
100
AcDbArc
 50
90.0
 51
180.0
  0
ARC
  5
428
330
1F
100
AcDbEntity
  8
OBRYS
 62
     5
100
AcDbCircle
 10
127.6428932188135
 20
15.49289321881345
 30
0.0
 40
0.707106781186548
100
AcDbArc
 50
0.0
 51
90.0
  0
LINE
  5
429
330
1F
100
AcDbEntity
  8
OBRYS
 62
     5
100
AcDbLine
 10
126.75
 20
16.2
 30
0.0
 11
126.75
 21
17.5
 31
0.0
  0
LINE
  5
42A
330
1F
100
AcDbEntity
  8
OBRYS
 62
     5
100
AcDbLine
 10
131.25
 20
16.2
 30
0.0
 11
131.25
 21
17.5
 31
0.0
  0
LINE
  5
42B
330
1F
100
AcDbEntity
  8
OBRYS
 62
     5
100
AcDbLine
 10
130.3571067811866
 20
16.2
 30
0.0
 11
131.2451978939826
 21
16.2
 31
0.0
  0
LINE
  5
42C
330
1F
100
AcDbEntity
  8
OBRYS
 62
     5
100
AcDbLine
 10
130.3571067811866
 20
17.5
 30
0.0
 11
131.2451978939826
 21
17.5
 31
0.0
  0
LINE
  5
42D
330
1F
100
AcDbEntity
  8
OBRYS
 62
     5
100
AcDbLine
 10
126.7548021060174
 20
17.5
 30
0.0
 11
127.6428932188135
 21
17.5
 31
0.0
  0
LINE
  5
42E
330
1F
100
AcDbEntity
  8
OBRYS
 62
     5
100
AcDbLine
 10
129.8571067811866
 20
17.70710678118655
 30
0.0
 11
130.3571067811866
 21
18.20710678118655
 31
0.0
  0
LINE
  5
42F
330
1F
100
AcDbEntity
  8
OBRYS
 62
     5
100
AcDbLine
 10
126.7548021060174
 20
16.2
 30
0.0
 11
127.6428932188135
 21
16.2
 31
0.0
  0
LINE
  5
430
330
1F
100
AcDbEntity
  8
OBRYS
 62
     5
100
AcDbLine
 10
129.8571067811866
 20
15.99289321881345
 30
0.0
 11
130.3571067811866
 21
15.49289321881345
 31
0.0
  0
LINE
  5
431
330
1F
100
AcDbEntity
  8
OBRYS
 62
     5
100
AcDbLine
 10
128.1428932188135
 20
17.70710678118655
 30
0.0
 11
127.6428932188135
 21
18.20710678118655
 31
0.0
  0
LINE
  5
432
330
1F
100
AcDbEntity
  8
OBRYS
 62
     5
100
AcDbLine
 10
128.1428932188135
 20
15.99289321881345
 30
0.0
 11
127.6428932188135
 21
15.49289321881345
 31
0.0
  0
CIRCLE
  5
433
330
1F
100
AcDbEntity
  8
OBRYS
 62
     5
100
AcDbCircle
 10
129.0
 20
16.85
 30
0.0
 40
0.7
  0
CIRCLE
  5
434
330
1F
100
AcDbEntity
  8
OBRYS
 62
     5
100
AcDbCircle
 10
129.0
 20
81.35
 30
0.0
 40
3.2
  0
LINE
  5
435
330
1F
100
AcDbEntity
  8
OBRYS
 62
     5
100
AcDbLine
 10
128.35
 20
78.21671099322133
 30
0.0
 11
128.35
 21
79.99289321881345
 31
0.0
  0
LINE
  5
436
330
1F
100
AcDbEntity
  8
OBRYS
 62
     5
100
AcDbLine
 10
128.35
 20
82.70710678118654
 30
0.0
 11
128.35
 21
84.48328900677866
 31
0.0
  0
LINE
  5
437
330
1F
100
AcDbEntity
  8
OBRYS
 62
     5
100
AcDbLine
 10
129.65
 20
78.21671099322133
 30
0.0
 11
129.65
 21
79.99289321881345
 31
0.0
  0
LINE
  5
438
330
1F
100
AcDbEntity
  8
OBRYS
 62
     5
100
AcDbLine
 10
129.65
 20
82.70710678118654
 30
0.0
 11
129.65
 21
84.48328900677865
 31
0.0
  0
ARC
  5
439
330
1F
100
AcDbEntity
  8
OBRYS
 62
     5
100
AcDbCircle
 10
127.6428932188135
 20
82.70710678118654
 30
0.0
 40
0.707106781186548
100
AcDbArc
 50
270.0
 51
0.0
  0
ARC
  5
43A
330
1F
100
AcDbEntity
  8
OBRYS
 62
     5
100
AcDbCircle
 10
130.3571067811866
 20
82.70710678118654
 30
0.0
 40
0.707106781186548
100
AcDbArc
 50
180.0
 51
270.0
  0
ARC
  5
43B
330
1F
100
AcDbEntity
  8
OBRYS
 62
     5
100
AcDbCircle
 10
130.3571067811866
 20
79.99289321881345
 30
0.0
 40
0.707106781186548
100
AcDbArc
 50
90.0
 51
180.0
  0
ARC
  5
43C
330
1F
100
AcDbEntity
  8
OBRYS
 62
     5
100
AcDbCircle
 10
127.6428932188135
 20
79.99289321881345
 30
0.0
 40
0.707106781186548
100
AcDbArc
 50
0.0
 51
90.0
  0
LINE
  5
43D
330
1F
100
AcDbEntity
  8
OBRYS
 62
     5
100
AcDbLine
 10
126.75
 20
80.69999999999999
 30
0.0
 11
126.75
 21
81.99999999999999
 31
0.0
  0
LINE
  5
43E
330
1F
100
AcDbEntity
  8
OBRYS
 62
     5
100
AcDbLine
 10
131.25
 20
80.69999999999999
 30
0.0
 11
131.25
 21
81.99999999999999
 31
0.0
  0
LINE
  5
43F
330
1F
100
AcDbEntity
  8
OBRYS
 62
     5
100
AcDbLine
 10
130.3571067811866
 20
80.69999999999999
 30
0.0
 11
131.2451978939826
 21
80.69999999999999
 31
0.0
  0
LINE
  5
440
330
1F
100
AcDbEntity
  8
OBRYS
 62
     5
100
AcDbLine
 10
130.3571067811866
 20
81.99999999999999
 30
0.0
 11
131.2451978939826
 21
81.99999999999999
 31
0.0
  0
LINE
  5
441
330
1F
100
AcDbEntity
  8
OBRYS
 62
     5
100
AcDbLine
 10
126.7548021060174
 20
81.99999999999999
 30
0.0
 11
127.6428932188135
 21
81.99999999999999
 31
0.0
  0
LINE
  5
442
330
1F
100
AcDbEntity
  8
OBRYS
 62
     5
100
AcDbLine
 10
129.8571067811866
 20
82.20710678118654
 30
0.0
 11
130.3571067811866
 21
82.70710678118654
 31
0.0
  0
LINE
  5
443
330
1F
100
AcDbEntity
  8
OBRYS
 62
     5
100
AcDbLine
 10
126.7548021060174
 20
80.69999999999999
 30
0.0
 11
127.6428932188135
 21
80.69999999999999
 31
0.0
  0
LINE
  5
444
330
1F
100
AcDbEntity
  8
OBRYS
 62
     5
100
AcDbLine
 10
129.8571067811866
 20
80.49289321881345
 30
0.0
 11
130.3571067811866
 21
79.99289321881345
 31
0.0
  0
LINE
  5
445
330
1F
100
AcDbEntity
  8
OBRYS
 62
     5
100
AcDbLine
 10
128.1428932188135
 20
82.20710678118654
 30
0.0
 11
127.6428932188135
 21
82.70710678118654
 31
0.0
  0
LINE
  5
446
330
1F
100
AcDbEntity
  8
OBRYS
 62
     5
100
AcDbLine
 10
128.1428932188135
 20
80.49289321881345
 30
0.0
 11
127.6428932188135
 21
79.99289321881345
 31
0.0
  0
CIRCLE
  5
447
330
1F
100
AcDbEntity
  8
OBRYS
 62
     5
100
AcDbCircle
 10
129.0
 20
81.35
 30
0.0
 40
0.7
  0
LINE
  5
44E
330
1F
100
AcDbEntity
  8
OBRYS
 62
     5
100
AcDbLine
 10
120.0
 20
8.6
 30
0.0
 11
138.0
 21
8.599999999999994
 31
0.0
  0
LINE
  5
44F
330
1F
100
AcDbEntity
  8
OBRYS
 62
     5
100
AcDbLine
 10
120.0
 20
89.6
 30
0.0
 11
138.0
 21
89.6
 31
0.0
  0
LINE
  5
63D
330
1F
100
AcDbEntity
  8
OBRYS
 62
     5
100
AcDbLine
 10
128.35
 20
19.0952
 30
0.0
 11
129.65
 21
19.0951978939826
 31
0.0
  0
LINE
  5
63E
330
1F
100
AcDbEntity
  8
OBRYS
 62
     5
100
AcDbLine
 10
128.35
 20
14.6048021060174
 30
0.0
 11
129.65
 21
14.6048021060174
 31
0.0
  0
LINE
  5
63F
330
1F
100
AcDbEntity
  8
OBRYS
 62
     5
100
AcDbLine
 10
128.35
 20
79.1048
 30
0.0
 11
129.65
 21
79.1048
 31
0.0
  0
LINE
  5
640
330
1F
100
AcDbEntity
  8
OBRYS
 62
     5
100
AcDbLine
 10
128.35
 20
83.5952
 30
0.0
 11
129.65
 21
83.5952
 31
0.0
  0
LINE
  5
641
330
1F
100
AcDbEntity
  8
OBRYS
 62
     5
100
AcDbLine
 10
120.0
 20
11.2
 30
0.0
 11
138.0
 21
11.2
 31
0.0
  0
LINE
  5
642
330
1F
100
AcDbEntity
  8
OBRYS
 62
     5
100
AcDbLine
 10
120.0
 20
87.0
 30
0.0
 11
138.0
 21
87.0
 31
0.0
  0
LINE
  5
678
330
1F
100
AcDbEntity
  8
OBRYS
 62
     5
100
AcDbLine
 10
120.3
 20
71.6
 30
0.0
 11
120.3
 21
26.6
 31
0.0
  0
LINE
  5
679
330
1F
100
AcDbEntity
  8
OBRYS
 62
     5
100
AcDbLine
 10
137.7
 20
71.6
 30
0.0
 11
137.7
 21
26.6
 31
0.0
  0
LINE
  5
67B
330
1F
100
AcDbEntity
  8
OBRYS
 62
     5
100
AcDbLine
 10
138.0
 20
8.1
 30
0.0
 11
156.0
 21
8.1
 31
0.0
  0
LINE
  5
67C
330
1F
100
AcDbEntity
  8
OBRYS
 62
     5
100
AcDbLine
 10
141.15
 20
6.2
 30
0.0
 11
152.85
 21
6.2
 31
0.0
  0
LINE
  5
67D
330
1F
100
AcDbEntity
  8
OBRYS
 62
     5
100
AcDbLine
 10
141.15
 20
6.2
 30
0.0
 11
139.95
 21
8.1
 31
0.0
  0
LINE
  5
67E
330
1F
100
AcDbEntity
  8
OBRYS
 62
     5
100
AcDbLine
 10
152.85
 20
6.2
 30
0.0
 11
154.05
 21
8.1
 31
0.0
  0
LINE
  5
68E
330
1F
100
AcDbEntity
  8
OBRYS
 62
     5
100
AcDbLine
 10
138.0
 20
90.1
 30
0.0
 11
156.0
 21
90.1
 31
0.0
  0
LINE
  5
68F
330
1F
100
AcDbEntity
  8
OBRYS
 62
     5
100
AcDbLine
 10
156.0
 20
90.1
 30
0.0
 11
156.0
 21
8.1
 31
0.0
  0
LINE
  5
690
330
1F
100
AcDbEntity
  8
OBRYS
 62
     5
100
AcDbLine
 10
141.15
 20
91.99999999999999
 30
0.0
 11
139.95
 21
90.1
 31
0.0
  0
LINE
  5
691
330
1F
100
AcDbEntity
  8
OBRYS
 62
     5
100
AcDbLine
 10
141.15
 20
91.99999999999999
 30
0.0
 11
152.85
 21
91.99999999999999
 31
0.0
  0
LINE
  5
692
330
1F
100
AcDbEntity
  8
OBRYS
 62
     5
100
AcDbLine
 10
152.85
 20
91.99999999999999
 30
0.0
 11
154.05
 21
90.1
 31
0.0
  0
LINE
  5
693
330
1F
100
AcDbEntity
  8
OBRYS
 62
     5
100
AcDbLine
 10
138.0
 20
26.1
 30
0.0
 11
156.0
 21
26.1
 31
0.0
  0
LINE
  5
694
330
1F
100
AcDbEntity
  8
OBRYS
 62
     5
100
AcDbLine
 10
138.3
 20
26.6
 30
0.0
 11
155.7
 21
26.6
 31
0.0
  0
LINE
  5
695
330
1F
100
AcDbEntity
  8
OBRYS
 62
     5
100
AcDbLine
 10
138.3
 20
71.6
 30
0.0
 11
155.7
 21
71.6
 31
0.0
  0
LINE
  5
696
330
1F
100
AcDbEntity
  8
OBRYS
 62
     5
100
AcDbLine
 10
138.0
 20
72.1
 30
0.0
 11
156.0
 21
72.1
 31
0.0
  0
LINE
  5
697
330
1F
100
AcDbEntity
  8
OBRYS
 62
     5
100
AcDbLine
 10
145.3
 20
26.1
 30
0.0
 11
145.3
 21
24.6
 31
0.0
  0
LINE
  5
698
330
1F
100
AcDbEntity
  8
OBRYS
 62
     5
100
AcDbLine
 10
145.3
 20
24.6
 30
0.0
 11
147.0
 21
24.6
 31
0.0
  0
LINE
  5
699
330
1F
100
AcDbEntity
  8
OBRYS
 62
     5
100
AcDbLine
 10
147.0
 20
24.6
 30
0.0
 11
147.0
 21
26.1
 31
0.0
  0
LINE
  5
69A
330
1F
100
AcDbEntity
  8
OBRYS
 62
     5
100
AcDbLine
 10
144.45
 20
26.1
 30
0.0
 11
144.45
 21
23.6
 31
0.0
  0
LINE
  5
69B
330
1F
100
AcDbEntity
  8
OBRYS
 62
     5
100
AcDbLine
 10
144.45
 20
23.6
 30
0.0
 11
147.85
 21
23.6
 31
0.0
  0
LINE
  5
69C
330
1F
100
AcDbEntity
  8
OBRYS
 62
     5
100
AcDbLine
 10
147.85
 20
23.6
 30
0.0
 11
147.85
 21
26.1
 31
0.0
  0
LINE
  5
69D
330
1F
100
AcDbEntity
  8
OBRYS
 62
     5
100
AcDbLine
 10
144.45
 20
23.6
 30
0.0
 11
145.3
 21
24.6
 31
0.0
  0
LINE
  5
69E
330
1F
100
AcDbEntity
  8
OBRYS
 62
     5
100
AcDbLine
 10
147.0
 20
24.6
 30
0.0
 11
147.85
 21
23.6
 31
0.0
  0
LINE
  5
69F
330
1F
100
AcDbEntity
  8
OBRYS
 62
     5
100
AcDbLine
 10
145.3
 20
72.1
 30
0.0
 11
145.3
 21
73.6
 31
0.0
  0
LINE
  5
6A0
330
1F
100
AcDbEntity
  8
OBRYS
 62
     5
100
AcDbLine
 10
145.3
 20
73.6
 30
0.0
 11
147.0
 21
73.6
 31
0.0
  0
LINE
  5
6A1
330
1F
100
AcDbEntity
  8
OBRYS
 62
     5
100
AcDbLine
 10
147.0
 20
73.6
 30
0.0
 11
147.0
 21
72.1
 31
0.0
  0
LINE
  5
6A2
330
1F
100
AcDbEntity
  8
OBRYS
 62
     5
100
AcDbLine
 10
144.45
 20
72.1
 30
0.0
 11
144.45
 21
74.6
 31
0.0
  0
LINE
  5
6A3
330
1F
100
AcDbEntity
  8
OBRYS
 62
     5
100
AcDbLine
 10
144.45
 20
74.6
 30
0.0
 11
147.85
 21
74.6
 31
0.0
  0
LINE
  5
6A4
330
1F
100
AcDbEntity
  8
OBRYS
 62
     5
100
AcDbLine
 10
147.85
 20
74.6
 30
0.0
 11
147.85
 21
72.1
 31
0.0
  0
LINE
  5
6A5
330
1F
100
AcDbEntity
  8
OBRYS
 62
     5
100
AcDbLine
 10
144.45
 20
74.6
 30
0.0
 11
145.3
 21
73.6
 31
0.0
  0
LINE
  5
6A6
330
1F
100
AcDbEntity
  8
OBRYS
 62
     5
100
AcDbLine
 10
147.0
 20
73.6
 30
0.0
 11
147.85
 21
74.6
 31
0.0
  0
CIRCLE
  5
6A7
330
1F
100
AcDbEntity
  8
OBRYS
 62
     5
100
AcDbCircle
 10
147.0
 20
16.85
 30
0.0
 40
3.2
  0
LINE
  5
6A8
330
1F
100
AcDbEntity
  8
OBRYS
 62
     5
100
AcDbLine
 10
138.0
 20
11.7
 30
0.0
 11
156.0
 21
11.7
 31
0.0
  0
LINE
  5
6A9
330
1F
100
AcDbEntity
  8
OBRYS
 62
     5
100
AcDbLine
 10
138.0
 20
86.5
 30
0.0
 11
156.0
 21
86.5
 31
0.0
  0
LINE
  5
6AA
330
1F
100
AcDbEntity
  8
OBRYS
 62
     5
100
AcDbLine
 10
146.35
 20
18.20710678118655
 30
0.0
 11
146.35
 21
19.98328900677866
 31
0.0
  0
LINE
  5
6AB
330
1F
100
AcDbEntity
  8
OBRYS
 62
     5
100
AcDbLine
 10
146.35
 20
13.71671099322134
 30
0.0
 11
146.35
 21
15.49289321881345
 31
0.0
  0
LINE
  5
6AC
330
1F
100
AcDbEntity
  8
OBRYS
 62
     5
100
AcDbLine
 10
147.65
 20
18.20710678118655
 30
0.0
 11
147.65
 21
19.98328900677866
 31
0.0
  0
LINE
  5
6AD
330
1F
100
AcDbEntity
  8
OBRYS
 62
     5
100
AcDbLine
 10
147.65
 20
13.71671099322134
 30
0.0
 11
147.65
 21
15.49289321881345
 31
0.0
  0
ARC
  5
6AE
330
1F
100
AcDbEntity
  8
OBRYS
 62
     5
100
AcDbCircle
 10
145.6428932188135
 20
18.20710678118655
 30
0.0
 40
0.707106781186548
100
AcDbArc
 50
270.0
 51
0.0
  0
ARC
  5
6AF
330
1F
100
AcDbEntity
  8
OBRYS
 62
     5
100
AcDbCircle
 10
148.3571067811866
 20
18.20710678118655
 30
0.0
 40
0.707106781186548
100
AcDbArc
 50
180.0
 51
270.0
  0
ARC
  5
6B0
330
1F
100
AcDbEntity
  8
OBRYS
 62
     5
100
AcDbCircle
 10
148.3571067811866
 20
15.49289321881345
 30
0.0
 40
0.707106781186548
100
AcDbArc
 50
90.0
 51
180.0
  0
ARC
  5
6B1
330
1F
100
AcDbEntity
  8
OBRYS
 62
     5
100
AcDbCircle
 10
145.6428932188135
 20
15.49289321881345
 30
0.0
 40
0.707106781186548
100
AcDbArc
 50
0.0
 51
90.0
  0
LINE
  5
6B2
330
1F
100
AcDbEntity
  8
OBRYS
 62
     5
100
AcDbLine
 10
144.75
 20
16.2
 30
0.0
 11
144.75
 21
17.5
 31
0.0
  0
LINE
  5
6B3
330
1F
100
AcDbEntity
  8
OBRYS
 62
     5
100
AcDbLine
 10
149.25
 20
16.2
 30
0.0
 11
149.25
 21
17.5
 31
0.0
  0
LINE
  5
6B4
330
1F
100
AcDbEntity
  8
OBRYS
 62
     5
100
AcDbLine
 10
148.3571067811866
 20
16.2
 30
0.0
 11
149.2451978939826
 21
16.2
 31
0.0
  0
LINE
  5
6B5
330
1F
100
AcDbEntity
  8
OBRYS
 62
     5
100
AcDbLine
 10
148.3571067811866
 20
17.5
 30
0.0
 11
149.2451978939826
 21
17.5
 31
0.0
  0
LINE
  5
6B6
330
1F
100
AcDbEntity
  8
OBRYS
 62
     5
100
AcDbLine
 10
144.7548021060174
 20
17.5
 30
0.0
 11
145.6428932188135
 21
17.5
 31
0.0
  0
LINE
  5
6B7
330
1F
100
AcDbEntity
  8
OBRYS
 62
     5
100
AcDbLine
 10
147.8571067811866
 20
17.70710678118655
 30
0.0
 11
148.3571067811866
 21
18.20710678118655
 31
0.0
  0
LINE
  5
6B8
330
1F
100
AcDbEntity
  8
OBRYS
 62
     5
100
AcDbLine
 10
144.7548021060174
 20
16.2
 30
0.0
 11
145.6428932188135
 21
16.2
 31
0.0
  0
LINE
  5
6B9
330
1F
100
AcDbEntity
  8
OBRYS
 62
     5
100
AcDbLine
 10
147.8571067811866
 20
15.99289321881345
 30
0.0
 11
148.3571067811866
 21
15.49289321881345
 31
0.0
  0
LINE
  5
6BA
330
1F
100
AcDbEntity
  8
OBRYS
 62
     5
100
AcDbLine
 10
146.1428932188135
 20
17.70710678118655
 30
0.0
 11
145.6428932188135
 21
18.20710678118655
 31
0.0
  0
LINE
  5
6BB
330
1F
100
AcDbEntity
  8
OBRYS
 62
     5
100
AcDbLine
 10
146.1428932188135
 20
15.99289321881345
 30
0.0
 11
145.6428932188135
 21
15.49289321881345
 31
0.0
  0
CIRCLE
  5
6BC
330
1F
100
AcDbEntity
  8
OBRYS
 62
     5
100
AcDbCircle
 10
147.0
 20
16.85
 30
0.0
 40
0.7
  0
CIRCLE
  5
6BD
330
1F
100
AcDbEntity
  8
OBRYS
 62
     5
100
AcDbCircle
 10
147.0
 20
81.35
 30
0.0
 40
3.2
  0
LINE
  5
6BE
330
1F
100
AcDbEntity
  8
OBRYS
 62
     5
100
AcDbLine
 10
146.35
 20
78.21671099322133
 30
0.0
 11
146.35
 21
79.99289321881345
 31
0.0
  0
LINE
  5
6BF
330
1F
100
AcDbEntity
  8
OBRYS
 62
     5
100
AcDbLine
 10
146.35
 20
82.70710678118654
 30
0.0
 11
146.35
 21
84.48328900677866
 31
0.0
  0
LINE
  5
6C0
330
1F
100
AcDbEntity
  8
OBRYS
 62
     5
100
AcDbLine
 10
147.65
 20
78.21671099322133
 30
0.0
 11
147.65
 21
79.99289321881345
 31
0.0
  0
LINE
  5
6C1
330
1F
100
AcDbEntity
  8
OBRYS
 62
     5
100
AcDbLine
 10
147.65
 20
82.70710678118654
 30
0.0
 11
147.65
 21
84.48328900677865
 31
0.0
  0
ARC
  5
6C2
330
1F
100
AcDbEntity
  8
OBRYS
 62
     5
100
AcDbCircle
 10
145.6428932188135
 20
82.70710678118654
 30
0.0
 40
0.707106781186548
100
AcDbArc
 50
270.0
 51
0.0
  0
ARC
  5
6C3
330
1F
100
AcDbEntity
  8
OBRYS
 62
     5
100
AcDbCircle
 10
148.3571067811866
 20
82.70710678118654
 30
0.0
 40
0.707106781186548
100
AcDbArc
 50
180.0
 51
270.0
  0
ARC
  5
6C4
330
1F
100
AcDbEntity
  8
OBRYS
 62
     5
100
AcDbCircle
 10
148.3571067811866
 20
79.99289321881345
 30
0.0
 40
0.707106781186548
100
AcDbArc
 50
90.0
 51
180.0
  0
ARC
  5
6C5
330
1F
100
AcDbEntity
  8
OBRYS
 62
     5
100
AcDbCircle
 10
145.6428932188135
 20
79.99289321881345
 30
0.0
 40
0.707106781186548
100
AcDbArc
 50
0.0
 51
90.0
  0
LINE
  5
6C6
330
1F
100
AcDbEntity
  8
OBRYS
 62
     5
100
AcDbLine
 10
144.75
 20
80.69999999999999
 30
0.0
 11
144.75
 21
81.99999999999999
 31
0.0
  0
LINE
  5
6C7
330
1F
100
AcDbEntity
  8
OBRYS
 62
     5
100
AcDbLine
 10
149.25
 20
80.69999999999999
 30
0.0
 11
149.25
 21
81.99999999999999
 31
0.0
  0
LINE
  5
6C8
330
1F
100
AcDbEntity
  8
OBRYS
 62
     5
100
AcDbLine
 10
148.3571067811866
 20
80.69999999999999
 30
0.0
 11
149.2451978939826
 21
80.69999999999999
 31
0.0
  0
LINE
  5
6C9
330
1F
100
AcDbEntity
  8
OBRYS
 62
     5
100
AcDbLine
 10
148.3571067811866
 20
81.99999999999999
 30
0.0
 11
149.2451978939826
 21
81.99999999999999
 31
0.0
  0
LINE
  5
6CA
330
1F
100
AcDbEntity
  8
OBRYS
 62
     5
100
AcDbLine
 10
144.7548021060174
 20
81.99999999999999
 30
0.0
 11
145.6428932188135
 21
81.99999999999999
 31
0.0
  0
LINE
  5
6CB
330
1F
100
AcDbEntity
  8
OBRYS
 62
     5
100
AcDbLine
 10
147.8571067811866
 20
82.20710678118654
 30
0.0
 11
148.3571067811866
 21
82.70710678118654
 31
0.0
  0
LINE
  5
6CC
330
1F
100
AcDbEntity
  8
OBRYS
 62
     5
100
AcDbLine
 10
144.7548021060174
 20
80.69999999999999
 30
0.0
 11
145.6428932188135
 21
80.69999999999999
 31
0.0
  0
LINE
  5
6CD
330
1F
100
AcDbEntity
  8
OBRYS
 62
     5
100
AcDbLine
 10
147.8571067811866
 20
80.49289321881345
 30
0.0
 11
148.3571067811866
 21
79.99289321881345
 31
0.0
  0
LINE
  5
6CE
330
1F
100
AcDbEntity
  8
OBRYS
 62
     5
100
AcDbLine
 10
146.1428932188135
 20
82.20710678118654
 30
0.0
 11
145.6428932188135
 21
82.70710678118654
 31
0.0
  0
LINE
  5
6CF
330
1F
100
AcDbEntity
  8
OBRYS
 62
     5
100
AcDbLine
 10
146.1428932188135
 20
80.49289321881345
 30
0.0
 11
145.6428932188135
 21
79.99289321881345
 31
0.0
  0
CIRCLE
  5
6D0
330
1F
100
AcDbEntity
  8
OBRYS
 62
     5
100
AcDbCircle
 10
147.0
 20
81.35
 30
0.0
 40
0.7
  0
LINE
  5
6D1
330
1F
100
AcDbEntity
  8
OBRYS
 62
     5
100
AcDbLine
 10
138.0
 20
8.6
 30
0.0
 11
156.0
 21
8.599999999999994
 31
0.0
  0
LINE
  5
6D2
330
1F
100
AcDbEntity
  8
OBRYS
 62
     5
100
AcDbLine
 10
138.0
 20
89.6
 30
0.0
 11
156.0
 21
89.6
 31
0.0
  0
LINE
  5
6D7
330
1F
100
AcDbEntity
  8
OBRYS
 62
     5
100
AcDbLine
 10
146.35
 20
19.0952
 30
0.0
 11
147.65
 21
19.0951978939826
 31
0.0
  0
LINE
  5
6D8
330
1F
100
AcDbEntity
  8
OBRYS
 62
     5
100
AcDbLine
 10
146.35
 20
14.6048021060174
 30
0.0
 11
147.65
 21
14.6048021060174
 31
0.0
  0
LINE
  5
6D9
330
1F
100
AcDbEntity
  8
OBRYS
 62
     5
100
AcDbLine
 10
146.35
 20
79.1048
 30
0.0
 11
147.65
 21
79.1048
 31
0.0
  0
LINE
  5
6DA
330
1F
100
AcDbEntity
  8
OBRYS
 62
     5
100
AcDbLine
 10
146.35
 20
83.5952
 30
0.0
 11
147.65
 21
83.5952
 31
0.0
  0
LINE
  5
6DB
330
1F
100
AcDbEntity
  8
OBRYS
 62
     5
100
AcDbLine
 10
138.0
 20
11.2
 30
0.0
 11
156.0
 21
11.2
 31
0.0
  0
LINE
  5
6DC
330
1F
100
AcDbEntity
  8
OBRYS
 62
     5
100
AcDbLine
 10
138.0
 20
87.0
 30
0.0
 11
156.0
 21
87.0
 31
0.0
  0
LINE
  5
6DD
330
1F
100
AcDbEntity
  8
OBRYS
 62
     5
100
AcDbLine
 10
138.3
 20
71.6
 30
0.0
 11
138.3
 21
26.6
 31
0.0
  0
LINE
  5
6DE
330
1F
100
AcDbEntity
  8
OBRYS
 62
     5
100
AcDbLine
 10
155.7
 20
71.6
 30
0.0
 11
155.7
 21
26.6
 31
0.0
  0
DIMENSION
  5
6EF
330
1F
100
AcDbEntity
  8
KOTY
 62
     1
100
AcDbDimension
  2
*D13
 10
156.0
 20
-10.0
 30
0.0
 11
138.0
 21
-10.0
 31
0.0
 70
   160
  3
STANDARD
100
AcDbAlignedDimension
 13
120.0
 23
8.1
 33
0.0
 14
156.0
 24
8.099999999999994
 34
0.0
100
AcDbRotatedDimension
1001
ACAD
1000
DSTYLE
1002
{
1070
   271
1070
     0
1070
   278
1070
    44
1070
   140
1040
4.0
1070
    77
1070
     1
1070
   147
1040
1.0
1070
    41
1040
4.0
1002
}
  0
LINE
  5
B22
330
1F
100
AcDbEntity
  8
OBRYS
  6
CONTINUOUS
100
AcDbLine
 10
137.9363922160449
 20
75.48556149151513
 30
0.0
 11
135.8074112160449
 21
77.23878449151513
 31
0.0
  0
LINE
  5
B23
330
1F
100
AcDbEntity
  8
OBRYS
  6
CONTINUOUS
100
AcDbLine
 10
140.1925122160449
 20
77.23878449151513
 30
0.0
 11
138.0635312160449
 21
75.48556149151513
 31
0.0
  0
LINE
  5
B24
330
1F
100
AcDbEntity
  8
OBRYS
  6
CONTINUOUS
100
AcDbLine
 10
135.8074112160449
 20
80.41273349151513
 30
0.0
 11
137.9363922160449
 21
82.16595749151513
 31
0.0
  0
LINE
  5
B25
330
1F
100
AcDbEntity
  8
OBRYS
  6
CONTINUOUS
100
AcDbLine
 10
138.0635312160449
 20
82.16595749151513
 30
0.0
 11
140.1925122160449
 21
80.41273349151513
 31
0.0
  0
LINE
  5
B26
330
1F
100
AcDbEntity
  8
OBRYS
  6
CONTINUOUS
100
AcDbLine
 10
138.2542402160449
 20
75.25397949151514
 30
0.0
 11
140.3832212160449
 21
77.00720249151513
 31
0.0
  0
LINE
  5
B27
330
1F
100
AcDbEntity
  8
OBRYS
  6
CONTINUOUS
100
AcDbLine
 10
135.6167032160449
 20
77.00720249151513
 30
0.0
 11
137.7456842160449
 21
75.25397949151514
 31
0.0
  0
LINE
  5
B28
330
1F
100
AcDbEntity
  8
OBRYS
  6
CONTINUOUS
100
AcDbLine
 10
137.7456842160449
 20
82.39753949151513
 30
0.0
 11
135.6167032160449
 21
80.64431549151513
 31
0.0
  0
LINE
  5
B29
330
1F
100
AcDbEntity
  8
OBRYS
  6
CONTINUOUS
100
AcDbLine
 10
140.3832212160449
 20
80.64431549151513
 30
0.0
 11
138.2542402160449
 21
82.39753949151513
 31
0.0
  0
LINE
  5
B2A
330
1F
100
AcDbEntity
  8
OBRYS
  6
CONTINUOUS
100
AcDbLine
 10
138.9435532160449
 20
83.40211649151513
 30
0.0
 11
138.9435532160449
 21
82.86566249151514
 31
0.0
  0
LINE
  5
B2B
330
1F
100
AcDbEntity
  8
OBRYS
  6
CONTINUOUS
100
AcDbLine
 10
138.9435532160449
 20
84.13883149151513
 30
0.0
 11
138.9435532160449
 21
83.57901649151513
 31
0.0
  0
LINE
  5
B2C
330
1F
100
AcDbEntity
  8
OBRYS
  6
CONTINUOUS
100
AcDbLine
 10
136.7121642160449
 20
83.45118749151513
 30
0.0
 11
136.7121642160449
 21
83.37530249151513
 31
0.0
  0
LINE
  5
B2D
330
1F
100
AcDbEntity
  8
OBRYS
  6
CONTINUOUS
100
AcDbLine
 10
134.6412212160449
 20
73.46275549151514
 30
0.0
 11
135.6257782160449
 21
73.46275549151514
 31
0.0
  0
LINE
  5
B2E
330
1F
100
AcDbEntity
  8
OBRYS
  6
CONTINUOUS
100
AcDbLine
 10
136.7620962160449
 20
83.32537149151513
 30
0.0
 11
137.5421722160449
 21
83.32537149151513
 31
0.0
  0
LINE
  5
B2F
330
1F
100
AcDbEntity
  8
OBRYS
  6
CONTINUOUS
100
AcDbLine
 10
135.1672682160449
 20
84.13883149151513
 30
0.0
 11
135.1672682160449
 21
82.73869449151513
 31
0.0
  0
LINE
  5
B30
330
1F
100
AcDbEntity
  8
OBRYS
  6
CONTINUOUS
100
AcDbLine
 10
137.5421722160449
 20
82.86566249151514
 30
0.0
 11
136.7060712160449
 21
82.86566249151514
 31
0.0
  0
LINE
  5
B31
330
1F
100
AcDbEntity
  8
OBRYS
  6
CONTINUOUS
100
AcDbLine
 10
139.8310742160449
 20
74.96275549151514
 30
0.0
 11
138.9934852160449
 21
74.96275549151514
 31
0.0
  0
LINE
  5
B32
330
1F
100
AcDbEntity
  8
OBRYS
  6
CONTINUOUS
100
AcDbLine
 10
137.5421722160449
 20
83.50111949151513
 30
0.0
 11
136.7620962160449
 21
83.50111949151513
 31
0.0
  0
LINE
  5
B33
330
1F
100
AcDbEntity
  8
OBRYS
  6
CONTINUOUS
100
AcDbLine
 10
137.5421722160449
 20
83.32537149151513
 30
0.0
 11
137.5421722160449
 21
82.86566249151514
 31
0.0
  0
LINE
  5
B34
330
1F
100
AcDbEntity
  8
OBRYS
  6
CONTINUOUS
100
AcDbLine
 10
135.6757102160449
 20
73.51268649151513
 30
0.0
 11
135.6757102160449
 21
74.91282449151514
 31
0.0
  0
LINE
  5
B35
330
1F
100
AcDbEntity
  8
OBRYS
  6
CONTINUOUS
100
AcDbLine
 10
135.4773222160449
 20
74.78585649151513
 30
0.0
 11
135.4773222160449
 21
74.27511149151513
 31
0.0
  0
LINE
  5
B36
330
1F
100
AcDbEntity
  8
OBRYS
  6
CONTINUOUS
100
AcDbLine
 10
136.6212202160449
 20
84.13883149151513
 30
0.0
 11
136.6212202160449
 21
84.06179549151513
 31
0.0
  0
LINE
  5
B37
330
1F
100
AcDbEntity
  8
OBRYS
  6
CONTINUOUS
100
AcDbLine
 10
134.6063012160449
 20
74.78585649151513
 30
0.0
 11
135.4773222160449
 21
74.78585649151513
 31
0.0
  0
LINE
  5
B38
330
1F
100
AcDbEntity
  8
OBRYS
  6
CONTINUOUS
100
AcDbLine
 10
136.1588262160449
 20
83.00994549151514
 30
0.0
 11
135.3858562160449
 21
84.16657549151513
 31
0.0
  0
LINE
  5
B39
330
1F
100
AcDbEntity
  8
OBRYS
  6
CONTINUOUS
100
AcDbLine
 10
138.9934852160449
 20
74.78585649151513
 30
0.0
 11
139.6826172160449
 21
74.78585649151513
 31
0.0
  0
LINE
  5
B3A
330
1F
100
AcDbEntity
  8
OBRYS
  6
CONTINUOUS
100
AcDbLine
 10
135.6257782160449
 20
74.96275549151514
 30
0.0
 11
134.6063012160449
 21
74.96275549151514
 31
0.0
  0
LINE
  5
B3B
330
1F
100
AcDbEntity
  8
OBRYS
  6
CONTINUOUS
100
AcDbLine
 10
135.3443422160449
 20
84.18876349151513
 30
0.0
 11
135.2171992160449
 21
84.18876349151513
 31
0.0
  0
LINE
  5
B3C
330
1F
100
AcDbEntity
  8
OBRYS
  6
CONTINUOUS
100
AcDbLine
 10
136.2992242160449
 20
84.18876349151513
 30
0.0
 11
136.2087572160449
 21
84.18876349151513
 31
0.0
  0
LINE
  5
B3D
330
1F
100
AcDbEntity
  8
OBRYS
  6
CONTINUOUS
100
AcDbLine
 10
136.3491562160449
 20
82.73869449151513
 30
0.0
 11
136.3491562160449
 21
84.13883149151513
 31
0.0
  0
LINE
  5
B3E
330
1F
100
AcDbEntity
  8
OBRYS
  6
CONTINUOUS
100
AcDbLine
 10
134.5912892160449
 20
73.58972349151513
 30
0.0
 11
134.5912892160449
 21
73.51268649151513
 31
0.0
  0
LINE
  5
B3F
330
1F
100
AcDbEntity
  8
OBRYS
  6
CONTINUOUS
100
AcDbLine
 10
139.0923942160449
 20
84.18876349151513
 30
0.0
 11
138.9934852160449
 21
84.18876349151513
 31
0.0
  0
LINE
  5
B40
330
1F
100
AcDbEntity
  8
OBRYS
  6
CONTINUOUS
100
AcDbLine
 10
139.6826172160449
 20
74.78585649151513
 30
0.0
 11
139.6826172160449
 21
73.51268649151513
 31
0.0
  0
LINE
  5
B41
330
1F
100
AcDbEntity
  8
OBRYS
  6
CONTINUOUS
100
AcDbLine
 10
139.8810052160449
 20
73.51268649151513
 30
0.0
 11
139.8810052160449
 21
74.91282449151514
 31
0.0
  0
LINE
  5
B42
330
1F
100
AcDbEntity
  8
OBRYS
  6
CONTINUOUS
100
AcDbLine
 10
136.1402812160449
 20
73.89631549151514
 30
0.0
 11
136.0462452160449
 21
73.88911149151514
 31
0.0
  0
LINE
  5
B43
330
1F
100
AcDbEntity
  8
OBRYS
  6
CONTINUOUS
100
AcDbLine
 10
140.1673512160449
 20
74.47429349151513
 30
0.0
 11
140.2675952160449
 21
74.44894249151513
 31
0.0
  0
LINE
  5
B44
330
1F
100
AcDbEntity
  8
OBRYS
  6
CONTINUOUS
100
AcDbLine
 10
135.2171992160449
 20
82.68876349151513
 30
0.0
 11
135.3076662160449
 21
82.68876349151513
 31
0.0
  0
LINE
  5
B45
330
1F
100
AcDbEntity
  8
OBRYS
  6
CONTINUOUS
100
AcDbLine
 10
139.1423252160449
 20
82.68876349151513
 30
0.0
 11
139.1423252160449
 21
84.13883149151513
 31
0.0
  0
LINE
  5
B46
330
1F
100
AcDbEntity
  8
OBRYS
  6
CONTINUOUS
100
AcDbLine
 10
137.0044412160449
 20
74.46840449151513
 30
0.0
 11
137.0961672160449
 21
74.47648649151513
 31
0.0
  0
LINE
  5
B47
330
1F
100
AcDbEntity
  8
OBRYS
  6
CONTINUOUS
100
AcDbLine
 10
135.4773222160449
 20
73.63965449151513
 30
0.0
 11
134.6412212160449
 21
73.63965449151513
 31
0.0
  0
LINE
  5
B48
330
1F
100
AcDbEntity
  8
OBRYS
  6
CONTINUOUS
100
AcDbLine
 10
136.6711522160449
 20
84.01186349151513
 30
0.0
 11
137.5421722160449
 21
84.01186349151513
 31
0.0
  0
LINE
  5
B49
330
1F
100
AcDbEntity
  8
OBRYS
  6
CONTINUOUS
100
AcDbLine
 10
136.1588262160449
 20
84.13883149151513
 30
0.0
 11
136.1588262160449
 21
83.00994549151514
 31
0.0
  0
LINE
  5
B4A
330
1F
100
AcDbEntity
  8
OBRYS
  6
CONTINUOUS
100
AcDbLine
 10
138.9435532160449
 20
74.91282449151514
 30
0.0
 11
138.9435532160449
 21
74.83578749151513
 31
0.0
  0
LINE
  5
B4B
330
1F
100
AcDbEntity
  8
OBRYS
  6
CONTINUOUS
100
AcDbLine
 10
135.4773222160449
 20
74.09936349151513
 30
0.0
 11
135.4773222160449
 21
73.63965449151513
 31
0.0
  0
LINE
  5
B4C
330
1F
100
AcDbEntity
  8
OBRYS
  6
CONTINUOUS
100
AcDbLine
 10
140.2947312160449
 20
73.90986349151514
 30
0.0
 11
140.1964402160449
 21
73.88669049151514
 31
0.0
  0
LINE
  5
B4D
330
1F
100
AcDbEntity
  8
OBRYS
  6
CONTINUOUS
100
AcDbLine
 10
139.7325492160449
 20
73.46275549151514
 30
0.0
 11
139.8310742160449
 21
73.46275549151514
 31
0.0
  0
LINE
  5
B4E
330
1F
100
AcDbEntity
  8
OBRYS
  6
CONTINUOUS
100
AcDbLine
 10
134.5563702160449
 20
74.91282449151514
 30
0.0
 11
134.5563702160449
 21
74.83578749151513
 31
0.0
  0
LINE
  5
B4F
330
1F
100
AcDbEntity
  8
OBRYS
  6
CONTINUOUS
100
AcDbLine
 10
137.6906292160449
 20
84.18876349151513
 30
0.0
 11
136.6711522160449
 21
84.18876349151513
 31
0.0
  0
LINE
  5
B50
330
1F
100
AcDbEntity
  8
OBRYS
  6
CONTINUOUS
100
AcDbLine
 10
136.7060712160449
 20
82.68876349151513
 30
0.0
 11
137.6906292160449
 21
82.68876349151513
 31
0.0
  0
LINE
  5
B51
330
1F
100
AcDbEntity
  8
OBRYS
  6
CONTINUOUS
100
AcDbLine
 10
136.6561402160449
 20
82.81573149151514
 30
0.0
 11
136.6561402160449
 21
82.73869449151513
 31
0.0
  0
LINE
  5
B52
330
1F
100
AcDbEntity
  8
OBRYS
  6
CONTINUOUS
100
AcDbLine
 10
135.3575982160449
 20
82.73869449151513
 30
0.0
 11
135.3575982160449
 21
83.86643049151513
 31
0.0
  0
LINE
  5
B53
330
1F
100
AcDbEntity
  8
OBRYS
  6
CONTINUOUS
100
AcDbLine
 10
136.1720672160449
 20
82.68876349151513
 30
0.0
 11
136.2992242160449
 21
82.68876349151513
 31
0.0
  0
LINE
  5
B54
330
1F
100
AcDbEntity
  8
OBRYS
  6
CONTINUOUS
100
AcDbLine
 10
134.6972452160449
 20
74.09936349151513
 30
0.0
 11
135.4773222160449
 21
74.09936349151513
 31
0.0
  0
LINE
  5
B55
330
1F
100
AcDbEntity
  8
OBRYS
  6
CONTINUOUS
100
AcDbLine
 10
134.6473142160449
 20
74.22518049151513
 30
0.0
 11
134.6473142160449
 21
74.14929449151514
 31
0.0
  0
LINE
  5
B56
330
1F
100
AcDbEntity
  8
OBRYS
  6
CONTINUOUS
100
AcDbLine
 10
137.7405602160449
 20
82.73869449151513
 30
0.0
 11
137.7405602160449
 21
84.13883149151513
 31
0.0
  0
LINE
  5
B57
330
1F
100
AcDbEntity
  8
OBRYS
  6
CONTINUOUS
100
AcDbLine
 10
135.4773222160449
 20
74.27511149151513
 30
0.0
 11
134.6972452160449
 21
74.27511149151513
 31
0.0
  0
LINE
  5
B58
330
1F
100
AcDbEntity
  8
OBRYS
  6
CONTINUOUS
100
AcDbLine
 10
135.3575982160449
 20
83.86643049151513
 30
0.0
 11
136.1305652160449
 21
82.71093249151514
 31
0.0
  0
LINE
  5
B59
330
1F
100
AcDbEntity
  8
OBRYS
  6
CONTINUOUS
100
AcDbLine
 10
140.1289432160449
 20
77.71597849151513
 30
0.0
 11
135.8709812160449
 21
77.71597849151513
 31
0.0
  0
LINE
  5
B5A
330
1F
100
AcDbEntity
  8
OBRYS
  6
CONTINUOUS
100
AcDbLine
 10
135.8709812160449
 20
79.93553949151513
 30
0.0
 11
140.1289432160449
 21
79.93553949151513
 31
0.0
  0
LINE
  5
B5B
330
1F
100
AcDbEntity
  8
OBRYS
  6
CONTINUOUS
100
AcDbLine
 10
135.8709812160449
 20
77.41597849151513
 30
0.0
 11
140.1289432160449
 21
77.41597849151513
 31
0.0
  0
LINE
  5
B5C
330
1F
100
AcDbEntity
  8
OBRYS
  6
CONTINUOUS
100
AcDbLine
 10
140.1289432160449
 20
80.23553949151513
 30
0.0
 11
135.8709812160449
 21
80.23553949151513
 31
0.0
  0
LINE
  5
B5D
330
1F
100
AcDbEntity
  8
OBRYS
  6
CONTINUOUS
100
AcDbLine
 10
137.5421722160449
 20
84.01186349151513
 30
0.0
 11
137.5421722160449
 21
83.50111949151513
 31
0.0
  0
LINE
  5
B5E
330
1F
100
AcDbEntity
  8
OBRYS
  6
CONTINUOUS
100
AcDbLine
 10
133.9999622160449
 20
72.36552349151513
 30
0.0
 11
133.9999622160449
 21
84.68876349151513
 31
0.0
  0
LINE
  5
B5F
330
1F
100
AcDbEntity
  8
OBRYS
  6
CONTINUOUS
100
AcDbLine
 10
141.9999622160449
 20
84.68876349151513
 30
0.0
 11
141.9999622160449
 21
72.36552349151513
 31
0.0
  0
LINE
  5
B60
330
1F
100
AcDbEntity
  8
OBRYS
  6
CONTINUOUS
100
AcDbLine
 10
135.9999622160449
 20
78.52381949151513
 30
0.0
 11
135.9999622160449
 21
79.12769949151513
 31
0.0
  0
LINE
  5
B61
330
1F
100
AcDbEntity
  8
OBRYS
  6
CONTINUOUS
100
AcDbLine
 10
139.9999622160449
 20
79.12769949151513
 30
0.0
 11
139.9999622160449
 21
78.52381949151513
 31
0.0
  0
LINE
  5
B62
330
1F
100
AcDbEntity
  8
OBRYS
  6
CONTINUOUS
100
AcDbLine
 10
136.2005872160449
 20
79.32575949151513
 30
0.0
 11
139.7993362160449
 21
79.32575949151513
 31
0.0
  0
LINE
  5
B63
330
1F
100
AcDbEntity
  8
OBRYS
  6
CONTINUOUS
100
AcDbLine
 10
139.7993362160449
 20
78.32575949151513
 30
0.0
 11
136.2005872160449
 21
78.32575949151513
 31
0.0
  0
LINE
  5
B64
330
1F
100
AcDbEntity
  8
OBRYS
  6
CONTINUOUS
100
AcDbLine
 10
141.9999622160449
 20
84.45309149151514
 30
0.0
 11
141.9999622160449
 21
84.44686649151514
 31
0.0
  0
LINE
  5
B65
330
1F
100
AcDbEntity
  8
OBRYS
  6
CONTINUOUS
100
AcDbLine
 10
134.1999622160449
 20
84.65312949151513
 30
0.0
 11
136.0999622160449
 21
84.65341949151514
 31
0.0
  0
LINE
  5
B66
330
1F
100
AcDbEntity
  8
OBRYS
  6
CONTINUOUS
100
AcDbLine
 10
141.9999622160449
 20
84.68876349151513
 30
0.0
 11
133.9999622160449
 21
84.68876349151513
 31
0.0
  0
LINE
  5
B67
330
1F
100
AcDbEntity
  8
OBRYS
  6
CONTINUOUS
100
AcDbLine
 10
139.8999622160449
 20
84.65341949151514
 30
0.0
 11
141.7999622160449
 21
84.65312949151513
 31
0.0
  0
LINE
  5
B68
330
1F
100
AcDbEntity
  8
OBRYS
  6
CONTINUOUS
100
AcDbLine
 10
133.9999622160449
 20
84.44686649151514
 30
0.0
 11
133.9999622160449
 21
84.45309149151514
 31
0.0
  0
LINE
  5
B69
330
1F
100
AcDbEntity
  8
OBRYS
  6
CONTINUOUS
100
AcDbLine
 10
141.9999622160449
 20
72.36552349151513
 30
0.0
 11
141.9999622160449
 21
72.33877049151513
 31
0.0
  0
LINE
  5
B6A
330
1F
100
AcDbEntity
  8
OBRYS
  6
CONTINUOUS
100
AcDbLine
 10
134.1999622160449
 20
72.13876349151514
 30
0.0
 11
136.8099622160449
 21
72.13876349151514
 31
0.0
  0
LINE
  5
B6B
330
1F
100
AcDbEntity
  8
OBRYS
  6
CONTINUOUS
100
AcDbLine
 10
141.7999622160449
 20
72.13876349151514
 30
0.0
 11
139.1899622160449
 21
72.13876349151514
 31
0.0
  0
LINE
  5
B6C
330
1F
100
AcDbEntity
  8
OBRYS
  6
CONTINUOUS
100
AcDbLine
 10
133.9999622160449
 20
72.33877049151513
 30
0.0
 11
133.9999622160449
 21
72.36552349151513
 31
0.0
  0
LINE
  5
B6D
330
1F
100
AcDbEntity
  8
OBRYS
  6
CONTINUOUS
100
AcDbLine
 10
137.0999622160449
 20
71.83876349151514
 30
0.0
 11
138.8999622160449
 21
71.83876349151514
 31
0.0
  0
ARC
  5
B6E
330
1F
100
AcDbEntity
  8
OBRYS
  6
CONTINUOUS
100
AcDbCircle
 10
-137.9999622160449
 20
75.56275549151513
 30
0.0
 40
0.0999999999999942
210
0.0
220
0.0
230
-1.0
100
AcDbArc
 50
230.528422000005
 51
309.471577999995
  0
ARC
  5
B6F
330
1F
100
AcDbEntity
  8
OBRYS
  6
CONTINUOUS
100
AcDbCircle
 10
137.9999622160449
 20
82.08876349151514
 30
0.0
 40
0.3999999999999954
100
AcDbArc
 50
50.528422
 51
129.471578
  0
ARC
  5
B70
330
1F
100
AcDbEntity
  8
OBRYS
  6
CONTINUOUS
100
AcDbCircle
 10
137.9999622160449
 20
75.56275549151513
 30
0.0
 40
0.3999999999999954
100
AcDbArc
 50
230.528422
 51
309.471578
  0
ARC
  5
B71
330
1F
100
AcDbEntity
  8
OBRYS
  6
CONTINUOUS
100
AcDbCircle
 10
-137.9999622160449
 20
82.08876349151514
 30
0.0
 40
0.0999999999999956
210
0.0
220
0.0
230
-1.0
100
AcDbArc
 50
50.52842200000499
 51
129.471577999995
  0
ARC
  5
B72
330
1F
100
AcDbEntity
  8
OBRYS
  6
CONTINUOUS
100
AcDbCircle
 10
140.1289432160449
 20
80.33553949151514
 30
0.0
 40
0.4000000000000009
100
AcDbArc
 50
270.0
 51
50.528422
  0
ARC
  5
B73
330
1F
100
AcDbEntity
  8
OBRYS
  6
CONTINUOUS
100
AcDbCircle
 10
135.8709812160449
 20
77.31597849151514
 30
0.0
 40
0.4000000000000004
100
AcDbArc
 50
90.0
 51
230.528422
  0
ARC
  5
B74
330
1F
100
AcDbEntity
  8
OBRYS
  6
CONTINUOUS
100
AcDbCircle
 10
135.8709812160449
 20
80.33553949151514
 30
0.0
 40
0.4000000000000004
100
AcDbArc
 50
129.471578
 51
270.0
  0
ARC
  5
B75
330
1F
100
AcDbEntity
  8
OBRYS
  6
CONTINUOUS
100
AcDbCircle
 10
140.1289432160449
 20
77.31597849151514
 30
0.0
 40
0.4000000000000009
100
AcDbArc
 50
309.471578
 51
90.0
  0
ARC
  5
B76
330
1F
100
AcDbEntity
  8
OBRYS
  6
CONTINUOUS
100
AcDbCircle
 10
-140.1289432160449
 20
77.31597849151514
 30
0.0
 40
0.1000000000000025
210
0.0
220
0.0
230
-1.0
100
AcDbArc
 50
90.0
 51
230.5284220000102
  0
ARC
  5
B77
330
1F
100
AcDbEntity
  8
OBRYS
  6
CONTINUOUS
100
AcDbCircle
 10
-135.8709812160449
 20
80.33553949151514
 30
0.0
 40
0.1000000000000014
210
0.0
220
0.0
230
-1.0
100
AcDbArc
 50
270.0
 51
50.52842199999242
  0
ARC
  5
B78
330
1F
100
AcDbEntity
  8
OBRYS
  6
CONTINUOUS
100
AcDbCircle
 10
-140.1289432160449
 20
80.33553949151514
 30
0.0
 40
0.1000000000000039
210
0.0
220
0.0
230
-1.0
100
AcDbArc
 50
129.4715779999898
 51
270.0
  0
ARC
  5
B79
330
1F
100
AcDbEntity
  8
OBRYS
  6
CONTINUOUS
100
AcDbCircle
 10
-135.8709812160449
 20
77.31597849151514
 30
0.0
 40
0.0999999999999997
210
0.0
220
0.0
230
-1.0
100
AcDbArc
 50
309.4715780000076
 51
90.0
  0
ARC
  5
B7A
330
1F
100
AcDbEntity
  8
OBRYS
  6
CONTINUOUS
100
AcDbCircle
 10
136.8098447143981
 20
71.8484832399232
 30
0.0
 40
0.2902802753735161
100
AcDbArc
 50
358.08114871827
 51
89.97680741957342
  0
ARC
  5
B7B
330
1F
100
AcDbEntity
  8
OBRYS
  6
CONTINUOUS
100
AcDbCircle
 10
139.1900964307726
 20
71.8484433777796
 30
0.0
 40
0.2903201447592048
100
AcDbArc
 50
90.02648778549515
 51
181.8719151724571
  0
ELLIPSE
  5
B7C
330
1F
100
AcDbEntity
  8
OBRYS
  6
CONTINUOUS
100
AcDbEllipse
 10
135.2173372160449
 20
84.13869449151514
 30
0.0
 11
-0.03545231217175334
 21
0.03545231217175334
 31
0.0
210
0.0
220
0.0
230
-1.0
 40
0.997265
 41
5.499156671652522
 42
7.067213942706581
  0
ELLIPSE
  5
B7D
330
1F
100
AcDbEntity
  8
OBRYS
  6
CONTINUOUS
100
AcDbEllipse
 10
136.7622332160449
 20
83.37543949151514
 30
0.0
 11
-0.03545231217175337
 21
-0.03545231217175337
 31
0.0
210
0.0
220
0.0
230
-1.0
 40
0.997265
 41
5.499156671652195
 42
7.067213942706739
  0
ELLIPSE
  5
B7E
330
1F
100
AcDbEntity
  8
OBRYS
  6
CONTINUOUS
100
AcDbEllipse
 10
136.2990872160449
 20
82.73883149151513
 30
0.0
 11
0.03545231217175334
 21
-0.03545231217175334
 31
0.0
210
0.0
220
0.0
230
-1.0
 40
0.997265
 41
5.499156671652523
 42
7.067213942706581
  0
ELLIPSE
  5
B7F
330
1F
100
AcDbEntity
  8
OBRYS
  6
CONTINUOUS
100
AcDbEllipse
 10
134.6413582160449
 20
73.51282449151513
 30
0.0
 11
-0.03545231217175334
 21
-0.03545231217175334
 31
0.0
210
0.0
220
0.0
230
-1.0
 40
0.997265
 41
5.499156671652591
 42
7.067213942706685
  0
ELLIPSE
  5
B80
330
1F
100
AcDbEntity
  8
OBRYS
  6
CONTINUOUS
100
AcDbEllipse
 10
135.6256412160449
 20
73.51282449151513
 30
0.0
 11
0.03545231217175334
 21
-0.03545231217175334
 31
0.0
210
0.0
220
0.0
230
-1.0
 40
0.997265
 41
5.499156671652518
 42
7.067213942706577
  0
ELLIPSE
  5
B81
330
1F
100
AcDbEntity
  8
OBRYS
  6
CONTINUOUS
100
AcDbEllipse
 10
135.2173372160449
 20
82.73883149151513
 30
0.0
 11
-0.03545231217175334
 21
-0.03545231217175334
 31
0.0
210
0.0
220
0.0
230
-1.0
 40
0.997265
 41
5.499156671652587
 42
7.067213942706611
  0
ELLIPSE
  5
B82
330
1F
100
AcDbEntity
  8
OBRYS
  6
CONTINUOUS
100
AcDbEllipse
 10
134.6413582160449
 20
73.58958649151513
 30
0.0
 11
-0.03545231217175334
 21
0.03545231217175334
 31
0.0
210
0.0
220
0.0
230
-1.0
 40
0.997265
 41
5.499156671652558
 42
7.067213942706581
  0
ELLIPSE
  5
B83
330
1F
100
AcDbEntity
  8
OBRYS
  6
CONTINUOUS
100
AcDbEllipse
 10
136.2088942160449
 20
84.13869449151514
 30
0.0
 11
-0.03545231217175334
 21
0.03545231217175334
 31
0.0
210
0.0
220
0.0
230
-1.0
 40
0.997265
 41
5.499156671652444
 42
7.067213942706572
  0
ELLIPSE
  5
B84
330
1F
100
AcDbEntity
  8
OBRYS
  6
CONTINUOUS
100
AcDbEllipse
 10
134.6064392160449
 20
74.91268649151513
 30
0.0
 11
-0.03545231217175334
 21
0.03545231217175334
 31
0.0
210
0.0
220
0.0
230
-1.0
 40
0.997265
 41
5.499156671652557
 42
7.067213942706581
  0
ELLIPSE
  5
B85
330
1F
100
AcDbEntity
  8
OBRYS
  6
CONTINUOUS
100
AcDbEllipse
 10
139.8309372160449
 20
73.51282449151513
 30
0.0
 11
0.03545231217175334
 21
-0.03545231217175334
 31
0.0
210
0.0
220
0.0
230
-1.0
 40
0.997265
 41
5.499156671652518
 42
7.067213942706577
  0
ELLIPSE
  5
B86
330
1F
100
AcDbEntity
  8
OBRYS
  6
CONTINUOUS
100
AcDbEllipse
 10
136.6712892160449
 20
84.13869449151514
 30
0.0
 11
-0.03545231217175334
 21
0.03545231217175334
 31
0.0
210
0.0
220
0.0
230
-1.0
 40
0.997265
 41
5.499156671652522
 42
7.067213942706581
  0
ELLIPSE
  5
B87
330
1F
100
AcDbEntity
  8
OBRYS
  6
CONTINUOUS
100
AcDbEllipse
 10
139.7326862160449
 20
73.51282449151513
 30
0.0
 11
-0.03545231217175334
 21
-0.03545231217175334
 31
0.0
210
0.0
220
0.0
230
-1.0
 40
0.997265
 41
5.499156671652314
 42
7.067213942706685
  0
ELLIPSE
  5
B88
330
1F
100
AcDbEntity
  8
OBRYS
  6
CONTINUOUS
100
AcDbEllipse
 10
134.6973832160449
 20
74.14943149151513
 30
0.0
 11
-0.03545231217175334
 21
-0.03545231217175334
 31
0.0
210
0.0
220
0.0
230
-1.0
 40
0.997265
 41
5.499156671652314
 42
7.067213942706684
  0
ELLIPSE
  5
B89
330
1F
100
AcDbEntity
  8
OBRYS
  6
CONTINUOUS
100
AcDbEllipse
 10
139.0922572160449
 20
84.13869449151514
 30
0.0
 11
0.03545231217175334
 21
0.03545231217175334
 31
0.0
210
0.0
220
0.0
230
-1.0
 40
0.997265
 41
5.499156671652591
 42
7.06721394270665
  0
ELLIPSE
  5
B8A
330
1F
100
AcDbEntity
  8
OBRYS
  6
CONTINUOUS
100
AcDbEllipse
 10
134.6064392160449
 20
74.83592449151513
 30
0.0
 11
-0.03545231217175334
 21
-0.03545231217175334
 31
0.0
210
0.0
220
0.0
230
-1.0
 40
0.997265
 41
5.499156671652314
 42
7.06721394270665
  0
ELLIPSE
  5
B8B
330
1F
100
AcDbEntity
  8
OBRYS
  6
CONTINUOUS
100
AcDbEllipse
 10
139.8309372160449
 20
74.91268649151513
 30
0.0
 11
0.03545231217175334
 21
0.03545231217175334
 31
0.0
210
0.0
220
0.0
230
-1.0
 40
0.997265
 41
5.499156671652309
 42
7.067213942706645
  0
ELLIPSE
  5
B8C
330
1F
100
AcDbEntity
  8
OBRYS
  6
CONTINUOUS
100
AcDbEllipse
 10
136.2990872160449
 20
84.13869449151514
 30
0.0
 11
0.03545231217175333
 21
0.03545231217175333
 31
0.0
210
0.0
220
0.0
230
-1.0
 40
0.9972649999999998
 41
5.499156671652583
 42
7.067213942706711
  0
ELLIPSE
  5
B8D
330
1F
100
AcDbEntity
  8
OBRYS
  6
CONTINUOUS
100
AcDbEllipse
 10
134.6973832160449
 20
74.22504249151514
 30
0.0
 11
-0.03545231217175334
 21
0.03545231217175334
 31
0.0
210
0.0
220
0.0
230
-1.0
 40
0.997265
 41
5.499156671652574
 42
7.067213942706304
  0
ELLIPSE
  5
B8E
330
1F
100
AcDbEntity
  8
OBRYS
  6
CONTINUOUS
100
AcDbEllipse
 10
138.9936222160449
 20
84.13869449151514
 30
0.0
 11
-0.03545231217175334
 21
0.03545231217175334
 31
0.0
210
0.0
220
0.0
230
-1.0
 40
0.997265
 41
5.499156671652522
 42
7.067213942706581
  0
ELLIPSE
  5
B8F
330
1F
100
AcDbEntity
  8
OBRYS
  6
CONTINUOUS
100
AcDbEllipse
 10
138.9936222160449
 20
74.83592449151513
 30
0.0
 11
-0.03545231217175334
 21
-0.03545231217175334
 31
0.0
210
0.0
220
0.0
230
-1.0
 40
0.997265
 41
5.499156671652314
 42
7.067213942706667
  0
ELLIPSE
  5
B90
330
1F
100
AcDbEntity
  8
OBRYS
  6
CONTINUOUS
100
AcDbEllipse
 10
135.3075292160449
 20
82.73883149151513
 30
0.0
 11
0.03545231217175334
 21
-0.03545231217175334
 31
0.0
210
0.0
220
0.0
230
-1.0
 40
0.997265
 41
5.499156671652519
 42
7.067213942706577
  0
ELLIPSE
  5
B91
330
1F
100
AcDbEntity
  8
OBRYS
  6
CONTINUOUS
100
AcDbEllipse
 10
136.7062082160449
 20
82.81559449151513
 30
0.0
 11
-0.03545231217175334
 21
0.03545231217175334
 31
0.0
210
0.0
220
0.0
230
-1.0
 40
0.997265
 41
5.499156671652487
 42
7.06721394270658
  0
ELLIPSE
  5
B92
330
1F
100
AcDbEntity
  8
OBRYS
  6
CONTINUOUS
100
AcDbEllipse
 10
136.6712892160449
 20
84.06193249151514
 30
0.0
 11
-0.03545231217175334
 21
-0.03545231217175334
 31
0.0
210
0.0
220
0.0
230
-1.0
 40
0.997265
 41
5.499156671652313
 42
7.06721394270665
  0
ELLIPSE
  5
B93
330
1F
100
AcDbEntity
  8
OBRYS
  6
CONTINUOUS
100
AcDbEllipse
 10
137.6904922160449
 20
84.13869449151514
 30
0.0
 11
0.03545231217175334
 21
0.03545231217175334
 31
0.0
210
0.0
220
0.0
230
-1.0
 40
0.997265
 41
5.499156671652313
 42
7.06721394270658
  0
ELLIPSE
  5
B94
330
1F
100
AcDbEntity
  8
OBRYS
  6
CONTINUOUS
100
AcDbEllipse
 10
138.9936222160449
 20
74.91268649151513
 30
0.0
 11
-0.03545231217175334
 21
0.03545231217175334
 31
0.0
210
0.0
220
0.0
230
-1.0
 40
0.997265
 41
5.499156671652557
 42
7.067213942706581
  0
ELLIPSE
  5
B95
330
1F
100
AcDbEntity
  8
OBRYS
  6
CONTINUOUS
100
AcDbEllipse
 10
135.6256412160449
 20
74.91268649151513
 30
0.0
 11
0.03545231217175334
 21
0.03545231217175334
 31
0.0
210
0.0
220
0.0
230
-1.0
 40
0.997265
 41
5.499156671652309
 42
7.067213942706645
  0
ELLIPSE
  5
B96
330
1F
100
AcDbEntity
  8
OBRYS
  6
CONTINUOUS
100
AcDbEllipse
 10
136.7062082160449
 20
82.73883149151513
 30
0.0
 11
-0.03545231217175334
 21
-0.03545231217175334
 31
0.0
210
0.0
220
0.0
230
-1.0
 40
0.997265
 41
5.499156671652592
 42
7.067213942706617
  0
ELLIPSE
  5
B97
330
1F
100
AcDbEntity
  8
OBRYS
  6
CONTINUOUS
100
AcDbEllipse
 10
137.6904922160449
 20
82.73883149151513
 30
0.0
 11
0.03545231217175334
 21
-0.03545231217175334
 31
0.0
210
0.0
220
0.0
230
-1.0
 40
0.997265
 41
5.499156671652524
 42
7.067213942706582
  0
ELLIPSE
  5
B98
330
1F
100
AcDbEntity
  8
OBRYS
  6
CONTINUOUS
100
AcDbEllipse
 10
136.7622332160449
 20
83.45105049151513
 30
0.0
 11
-0.03545231217175332
 21
0.03545231217175332
 31
0.0
210
0.0
220
0.0
230
-1.0
 40
0.997265
 41
5.499156671652612
 42
7.06721394270674
  0
ELLIPSE
  5
B99
330
1F
100
AcDbEntity
  8
OBRYS
  6
CONTINUOUS
100
AcDbEllipse
 10
135.3442692160449
 20
84.13869449151514
 30
0.0
 11
0.02360964861858023
 21
0.04417479269303146
 31
0.0
210
0.0
220
0.0
230
-1.0
 40
0.998239
 41
5.793083739115147
 42
6.773286875244221
  0
ELLIPSE
  5
B9A
330
1F
100
AcDbEntity
  8
OBRYS
  6
CONTINUOUS
100
AcDbEllipse
 10
136.1721402160449
 20
82.73883149151513
 30
0.0
 11
-0.02359966670000251
 21
-0.04418010208077738
 31
0.0
210
0.0
220
0.0
230
-1.0
 40
0.9982399999999999
 41
5.793309065508732
 42
6.773061548850119
  0
ELLIPSE
  5
B9B
330
1F
100
AcDbEntity
  8
OBRYS
  6
CONTINUOUS
100
AcDbEllipse
 10
139.7968762160449
 20
79.12527049151514
 30
0.0
 11
0.1892292473316091
 21
0.07504352390770683
 31
0.0
210
0.0
220
0.0
230
1.0
 40
0.982481
 41
5.911653010962473
 42
7.470335956972569
  0
ELLIPSE
  5
B9C
330
1F
100
AcDbEntity
  8
OBRYS
  6
CONTINUOUS
100
AcDbEllipse
 10
139.7968762160449
 20
78.52624749151514
 30
0.0
 11
0.1892292473316091
 21
-0.07504352390770677
 31
0.0
210
0.0
220
0.0
230
1.0
 40
0.982481
 41
5.096034657386534
 42
6.654717603396698
  0
ELLIPSE
  5
B9D
330
1F
100
AcDbEntity
  8
OBRYS
  6
CONTINUOUS
100
AcDbEllipse
 10
136.2030472160449
 20
79.12527049151514
 30
0.0
 11
-0.1892292473316091
 21
0.07504352390770683
 31
0.0
210
0.0
220
0.0
230
1.0
 40
0.982481
 41
5.096034657386467
 42
6.654717603396699
  0
ELLIPSE
  5
B9E
330
1F
100
AcDbEntity
  8
OBRYS
  6
CONTINUOUS
100
AcDbEllipse
 10
136.2030472160449
 20
78.52624749151514
 30
0.0
 11
-0.1892292473316091
 21
-0.07504352390770688
 31
0.0
210
0.0
220
0.0
230
1.0
 40
0.982481
 41
5.911653010962473
 42
7.470335956972569
  0
ELLIPSE
  5
B9F
330
1F
100
AcDbEntity
  8
OBRYS
  6
CONTINUOUS
100
AcDbEllipse
 10
141.7999622160449
 20
72.33877049151513
 30
0.0
 11
0.0
 21
0.2000076156771474
 31
0.0
210
0.0
220
0.0
230
-1.0
 40
0.999962
 41
1.570796326794897
 42
3.141592653589793
  0
ELLIPSE
  5
BA0
330
1F
100
AcDbEntity
  8
OBRYS
  6
CONTINUOUS
100
AcDbEllipse
 10
134.1999622160449
 20
72.33877049151513
 30
0.0
 11
0.0
 21
0.2000076156771474
 31
0.0
210
0.0
220
0.0
230
-1.0
 40
0.999962
 41
3.141592653589793
 42
4.71238898038469
  0
LWPOLYLINE
  5
BA1
330
1F
100
AcDbEntity
  8
OBRYS
  6
CONTINUOUS
100
AcDbPolyline
 90
       51
 70
     0
 43
0.0
 10
138.3748662160449
 20
82.87909349151514
 10
138.3559162160449
 20
82.88536549151513
 10
138.3380052160449
 20
82.89342949151514
 10
138.3211512160449
 20
82.90316649151514
 10
138.3053682160449
 20
82.91445249151514
 10
138.2906732160449
 20
82.92716649151514
 10
138.2770822160449
 20
82.94118749151514
 10
138.2646102160449
 20
82.95639349151513
 10
138.2532732160449
 20
82.97266349151514
 10
138.2430882160449
 20
82.98987449151514
 10
138.2340702160449
 20
83.00790649151513
 10
138.2262362160449
 20
83.02663649151513
 10
138.2196002160449
 20
83.04594449151513
 10
138.2141802160449
 20
83.06570649151513
 10
138.2099902160449
 20
83.08580349151514
 10
138.2070482160449
 20
83.10611249151513
 10
138.2053682160449
 20
83.12651249151513
 10
138.2049672160449
 20
83.14688149151513
 10
138.2058602160449
 20
83.16709749151514
 10
138.2080642160449
 20
83.18704049151513
 10
138.2115952160449
 20
83.20658649151514
 10
138.2164682160449
 20
83.22561549151513
 10
138.2226992160449
 20
83.24400649151514
 10
138.2303052160449
 20
83.26163649151513
 10
138.2393012160449
 20
83.27838449151513
 10
138.2497032160449
 20
83.29412849151514
 10
138.2618062160449
 20
83.30864349151513
 10
138.2758422160449
 20
83.32182549151513
 10
138.2917282160449
 20
83.33373749151514
 10
138.3093832160449
 20
83.34444349151514
 10
138.3287232160449
 20
83.35400549151514
 10
138.3496692160449
 20
83.36248749151514
 10
138.3721372160449
 20
83.36995149151514
 10
138.3960462160449
 20
83.37646049151513
 10
138.4213142160449
 20
83.38207849151513
 10
138.4478582160449
 20
83.38686749151513
 10
138.4755982160449
 20
83.39089149151513
 10
138.5044502160449
 20
83.39421249151513
 10
138.5343342160449
 20
83.39689349151513
 10
138.5651672160449
 20
83.39899849151513
 10
138.5968672160449
 20
83.40058949151513
 10
138.6293532160449
 20
83.40173049151514
 10
138.6625422160449
 20
83.40248349151513
 10
138.6963532160449
 20
83.40291249151514
 10
138.7307042160449
 20
83.40307949151513
 10
138.7655122160449
 20
83.40304749151514
 10
138.8006962160449
 20
83.40288049151513
 10
138.8361742160449
 20
83.40264149151513
 10
138.8718652160449
 20
83.40239149151513
 10
138.9076852160449
 20
83.40219649151513
 10
138.9435532160449
 20
83.40211649151513
  0
LWPOLYLINE
  5
BA2
330
1F
100
AcDbEntity
  8
OBRYS
  6
CONTINUOUS
100
AcDbPolyline
 90
       51
 70
     0
 43
0.0
 10
138.4113202160449
 20
73.75170449151513
 10
138.3838282160449
 20
73.72747249151513
 10
138.3548872160449
 20
73.70557549151513
 10
138.3246472160449
 20
73.68600149151513
 10
138.2932602160449
 20
73.66874449151513
 10
138.2608762160449
 20
73.65379349151513
 10
138.2276462160449
 20
73.64114149151513
 10
138.1937232160449
 20
73.63077849151513
 10
138.1592562160449
 20
73.62269549151513
 10
138.1243982160449
 20
73.61688549151513
 10
138.0892992160449
 20
73.61333849151514
 10
138.0541102160449
 20
73.61204549151513
 10
138.0189822160449
 20
73.61299749151513
 10
137.9840682160449
 20
73.61618749151513
 10
137.9495162160449
 20
73.62160449151513
 10
137.9154802160449
 20
73.62924049151513
 10
137.8821092160449
 20
73.63908849151514
 10
137.8495562160449
 20
73.65113649151513
 10
137.8179702160449
 20
73.66537849151513
 10
137.7875042160449
 20
73.68180449151514
 10
137.7583082160449
 20
73.70040549151513
 10
137.7305342160449
 20
73.72117249151513
 10
137.7043332160449
 20
73.74409849151513
 10
137.6798552160449
 20
73.76917249151514
 10
137.6572522160449
 20
73.79638749151513
 10
137.6366752160449
 20
73.82573349151514
 10
137.6181272160449
 20
73.85743449151514
 10
137.6015132160449
 20
73.89153349151513
 10
137.5868312160449
 20
73.92775349151513
 10
137.5740822160449
 20
73.96581649151513
 10
137.5632672160449
 20
74.00544349151514
 10
137.5543842160449
 20
74.04635849151514
 10
137.5474352160449
 20
74.08828249151513
 10
137.5424182160449
 20
74.13093749151513
 10
137.5393362160449
 20
74.17404549151513
 10
137.5381862160449
 20
74.21732949151513
 10
137.5389702160449
 20
74.26051149151513
 10
137.5416882160449
 20
74.30331349151513
 10
137.5463432160449
 20
74.34534949151514
 10
137.5529422160449
 20
74.38579549151514
 10
137.5614562160449
 20
74.42453349151513
 10
137.5718482160449
 20
74.46156149151513
 10
137.5840832160449
 20
74.49687749151514
 10
137.5981242160449
 20
74.53048349151513
 10
137.6139372160449
 20
74.56237549151513
 10
137.6314852160449
 20
74.59255449151513
 10
137.6507332160449
 20
74.62101949151513
 10
137.6716452160449
 20
74.64776949151513
 10
137.6941852160449
 20
74.67280449151514
 10
137.7183182160449
 20
74.69612149151513
 10
137.7440072160449
 20
74.71772149151514
  0
LWPOLYLINE
  5
BA3
330
1F
100
AcDbEntity
  8
OBRYS
  6
CONTINUOUS
100
AcDbPolyline
 90
       51
 70
     0
 43
0.0
 10
140.4761702160449
 20
82.97771149151514
 10
140.4486792160449
 20
82.95348049151514
 10
140.4197372160449
 20
82.93158249151513
 10
140.3894972160449
 20
82.91200949151514
 10
140.3581102160449
 20
82.89475149151514
 10
140.3257262160449
 20
82.87980149151514
 10
140.2924972160449
 20
82.86714849151514
 10
140.2585732160449
 20
82.85678549151514
 10
140.2241072160449
 20
82.84870349151514
 10
140.1892482160449
 20
82.84289349151513
 10
140.1541492160449
 20
82.83934549151513
 10
140.1189602160449
 20
82.83805249151513
 10
140.0838332160449
 20
82.83900549151514
 10
140.0489182160449
 20
82.84219449151513
 10
140.0143672160449
 20
82.84761249151514
 10
139.9803302160449
 20
82.85524849151513
 10
139.9469602160449
 20
82.86509549151513
 10
139.9144062160449
 20
82.87714449151514
 10
139.8828212160449
 20
82.89138549151514
 10
139.8523552160449
 20
82.90781149151513
 10
139.8231592160449
 20
82.92641249151514
 10
139.7953852160449
 20
82.94718049151513
 10
139.7691832160449
 20
82.97010549151513
 10
139.7447052160449
 20
82.99518049151513
 10
139.7221022160449
 20
83.02239549151513
 10
139.7015252160449
 20
83.05174149151513
 10
139.6829782160449
 20
83.08344249151513
 10
139.6663632160449
 20
83.11754149151513
 10
139.6516812160449
 20
83.15376149151513
 10
139.6389332160449
 20
83.19182349151514
 10
139.6281172160449
 20
83.23145149151513
 10
139.6192342160449
 20
83.27236649151513
 10
139.6122852160449
 20
83.31428949151513
 10
139.6072692160449
 20
83.35694449151514
 10
139.6041862160449
 20
83.40005349151514
 10
139.6030372160449
 20
83.44333749151514
 10
139.6038212160449
 20
83.48651949151514
 10
139.6065382160449
 20
83.52932149151513
 10
139.6111932160449
 20
83.57135649151513
 10
139.6177932160449
 20
83.61180349151513
 10
139.6263062160449
 20
83.65054149151513
 10
139.6366982160449
 20
83.68756849151514
 10
139.6489332160449
 20
83.72288549151513
 10
139.6629752160449
 20
83.75649049151514
 10
139.6787872160449
 20
83.78838349151513
 10
139.6963362160449
 20
83.81856249151514
 10
139.7155832160449
 20
83.84702749151514
 10
139.7364952160449
 20
83.87377749151513
 10
139.7590352160449
 20
83.89881149151513
 10
139.7831682160449
 20
83.92212949151514
 10
139.8088572160449
 20
83.94372949151513
  0
LWPOLYLINE
  5
BA4
330
1F
100
AcDbEntity
  8
OBRYS
  6
CONTINUOUS
100
AcDbPolyline
 90
       51
 70
     0
 43
0.0
 10
137.0625102160449
 20
74.75055249151514
 10
137.0287662160449
 20
74.79596349151514
 10
136.9903772160449
 20
74.83648349151514
 10
136.9472522160449
 20
74.87215149151513
 10
136.8993022160449
 20
74.90300649151513
 10
136.8464362160449
 20
74.92908749151513
 10
136.7885652160449
 20
74.95043349151513
 10
136.7249772160449
 20
74.96723849151513
 10
136.6548012160449
 20
74.97967749151513
 10
136.5800572160449
 20
74.98713049151513
 10
136.5029282160449
 20
74.98893749151513
 10
136.4255942160449
 20
74.98443949151513
 10
136.3502392160449
 20
74.97297549151513
 10
136.2790942160449
 20
74.95382749151513
 10
136.2142202160449
 20
74.92631349151513
 10
136.1560872160449
 20
74.89124549151514
 10
136.1049052160449
 20
74.84969849151513
 10
136.0608852160449
 20
74.80274649151514
 10
136.0242372160449
 20
74.75146449151514
 10
135.9951712160449
 20
74.69692449151513
 10
135.9739002160449
 20
74.64020349151514
 10
135.9606322160449
 20
74.58237249151513
 10
135.9555782160449
 20
74.52450849151514
 10
135.9589502160449
 20
74.46768349151513
 10
135.9709572160449
 20
74.41297349151513
 10
135.9918112160449
 20
74.36145049151513
 10
136.0214922160449
 20
74.31392649151513
 10
136.0596292160449
 20
74.27036749151513
 10
136.1063252160449
 20
74.23089449151513
 10
136.1613542160449
 20
74.19571149151513
 10
136.2296592160449
 20
74.16361649151513
 10
136.3253642160449
 20
74.13116049151513
 10
136.4634592160449
 20
74.09497149151514
 10
136.6268212160449
 20
74.05563849151514
 10
136.7523082160449
 20
74.01643749151513
 10
136.8293512160449
 20
73.97784049151514
 10
136.8717612160449
 20
73.93655249151513
 10
136.8912942160449
 20
73.88976049151513
 10
136.8963482160449
 20
73.83557349151513
 10
136.8881232160449
 20
73.78016849151513
 10
136.8638672160449
 20
73.72940249151513
 10
136.8228282160449
 20
73.68528649151513
 10
136.7642522160449
 20
73.64982949151513
 10
136.6873862160449
 20
73.62504249151513
 10
136.5914792160449
 20
73.61293349151514
 10
136.4876092160449
 20
73.61547049151514
 10
136.3976802160449
 20
73.63340349151514
 10
136.3227112160449
 20
73.66663049151514
 10
136.2632382160449
 20
73.71504349151513
 10
136.2197942160449
 20
73.77853449151513
 10
136.1929172160449
 20
73.85699549151514
  0
LWPOLYLINE
  5
BA5
330
1F
100
AcDbEntity
  8
OBRYS
  6
CONTINUOUS
100
AcDbPolyline
 90
       51
 70
     0
 43
0.0
 10
137.3911562160449
 20
73.88075149151513
 10
137.4096682160449
 20
73.83654449151513
 10
137.4308242160449
 20
73.79412349151514
 10
137.4545242160449
 20
73.75358849151513
 10
137.4806672160449
 20
73.71503949151513
 10
137.5091502160449
 20
73.67857349151514
 10
137.5398742160449
 20
73.64429349151513
 10
137.5727372160449
 20
73.61229549151513
 10
137.6076382160449
 20
73.58268149151513
 10
137.6444762160449
 20
73.55555049151513
 10
137.6831492160449
 20
73.53100049151513
 10
137.7235582160449
 20
73.50913249151513
 10
137.7655992160449
 20
73.49004549151513
 10
137.8091972160449
 20
73.47383749151513
 10
137.8543072160449
 20
73.46055849151513
 10
137.9006472160449
 20
73.45018349151513
 10
137.9479002160449
 20
73.44268349151513
 10
137.9957492160449
 20
73.43802749151513
 10
138.0438782160449
 20
73.43618849151514
 10
138.0919702160449
 20
73.43713649151513
 10
138.1397102160449
 20
73.44084049151513
 10
138.1867802160449
 20
73.44727449151513
 10
138.2328652160449
 20
73.45640649151514
 10
138.2776482160449
 20
73.46820749151513
 10
138.3208132160449
 20
73.48264949151513
 10
138.3620422160449
 20
73.49970249151514
 10
138.4015522160449
 20
73.51942649151513
 10
138.4396822160449
 20
73.54185149151513
 10
138.4763082160449
 20
73.56690549151513
 10
138.5113022160449
 20
73.59451349151513
 10
138.5445402160449
 20
73.62460249151513
 10
138.5758962160449
 20
73.65710049151514
 10
138.6052432160449
 20
73.69193249151513
 10
138.6324562160449
 20
73.72902649151513
 10
138.6574082160449
 20
73.76830849151513
 10
138.6799742160449
 20
73.80970549151513
 10
138.7000292160449
 20
73.85314349151513
 10
138.7174452160449
 20
73.89854949151513
 10
138.7321652160449
 20
73.94595849151513
 10
138.7444612160449
 20
73.99582549151513
 10
138.7542542160449
 20
74.04789249151513
 10
138.7613942160449
 20
74.10178349151514
 10
138.7657352160449
 20
74.15712149151513
 10
138.7671272160449
 20
74.21352849151513
 10
138.7654222160449
 20
74.27062849151514
 10
138.7604712160449
 20
74.32804349151513
 10
138.7521272160449
 20
74.38539749151514
 10
138.7402422160449
 20
74.44231249151514
 10
138.7246662160449
 20
74.49841149151513
 10
138.7052512160449
 20
74.55331749151513
 10
138.6818502160449
 20
74.60665449151513
  0
LWPOLYLINE
  5
BA6
330
1F
100
AcDbEntity
  8
OBRYS
  6
CONTINUOUS
100
AcDbPolyline
 90
       51
 70
     0
 43
0.0
 10
139.4560062160449
 20
83.10675949151513
 10
139.4745182160449
 20
83.06255249151513
 10
139.4956742160449
 20
83.02013149151513
 10
139.5193742160449
 20
82.97959649151514
 10
139.5455172160449
 20
82.94104649151514
 10
139.5740012160449
 20
82.90458149151513
 10
139.6047242160449
 20
82.87030049151514
 10
139.6375872160449
 20
82.83830349151513
 10
139.6724882160449
 20
82.80868949151514
 10
139.7093262160449
 20
82.78155749151513
 10
139.7480002160449
 20
82.75700849151514
 10
139.7884082160449
 20
82.73514049151514
 10
139.8304502160449
 20
82.71605249151513
 10
139.8740472160449
 20
82.69984549151513
 10
139.9191582160449
 20
82.68656649151514
 10
139.9654972160449
 20
82.67619149151513
 10
140.0127502160449
 20
82.66869049151514
 10
140.0605992160449
 20
82.66403549151514
 10
140.1087282160449
 20
82.66219649151513
 10
140.1568202160449
 20
82.66314349151513
 10
140.2045602160449
 20
82.66684849151514
 10
140.2516312160449
 20
82.67328149151513
 10
140.2977162160449
 20
82.68241349151513
 10
140.3424992160449
 20
82.69421549151514
 10
140.3856632160449
 20
82.70865749151513
 10
140.4268932160449
 20
82.72571049151513
 10
140.4664022160449
 20
82.74543449151513
 10
140.5045322160449
 20
82.76785949151514
 10
140.5411582160449
 20
82.79291249151514
 10
140.5761532160449
 20
82.82052149151514
 10
140.6093912160449
 20
82.85061049151513
 10
140.6407462160449
 20
82.88310849151513
 10
140.6700932160449
 20
82.91794049151514
 10
140.6973062160449
 20
82.95503449151514
 10
140.7222592160449
 20
82.99431649151514
 10
140.7448252160449
 20
83.03571249151513
 10
140.7648792160449
 20
83.07915149151513
 10
140.7822952160449
 20
83.12455749151513
 10
140.7970152160449
 20
83.17196649151514
 10
140.8093112160449
 20
83.22183249151513
 10
140.8191042160449
 20
83.27390049151514
 10
140.8262452160449
 20
83.32779149151513
 10
140.8305852160449
 20
83.38312849151514
 10
140.8319772160449
 20
83.43953649151513
 10
140.8302722160449
 20
83.49663649151513
 10
140.8253222160449
 20
83.55405149151514
 10
140.8169782160449
 20
83.61140549151513
 10
140.8050922160449
 20
83.66832049151513
 10
140.7895162160449
 20
83.72441949151514
 10
140.7701012160449
 20
83.77932549151514
 10
140.7467002160449
 20
83.83266149151514
  0
LWPOLYLINE
  5
BA7
330
1F
100
AcDbEntity
  8
OBRYS
  6
CONTINUOUS
100
AcDbPolyline
 90
       51
 70
     0
 43
0.0
 10
140.4723332160449
 20
74.72215649151514
 10
140.5024822160449
 20
74.74472849151513
 10
140.5352242160449
 20
74.76436849151513
 10
140.5702112160449
 20
74.78101949151514
 10
140.6070972160449
 20
74.79462249151513
 10
140.6455352160449
 20
74.80512149151514
 10
140.6851772160449
 20
74.81246049151514
 10
140.7256782160449
 20
74.81657949151513
 10
140.7666902160449
 20
74.81742349151513
 10
140.8078662160449
 20
74.81493449151513
 10
140.8488592160449
 20
74.80905449151513
 10
140.8893232160449
 20
74.79972749151513
 10
140.9289102160449
 20
74.78689549151514
 10
140.9672262160449
 20
74.77048549151513
 10
141.0034612160449
 20
74.75031749151513
 10
141.0373752160449
 20
74.72645249151513
 10
141.0689002160449
 20
74.69901849151513
 10
141.0979672160449
 20
74.66813849151514
 10
141.1245082160449
 20
74.63393949151514
 10
141.1484562160449
 20
74.59654649151513
 10
141.1697402160449
 20
74.55608449151514
 10
141.1882942160449
 20
74.51267949151513
 10
141.2040492160449
 20
74.46645649151513
 10
141.2169362160449
 20
74.41754149151514
 10
141.2268872160449
 20
74.36605949151513
 10
141.2338342160449
 20
74.31213649151513
 10
141.2377302160449
 20
74.25597749151514
 10
141.2384842160449
 20
74.19821149151514
 10
141.2358752160449
 20
74.13954249151513
 10
141.2296752160449
 20
74.08067149151513
 10
141.2196562160449
 20
74.02230049151514
 10
141.2055912160449
 20
73.96512949151513
 10
141.1872512160449
 20
73.90985949151514
 10
141.1644102160449
 20
73.85719049151513
 10
141.1368402160449
 20
73.80782449151513
 10
141.1043132160449
 20
73.76246149151514
 10
141.0666012160449
 20
73.72180249151513
 10
141.0234772160449
 20
73.68654849151514
 10
140.9747062160449
 20
73.65739849151514
 10
140.9194212160449
 20
73.63465949151514
 10
140.8586752160449
 20
73.61845549151514
 10
140.7946832160449
 20
73.60908249151514
 10
140.7296612160449
 20
73.60683649151514
 10
140.6658272160449
 20
73.61201349151513
 10
140.6053962160449
 20
73.62491149151514
 10
140.5502242160449
 20
73.64571549151513
 10
140.5004672160449
 20
73.67455049151513
 10
140.4559792160449
 20
73.71185849151513
 10
140.4166272160449
 20
73.75809349151513
 10
140.3822782160449
 20
73.81371149151514
 10
140.3528012160449
 20
73.87916649151514
  0
LWPOLYLINE
  5
BA8
330
1F
100
AcDbEntity
  8
OBRYS
  6
CONTINUOUS
100
AcDbPolyline
 90
       51
 70
     0
 43
0.0
 10
140.1613202160449
 20
73.82009849151514
 10
140.1896802160449
 20
73.75710549151513
 10
140.2239092160449
 20
73.69922649151513
 10
140.2636402160449
 20
73.64663749151514
 10
140.3085002160449
 20
73.59951149151513
 10
140.3581192160449
 20
73.55802349151513
 10
140.4121282160449
 20
73.52234749151513
 10
140.4701552160449
 20
73.49265749151513
 10
140.5318302160449
 20
73.46912849151514
 10
140.5967832160449
 20
73.45193349151513
 10
140.6646432160449
 20
73.44124849151514
 10
140.7350402160449
 20
73.43724749151514
 10
140.8076032160449
 20
73.44010349151513
 10
140.8800812160449
 20
73.45000049151513
 10
140.9500022160449
 20
73.46687149151514
 10
141.0169582160449
 20
73.49050749151513
 10
141.0805412160449
 20
73.52069849151513
 10
141.1403432160449
 20
73.55723449151513
 10
141.1959562160449
 20
73.59990749151514
 10
141.2469732160449
 20
73.64850749151513
 10
141.2929852160449
 20
73.70282449151513
 10
141.3335852160449
 20
73.76265049151513
 10
141.3683662160449
 20
73.82777349151513
 10
141.3969192160449
 20
73.89798649151513
 10
141.4188362160449
 20
73.97307849151514
 10
141.4337192160449
 20
74.05283149151514
 10
141.4417122160449
 20
74.13629149151514
 10
141.4430152160449
 20
74.22199849151514
 10
141.4376002160449
 20
74.30865149151514
 10
141.4254372160449
 20
74.39494849151514
 10
141.4065012160449
 20
74.47959149151514
 10
141.3807632160449
 20
74.56127849151514
 10
141.3484152160449
 20
74.63822549151513
 10
141.3099092160449
 20
74.70839249151513
 10
141.2650772160449
 20
74.77139749151513
 10
141.2137182160449
 20
74.82693149151514
 10
141.1556352160449
 20
74.87468649151513
 10
141.0906262160449
 20
74.91435449151513
 10
141.0182712160449
 20
74.94567749151513
 10
140.9363132160449
 20
74.96891649151513
 10
140.8468442160449
 20
74.98356749151513
 10
140.7532122160449
 20
74.98886349151513
 10
140.6587632160449
 20
74.98403949151513
 10
140.5668442160449
 20
74.96832949151514
 10
140.4808012160449
 20
74.94096849151514
 10
140.4025632160449
 20
74.90159049151514
 10
140.3317392160449
 20
74.85065749151514
 10
140.2687972160449
 20
74.78849549151514
 10
140.2142142160449
 20
74.71543249151513
 10
140.1684662160449
 20
74.63179349151514
 10
140.1320332160449
 20
74.53790549151513
  0
LWPOLYLINE
  5
BA9
330
1F
100
AcDbEntity
  8
OBRYS
  6
CONTINUOUS
100
AcDbPolyline
 90
       51
 70
     0
 43
0.0
 10
140.7467002160449
 20
83.83266149151514
 10
140.7268542160449
 20
83.87017249151513
 10
140.7044952160449
 20
83.90601149151513
 10
140.6797612160449
 20
83.94012849151514
 10
140.6527912160449
 20
83.97247249151513
 10
140.6237242160449
 20
84.00299549151514
 10
140.5926992160449
 20
84.03164449151514
 10
140.5598532160449
 20
84.05837049151513
 10
140.5253272160449
 20
84.08312349151514
 10
140.4892592160449
 20
84.10585249151514
 10
140.4517872160449
 20
84.12650649151513
 10
140.4130502160449
 20
84.14503749151514
 10
140.3731882160449
 20
84.16139349151513
 10
140.3323392160449
 20
84.17552349151514
 10
140.2906412160449
 20
84.18737949151513
 10
140.2482342160449
 20
84.19690849151513
 10
140.2052562160449
 20
84.20406249151513
 10
140.1618462160449
 20
84.20879049151513
 10
140.1181432160449
 20
84.21104149151513
 10
140.0742852160449
 20
84.21076549151513
 10
140.0304122160449
 20
84.20791249151513
 10
139.9866612160449
 20
84.20243149151513
 10
139.9431732160449
 20
84.19427349151513
 10
139.9000852160449
 20
84.18338749151513
 10
139.8575372160449
 20
84.16972249151513
 10
139.8156662160449
 20
84.15322949151513
 10
139.7750252160449
 20
84.13373249151513
 10
139.7361132160449
 20
84.11119649151513
 10
139.6989882160449
 20
84.08577249151513
 10
139.6637122160449
 20
84.05761549151514
 10
139.6303432160449
 20
84.02687849151513
 10
139.5989432160449
 20
83.99371449151514
 10
139.5695712160449
 20
83.95827849151513
 10
139.5422862160449
 20
83.92072249151514
 10
139.5171502160449
 20
83.88120049151513
 10
139.4942212160449
 20
83.83986549151513
 10
139.4735602160449
 20
83.79687249151513
 10
139.4552272160449
 20
83.75237449151513
 10
139.4392822160449
 20
83.70652349151513
 10
139.4257842160449
 20
83.65947549151514
 10
139.4147942160449
 20
83.61138149151513
 10
139.4063722160449
 20
83.56239749151513
 10
139.4005772160449
 20
83.51267449151513
 10
139.3974702160449
 20
83.46236849151514
 10
139.3971102160449
 20
83.41163049151513
 10
139.3995582160449
 20
83.36061649151513
 10
139.4048732160449
 20
83.30947849151514
 10
139.4131152160449
 20
83.25836949151514
 10
139.4243452160449
 20
83.20744549151513
 10
139.4386222160449
 20
83.15685749151513
 10
139.4560062160449
 20
83.10675949151513
  0
LWPOLYLINE
  5
BAA
330
1F
100
AcDbEntity
  8
OBRYS
  6
CONTINUOUS
100
AcDbPolyline
 90
       51
 70
     0
 43
0.0
 10
138.6818502160449
 20
74.60665449151513
 10
138.6620042160449
 20
74.64416449151513
 10
138.6396452160449
 20
74.68000349151514
 10
138.6149112160449
 20
74.71412049151513
 10
138.5879412160449
 20
74.74646549151514
 10
138.5588742160449
 20
74.77698749151513
 10
138.5278482160449
 20
74.80563649151513
 10
138.4950032160449
 20
74.83236249151513
 10
138.4604772160449
 20
74.85711549151513
 10
138.4244082160449
 20
74.87984449151513
 10
138.3869372160449
 20
74.90049949151513
 10
138.3482002160449
 20
74.91902949151513
 10
138.3083382160449
 20
74.93538549151513
 10
138.2674892160449
 20
74.94951649151513
 10
138.2257912160449
 20
74.96137149151514
 10
138.1833842160449
 20
74.97090149151514
 10
138.1404062160449
 20
74.97805549151514
 10
138.0969962160449
 20
74.98278249151514
 10
138.0532922160449
 20
74.98503349151514
 10
138.0094352160449
 20
74.98475749151514
 10
137.9655612160449
 20
74.98190449151514
 10
137.9218112160449
 20
74.97642449151513
 10
137.8783232160449
 20
74.96826549151513
 10
137.8352352160449
 20
74.95737949151513
 10
137.7926862160449
 20
74.94371449151514
 10
137.7508162160449
 20
74.92722149151513
 10
137.7101752160449
 20
74.90772549151514
 10
137.6712622160449
 20
74.88518849151514
 10
137.6341382160449
 20
74.85976449151514
 10
137.5988612160449
 20
74.83160749151513
 10
137.5654932160449
 20
74.80087049151513
 10
137.5340932160449
 20
74.76770749151514
 10
137.5047202160449
 20
74.73227049151514
 10
137.4774362160449
 20
74.69471449151513
 10
137.4522992160449
 20
74.65519249151514
 10
137.4293712160449
 20
74.61385849151513
 10
137.4087102160449
 20
74.57086449151514
 10
137.3903772160449
 20
74.52636649151513
 10
137.3744322160449
 20
74.48051649151513
 10
137.3609342160449
 20
74.43346749151513
 10
137.3499442160449
 20
74.38537449151514
 10
137.3415222160449
 20
74.33638949151513
 10
137.3357272160449
 20
74.28666749151513
 10
137.3326202160449
 20
74.23636049151513
 10
137.3322602160449
 20
74.18562349151513
 10
137.3347072160449
 20
74.13460849151514
 10
137.3400222160449
 20
74.08347049151513
 10
137.3482652160449
 20
74.03236249151513
 10
137.3594952160449
 20
73.98143749151514
 10
137.3737722160449
 20
73.93084949151513
 10
137.3911562160449
 20
73.88075149151513
  0
LWPOLYLINE
  5
BAB
330
1F
100
AcDbEntity
  8
OBRYS
  6
CONTINUOUS
100
AcDbPolyline
 90
       51
 70
     0
 43
0.0
 10
139.8088572160449
 20
83.94372949151513
 10
139.8358642160449
 20
83.96332349151513
 10
139.8640342160449
 20
83.98074849151513
 10
139.8932392160449
 20
83.99601849151513
 10
139.9233502160449
 20
84.00914649151514
 10
139.9542402160449
 20
84.02014949151513
 10
139.9857802160449
 20
84.02904049151513
 10
140.0178422160449
 20
84.03583449151513
 10
140.0502982160449
 20
84.04054549151513
 10
140.0830202160449
 20
84.04318849151514
 10
140.1158802160449
 20
84.04377649151513
 10
140.1487502160449
 20
84.04232549151513
 10
140.1815012160449
 20
84.03885049151513
 10
140.2140052160449
 20
84.03336349151513
 10
140.2461352160449
 20
84.02588049151514
 10
140.2777622160449
 20
84.01641649151513
 10
140.3087582160449
 20
84.00498549151513
 10
140.3389952160449
 20
83.99160049151513
 10
140.3683452160449
 20
83.97627849151513
 10
140.3966792160449
 20
83.95903149151513
 10
140.4238702160449
 20
83.93987549151514
 10
140.4497902160449
 20
83.91882449151514
 10
140.4743092160449
 20
83.89589249151513
 10
140.4973012160449
 20
83.87109549151513
 10
140.5186362160449
 20
83.84444549151513
 10
140.5381872160449
 20
83.81595949151513
 10
140.5557552160449
 20
83.78536749151513
 10
140.5712582160449
 20
83.75256949151513
 10
140.5847522160449
 20
83.71783349151514
 10
140.5962902160449
 20
83.68142649151514
 10
140.6059242160449
 20
83.64361649151513
 10
140.6137082160449
 20
83.60466949151514
 10
140.6196952160449
 20
83.56485349151514
 10
140.6239402160449
 20
83.52443549151513
 10
140.6264942160449
 20
83.48368349151514
 10
140.6274122160449
 20
83.44286449151514
 10
140.6267462160449
 20
83.40224549151513
 10
140.6245512160449
 20
83.36209349151514
 10
140.6208982160449
 20
83.32276749151514
 10
140.6159342160449
 20
83.28498049151513
 10
140.6096792160449
 20
83.24883649151514
 10
140.6021342160449
 20
83.21433449151513
 10
140.5932992160449
 20
83.18147449151513
 10
140.5831742160449
 20
83.15025749151513
 10
140.5717582160449
 20
83.12068149151513
 10
140.5590532160449
 20
83.09274749151513
 10
140.5450572160449
 20
83.06645649151513
 10
140.5297702160449
 20
83.04180749151513
 10
140.5131942160449
 20
83.01879949151514
 10
140.4953272160449
 20
82.99743449151514
 10
140.4761702160449
 20
82.97771149151514
  0
LWPOLYLINE
  5
BAC
330
1F
100
AcDbEntity
  8
OBRYS
  6
CONTINUOUS
100
AcDbPolyline
 90
       51
 70
     0
 43
0.0
 10
137.7440072160449
 20
74.71772149151514
 10
137.7710142160449
 20
74.73731549151513
 10
137.7991842160449
 20
74.75474049151514
 10
137.8283892160449
 20
74.77001049151514
 10
137.8585002160449
 20
74.78313949151513
 10
137.8893892160449
 20
74.79414249151513
 10
137.9209292160449
 20
74.80303349151514
 10
137.9529912160449
 20
74.80982649151514
 10
137.9854482160449
 20
74.81453749151514
 10
138.0181702160449
 20
74.81718049151513
 10
138.0510302160449
 20
74.81776949151514
 10
138.0838992160449
 20
74.81631849151513
 10
138.1166512160449
 20
74.81284249151513
 10
138.1491552160449
 20
74.80735549151514
 10
138.1812852160449
 20
74.79987349151513
 10
138.2129122160449
 20
74.79040849151514
 10
138.2439082160449
 20
74.77897749151514
 10
138.2741452160449
 20
74.76559349151513
 10
138.3034952160449
 20
74.75027049151514
 10
138.3318292160449
 20
74.73302349151513
 10
138.3590202160449
 20
74.71386749151513
 10
138.3849392160449
 20
74.69281649151513
 10
138.4094592160449
 20
74.66988549151513
 10
138.4324502160449
 20
74.64508749151513
 10
138.4537862160449
 20
74.61843849151514
 10
138.4733372160449
 20
74.58995149151514
 10
138.4909042160449
 20
74.55935949151514
 10
138.5064082160449
 20
74.52656149151514
 10
138.5199022160449
 20
74.49182549151513
 10
138.5314392160449
 20
74.45541949151513
 10
138.5410732160449
 20
74.41760849151514
 10
138.5488572160449
 20
74.37866149151513
 10
138.5548452160449
 20
74.33884549151513
 10
138.5590892160449
 20
74.29842849151514
 10
138.5616442160449
 20
74.25767649151513
 10
138.5625612160449
 20
74.21685649151513
 10
138.5618962160449
 20
74.17623749151514
 10
138.5597012160449
 20
74.13608549151513
 10
138.5560482160449
 20
74.09675949151513
 10
138.5510832160449
 20
74.05897349151513
 10
138.5448292160449
 20
74.02282949151514
 10
138.5372842160449
 20
73.98832749151514
 10
138.5284492160449
 20
73.95546749151514
 10
138.5183242160449
 20
73.92424949151513
 10
138.5069082160449
 20
73.89467349151514
 10
138.4942022160449
 20
73.86674049151513
 10
138.4802062160449
 20
73.84044849151513
 10
138.4649202160449
 20
73.81579949151514
 10
138.4483442160449
 20
73.79279249151513
 10
138.4304772160449
 20
73.77142749151513
 10
138.4113202160449
 20
73.75170449151513
  0
LWPOLYLINE
  5
BAD
330
1F
100
AcDbEntity
  8
OBRYS
  6
CONTINUOUS
100
AcDbPolyline
 90
       51
 70
     0
 43
0.0
 10
136.0006622160449
 20
73.83203949151513
 10
136.0088102160449
 20
73.79002949151513
 10
136.0206052160449
 20
73.74961349151513
 10
136.0359902160449
 20
73.71095249151513
 10
136.0549102160449
 20
73.67420849151513
 10
136.0773092160449
 20
73.63954549151514
 10
136.1031312160449
 20
73.60712549151513
 10
136.1323202160449
 20
73.57710949151513
 10
136.1648202160449
 20
73.54966149151514
 10
136.2005742160449
 20
73.52494349151513
 10
136.2395282160449
 20
73.50311649151513
 10
136.2816242160449
 20
73.48434549151513
 10
136.3268172160449
 20
73.46877349151514
 10
136.3749492160449
 20
73.45637549151513
 10
136.4254462160449
 20
73.44715349151514
 10
136.4776832160449
 20
73.44113749151514
 10
136.5310332160449
 20
73.43835349151513
 10
136.5848722160449
 20
73.43883249151513
 10
136.6385732160449
 20
73.44260049151514
 10
136.6915112160449
 20
73.44968749151514
 10
136.7430602160449
 20
73.46012149151514
 10
136.7925942160449
 20
73.47393049151513
 10
136.8394872160449
 20
73.49114249151513
 10
136.8831152160449
 20
73.51178749151514
 10
136.9228502160449
 20
73.53589249151513
 10
136.9581972160449
 20
73.56348549151514
 10
136.9893022160449
 20
73.59437449151514
 10
137.0161732160449
 20
73.62810449151513
 10
137.0387852160449
 20
73.66420449151514
 10
137.0571082160449
 20
73.70220649151513
 10
137.0711152160449
 20
73.74164049151513
 10
137.0807782160449
 20
73.78203849151514
 10
137.0860702160449
 20
73.82293049151514
 10
137.0869622160449
 20
73.86384849151513
 10
137.0834282160449
 20
73.90432249151513
 10
137.0754392160449
 20
73.94388249151514
 10
137.0629672160449
 20
73.98206149151514
 10
137.0459852160449
 20
74.01838949151514
 10
137.0254062160449
 20
74.05228649151513
 10
137.0021562160449
 20
74.08354049151514
 10
136.9745232160449
 20
74.11255449151513
 10
136.9407292160449
 20
74.13974749151514
 10
136.8989972160449
 20
74.16553449151513
 10
136.8475472160449
 20
74.19033249151514
 10
136.7836682160449
 20
74.21478149151514
 10
136.7009462160449
 20
74.24066549151513
 10
136.6067552160449
 20
74.26696749151513
 10
136.5112322160449
 20
74.29206049151513
 10
136.4245182160449
 20
74.31431549151513
 10
136.3567522160449
 20
74.33210449151514
 10
136.3180742160449
 20
74.34379949151513
  0
LWPOLYLINE
  5
BAE
330
1F
100
AcDbEntity
  8
OBRYS
  6
CONTINUOUS
100
AcDbPolyline
 90
       51
 70
     0
 43
0.0
 10
136.3180742160449
 20
74.34379949151513
 10
136.2904912160449
 20
74.35554449151513
 10
136.2653042160449
 20
74.36879449151513
 10
136.2425052160449
 20
74.38341549151514
 10
136.2220852160449
 20
74.39927449151513
 10
136.2040342160449
 20
74.41623549151514
 10
136.1883452160449
 20
74.43416749151513
 10
136.1750082160449
 20
74.45293549151513
 10
136.1640142160449
 20
74.47240649151513
 10
136.1553542160449
 20
74.49244649151514
 10
136.1490202160449
 20
74.51292149151513
 10
136.1450032160449
 20
74.53369749151513
 10
136.1432942160449
 20
74.55464149151513
 10
136.1438842160449
 20
74.57562049151514
 10
136.1467642160449
 20
74.59649949151513
 10
136.1519252160449
 20
74.61714549151513
 10
136.1593592160449
 20
74.63742449151513
 10
136.1690572160449
 20
74.65720349151513
 10
136.1810092160449
 20
74.67634849151513
 10
136.1952082160449
 20
74.69472449151513
 10
136.2116432160449
 20
74.71220049151513
 10
136.2303072160449
 20
74.72864049151514
 10
136.2511902160449
 20
74.74391149151514
 10
136.2742842160449
 20
74.75788049151514
 10
136.2995802160449
 20
74.77041249151513
 10
136.3270682160449
 20
74.78137549151513
 10
136.3567232160449
 20
74.79063249151513
 10
136.3881562160449
 20
74.79805049151513
 10
136.4209742160449
 20
74.80361649151513
 10
136.4548692160449
 20
74.80734249151513
 10
136.4895282160449
 20
74.80924449151513
 10
136.5246402160449
 20
74.80933349151513
 10
136.5598962160449
 20
74.80762449151513
 10
136.5949832160449
 20
74.80413049151514
 10
136.6295912160449
 20
74.79886449151513
 10
136.6634092160449
 20
74.79183949151513
 10
136.6961262160449
 20
74.78306949151514
 10
136.7274312160449
 20
74.77256849151513
 10
136.7570142160449
 20
74.76034849151513
 10
136.7845482160449
 20
74.74648849151514
 10
136.8097522160449
 20
74.73147549151513
 10
136.8326702160449
 20
74.71535349151513
 10
136.8533922160449
 20
74.69805149151513
 10
136.8720102160449
 20
74.67950049151513
 10
136.8886142160449
 20
74.65963149151513
 10
136.9032942160449
 20
74.63837549151513
 10
136.9161412160449
 20
74.61566149151513
 10
136.9272442160449
 20
74.59142049151514
 10
136.9366952160449
 20
74.56558349151513
 10
136.9445842160449
 20
74.53808149151513
 10
136.9510012160449
 20
74.50884449151513
  0
LWPOLYLINE
  5
BAF
330
1F
100
AcDbEntity
  8
OBRYS
  6
CONTINUOUS
100
AcDbPolyline
 90
       51
 70
     0
 43
0.0
 10
138.9435532160449
 20
83.57901649151513
 10
138.8888632160449
 20
83.57927449151514
 10
138.8332662160449
 20
83.57988949151513
 10
138.7771672160449
 20
83.58062349151513
 10
138.7209702160449
 20
83.58123949151513
 10
138.6650812160449
 20
83.58149749151514
 10
138.6099052160449
 20
83.58116249151513
 10
138.5558452160449
 20
83.57999349151514
 10
138.5033072160449
 20
83.57775449151514
 10
138.4526952160449
 20
83.57420749151514
 10
138.4044142160449
 20
83.56911349151514
 10
138.3588692160449
 20
83.56223549151514
 10
138.3164652160449
 20
83.55333449151513
 10
138.2775322160449
 20
83.54219449151513
 10
138.2418302160449
 20
83.52883849151513
 10
138.2091692160449
 20
83.51340949151513
 10
138.1794112160449
 20
83.49604349151514
 10
138.1524182160449
 20
83.47687849151514
 10
138.1280532160449
 20
83.45605049151513
 10
138.1061772160449
 20
83.43369749151513
 10
138.0866532160449
 20
83.40995649151513
 10
138.0693422160449
 20
83.38496349151514
 10
138.0541072160449
 20
83.35885649151513
 10
138.0408092160449
 20
83.33177149151513
 10
138.0293112160449
 20
83.30384749151513
 10
138.0194742160449
 20
83.27521949151513
 10
138.0113702160449
 20
83.24572049151513
 10
138.0051612160449
 20
83.21524449151514
 10
138.0008522160449
 20
83.18402149151514
 10
137.9984462160449
 20
83.15227949151513
 10
137.9979462160449
 20
83.12024949151514
 10
137.9993542160449
 20
83.08816049151514
 10
138.0026742160449
 20
83.05624149151514
 10
138.0079102160449
 20
83.02472149151514
 10
138.0150642160449
 20
82.99383149151514
 10
138.0241392160449
 20
82.96379949151513
 10
138.0351392160449
 20
82.93485649151513
 10
138.0480682160449
 20
82.90722949151514
 10
138.0628352160449
 20
82.88117349151513
 10
138.0789072160449
 20
82.85695949151513
 10
138.0962352160449
 20
82.83458049151513
 10
138.1148612160449
 20
82.81399749151514
 10
138.1348282160449
 20
82.79517049151514
 10
138.1561792160449
 20
82.77805949151514
 10
138.1789572160449
 20
82.76262349151513
 10
138.2032052160449
 20
82.74882449151514
 10
138.2289662160449
 20
82.73662049151514
 10
138.2562842160449
 20
82.72597249151514
 10
138.2852012160449
 20
82.71683949151513
 10
138.3157602160449
 20
82.70918249151514
 10
138.3480052160449
 20
82.70296149151514
  0
LWPOLYLINE
  5
BB0
330
1F
100
AcDbEntity
  8
OBRYS
  6
CONTINUOUS
100
AcDbPolyline
 90
       51
 70
     0
 43
0.0
 10
138.3480052160449
 20
82.70296149151514
 10
138.3577942160449
 20
82.70127249151513
 10
138.3680782160449
 20
82.69968749151514
 10
138.3788412160449
 20
82.69820049151514
 10
138.3900672160449
 20
82.69681049151514
 10
138.4017422160449
 20
82.69551549151514
 10
138.4138502160449
 20
82.69431049151514
 10
138.4263752160449
 20
82.69319449151513
 10
138.4393022160449
 20
82.69216349151513
 10
138.4526172160449
 20
82.69121449151513
 10
138.4663032160449
 20
82.69034649151513
 10
138.4803452160449
 20
82.68955449151514
 10
138.4947292160449
 20
82.68883749151513
 10
138.5094372160449
 20
82.68819149151513
 10
138.5244562160449
 20
82.68761449151513
 10
138.5397702160449
 20
82.68710249151513
 10
138.5553642160449
 20
82.68665449151513
 10
138.5712222160449
 20
82.68626549151513
 10
138.5873282160449
 20
82.68593449151513
 10
138.6036682160449
 20
82.68565749151513
 10
138.6202262160449
 20
82.68543249151513
 10
138.6369872160449
 20
82.68525649151513
 10
138.6539362160449
 20
82.68512649151513
 10
138.6710562160449
 20
82.68504049151514
 10
138.6883342160449
 20
82.68499349151513
 10
138.7057532160449
 20
82.68498449151514
 10
138.7232982160449
 20
82.68501149151513
 10
138.7409542160449
 20
82.68506949151514
 10
138.7587052160449
 20
82.68515649151513
 10
138.7765362160449
 20
82.68526949151513
 10
138.7944322160449
 20
82.68540749151514
 10
138.8123782160449
 20
82.68556549151513
 10
138.8303582160449
 20
82.68574049151513
 10
138.8483562160449
 20
82.68593149151513
 10
138.8663582160449
 20
82.68613549151513
 10
138.8843472160449
 20
82.68634749151514
 10
138.9023102160449
 20
82.68656749151513
 10
138.9202292160449
 20
82.68679049151514
 10
138.9380912160449
 20
82.68701449151513
 10
138.9558802160449
 20
82.68723749151513
 10
138.9735792160449
 20
82.68745549151514
 10
138.9911752160449
 20
82.68766549151513
 10
139.0086522160449
 20
82.68786649151514
 10
139.0259932160449
 20
82.68805349151513
 10
139.0431852160449
 20
82.68822449151513
 10
139.0602112160449
 20
82.68837749151513
 10
139.0770572160449
 20
82.68850849151514
 10
139.0937072160449
 20
82.68861549151514
 10
139.1101452160449
 20
82.68869549151513
 10
139.1263562160449
 20
82.68874549151514
 10
139.1423252160449
 20
82.68876349151513
  0
LWPOLYLINE
  5
BB1
330
1F
100
AcDbEntity
  8
OBRYS
  6
CONTINUOUS
100
AcDbPolyline
 90
       51
 70
     0
 43
0.0
 10
138.9435532160449
 20
82.86566249151514
 10
138.9315082160449
 20
82.86565449151513
 10
138.9192542160449
 20
82.86563049151513
 10
138.9068082160449
 20
82.86559249151513
 10
138.8941822160449
 20
82.86554249151513
 10
138.8813932160449
 20
82.86548149151513
 10
138.8684552160449
 20
82.86541249151513
 10
138.8553832160449
 20
82.86533549151514
 10
138.8421912160449
 20
82.86525349151513
 10
138.8288932160449
 20
82.86516749151514
 10
138.8155062160449
 20
82.86507949151513
 10
138.8020432160449
 20
82.86499049151513
 10
138.7885192160449
 20
82.86490349151514
 10
138.7749492160449
 20
82.86481849151514
 10
138.7613482160449
 20
82.86473849151513
 10
138.7477302160449
 20
82.86466549151513
 10
138.7341092160449
 20
82.86459949151514
 10
138.7205022160449
 20
82.86454349151514
 10
138.7069222160449
 20
82.86449849151514
 10
138.6933842160449
 20
82.86446649151513
 10
138.6799032160449
 20
82.86444949151513
 10
138.6664942160449
 20
82.86444849151513
 10
138.6531702160449
 20
82.86446549151513
 10
138.6399482160449
 20
82.86450249151514
 10
138.6268422160449
 20
82.86456149151513
 10
138.6138652160449
 20
82.86464249151513
 10
138.6010342160449
 20
82.86474849151513
 10
138.5883632160449
 20
82.86488149151513
 10
138.5758662160449
 20
82.86504149151513
 10
138.5635592160449
 20
82.86523249151513
 10
138.5514552160449
 20
82.86545449151514
 10
138.5395702160449
 20
82.86570949151513
 10
138.5279192160449
 20
82.86599949151514
 10
138.5165152160449
 20
82.86632649151514
 10
138.5053752160449
 20
82.86669049151513
 10
138.4945122160449
 20
82.86709549151513
 10
138.4839412160449
 20
82.86754149151513
 10
138.4736772160449
 20
82.86803049151513
 10
138.4637342160449
 20
82.86856549151513
 10
138.4541282160449
 20
82.86914649151514
 10
138.4448732160449
 20
82.86977549151513
 10
138.4359842160449
 20
82.87045449151513
 10
138.4274752160449
 20
82.87118549151513
 10
138.4193612160449
 20
82.87196949151513
 10
138.4116572160449
 20
82.87280849151513
 10
138.4043782160449
 20
82.87370449151513
 10
138.3975382160449
 20
82.87465849151513
 10
138.3911522160449
 20
82.87567349151513
 10
138.3852352160449
 20
82.87674949151513
 10
138.3798012160449
 20
82.87788849151514
 10
138.3748662160449
 20
82.87909349151514
  0
LWPOLYLINE
  5
BB2
330
1F
100
AcDbEntity
  8
OBRYS
  6
CONTINUOUS
100
AcDbPolyline
 90
       51
 70
     0
 43
0.0
 10
140.3278652160449
 20
74.48369249151513
 10
140.3296472160449
 20
74.48985049151513
 10
140.3314742160449
 20
74.49595249151513
 10
140.3333472160449
 20
74.50199649151513
 10
140.3352652160449
 20
74.50798549151513
 10
140.3372292160449
 20
74.51391649151513
 10
140.3392382160449
 20
74.51979149151514
 10
140.3412922160449
 20
74.52560949151513
 10
140.3433912160449
 20
74.53137049151513
 10
140.3455362160449
 20
74.53707549151514
 10
140.3477262160449
 20
74.54272349151513
 10
140.3499622160449
 20
74.54831549151513
 10
140.3522422160449
 20
74.55384949151514
 10
140.3545682160449
 20
74.55932749151513
 10
140.3569392160449
 20
74.56474949151513
 10
140.3593562160449
 20
74.57011349151513
 10
140.3618182160449
 20
74.57542149151513
 10
140.3643242160449
 20
74.58067249151513
 10
140.3668762160449
 20
74.58586749151513
 10
140.3694742160449
 20
74.59100449151514
 10
140.3721162160449
 20
74.59608649151514
 10
140.3748042160449
 20
74.60111049151513
 10
140.3775362160449
 20
74.60607849151513
 10
140.3803142160449
 20
74.61098949151513
 10
140.3831372160449
 20
74.61584349151514
 10
140.3860052160449
 20
74.62064149151513
 10
140.3889182160449
 20
74.62538249151514
 10
140.3918772160449
 20
74.63006649151514
 10
140.3948802160449
 20
74.63469349151514
 10
140.3979282160449
 20
74.63926449151514
 10
140.4010222160449
 20
74.64377949151513
 10
140.4041602160449
 20
74.64823649151514
 10
140.4073442160449
 20
74.65263749151514
 10
140.4105732160449
 20
74.65698149151514
 10
140.4138462160449
 20
74.66126849151513
 10
140.4171652160449
 20
74.66549949151513
 10
140.4205282160449
 20
74.66967349151513
 10
140.4239372160449
 20
74.67379049151513
 10
140.4273902160449
 20
74.67785149151513
 10
140.4308882160449
 20
74.68185549151514
 10
140.4344322160449
 20
74.68580249151513
 10
140.4380202160449
 20
74.68969349151513
 10
140.4416532160449
 20
74.69352749151513
 10
140.4453312160449
 20
74.69730449151513
 10
140.4490542160449
 20
74.70102449151513
 10
140.4528222160449
 20
74.70468849151513
 10
140.4566342160449
 20
74.70829549151513
 10
140.4604922160449
 20
74.71184549151513
 10
140.4643942160449
 20
74.71533949151514
 10
140.4683412160449
 20
74.71877649151513
 10
140.4723332160449
 20
74.72215649151514
  0
LWPOLYLINE
  5
BB3
330
1F
100
AcDbEntity
  8
OBRYS
  6
CONTINUOUS
100
AcDbPolyline
 90
       51
 70
     0
 43
0.0
 10
137.1413792160449
 20
74.53201649151514
 10
137.1407972160449
 20
74.53681249151514
 10
137.1401752160449
 20
74.54159049151514
 10
137.1395122160449
 20
74.54635149151514
 10
137.1388082160449
 20
74.55109449151513
 10
137.1380642160449
 20
74.55582049151514
 10
137.1372782160449
 20
74.56052849151513
 10
137.1364522160449
 20
74.56521949151514
 10
137.1355852160449
 20
74.56989249151513
 10
137.1346782160449
 20
74.57454849151513
 10
137.1337292160449
 20
74.57918749151513
 10
137.1327402160449
 20
74.58380849151513
 10
137.1317102160449
 20
74.58841249151513
 10
137.1306402160449
 20
74.59299849151513
 10
137.1295282160449
 20
74.59756749151514
 10
137.1283762160449
 20
74.60211849151513
 10
137.1271842160449
 20
74.60665249151513
 10
137.1259512160449
 20
74.61116949151513
 10
137.1246772160449
 20
74.61566949151513
 10
137.1233622160449
 20
74.62015149151513
 10
137.1220072160449
 20
74.62461549151513
 10
137.1206112160449
 20
74.62906349151514
 10
137.1191752160449
 20
74.63349349151514
 10
137.1176982160449
 20
74.63790649151514
 10
137.1161802160449
 20
74.64230149151513
 10
137.1146222160449
 20
74.64668049151513
 10
137.1130232160449
 20
74.65104149151513
 10
137.1113842160449
 20
74.65538449151514
 10
137.1097042160449
 20
74.65971149151514
 10
137.1079842160449
 20
74.66402049151513
 10
137.1062232160449
 20
74.66831249151514
 10
137.1044212160449
 20
74.67258749151513
 10
137.1025792160449
 20
74.67684549151514
 10
137.1006972160449
 20
74.68108549151513
 10
137.0987742160449
 20
74.68530849151513
 10
137.0968112160449
 20
74.68951549151514
 10
137.0948072160449
 20
74.69370349151514
 10
137.0927622160449
 20
74.69787549151513
 10
137.0906782160449
 20
74.70203049151513
 10
137.0885522160449
 20
74.70616749151513
 10
137.0863872160449
 20
74.71028849151513
 10
137.0841812160449
 20
74.71439149151513
 10
137.0819342160449
 20
74.71847749151513
 10
137.0796482160449
 20
74.72254649151513
 10
137.0773202160449
 20
74.72659849151513
 10
137.0749532160449
 20
74.73063349151514
 10
137.0725452160449
 20
74.73465149151514
 10
137.0700972160449
 20
74.73865249151514
 10
137.0676082160449
 20
74.74263649151513
 10
137.0650792160449
 20
74.74660349151513
 10
137.0625102160449
 20
74.75055249151514
  0
LWPOLYLINE
  5
BB4
330
1F
100
AcDbEntity
  8
OBRYS
  6
CONTINUOUS
100
AcDbPolyline
 90
       51
 70
     0
 43
0.0
 10
140.1613202160449
 20
73.82009849151514
 10
140.1607292160449
 20
73.82171149151513
 10
140.1601952160449
 20
73.82333549151514
 10
140.1597182160449
 20
73.82497249151513
 10
140.1592992160449
 20
73.82661949151513
 10
140.1589372160449
 20
73.82827949151513
 10
140.1586312160449
 20
73.82995049151513
 10
140.1583812160449
 20
73.83163349151513
 10
140.1581892160449
 20
73.83333149151514
 10
140.1580552160449
 20
73.83503949151513
 10
140.1579782160449
 20
73.83675149151513
 10
140.1579602160449
 20
73.83846449151514
 10
140.1580002160449
 20
73.84017349151513
 10
140.1580992160449
 20
73.84187449151513
 10
140.1582552160449
 20
73.84356749151513
 10
140.1584682160449
 20
73.84525249151514
 10
140.1587392160449
 20
73.84692949151513
 10
140.1590682160449
 20
73.84859849151513
 10
140.1594552160449
 20
73.85025949151513
 10
140.1598992160449
 20
73.85191149151514
 10
140.1604012160449
 20
73.85354949151514
 10
140.1609582160449
 20
73.85516749151513
 10
140.1615702160449
 20
73.85676449151514
 10
140.1622352160449
 20
73.85833649151513
 10
140.1629512160449
 20
73.85988249151514
 10
140.1637192160449
 20
73.86139949151513
 10
140.1645382160449
 20
73.86289049151513
 10
140.1654122160449
 20
73.86435649151514
 10
140.1663362160449
 20
73.86579549151513
 10
140.1673102160449
 20
73.86720349151513
 10
140.1683322160449
 20
73.86857749151514
 10
140.1694002160449
 20
73.86991449151513
 10
140.1705102160449
 20
73.87121149151513
 10
140.1716612160449
 20
73.87246649151513
 10
140.1728522160449
 20
73.87367849151514
 10
140.1740832160449
 20
73.87484949151514
 10
140.1753542160449
 20
73.87597649151513
 10
140.1766652160449
 20
73.87706249151513
 10
140.1780152160449
 20
73.87810649151513
 10
140.1794042160449
 20
73.87910449151514
 10
140.1808292160449
 20
73.88005649151513
 10
140.1822842160449
 20
73.88095849151513
 10
140.1837672160449
 20
73.88180949151513
 10
140.1852742160449
 20
73.88260749151513
 10
140.1868012160449
 20
73.88335049151513
 10
140.1883492160449
 20
73.88404049151514
 10
140.1899212160449
 20
73.88467749151513
 10
140.1915162160449
 20
73.88526149151514
 10
140.1931342160449
 20
73.88579149151514
 10
140.1947752160449
 20
73.88626849151514
 10
140.1964402160449
 20
73.88669049151514
  0
LWPOLYLINE
  5
BB5
330
1F
100
AcDbEntity
  8
OBRYS
  6
CONTINUOUS
100
AcDbPolyline
 90
       51
 70
     0
 43
0.0
 10
136.0006622160449
 20
73.83203949151513
 10
136.0004482160449
 20
73.83367449151514
 10
136.0002892160449
 20
73.83530949151513
 10
136.0001832160449
 20
73.83694249151513
 10
136.0001322160449
 20
73.83857449151513
 10
136.0001332160449
 20
73.84020449151514
 10
136.0001882160449
 20
73.84183449151513
 10
136.0002972160449
 20
73.84346449151514
 10
136.0004592160449
 20
73.84509549151514
 10
136.0006752160449
 20
73.84672449151513
 10
136.0009452160449
 20
73.84834749151513
 10
136.0012672160449
 20
73.84996049151513
 10
136.0016422160449
 20
73.85155949151513
 10
136.0020682160449
 20
73.85314149151513
 10
136.0025452160449
 20
73.85470349151514
 10
136.0030712160449
 20
73.85624749151513
 10
136.0036482160449
 20
73.85777249151514
 10
136.0042742160449
 20
73.85927849151513
 10
136.0049512160449
 20
73.86076549151514
 10
136.0056782160449
 20
73.86223349151513
 10
136.0064562160449
 20
73.86368049151513
 10
136.0072812160449
 20
73.86510349151513
 10
136.0081532160449
 20
73.86649749151513
 10
136.0090692160449
 20
73.86786149151513
 10
136.0100272160449
 20
73.86919249151514
 10
136.0110252160449
 20
73.87048549151514
 10
136.0120642160449
 20
73.87174349151513
 10
136.0131462160449
 20
73.87296849151514
 10
136.0142692160449
 20
73.87415749151513
 10
136.0154322160449
 20
73.87531149151513
 10
136.0166322160449
 20
73.87642649151513
 10
136.0178682160449
 20
73.87750249151513
 10
136.0191392160449
 20
73.87853849151513
 10
136.0204422160449
 20
73.87953249151514
 10
136.0217772160449
 20
73.88048249151514
 10
136.0231412160449
 20
73.88138849151514
 10
136.0245332160449
 20
73.88224849151513
 10
136.0259512160449
 20
73.88306049151514
 10
136.0273942160449
 20
73.88382549151514
 10
136.0288672160449
 20
73.88454349151513
 10
136.0303682160449
 20
73.88521549151513
 10
136.0318912160449
 20
73.88583849151513
 10
136.0334342160449
 20
73.88641149151513
 10
136.0349942160449
 20
73.88693349151514
 10
136.0365662160449
 20
73.88740249151513
 10
136.0381502160449
 20
73.88781849151513
 10
136.0397452160449
 20
73.88818249151514
 10
136.0413522160449
 20
73.88849349151513
 10
136.0429712160449
 20
73.88875249151513
 10
136.0446022160449
 20
73.88895849151513
 10
136.0462452160449
 20
73.88911149151514
  0
LWPOLYLINE
  5
BB6
330
1F
100
AcDbEntity
  8
OBRYS
  6
CONTINUOUS
100
AcDbPolyline
 90
       51
 70
     0
 43
0.0
 10
140.1673512160449
 20
74.47429349151513
 10
140.1657672160449
 20
74.47472249151514
 10
140.1642042160449
 20
74.47519949151513
 10
140.1626642160449
 20
74.47572549151513
 10
140.1611442160449
 20
74.47630149151513
 10
140.1596472160449
 20
74.47692449151513
 10
140.1581702160449
 20
74.47759649151513
 10
140.1567142160449
 20
74.47831649151513
 10
140.1552762160449
 20
74.47908749151513
 10
140.1538612160449
 20
74.47990649151514
 10
140.1524722160449
 20
74.48077249151514
 10
140.1511122160449
 20
74.48168249151513
 10
140.1497842160449
 20
74.48263549151514
 10
140.1484922160449
 20
74.48362849151513
 10
140.1472362160449
 20
74.48466049151513
 10
140.1460162160449
 20
74.48573049151513
 10
140.1448332160449
 20
74.48683949151513
 10
140.1436862160449
 20
74.48798749151513
 10
140.1425752160449
 20
74.48917449151513
 10
140.1415012160449
 20
74.49039949151513
 10
140.1404642160449
 20
74.49166249151513
 10
140.1394692160449
 20
74.49296149151513
 10
140.1385162160449
 20
74.49429149151513
 10
140.1376082160449
 20
74.49565149151513
 10
140.1367462160449
 20
74.49703649151513
 10
140.1359332160449
 20
74.49844449151513
 10
140.1351682160449
 20
74.49987649151514
 10
140.1344502160449
 20
74.50133549151514
 10
140.1337802160449
 20
74.50281849151513
 10
140.1331572160449
 20
74.50432449151513
 10
140.1325842160449
 20
74.50585049151513
 10
140.1320592160449
 20
74.50739449151513
 10
140.1315852160449
 20
74.50895549151514
 10
140.1311622160449
 20
74.51053049151513
 10
140.1307902160449
 20
74.51211749151513
 10
140.1304702160449
 20
74.51371449151513
 10
140.1302022160449
 20
74.51531949151513
 10
140.1299882160449
 20
74.51693149151514
 10
140.1298272160449
 20
74.51854749151514
 10
140.1297192160449
 20
74.52017449151514
 10
140.1296652160449
 20
74.52180849151513
 10
140.1296632160449
 20
74.52344549151513
 10
140.1297152160449
 20
74.52508249151514
 10
140.1298202160449
 20
74.52671549151513
 10
140.1299782160449
 20
74.52834149151514
 10
140.1301892160449
 20
74.52995749151513
 10
140.1304532160449
 20
74.53156549151514
 10
140.1307682160449
 20
74.53316349151514
 10
140.1311372160449
 20
74.53475349151513
 10
140.1315582160449
 20
74.53633449151513
 10
140.1320332160449
 20
74.53790549151513
  0
LWPOLYLINE
  5
BB7
330
1F
100
AcDbEntity
  8
OBRYS
  6
CONTINUOUS
100
AcDbPolyline
 90
       51
 70
     0
 43
0.0
 10
137.1413792160449
 20
74.53201649151514
 10
137.1415402160449
 20
74.53041749151514
 10
137.1416492160449
 20
74.52882149151513
 10
137.1417072160449
 20
74.52722749151513
 10
137.1417142160449
 20
74.52563649151513
 10
137.1416702160449
 20
74.52404749151513
 10
137.1415762160449
 20
74.52246249151513
 10
137.1414312160449
 20
74.52087749151514
 10
137.1412352160449
 20
74.51929249151513
 10
137.1409882160449
 20
74.51771149151513
 10
137.1406902160449
 20
74.51613649151513
 10
137.1403422160449
 20
74.51457149151513
 10
137.1399452160449
 20
74.51302049151514
 10
137.1394992160449
 20
74.51148649151513
 10
137.1390052160449
 20
74.50997249151513
 10
137.1384652160449
 20
74.50847749151514
 10
137.1378782160449
 20
74.50700149151513
 10
137.1372432160449
 20
74.50554449151514
 10
137.1365622160449
 20
74.50410749151513
 10
137.1358332160449
 20
74.50268949151513
 10
137.1350572160449
 20
74.50129049151514
 10
137.1342352160449
 20
74.49991549151514
 10
137.1333682160449
 20
74.49856549151514
 10
137.1324592160449
 20
74.49724549151513
 10
137.1315112160449
 20
74.49595749151513
 10
137.1305262160449
 20
74.49470549151513
 10
137.1295022160449
 20
74.49348749151514
 10
137.1284372160449
 20
74.49230249151513
 10
137.1273342160449
 20
74.49115049151513
 10
137.1261932160449
 20
74.49003349151513
 10
137.1250182160449
 20
74.48895249151514
 10
137.1238082160449
 20
74.48790949151514
 10
137.1225652160449
 20
74.48690549151513
 10
137.1212922160449
 20
74.48594049151514
 10
137.1199902160449
 20
74.48501749151514
 10
137.1186602160449
 20
74.48413749151513
 10
137.1173042160449
 20
74.48330049151514
 10
137.1159242160449
 20
74.48250849151513
 10
137.1145202160449
 20
74.48176349151514
 10
137.1130892160449
 20
74.48106149151513
 10
137.1116332160449
 20
74.48040349151513
 10
137.1101542160449
 20
74.47979249151513
 10
137.1086542160449
 20
74.47922649151513
 10
137.1071362160449
 20
74.47870949151513
 10
137.1056022160449
 20
74.47824149151513
 10
137.1040572160449
 20
74.47782449151514
 10
137.1025012160449
 20
74.47745649151513
 10
137.1009332160449
 20
74.47713849151513
 10
137.0993562160449
 20
74.47687049151513
 10
137.0977672160449
 20
74.47665349151514
 10
137.0961672160449
 20
74.47648649151513
  0
LWPOLYLINE
  5
BB8
330
1F
100
AcDbEntity
  8
OBRYS
  6
CONTINUOUS
100
AcDbPolyline
 90
       51
 70
     0
 43
0.0
 10
140.3278652160449
 20
74.48369249151513
 10
140.3274182160449
 20
74.48220849151514
 10
140.3269282160449
 20
74.48074649151513
 10
140.3263952160449
 20
74.47930449151514
 10
140.3258192160449
 20
74.47788249151513
 10
140.3252012160449
 20
74.47648149151513
 10
140.3245402160449
 20
74.47510049151514
 10
140.3238362160449
 20
74.47373849151514
 10
140.3230882160449
 20
74.47239449151513
 10
140.3222982160449
 20
74.47107149151513
 10
140.3214662160449
 20
74.46977149151513
 10
140.3205942160449
 20
74.46849649151514
 10
140.3196832160449
 20
74.46724949151513
 10
140.3187352160449
 20
74.46603349151513
 10
140.3177542160449
 20
74.46485049151514
 10
140.3167382160449
 20
74.46370049151513
 10
140.3156902160449
 20
74.46258449151513
 10
140.3146072160449
 20
74.46150149151514
 10
140.3134922160449
 20
74.46045249151513
 10
140.3123432160449
 20
74.45943549151514
 10
140.3111592160449
 20
74.45845149151513
 10
140.3099412160449
 20
74.45750249151513
 10
140.3086932160449
 20
74.45658949151513
 10
140.3074182160449
 20
74.45571549151514
 10
140.3061182160449
 20
74.45488249151514
 10
140.3047982160449
 20
74.45409249151513
 10
140.3034582160449
 20
74.45334649151513
 10
140.3020982160449
 20
74.45264349151513
 10
140.3007172160449
 20
74.45198149151513
 10
140.2993162160449
 20
74.45136349151514
 10
140.2978942160449
 20
74.45078649151513
 10
140.2964512160449
 20
74.45025349151513
 10
140.2949892160449
 20
74.44976349151513
 10
140.2935102160449
 20
74.44931849151513
 10
140.2920182160449
 20
74.44891949151513
 10
140.2905152160449
 20
74.44856649151514
 10
140.2890052160449
 20
74.44826049151513
 10
140.2874902160449
 20
74.44800249151513
 10
140.2859722160449
 20
74.44779149151513
 10
140.2844472160449
 20
74.44762749151514
 10
140.2829172160449
 20
74.44751049151513
 10
140.2813812160449
 20
74.44744049151514
 10
140.2798422160449
 20
74.44741849151514
 10
140.2783012160449
 20
74.44744249151513
 10
140.2767612160449
 20
74.44751449151514
 10
140.2752212160449
 20
74.44763349151513
 10
140.2736842160449
 20
74.44780049151514
 10
140.2721522160449
 20
74.44801449151514
 10
140.2706252160449
 20
74.44827649151513
 10
140.2691062160449
 20
74.44858549151513
 10
140.2675952160449
 20
74.44894249151513
  0
LWPOLYLINE
  5
BB9
330
1F
100
AcDbEntity
  8
OBRYS
  6
CONTINUOUS
100
AcDbPolyline
 90
       51
 70
     0
 43
0.0
 10
137.0044412160449
 20
74.46840449151513
 10
137.0029652160449
 20
74.46829649151513
 10
137.0014912160449
 20
74.46823149151513
 10
137.0000202160449
 20
74.46820949151514
 10
136.9985512160449
 20
74.46823149151513
 10
136.9970862160449
 20
74.46829649151513
 10
136.9956252160449
 20
74.46840449151513
 10
136.9941682160449
 20
74.46855549151513
 10
136.9927172160449
 20
74.46874949151513
 10
136.9912712160449
 20
74.46898649151514
 10
136.9898312160449
 20
74.46926549151513
 10
136.9883982160449
 20
74.46958849151514
 10
136.9869722160449
 20
74.46995249151513
 10
136.9855552160449
 20
74.47035949151514
 10
136.9841542160449
 20
74.47080649151513
 10
136.9827712160449
 20
74.47129349151513
 10
136.9814062160449
 20
74.47181949151513
 10
136.9800582160449
 20
74.47238549151513
 10
136.9787272160449
 20
74.47298949151514
 10
136.9774142160449
 20
74.47363349151513
 10
136.9761162160449
 20
74.47431849151513
 10
136.9748352160449
 20
74.47504349151514
 10
136.9735732160449
 20
74.47580649151513
 10
136.9723342160449
 20
74.47660749151514
 10
136.9711192160449
 20
74.47744349151513
 10
136.9699322160449
 20
74.47831449151514
 10
136.9687742160449
 20
74.47921649151513
 10
136.9676462160449
 20
74.48015049151513
 10
136.9665482160449
 20
74.48111649151514
 10
136.9654792160449
 20
74.48211249151514
 10
136.9644392160449
 20
74.48314049151513
 10
136.9634292160449
 20
74.48419949151513
 10
136.9624482160449
 20
74.48529049151513
 10
136.9614972160449
 20
74.48641449151513
 10
136.9605772160449
 20
74.48756849151513
 10
136.9596902160449
 20
74.48874949151514
 10
136.9588402160449
 20
74.48995449151514
 10
136.9580272160449
 20
74.49118149151514
 10
136.9572532160449
 20
74.49242749151513
 10
136.9565182160449
 20
74.49369549151513
 10
136.9558192160449
 20
74.49498449151513
 10
136.9551592160449
 20
74.49629449151513
 10
136.9545372160449
 20
74.49762349151513
 10
136.9539532160449
 20
74.49897149151514
 10
136.9534102160449
 20
74.50033649151513
 10
136.9529062160449
 20
74.50171849151513
 10
136.9524422160449
 20
74.50311549151513
 10
136.9520192160449
 20
74.50452849151513
 10
136.9516382160449
 20
74.50595449151513
 10
136.9512982160449
 20
74.50739349151513
 10
136.9510012160449
 20
74.50884449151513
  0
LWPOLYLINE
  5
BBA
330
1F
100
AcDbEntity
  8
OBRYS
  6
CONTINUOUS
100
AcDbPolyline
 90
       51
 70
     0
 43
0.0
 10
140.2947312160449
 20
73.90986349151514
 10
140.2961412160449
 20
73.91017449151514
 10
140.2975552160449
 20
73.91044549151513
 10
140.2989722160449
 20
73.91067449151514
 10
140.3003922160449
 20
73.91086149151513
 10
140.3018152160449
 20
73.91100849151513
 10
140.3032402160449
 20
73.91111349151514
 10
140.3046672160449
 20
73.91117749151513
 10
140.3060962160449
 20
73.91120149151513
 10
140.3075252160449
 20
73.91118249151513
 10
140.3089552160449
 20
73.91112349151513
 10
140.3103862160449
 20
73.91102349151514
 10
140.3118162160449
 20
73.91088149151513
 10
140.3132452160449
 20
73.91069949151513
 10
140.3146642160449
 20
73.91047649151513
 10
140.3160722160449
 20
73.91021349151514
 10
140.3174682160449
 20
73.90991149151513
 10
140.3188542160449
 20
73.90956949151513
 10
140.3202282160449
 20
73.90918749151513
 10
140.3215912160449
 20
73.90876749151514
 10
140.3229462160449
 20
73.90830649151513
 10
140.3242902160449
 20
73.90780549151513
 10
140.3256222160449
 20
73.90726549151513
 10
140.3269402160449
 20
73.90668649151513
 10
140.3282402160449
 20
73.90607049151514
 10
140.3295222160449
 20
73.90541649151513
 10
140.3307812160449
 20
73.90472849151513
 10
140.3320162160449
 20
73.90400549151514
 10
140.3332282160449
 20
73.90324949151513
 10
140.3344162160449
 20
73.90245949151513
 10
140.3355812160449
 20
73.90163649151513
 10
140.3367222160449
 20
73.90078049151514
 10
140.3378412160449
 20
73.89988949151514
 10
140.3389372160449
 20
73.89896349151513
 10
140.3400092160449
 20
73.89800349151513
 10
140.3410542160449
 20
73.89701249151513
 10
140.3420712160449
 20
73.89599249151513
 10
140.3430562160449
 20
73.89494549151513
 10
140.3440072160449
 20
73.89387249151514
 10
140.3449272160449
 20
73.89277349151513
 10
140.3458142160449
 20
73.89164949151514
 10
140.3466692160449
 20
73.89050149151514
 10
140.3474892160449
 20
73.88932949151513
 10
140.3482772160449
 20
73.88813449151513
 10
140.3490292160449
 20
73.88691649151514
 10
140.3497482160449
 20
73.88567649151513
 10
140.3504302160449
 20
73.88441449151513
 10
140.3510782160449
 20
73.88313249151513
 10
140.3516892160449
 20
73.88182949151513
 10
140.3522632160449
 20
73.88050749151513
 10
140.3528012160449
 20
73.87916649151514
  0
LWPOLYLINE
  5
BBB
330
1F
100
AcDbEntity
  8
OBRYS
  6
CONTINUOUS
100
AcDbPolyline
 90
       51
 70
     0
 43
0.0
 10
136.1402812160449
 20
73.89631549151514
 10
136.1417222160449
 20
73.89640549151514
 10
136.1431612160449
 20
73.89645449151513
 10
136.1445982160449
 20
73.89646149151514
 10
136.1460302160449
 20
73.89642749151513
 10
136.1474592160449
 20
73.89635249151513
 10
136.1488842160449
 20
73.89623649151514
 10
136.1503042160449
 20
73.89607949151514
 10
136.1517192160449
 20
73.89588149151513
 10
136.1531292160449
 20
73.89564249151513
 10
136.1545342160449
 20
73.89536249151513
 10
136.1559322160449
 20
73.89504249151513
 10
136.1573242160449
 20
73.89468149151513
 10
136.1587082160449
 20
73.89427949151514
 10
136.1600762160449
 20
73.89384049151514
 10
136.1614262160449
 20
73.89336349151513
 10
136.1627592160449
 20
73.89284849151514
 10
136.1640762160449
 20
73.89229649151514
 10
136.1653752160449
 20
73.89170649151514
 10
136.1666572160449
 20
73.89108049151513
 10
136.1679252160449
 20
73.89041549151513
 10
136.1691762160449
 20
73.88971249151513
 10
136.1704092160449
 20
73.88897249151513
 10
136.1716212160449
 20
73.88819649151513
 10
136.1728112160449
 20
73.88738649151513
 10
136.1739772160449
 20
73.88654249151513
 10
136.1751142160449
 20
73.88566649151514
 10
136.1762232160449
 20
73.88476149151514
 10
136.1773042160449
 20
73.88382649151514
 10
136.1783562160449
 20
73.88286249151513
 10
136.1793802160449
 20
73.88186849151514
 10
136.1803752160449
 20
73.88084549151513
 10
136.1813432160449
 20
73.87979249151513
 10
136.1822832160449
 20
73.87870749151513
 10
136.1831942160449
 20
73.87759249151513
 10
136.1840732160449
 20
73.87645149151513
 10
136.1849202160449
 20
73.87528649151513
 10
136.1857312160449
 20
73.87409849151513
 10
136.1865052160449
 20
73.87289049151514
 10
136.1872442160449
 20
73.87166249151514
 10
136.1879472160449
 20
73.87041449151513
 10
136.1886132160449
 20
73.86914749151514
 10
136.1892432160449
 20
73.86786249151513
 10
136.1898362160449
 20
73.86655949151513
 10
136.1903912160449
 20
73.86523849151513
 10
136.1909092160449
 20
73.86390149151514
 10
136.1913882160449
 20
73.86254949151514
 10
136.1918292160449
 20
73.86118149151514
 10
136.1922312160449
 20
73.85979949151513
 10
136.1925942160449
 20
73.85840449151513
 10
136.1929172160449
 20
73.85699549151514
  0
LINE
  5
BBC
330
1F
100
AcDbEntity
  8
OBRYS
100
AcDbLine
 10
136.0999622160449
 20
84.65341949151514
 30
0.0
 11
136.0999622160449
 21
84.68876349151513
 31
0.0
  0
LINE
  5
BBD
330
1F
100
AcDbEntity
  8
OBRYS
100
AcDbLine
 10
139.8999622160449
 20
84.65341949151514
 30
0.0
 11
139.8999622160449
 21
84.68876349151513
 31
0.0
  0
ARC
  5
BBE
330
1F
100
AcDbEntity
  8
OBRYS
100
AcDbCircle
 10
134.2000028044752
 20
84.45308952286118
 30
0.0
 40
0.2000405884459726
100
AcDbArc
 50
90.01162536849162
 51
179.9992830604805
  0
ARC
  5
BBF
330
1F
100
AcDbEntity
  8
OBRYS
100
AcDbCircle
 10
141.7998575874225
 20
84.45293355209166
 30
0.0
 40
0.2001965824386872
100
AcDbArc
 50
358.2633559832613
 51
89.97005554012401
  0
LINE
  5
DA1
330
1F
100
AcDbEntity
  8
OBRYS
  6
CONTINUOUS
100
AcDbLine
 10
138.0635760130739
 20
22.71439739317153
 30
0.0
 11
140.1925570130739
 21
20.96117439317151
 31
0.0
  0
LINE
  5
DA2
330
1F
100
AcDbEntity
  8
OBRYS
  6
CONTINUOUS
100
AcDbLine
 10
135.8074560130739
 20
20.96117439317151
 30
0.0
 11
137.9364370130739
 21
22.71439739317153
 31
0.0
  0
LINE
  5
DA3
330
1F
100
AcDbEntity
  8
OBRYS
  6
CONTINUOUS
100
AcDbLine
 10
140.1925570130739
 20
17.78722539317152
 30
0.0
 11
138.0635760130739
 21
16.03400139317152
 31
0.0
  0
LINE
  5
DA4
330
1F
100
AcDbEntity
  8
OBRYS
  6
CONTINUOUS
100
AcDbLine
 10
137.9364370130739
 20
16.03400139317152
 30
0.0
 11
135.8074560130739
 21
17.78722539317152
 31
0.0
  0
LINE
  5
DA5
330
1F
100
AcDbEntity
  8
OBRYS
  6
CONTINUOUS
100
AcDbLine
 10
137.7457280130739
 20
22.94597939317152
 30
0.0
 11
135.6167470130739
 21
21.19275639317152
 31
0.0
  0
LINE
  5
DA6
330
1F
100
AcDbEntity
  8
OBRYS
  6
CONTINUOUS
100
AcDbLine
 10
140.3832650130739
 20
21.19275639317152
 30
0.0
 11
138.2542840130739
 21
22.94597939317152
 31
0.0
  0
LINE
  5
DA7
330
1F
100
AcDbEntity
  8
OBRYS
  6
CONTINUOUS
100
AcDbLine
 10
138.2542840130739
 20
15.80241939317152
 30
0.0
 11
140.3832650130739
 21
17.55564339317152
 31
0.0
  0
LINE
  5
DA8
330
1F
100
AcDbEntity
  8
OBRYS
  6
CONTINUOUS
100
AcDbLine
 10
135.6167470130739
 20
17.55564339317152
 30
0.0
 11
137.7457280130739
 21
15.80241939317152
 31
0.0
  0
LINE
  5
DA9
330
1F
100
AcDbEntity
  8
OBRYS
  6
CONTINUOUS
100
AcDbLine
 10
137.0564150130739
 20
14.79784239317152
 30
0.0
 11
137.0564150130739
 21
15.33429639317151
 31
0.0
  0
LINE
  5
DAA
330
1F
100
AcDbEntity
  8
OBRYS
  6
CONTINUOUS
100
AcDbLine
 10
137.0564150130739
 20
14.06112739317152
 30
0.0
 11
137.0564150130739
 21
14.62094239317152
 31
0.0
  0
LINE
  5
DAB
330
1F
100
AcDbEntity
  8
OBRYS
  6
CONTINUOUS
100
AcDbLine
 10
139.2878040130739
 20
14.74877139317152
 30
0.0
 11
139.2878040130739
 21
14.82465639317152
 31
0.0
  0
LINE
  5
DAC
330
1F
100
AcDbEntity
  8
OBRYS
  6
CONTINUOUS
100
AcDbLine
 10
141.3587470130739
 20
24.73720339317152
 30
0.0
 11
140.3741900130739
 21
24.73720339317152
 31
0.0
  0
LINE
  5
DAD
330
1F
100
AcDbEntity
  8
OBRYS
  6
CONTINUOUS
100
AcDbLine
 10
139.2378720130739
 20
14.87458739317152
 30
0.0
 11
138.4577960130739
 21
14.87458739317152
 31
0.0
  0
LINE
  5
DAE
330
1F
100
AcDbEntity
  8
OBRYS
  6
CONTINUOUS
100
AcDbLine
 10
140.8327000130739
 20
14.06112739317152
 30
0.0
 11
140.8327000130739
 21
15.46126439317152
 31
0.0
  0
LINE
  5
DAF
330
1F
100
AcDbEntity
  8
OBRYS
  6
CONTINUOUS
100
AcDbLine
 10
138.4577960130739
 20
15.33429639317151
 30
0.0
 11
139.2938970130739
 21
15.33429639317151
 31
0.0
  0
LINE
  5
DB0
330
1F
100
AcDbEntity
  8
OBRYS
  6
CONTINUOUS
100
AcDbLine
 10
136.1688940130739
 20
23.23720339317152
 30
0.0
 11
137.0064830130739
 21
23.23720339317152
 31
0.0
  0
LINE
  5
DB1
330
1F
100
AcDbEntity
  8
OBRYS
  6
CONTINUOUS
100
AcDbLine
 10
138.4577960130739
 20
14.69883939317152
 30
0.0
 11
139.2378720130739
 21
14.69883939317152
 31
0.0
  0
LINE
  5
DB2
330
1F
100
AcDbEntity
  8
OBRYS
  6
CONTINUOUS
100
AcDbLine
 10
138.4577960130739
 20
14.87458739317152
 30
0.0
 11
138.4577960130739
 21
15.33429639317151
 31
0.0
  0
LINE
  5
DB3
330
1F
100
AcDbEntity
  8
OBRYS
  6
CONTINUOUS
100
AcDbLine
 10
140.3242580130739
 20
24.68727239317153
 30
0.0
 11
140.3242580130739
 21
23.28713439317152
 31
0.0
  0
LINE
  5
DB4
330
1F
100
AcDbEntity
  8
OBRYS
  6
CONTINUOUS
100
AcDbLine
 10
140.5226460130739
 20
23.41410239317152
 30
0.0
 11
140.5226460130739
 21
23.92484739317152
 31
0.0
  0
LINE
  5
DB5
330
1F
100
AcDbEntity
  8
OBRYS
  6
CONTINUOUS
100
AcDbLine
 10
139.3787480130739
 20
14.06112739317152
 30
0.0
 11
139.3787480130739
 21
14.13816339317152
 31
0.0
  0
LINE
  5
DB6
330
1F
100
AcDbEntity
  8
OBRYS
  6
CONTINUOUS
100
AcDbLine
 10
141.3936670130739
 20
23.41410239317152
 30
0.0
 11
140.5226460130739
 21
23.41410239317152
 31
0.0
  0
LINE
  5
DB7
330
1F
100
AcDbEntity
  8
OBRYS
  6
CONTINUOUS
100
AcDbLine
 10
139.8411420130739
 20
15.19001339317151
 30
0.0
 11
140.6141120130739
 21
14.03338339317152
 31
0.0
  0
LINE
  5
DB8
330
1F
100
AcDbEntity
  8
OBRYS
  6
CONTINUOUS
100
AcDbLine
 10
137.0064830130739
 20
23.41410239317152
 30
0.0
 11
136.3173510130739
 21
23.41410239317152
 31
0.0
  0
LINE
  5
DB9
330
1F
100
AcDbEntity
  8
OBRYS
  6
CONTINUOUS
100
AcDbLine
 10
140.3741900130739
 20
23.23720339317152
 30
0.0
 11
141.3936670130739
 21
23.23720339317152
 31
0.0
  0
LINE
  5
DBA
330
1F
100
AcDbEntity
  8
OBRYS
  6
CONTINUOUS
100
AcDbLine
 10
140.6556260130739
 20
14.01119539317152
 30
0.0
 11
140.7827690130739
 21
14.01119539317152
 31
0.0
  0
LINE
  5
DBB
330
1F
100
AcDbEntity
  8
OBRYS
  6
CONTINUOUS
100
AcDbLine
 10
139.7007440130739
 20
14.01119539317152
 30
0.0
 11
139.7912110130739
 21
14.01119539317152
 31
0.0
  0
LINE
  5
DBC
330
1F
100
AcDbEntity
  8
OBRYS
  6
CONTINUOUS
100
AcDbLine
 10
139.6508120130739
 20
15.46126439317152
 30
0.0
 11
139.6508120130739
 21
14.06112739317152
 31
0.0
  0
LINE
  5
DBD
330
1F
100
AcDbEntity
  8
OBRYS
  6
CONTINUOUS
100
AcDbLine
 10
141.4086790130739
 20
24.61023539317152
 30
0.0
 11
141.4086790130739
 21
24.68727239317153
 31
0.0
  0
LINE
  5
DBE
330
1F
100
AcDbEntity
  8
OBRYS
  6
CONTINUOUS
100
AcDbLine
 10
136.9075740130739
 20
14.01119539317152
 30
0.0
 11
137.0064830130739
 21
14.01119539317152
 31
0.0
  0
LINE
  5
DBF
330
1F
100
AcDbEntity
  8
OBRYS
  6
CONTINUOUS
100
AcDbLine
 10
136.3173510130739
 20
23.41410239317152
 30
0.0
 11
136.3173510130739
 21
24.68727239317153
 31
0.0
  0
LINE
  5
DC0
330
1F
100
AcDbEntity
  8
OBRYS
  6
CONTINUOUS
100
AcDbLine
 10
136.1189630130739
 20
24.68727239317153
 30
0.0
 11
136.1189630130739
 21
23.28713439317152
 31
0.0
  0
LINE
  5
DC1
330
1F
100
AcDbEntity
  8
OBRYS
  6
CONTINUOUS
100
AcDbLine
 10
139.8596870130739
 20
24.30364339317152
 30
0.0
 11
139.9537230130739
 21
24.31084739317152
 31
0.0
  0
LINE
  5
DC2
330
1F
100
AcDbEntity
  8
OBRYS
  6
CONTINUOUS
100
AcDbLine
 10
135.8326170130739
 20
23.72566539317153
 30
0.0
 11
135.7323730130739
 21
23.75101639317153
 31
0.0
  0
LINE
  5
DC3
330
1F
100
AcDbEntity
  8
OBRYS
  6
CONTINUOUS
100
AcDbLine
 10
140.7827690130739
 20
15.51119539317152
 30
0.0
 11
140.6923020130739
 21
15.51119539317152
 31
0.0
  0
LINE
  5
DC4
330
1F
100
AcDbEntity
  8
OBRYS
  6
CONTINUOUS
100
AcDbLine
 10
136.8576430130739
 20
15.51119539317152
 30
0.0
 11
136.8576430130739
 21
14.06112739317152
 31
0.0
  0
LINE
  5
DC5
330
1F
100
AcDbEntity
  8
OBRYS
  6
CONTINUOUS
100
AcDbLine
 10
138.9955270130739
 20
23.73155439317152
 30
0.0
 11
138.9038010130739
 21
23.72347239317152
 31
0.0
  0
LINE
  5
DC6
330
1F
100
AcDbEntity
  8
OBRYS
  6
CONTINUOUS
100
AcDbLine
 10
140.5226460130739
 20
24.56030439317152
 30
0.0
 11
141.3587470130739
 21
24.56030439317152
 31
0.0
  0
LINE
  5
DC7
330
1F
100
AcDbEntity
  8
OBRYS
  6
CONTINUOUS
100
AcDbLine
 10
139.3288160130739
 20
14.18809539317152
 30
0.0
 11
138.4577960130739
 21
14.18809539317152
 31
0.0
  0
LINE
  5
DC8
330
1F
100
AcDbEntity
  8
OBRYS
  6
CONTINUOUS
100
AcDbLine
 10
139.8411420130739
 20
14.06112739317152
 30
0.0
 11
139.8411420130739
 21
15.19001339317151
 31
0.0
  0
LINE
  5
DC9
330
1F
100
AcDbEntity
  8
OBRYS
  6
CONTINUOUS
100
AcDbLine
 10
137.0564150130739
 20
23.28713439317152
 30
0.0
 11
137.0564150130739
 21
23.36417139317152
 31
0.0
  0
LINE
  5
DCA
330
1F
100
AcDbEntity
  8
OBRYS
  6
CONTINUOUS
100
AcDbLine
 10
140.5226460130739
 20
24.10059539317152
 30
0.0
 11
140.5226460130739
 21
24.56030439317152
 31
0.0
  0
LINE
  5
DCB
330
1F
100
AcDbEntity
  8
OBRYS
  6
CONTINUOUS
100
AcDbLine
 10
135.7052370130739
 20
24.29009539317152
 30
0.0
 11
135.8035280130739
 21
24.31326839317152
 31
0.0
  0
LINE
  5
DCC
330
1F
100
AcDbEntity
  8
OBRYS
  6
CONTINUOUS
100
AcDbLine
 10
136.2674190130739
 20
24.73720339317152
 30
0.0
 11
136.1688940130739
 21
24.73720339317152
 31
0.0
  0
LINE
  5
DCD
330
1F
100
AcDbEntity
  8
OBRYS
  6
CONTINUOUS
100
AcDbLine
 10
141.4435980130739
 20
23.28713439317152
 30
0.0
 11
141.4435980130739
 21
23.36417139317152
 31
0.0
  0
LINE
  5
DCE
330
1F
100
AcDbEntity
  8
OBRYS
  6
CONTINUOUS
100
AcDbLine
 10
138.3093390130739
 20
14.01119539317152
 30
0.0
 11
139.3288160130739
 21
14.01119539317152
 31
0.0
  0
LINE
  5
DCF
330
1F
100
AcDbEntity
  8
OBRYS
  6
CONTINUOUS
100
AcDbLine
 10
139.2938970130739
 20
15.51119539317152
 30
0.0
 11
138.3093390130739
 21
15.51119539317152
 31
0.0
  0
LINE
  5
DD0
330
1F
100
AcDbEntity
  8
OBRYS
  6
CONTINUOUS
100
AcDbLine
 10
139.3438280130739
 20
15.38422739317151
 30
0.0
 11
139.3438280130739
 21
15.46126439317152
 31
0.0
  0
LINE
  5
DD1
330
1F
100
AcDbEntity
  8
OBRYS
  6
CONTINUOUS
100
AcDbLine
 10
140.6423700130739
 20
15.46126439317152
 30
0.0
 11
140.6423700130739
 21
14.33352839317152
 31
0.0
  0
LINE
  5
DD2
330
1F
100
AcDbEntity
  8
OBRYS
  6
CONTINUOUS
100
AcDbLine
 10
139.8279010130739
 20
15.51119539317152
 30
0.0
 11
139.7007440130739
 21
15.51119539317152
 31
0.0
  0
LINE
  5
DD3
330
1F
100
AcDbEntity
  8
OBRYS
  6
CONTINUOUS
100
AcDbLine
 10
141.3027230130739
 20
24.10059539317152
 30
0.0
 11
140.5226460130739
 21
24.10059539317152
 31
0.0
  0
LINE
  5
DD4
330
1F
100
AcDbEntity
  8
OBRYS
  6
CONTINUOUS
100
AcDbLine
 10
141.3526540130739
 20
23.97477839317152
 30
0.0
 11
141.3526540130739
 21
24.05066439317152
 31
0.0
  0
LINE
  5
DD5
330
1F
100
AcDbEntity
  8
OBRYS
  6
CONTINUOUS
100
AcDbLine
 10
138.2594080130739
 20
15.46126439317152
 30
0.0
 11
138.2594080130739
 21
14.06112739317152
 31
0.0
  0
LINE
  5
DD6
330
1F
100
AcDbEntity
  8
OBRYS
  6
CONTINUOUS
100
AcDbLine
 10
140.5226460130739
 20
23.92484739317152
 30
0.0
 11
141.3027230130739
 21
23.92484739317152
 31
0.0
  0
LINE
  5
DD7
330
1F
100
AcDbEntity
  8
OBRYS
  6
CONTINUOUS
100
AcDbLine
 10
140.6423700130739
 20
14.33352839317152
 30
0.0
 11
139.8694030130739
 21
15.48902639317151
 31
0.0
  0
LINE
  5
DD8
330
1F
100
AcDbEntity
  8
OBRYS
  6
CONTINUOUS
100
AcDbLine
 10
135.8710250130739
 20
20.48398039317152
 30
0.0
 11
140.1289870130739
 21
20.48398039317152
 31
0.0
  0
LINE
  5
DD9
330
1F
100
AcDbEntity
  8
OBRYS
  6
CONTINUOUS
100
AcDbLine
 10
140.1289870130739
 20
18.26441939317152
 30
0.0
 11
135.8710250130739
 21
18.26441939317152
 31
0.0
  0
LINE
  5
DDA
330
1F
100
AcDbEntity
  8
OBRYS
  6
CONTINUOUS
100
AcDbLine
 10
140.1289870130739
 20
20.78398039317151
 30
0.0
 11
135.8710250130739
 21
20.78398039317151
 31
0.0
  0
LINE
  5
DDB
330
1F
100
AcDbEntity
  8
OBRYS
  6
CONTINUOUS
100
AcDbLine
 10
135.8710250130739
 20
17.96441939317152
 30
0.0
 11
140.1289870130739
 21
17.96441939317152
 31
0.0
  0
LINE
  5
DDC
330
1F
100
AcDbEntity
  8
OBRYS
  6
CONTINUOUS
100
AcDbLine
 10
138.4577960130739
 20
14.18809539317152
 30
0.0
 11
138.4577960130739
 21
14.69883939317152
 31
0.0
  0
LINE
  5
DDD
330
1F
100
AcDbEntity
  8
OBRYS
  6
CONTINUOUS
100
AcDbLine
 10
142.0000060130739
 20
25.83443539317152
 30
0.0
 11
142.0000060130739
 21
13.51119539317152
 31
0.0
  0
LINE
  5
DDE
330
1F
100
AcDbEntity
  8
OBRYS
  6
CONTINUOUS
100
AcDbLine
 10
134.0000060130739
 20
13.51119539317152
 30
0.0
 11
134.0000060130739
 21
25.83443539317152
 31
0.0
  0
LINE
  5
DDF
330
1F
100
AcDbEntity
  8
OBRYS
  6
CONTINUOUS
100
AcDbLine
 10
140.0000060130739
 20
19.67613939317152
 30
0.0
 11
140.0000060130739
 21
19.07225939317152
 31
0.0
  0
LINE
  5
DE0
330
1F
100
AcDbEntity
  8
OBRYS
  6
CONTINUOUS
100
AcDbLine
 10
136.0000060130739
 20
19.07225939317152
 30
0.0
 11
136.0000060130739
 21
19.67613939317152
 31
0.0
  0
LINE
  5
DE1
330
1F
100
AcDbEntity
  8
OBRYS
  6
CONTINUOUS
100
AcDbLine
 10
139.7993810130739
 20
18.87419939317152
 30
0.0
 11
136.2006320130739
 21
18.87419939317152
 31
0.0
  0
LINE
  5
DE2
330
1F
100
AcDbEntity
  8
OBRYS
  6
CONTINUOUS
100
AcDbLine
 10
136.2006320130739
 20
19.87419939317152
 30
0.0
 11
139.7993810130739
 21
19.87419939317152
 31
0.0
  0
LINE
  5
DE3
330
1F
100
AcDbEntity
  8
OBRYS
  6
CONTINUOUS
100
AcDbLine
 10
134.0000060130739
 20
13.74686739317151
 30
0.0
 11
134.0000060130739
 21
13.75309239317151
 31
0.0
  0
LINE
  5
DE4
330
1F
100
AcDbEntity
  8
OBRYS
  6
CONTINUOUS
100
AcDbLine
 10
141.8000060130739
 20
13.54682939317152
 30
0.0
 11
139.9000060130739
 21
13.54653939317151
 31
0.0
  0
LINE
  5
DE5
330
1F
100
AcDbEntity
  8
OBRYS
  6
CONTINUOUS
100
AcDbLine
 10
134.0000060130739
 20
13.51119539317152
 30
0.0
 11
142.0000060130739
 21
13.51119539317152
 31
0.0
  0
LINE
  5
DE6
330
1F
100
AcDbEntity
  8
OBRYS
  6
CONTINUOUS
100
AcDbLine
 10
136.1000060130739
 20
13.54653939317151
 30
0.0
 11
134.2000060130739
 21
13.54682939317152
 31
0.0
  0
LINE
  5
DE7
330
1F
100
AcDbEntity
  8
OBRYS
  6
CONTINUOUS
100
AcDbLine
 10
142.0000060130739
 20
13.75309239317151
 30
0.0
 11
142.0000060130739
 21
13.74686739317151
 31
0.0
  0
LINE
  5
DE8
330
1F
100
AcDbEntity
  8
OBRYS
  6
CONTINUOUS
100
AcDbLine
 10
134.0000060130739
 20
25.83443539317152
 30
0.0
 11
134.0000060130739
 21
25.86118839317152
 31
0.0
  0
LINE
  5
DE9
330
1F
100
AcDbEntity
  8
OBRYS
  6
CONTINUOUS
100
AcDbLine
 10
141.8000060130739
 20
26.06119539317152
 30
0.0
 11
139.1900060130739
 21
26.06119539317152
 31
0.0
  0
LINE
  5
DEA
330
1F
100
AcDbEntity
  8
OBRYS
  6
CONTINUOUS
100
AcDbLine
 10
134.2000060130739
 20
26.06119539317152
 30
0.0
 11
136.8100060130739
 21
26.06119539317152
 31
0.0
  0
LINE
  5
DEB
330
1F
100
AcDbEntity
  8
OBRYS
  6
CONTINUOUS
100
AcDbLine
 10
142.0000060130739
 20
25.86118839317152
 30
0.0
 11
142.0000060130739
 21
25.83443539317152
 31
0.0
  0
LINE
  5
DEC
330
1F
100
AcDbEntity
  8
OBRYS
  6
CONTINUOUS
100
AcDbLine
 10
138.9000060130739
 20
26.36119539317152
 30
0.0
 11
137.1000060130739
 21
26.36119539317152
 31
0.0
  0
ARC
  5
DED
330
1F
100
AcDbEntity
  8
OBRYS
  6
CONTINUOUS
100
AcDbCircle
 10
-138.0000060130739
 20
22.63720339317152
 30
0.0
 40
0.0999999999999942
210
0.0
220
0.0
230
-1.0
100
AcDbArc
 50
50.52842199998853
 51
129.4715779999924
  0
ARC
  5
DEE
330
1F
100
AcDbEntity
  8
OBRYS
  6
CONTINUOUS
100
AcDbCircle
 10
138.0000060130739
 20
16.11119539317151
 30
0.0
 40
0.3999999999999954
100
AcDbArc
 50
230.5284219999997
 51
309.4715780000003
  0
ARC
  5
DEF
330
1F
100
AcDbEntity
  8
OBRYS
  6
CONTINUOUS
100
AcDbCircle
 10
138.0000060130739
 20
22.63720339317152
 30
0.0
 40
0.3999999999999954
100
AcDbArc
 50
50.528422
 51
129.471578
  0
ARC
  5
DF0
330
1F
100
AcDbEntity
  8
OBRYS
  6
CONTINUOUS
100
AcDbCircle
 10
-138.0000060130739
 20
16.11119539317151
 30
0.0
 40
0.0999999999999956
210
0.0
220
0.0
230
-1.0
100
AcDbArc
 50
230.5284220000076
 51
309.4715779999924
  0
ARC
  5
DF1
330
1F
100
AcDbEntity
  8
OBRYS
  6
CONTINUOUS
100
AcDbCircle
 10
135.8710250130739
 20
17.86441939317151
 30
0.0
 40
0.4000000000000009
100
AcDbArc
 50
90.0
 51
230.5284220000003
  0
ARC
  5
DF2
330
1F
100
AcDbEntity
  8
OBRYS
  6
CONTINUOUS
100
AcDbCircle
 10
140.1289870130739
 20
20.88398039317151
 30
0.0
 40
0.4000000000000004
100
AcDbArc
 50
270.0
 51
50.52842200000032
  0
ARC
  5
DF3
330
1F
100
AcDbEntity
  8
OBRYS
  6
CONTINUOUS
100
AcDbCircle
 10
140.1289870130739
 20
17.86441939317151
 30
0.0
 40
0.4000000000000004
100
AcDbArc
 50
309.4715779999996
 51
90.0
  0
ARC
  5
DF4
330
1F
100
AcDbEntity
  8
OBRYS
  6
CONTINUOUS
100
AcDbCircle
 10
135.8710250130739
 20
20.88398039317151
 30
0.0
 40
0.4000000000000009
100
AcDbArc
 50
129.4715779999997
 51
270.0
  0
ARC
  5
DF5
330
1F
100
AcDbEntity
  8
OBRYS
  6
CONTINUOUS
100
AcDbCircle
 10
-135.8710250130739
 20
20.88398039317151
 30
0.0
 40
0.1000000000000025
210
0.0
220
0.0
230
-1.0
100
AcDbArc
 50
270.0
 51
50.52842199999112
  0
ARC
  5
DF6
330
1F
100
AcDbEntity
  8
OBRYS
  6
CONTINUOUS
100
AcDbCircle
 10
-140.1289870130739
 20
17.86441939317151
 30
0.0
 40
0.1000000000000014
210
0.0
220
0.0
230
-1.0
100
AcDbArc
 50
90.0
 51
230.5284220000114
  0
ARC
  5
DF7
330
1F
100
AcDbEntity
  8
OBRYS
  6
CONTINUOUS
100
AcDbCircle
 10
-135.8710250130739
 20
17.86441939317151
 30
0.0
 40
0.1000000000000039
210
0.0
220
0.0
230
-1.0
100
AcDbArc
 50
309.4715780000076
 51
90.0
  0
ARC
  5
DF8
330
1F
100
AcDbEntity
  8
OBRYS
  6
CONTINUOUS
100
AcDbCircle
 10
-140.1289870130739
 20
20.88398039317151
 30
0.0
 40
0.0999999999999997
210
0.0
220
0.0
230
-1.0
100
AcDbArc
 50
129.4715779999898
 51
270.0
  0
ARC
  5
DF9
330
1F
100
AcDbEntity
  8
OBRYS
  6
CONTINUOUS
100
AcDbCircle
 10
139.1901235147208
 20
26.35147564476346
 30
0.0
 40
0.2902802753735161
100
AcDbArc
 50
178.08114871827
 51
269.9768074195734
  0
ARC
  5
DFA
330
1F
100
AcDbEntity
  8
OBRYS
  6
CONTINUOUS
100
AcDbCircle
 10
136.8098717983462
 20
26.35151550690705
 30
0.0
 40
0.2903201447592048
100
AcDbArc
 50
270.0264877855008
 51
1.871915172457061
  0
ELLIPSE
  5
DFB
330
1F
100
AcDbEntity
  8
OBRYS
  6
CONTINUOUS
100
AcDbEllipse
 10
140.7826310130739
 20
14.06126439317151
 30
0.0
 11
0.03545231217175333
 21
-0.03545231217175334
 31
0.0
210
0.0
220
0.0
230
-1.0
 40
0.997265
 41
5.499156671652522
 42
7.067213942706581
  0
ELLIPSE
  5
DFC
330
1F
100
AcDbEntity
  8
OBRYS
  6
CONTINUOUS
100
AcDbEllipse
 10
139.2377350130739
 20
14.82451939317151
 30
0.0
 11
0.03545231217175339
 21
0.03545231217175336
 31
0.0
210
0.0
220
0.0
230
-1.0
 40
0.9972649999999998
 41
5.499156671652195
 42
7.067213942706739
  0
ELLIPSE
  5
DFD
330
1F
100
AcDbEntity
  8
OBRYS
  6
CONTINUOUS
100
AcDbEllipse
 10
139.7008810130739
 20
15.46112739317152
 30
0.0
 11
-0.03545231217175333
 21
0.03545231217175334
 31
0.0
210
0.0
220
0.0
230
-1.0
 40
0.997265
 41
5.499156671652523
 42
7.067213942706581
  0
ELLIPSE
  5
DFE
330
1F
100
AcDbEntity
  8
OBRYS
  6
CONTINUOUS
100
AcDbEllipse
 10
141.3586100130739
 20
24.68713439317152
 30
0.0
 11
0.03545231217175334
 21
0.03545231217175333
 31
0.0
210
0.0
220
0.0
230
-1.0
 40
0.997265
 41
5.499156671652591
 42
7.067213942706685
  0
ELLIPSE
  5
DFF
330
1F
100
AcDbEntity
  8
OBRYS
  6
CONTINUOUS
100
AcDbEllipse
 10
140.3743270130739
 20
24.68713439317152
 30
0.0
 11
-0.03545231217175333
 21
0.03545231217175334
 31
0.0
210
0.0
220
0.0
230
-1.0
 40
0.997265
 41
5.499156671652518
 42
7.067213942706577
  0
ELLIPSE
  5
E00
330
1F
100
AcDbEntity
  8
OBRYS
  6
CONTINUOUS
100
AcDbEllipse
 10
140.7826310130739
 20
15.46112739317152
 30
0.0
 11
0.03545231217175334
 21
0.03545231217175333
 31
0.0
210
0.0
220
0.0
230
-1.0
 40
0.997265
 41
5.499156671652587
 42
7.067213942706611
  0
ELLIPSE
  5
E01
330
1F
100
AcDbEntity
  8
OBRYS
  6
CONTINUOUS
100
AcDbEllipse
 10
141.3586100130739
 20
24.61037239317152
 30
0.0
 11
0.03545231217175333
 21
-0.03545231217175334
 31
0.0
210
0.0
220
0.0
230
-1.0
 40
0.997265
 41
5.499156671652558
 42
7.067213942706581
  0
ELLIPSE
  5
E02
330
1F
100
AcDbEntity
  8
OBRYS
  6
CONTINUOUS
100
AcDbEllipse
 10
139.7910740130739
 20
14.06126439317151
 30
0.0
 11
0.03545231217175333
 21
-0.03545231217175334
 31
0.0
210
0.0
220
0.0
230
-1.0
 40
0.997265
 41
5.499156671652444
 42
7.067213942706572
  0
ELLIPSE
  5
E03
330
1F
100
AcDbEntity
  8
OBRYS
  6
CONTINUOUS
100
AcDbEllipse
 10
141.3935290130739
 20
23.28727239317152
 30
0.0
 11
0.03545231217175333
 21
-0.03545231217175334
 31
0.0
210
0.0
220
0.0
230
-1.0
 40
0.997265
 41
5.499156671652557
 42
7.067213942706581
  0
ELLIPSE
  5
E04
330
1F
100
AcDbEntity
  8
OBRYS
  6
CONTINUOUS
100
AcDbEllipse
 10
136.1690310130739
 20
24.68713439317152
 30
0.0
 11
-0.03545231217175333
 21
0.03545231217175334
 31
0.0
210
0.0
220
0.0
230
-1.0
 40
0.997265
 41
5.499156671652518
 42
7.067213942706577
  0
ELLIPSE
  5
E05
330
1F
100
AcDbEntity
  8
OBRYS
  6
CONTINUOUS
100
AcDbEllipse
 10
139.3286790130739
 20
14.06126439317151
 30
0.0
 11
0.03545231217175333
 21
-0.03545231217175334
 31
0.0
210
0.0
220
0.0
230
-1.0
 40
0.997265
 41
5.499156671652522
 42
7.067213942706581
  0
ELLIPSE
  5
E06
330
1F
100
AcDbEntity
  8
OBRYS
  6
CONTINUOUS
100
AcDbEllipse
 10
136.2672820130739
 20
24.68713439317152
 30
0.0
 11
0.03545231217175334
 21
0.03545231217175333
 31
0.0
210
0.0
220
0.0
230
-1.0
 40
0.997265
 41
5.499156671652314
 42
7.067213942706685
  0
ELLIPSE
  5
E07
330
1F
100
AcDbEntity
  8
OBRYS
  6
CONTINUOUS
100
AcDbEllipse
 10
141.3025850130739
 20
24.05052739317152
 30
0.0
 11
0.03545231217175334
 21
0.03545231217175333
 31
0.0
210
0.0
220
0.0
230
-1.0
 40
0.997265
 41
5.499156671652314
 42
7.067213942706684
  0
ELLIPSE
  5
E08
330
1F
100
AcDbEntity
  8
OBRYS
  6
CONTINUOUS
100
AcDbEllipse
 10
136.9077110130739
 20
14.06126439317151
 30
0.0
 11
-0.03545231217175334
 21
-0.03545231217175333
 31
0.0
210
0.0
220
0.0
230
-1.0
 40
0.997265
 41
5.499156671652591
 42
7.06721394270665
  0
ELLIPSE
  5
E09
330
1F
100
AcDbEntity
  8
OBRYS
  6
CONTINUOUS
100
AcDbEllipse
 10
141.3935290130739
 20
23.36403439317153
 30
0.0
 11
0.03545231217175334
 21
0.03545231217175333
 31
0.0
210
0.0
220
0.0
230
-1.0
 40
0.997265
 41
5.499156671652314
 42
7.06721394270665
  0
ELLIPSE
  5
E0A
330
1F
100
AcDbEntity
  8
OBRYS
  6
CONTINUOUS
100
AcDbEllipse
 10
136.1690310130739
 20
23.28727239317152
 30
0.0
 11
-0.03545231217175334
 21
-0.03545231217175333
 31
0.0
210
0.0
220
0.0
230
-1.0
 40
0.997265
 41
5.499156671652309
 42
7.067213942706645
  0
ELLIPSE
  5
E0B
330
1F
100
AcDbEntity
  8
OBRYS
  6
CONTINUOUS
100
AcDbEllipse
 10
139.7008810130739
 20
14.06126439317151
 30
0.0
 11
-0.03545231217175333
 21
-0.03545231217175331
 31
0.0
210
0.0
220
0.0
230
-1.0
 40
0.9972649999999998
 41
5.499156671652583
 42
7.067213942706711
  0
ELLIPSE
  5
E0C
330
1F
100
AcDbEntity
  8
OBRYS
  6
CONTINUOUS
100
AcDbEllipse
 10
141.3025850130739
 20
23.97491639317152
 30
0.0
 11
0.03545231217175333
 21
-0.03545231217175334
 31
0.0
210
0.0
220
0.0
230
-1.0
 40
0.997265
 41
5.499156671652574
 42
7.067213942706304
  0
ELLIPSE
  5
E0D
330
1F
100
AcDbEntity
  8
OBRYS
  6
CONTINUOUS
100
AcDbEllipse
 10
137.0063460130739
 20
14.06126439317151
 30
0.0
 11
0.03545231217175333
 21
-0.03545231217175334
 31
0.0
210
0.0
220
0.0
230
-1.0
 40
0.997265
 41
5.499156671652522
 42
7.067213942706581
  0
ELLIPSE
  5
E0E
330
1F
100
AcDbEntity
  8
OBRYS
  6
CONTINUOUS
100
AcDbEllipse
 10
137.0063460130739
 20
23.36403439317153
 30
0.0
 11
0.03545231217175334
 21
0.03545231217175333
 31
0.0
210
0.0
220
0.0
230
-1.0
 40
0.997265
 41
5.499156671652314
 42
7.067213942706667
  0
ELLIPSE
  5
E0F
330
1F
100
AcDbEntity
  8
OBRYS
  6
CONTINUOUS
100
AcDbEllipse
 10
140.6924390130739
 20
15.46112739317152
 30
0.0
 11
-0.03545231217175333
 21
0.03545231217175334
 31
0.0
210
0.0
220
0.0
230
-1.0
 40
0.997265
 41
5.499156671652519
 42
7.067213942706577
  0
ELLIPSE
  5
E10
330
1F
100
AcDbEntity
  8
OBRYS
  6
CONTINUOUS
100
AcDbEllipse
 10
139.2937600130739
 20
15.38436439317152
 30
0.0
 11
0.03545231217175333
 21
-0.03545231217175334
 31
0.0
210
0.0
220
0.0
230
-1.0
 40
0.997265
 41
5.499156671652487
 42
7.06721394270658
  0
ELLIPSE
  5
E11
330
1F
100
AcDbEntity
  8
OBRYS
  6
CONTINUOUS
100
AcDbEllipse
 10
139.3286790130739
 20
14.13802639317151
 30
0.0
 11
0.03545231217175334
 21
0.03545231217175333
 31
0.0
210
0.0
220
0.0
230
-1.0
 40
0.997265
 41
5.499156671652313
 42
7.06721394270665
  0
ELLIPSE
  5
E12
330
1F
100
AcDbEntity
  8
OBRYS
  6
CONTINUOUS
100
AcDbEllipse
 10
138.3094760130739
 20
14.06126439317151
 30
0.0
 11
-0.03545231217175334
 21
-0.03545231217175333
 31
0.0
210
0.0
220
0.0
230
-1.0
 40
0.997265
 41
5.499156671652313
 42
7.06721394270658
  0
ELLIPSE
  5
E13
330
1F
100
AcDbEntity
  8
OBRYS
  6
CONTINUOUS
100
AcDbEllipse
 10
137.0063460130739
 20
23.28727239317152
 30
0.0
 11
0.03545231217175333
 21
-0.03545231217175334
 31
0.0
210
0.0
220
0.0
230
-1.0
 40
0.997265
 41
5.499156671652557
 42
7.067213942706581
  0
ELLIPSE
  5
E14
330
1F
100
AcDbEntity
  8
OBRYS
  6
CONTINUOUS
100
AcDbEllipse
 10
140.3743270130739
 20
23.28727239317152
 30
0.0
 11
-0.03545231217175334
 21
-0.03545231217175333
 31
0.0
210
0.0
220
0.0
230
-1.0
 40
0.997265
 41
5.499156671652309
 42
7.067213942706645
  0
ELLIPSE
  5
E15
330
1F
100
AcDbEntity
  8
OBRYS
  6
CONTINUOUS
100
AcDbEllipse
 10
139.2937600130739
 20
15.46112739317152
 30
0.0
 11
0.03545231217175334
 21
0.03545231217175333
 31
0.0
210
0.0
220
0.0
230
-1.0
 40
0.997265
 41
5.499156671652592
 42
7.067213942706617
  0
ELLIPSE
  5
E16
330
1F
100
AcDbEntity
  8
OBRYS
  6
CONTINUOUS
100
AcDbEllipse
 10
138.3094760130739
 20
15.46112739317152
 30
0.0
 11
-0.03545231217175333
 21
0.03545231217175334
 31
0.0
210
0.0
220
0.0
230
-1.0
 40
0.997265
 41
5.499156671652524
 42
7.067213942706582
  0
ELLIPSE
  5
E17
330
1F
100
AcDbEntity
  8
OBRYS
  6
CONTINUOUS
100
AcDbEllipse
 10
139.2377350130739
 20
14.74890839317152
 30
0.0
 11
0.03545231217175331
 21
-0.03545231217175333
 31
0.0
210
0.0
220
0.0
230
-1.0
 40
0.997265
 41
5.499156671652612
 42
7.06721394270674
  0
ELLIPSE
  5
E18
330
1F
100
AcDbEntity
  8
OBRYS
  6
CONTINUOUS
100
AcDbEllipse
 10
140.6556990130739
 20
14.06126439317151
 30
0.0
 11
-0.02360964861858024
 21
-0.04417479269303146
 31
0.0
210
0.0
220
0.0
230
-1.0
 40
0.998239
 41
5.793083739115147
 42
6.773286875244221
  0
ELLIPSE
  5
E19
330
1F
100
AcDbEntity
  8
OBRYS
  6
CONTINUOUS
100
AcDbEllipse
 10
139.8278280130739
 20
15.46112739317152
 30
0.0
 11
0.02359966670000252
 21
0.04418010208077738
 31
0.0
210
0.0
220
0.0
230
-1.0
 40
0.9982399999999999
 41
5.793309065508732
 42
6.773061548850119
  0
ELLIPSE
  5
E1A
330
1F
100
AcDbEntity
  8
OBRYS
  6
CONTINUOUS
100
AcDbEllipse
 10
136.2030920130739
 20
19.07468839317151
 30
0.0
 11
-0.1892292473316091
 21
-0.0750435239077068
 31
0.0
210
0.0
220
0.0
230
1.0
 40
0.982481
 41
5.911653010962473
 42
7.470335956972569
  0
ELLIPSE
  5
E1B
330
1F
100
AcDbEntity
  8
OBRYS
  6
CONTINUOUS
100
AcDbEllipse
 10
136.2030920130739
 20
19.67371139317151
 30
0.0
 11
-0.1892292473316091
 21
0.0750435239077068
 31
0.0
210
0.0
220
0.0
230
1.0
 40
0.982481
 41
5.096034657386534
 42
6.654717603396698
  0
ELLIPSE
  5
E1C
330
1F
100
AcDbEntity
  8
OBRYS
  6
CONTINUOUS
100
AcDbEllipse
 10
139.7969210130739
 20
19.07468839317151
 30
0.0
 11
0.1892292473316091
 21
-0.07504352390770685
 31
0.0
210
0.0
220
0.0
230
1.0
 40
0.982481
 41
5.096034657386467
 42
6.654717603396699
  0
ELLIPSE
  5
E1D
330
1F
100
AcDbEntity
  8
OBRYS
  6
CONTINUOUS
100
AcDbEllipse
 10
139.7969210130739
 20
19.67371139317151
 30
0.0
 11
0.1892292473316091
 21
0.07504352390770685
 31
0.0
210
0.0
220
0.0
230
1.0
 40
0.982481
 41
5.911653010962473
 42
7.470335956972569
  0
ELLIPSE
  5
E1E
330
1F
100
AcDbEntity
  8
OBRYS
  6
CONTINUOUS
100
AcDbEllipse
 10
134.2000060130739
 20
25.86118839317152
 30
0.0
 11
-2.449386863441125E-17
 21
-0.2000076156771474
 31
0.0
210
0.0
220
0.0
230
-1.0
 40
0.999962
 41
1.570796326794897
 42
3.141592653589793
  0
ELLIPSE
  5
E1F
330
1F
100
AcDbEntity
  8
OBRYS
  6
CONTINUOUS
100
AcDbEllipse
 10
141.8000060130739
 20
25.86118839317152
 30
0.0
 11
-2.449386863441125E-17
 21
-0.2000076156771474
 31
0.0
210
0.0
220
0.0
230
-1.0
 40
0.999962
 41
3.141592653589793
 42
4.71238898038469
  0
LWPOLYLINE
  5
E20
330
1F
100
AcDbEntity
  8
OBRYS
  6
CONTINUOUS
100
AcDbPolyline
 90
       51
 70
     0
 43
0.0
 10
137.6251020130739
 20
15.32086539317151
 10
137.6440520130739
 20
15.31459339317152
 10
137.6619630130739
 20
15.30652939317151
 10
137.6788170130739
 20
15.29679239317151
 10
137.6946000130739
 20
15.28550639317151
 10
137.7092950130739
 20
15.27279239317151
 10
137.7228860130739
 20
15.25877139317151
 10
137.7353580130739
 20
15.24356539317152
 10
137.7466950130739
 20
15.22729539317151
 10
137.7568800130739
 20
15.21008439317151
 10
137.7658980130739
 20
15.19205239317152
 10
137.7737320130739
 20
15.17332239317152
 10
137.7803680130739
 20
15.15401439317152
 10
137.7857880130739
 20
15.13425239317152
 10
137.7899780130739
 20
15.11415539317151
 10
137.7929200130739
 20
15.09384639317152
 10
137.7946000130739
 20
15.07344639317152
 10
137.7950010130739
 20
15.05307739317152
 10
137.7941080130739
 20
15.03286139317151
 10
137.7919040130739
 20
15.01291839317152
 10
137.7883730130739
 20
14.99337239317151
 10
137.7835000130739
 20
14.97434339317152
 10
137.7772690130739
 20
14.95595239317151
 10
137.7696630130739
 20
14.93832239317152
 10
137.7606670130739
 20
14.92157439317152
 10
137.7502650130739
 20
14.90583039317151
 10
137.7381620130739
 20
14.89131539317152
 10
137.7241260130739
 20
14.87813339317152
 10
137.7082400130739
 20
14.86622139317151
 10
137.6905850130739
 20
14.85551539317151
 10
137.6712450130739
 20
14.84595339317151
 10
137.6502990130739
 20
14.83747139317151
 10
137.6278310130739
 20
14.83000739317151
 10
137.6039220130739
 20
14.82349839317152
 10
137.5786540130739
 20
14.81788039317152
 10
137.5521100130739
 20
14.81309139317152
 10
137.5243700130739
 20
14.80906739317152
 10
137.4955180130739
 20
14.80574639317152
 10
137.4656340130739
 20
14.80306539317152
 10
137.4348010130739
 20
14.80096039317152
 10
137.4031010130739
 20
14.79936939317152
 10
137.3706150130739
 20
14.79822839317151
 10
137.3374260130739
 20
14.79747539317152
 10
137.3036150130739
 20
14.79704639317151
 10
137.2692640130739
 20
14.79687939317152
 10
137.2344560130739
 20
14.79691139317151
 10
137.1992720130739
 20
14.79707839317152
 10
137.1637940130739
 20
14.79731739317152
 10
137.1281030130739
 20
14.79756739317152
 10
137.0922830130739
 20
14.79776239317152
 10
137.0564150130739
 20
14.79784239317152
  0
LWPOLYLINE
  5
E21
330
1F
100
AcDbEntity
  8
OBRYS
  6
CONTINUOUS
100
AcDbPolyline
 90
       51
 70
     0
 43
0.0
 10
137.5886480130739
 20
24.44825439317153
 10
137.6161400130739
 20
24.47248639317153
 10
137.6450810130739
 20
24.49438339317152
 10
137.6753210130739
 20
24.51395739317153
 10
137.7067080130739
 20
24.53121439317153
 10
137.7390920130739
 20
24.54616539317152
 10
137.7723220130739
 20
24.55881739317153
 10
137.8062450130739
 20
24.56918039317152
 10
137.8407120130739
 20
24.57726339317152
 10
137.8755700130739
 20
24.58307339317152
 10
137.9106690130739
 20
24.58662039317152
 10
137.9458580130739
 20
24.58791339317152
 10
137.9809860130739
 20
24.58696139317152
 10
138.0159000130739
 20
24.58377139317152
 10
138.0504520130739
 20
24.57835439317153
 10
138.0844880130739
 20
24.57071839317152
 10
138.1178590130739
 20
24.56087039317152
 10
138.1504120130739
 20
24.54882239317152
 10
138.1819980130739
 20
24.53458039317153
 10
138.2124640130739
 20
24.51815439317152
 10
138.2416600130739
 20
24.49955339317153
 10
138.2694340130739
 20
24.47878639317152
 10
138.2956350130739
 20
24.45586039317152
 10
138.3201130130739
 20
24.43078639317152
 10
138.3427160130739
 20
24.40357139317152
 10
138.3632930130739
 20
24.37422539317152
 10
138.3818410130739
 20
24.34252439317152
 10
138.3984550130739
 20
24.30842539317152
 10
138.4131370130739
 20
24.27220539317152
 10
138.4258860130739
 20
24.23414239317153
 10
138.4367010130739
 20
24.19451539317152
 10
138.4455840130739
 20
24.15360039317152
 10
138.4525330130739
 20
24.11167639317152
 10
138.4575500130739
 20
24.06902139317153
 10
138.4606320130739
 20
24.02591339317152
 10
138.4617820130739
 20
23.98262939317152
 10
138.4609980130739
 20
23.93944739317152
 10
138.4582800130739
 20
23.89664539317153
 10
138.4536250130739
 20
23.85460939317152
 10
138.4470260130739
 20
23.81416339317152
 10
138.4385120130739
 20
23.77542539317152
 10
138.4281200130739
 20
23.73839739317153
 10
138.4158850130739
 20
23.70308139317152
 10
138.4018440130739
 20
23.66947539317153
 10
138.3860310130739
 20
23.63758339317153
 10
138.3684830130739
 20
23.60740439317152
 10
138.3492350130739
 20
23.57893939317153
 10
138.3283230130739
 20
23.55218939317152
 10
138.3057830130739
 20
23.52715439317152
 10
138.2816500130739
 20
23.50383739317153
 10
138.2559610130739
 20
23.48223739317152
  0
LWPOLYLINE
  5
E22
330
1F
100
AcDbEntity
  8
OBRYS
  6
CONTINUOUS
100
AcDbPolyline
 90
       51
 70
     0
 43
0.0
 10
135.5237980130739
 20
15.22224739317151
 10
135.5512890130739
 20
15.24647839317151
 10
135.5802310130739
 20
15.26837639317152
 10
135.6104710130739
 20
15.28794939317151
 10
135.6418580130739
 20
15.30520739317151
 10
135.6742420130739
 20
15.32015739317151
 10
135.7074710130739
 20
15.33281039317151
 10
135.7413950130739
 20
15.34317339317151
 10
135.7758610130739
 20
15.35125539317151
 10
135.8107200130739
 20
15.35706539317152
 10
135.8458190130739
 20
15.36061339317152
 10
135.8810080130739
 20
15.36190639317152
 10
135.9161350130739
 20
15.36095339317151
 10
135.9510500130739
 20
15.35776439317152
 10
135.9856010130739
 20
15.35234639317151
 10
136.0196380130739
 20
15.34471039317152
 10
136.0530080130739
 20
15.33486339317152
 10
136.0855620130739
 20
15.32281439317151
 10
136.1171470130739
 20
15.30857339317151
 10
136.1476130130739
 20
15.29214739317152
 10
136.1768090130739
 20
15.27354639317151
 10
136.2045830130739
 20
15.25277839317152
 10
136.2307850130739
 20
15.22985339317152
 10
136.2552630130739
 20
15.20477839317152
 10
136.2778660130739
 20
15.17756339317152
 10
136.2984430130739
 20
15.14821739317152
 10
136.3169900130739
 20
15.11651639317152
 10
136.3336050130739
 20
15.08241739317152
 10
136.3482870130739
 20
15.04619739317152
 10
136.3610350130739
 20
15.00813539317151
 10
136.3718510130739
 20
14.96850739317152
 10
136.3807340130739
 20
14.92759239317152
 10
136.3876830130739
 20
14.88566939317152
 10
136.3926990130739
 20
14.84301439317151
 10
136.3957820130739
 20
14.79990539317151
 10
136.3969310130739
 20
14.75662139317151
 10
136.3961470130739
 20
14.71343939317151
 10
136.3934300130739
 20
14.67063739317152
 10
136.3887750130739
 20
14.62860239317152
 10
136.3821750130739
 20
14.58815539317152
 10
136.3736620130739
 20
14.54941739317152
 10
136.3632700130739
 20
14.51239039317151
 10
136.3510350130739
 20
14.47707339317152
 10
136.3369930130739
 20
14.44346839317151
 10
136.3211810130739
 20
14.41157539317152
 10
136.3036320130739
 20
14.38139639317151
 10
136.2843850130739
 20
14.35293139317151
 10
136.2634730130739
 20
14.32618139317152
 10
136.2409330130739
 20
14.30114739317152
 10
136.2168000130739
 20
14.27782939317151
 10
136.1911110130739
 20
14.25622939317152
  0
LWPOLYLINE
  5
E23
330
1F
100
AcDbEntity
  8
OBRYS
  6
CONTINUOUS
100
AcDbPolyline
 90
       51
 70
     0
 43
0.0
 10
138.9374580130739
 20
23.44940639317152
 10
138.9712020130739
 20
23.40399539317152
 10
139.0095910130739
 20
23.36347539317152
 10
139.0527160130739
 20
23.32780739317153
 10
139.1006660130739
 20
23.29695239317153
 10
139.1535320130739
 20
23.27087139317152
 10
139.2114030130739
 20
23.24952539317153
 10
139.2749910130739
 20
23.23272039317152
 10
139.3451670130739
 20
23.22028139317152
 10
139.4199110130739
 20
23.21282839317152
 10
139.4970400130739
 20
23.21102139317152
 10
139.5743740130739
 20
23.21551939317152
 10
139.6497290130739
 20
23.22698339317153
 10
139.7208740130739
 20
23.24613139317153
 10
139.7857480130739
 20
23.27364539317152
 10
139.8438810130739
 20
23.30871339317152
 10
139.8950630130739
 20
23.35026039317153
 10
139.9390830130739
 20
23.39721239317152
 10
139.9757310130739
 20
23.44849439317152
 10
140.0047970130739
 20
23.50303439317152
 10
140.0260680130739
 20
23.55975539317152
 10
140.0393360130739
 20
23.61758639317152
 10
140.0443900130739
 20
23.67545039317152
 10
140.0410180130739
 20
23.73227539317152
 10
140.0290110130739
 20
23.78698539317152
 10
140.0081570130739
 20
23.83850839317153
 10
139.9784760130739
 20
23.88603239317152
 10
139.9403390130739
 20
23.92959139317152
 10
139.8936430130739
 20
23.96906439317153
 10
139.8386140130739
 20
24.00424739317153
 10
139.7703090130739
 20
24.03634239317153
 10
139.6746040130739
 20
24.06879839317152
 10
139.5365090130739
 20
24.10498739317152
 10
139.3731470130739
 20
24.14432039317152
 10
139.2476600130739
 20
24.18352139317152
 10
139.1706170130739
 20
24.22211839317152
 10
139.1282070130739
 20
24.26340639317153
 10
139.1086740130739
 20
24.31019839317152
 10
139.1036200130739
 20
24.36438539317152
 10
139.1118450130739
 20
24.41979039317153
 10
139.1361010130739
 20
24.47055639317152
 10
139.1771400130739
 20
24.51467239317153
 10
139.2357160130739
 20
24.55012939317152
 10
139.3125820130739
 20
24.57491639317152
 10
139.4084890130739
 20
24.58702539317152
 10
139.5123590130739
 20
24.58448839317152
 10
139.6022880130739
 20
24.56655539317152
 10
139.6772570130739
 20
24.53332839317152
 10
139.7367300130739
 20
24.48491539317152
 10
139.7801740130739
 20
24.42142439317152
 10
139.8070510130739
 20
24.34296339317152
  0
LWPOLYLINE
  5
E24
330
1F
100
AcDbEntity
  8
OBRYS
  6
CONTINUOUS
100
AcDbPolyline
 90
       51
 70
     0
 43
0.0
 10
138.6088120130739
 20
24.31920739317153
 10
138.5903000130739
 20
24.36341439317153
 10
138.5691440130739
 20
24.40583539317152
 10
138.5454440130739
 20
24.44637039317152
 10
138.5193010130739
 20
24.48491939317153
 10
138.4908180130739
 20
24.52138539317152
 10
138.4600940130739
 20
24.55566539317153
 10
138.4272310130739
 20
24.58766339317153
 10
138.3923300130739
 20
24.61727739317152
 10
138.3554920130739
 20
24.64440839317152
 10
138.3168190130739
 20
24.66895839317153
 10
138.2764100130739
 20
24.69082639317152
 10
138.2343690130739
 20
24.70991339317152
 10
138.1907710130739
 20
24.72612139317153
 10
138.1456610130739
 20
24.73940039317153
 10
138.0993210130739
 20
24.74977539317152
 10
138.0520680130739
 20
24.75727539317153
 10
138.0042190130739
 20
24.76193139317153
 10
137.9560900130739
 20
24.76377039317152
 10
137.9079980130739
 20
24.76282239317152
 10
137.8602580130739
 20
24.75911839317152
 10
137.8131880130739
 20
24.75268439317152
 10
137.7671030130739
 20
24.74355239317152
 10
137.7223200130739
 20
24.73175139317152
 10
137.6791550130739
 20
24.71730939317152
 10
137.6379260130739
 20
24.70025639317152
 10
137.5984160130739
 20
24.68053239317152
 10
137.5602860130739
 20
24.65810739317152
 10
137.5236600130739
 20
24.63305339317153
 10
137.4886660130739
 20
24.60544539317153
 10
137.4554280130739
 20
24.57535639317152
 10
137.4240720130739
 20
24.54285839317152
 10
137.3947250130739
 20
24.50802639317152
 10
137.3675120130739
 20
24.47093239317153
 10
137.3425600130739
 20
24.43165039317153
 10
137.3199940130739
 20
24.39025339317152
 10
137.2999390130739
 20
24.34681539317153
 10
137.2825230130739
 20
24.30140939317153
 10
137.2678030130739
 20
24.25400039317153
 10
137.2555070130739
 20
24.20413339317152
 10
137.2457140130739
 20
24.15206639317153
 10
137.2385740130739
 20
24.09817539317152
 10
137.2342330130739
 20
24.04283739317153
 10
137.2328410130739
 20
23.98643039317152
 10
137.2345460130739
 20
23.92933039317152
 10
137.2394970130739
 20
23.87191539317152
 10
137.2478410130739
 20
23.81456139317152
 10
137.2597260130739
 20
23.75764639317152
 10
137.2753020130739
 20
23.70154739317153
 10
137.2947170130739
 20
23.64664139317152
 10
137.3181180130739
 20
23.59330439317153
  0
LWPOLYLINE
  5
E25
330
1F
100
AcDbEntity
  8
OBRYS
  6
CONTINUOUS
100
AcDbPolyline
 90
       51
 70
     0
 43
0.0
 10
136.5439620130739
 20
15.09319939317152
 10
136.5254500130739
 20
15.13740639317152
 10
136.5042940130739
 20
15.17982739317152
 10
136.4805940130739
 20
15.22036239317151
 10
136.4544510130739
 20
15.25891239317151
 10
136.4259670130739
 20
15.29537739317152
 10
136.3952440130739
 20
15.32965839317151
 10
136.3623810130739
 20
15.36165539317152
 10
136.3274800130739
 20
15.39126939317151
 10
136.2906420130739
 20
15.41840139317152
 10
136.2519680130739
 20
15.44295039317151
 10
136.2115600130739
 20
15.46481839317151
 10
136.1695180130739
 20
15.48390639317152
 10
136.1259210130739
 20
15.50011339317152
 10
136.0808100130739
 20
15.51339239317151
 10
136.0344710130739
 20
15.52376739317152
 10
135.9872180130739
 20
15.53126839317151
 10
135.9393690130739
 20
15.53592339317151
 10
135.8912400130739
 20
15.53776239317152
 10
135.8431480130739
 20
15.53681539317152
 10
135.7954080130739
 20
15.53311039317151
 10
135.7483370130739
 20
15.52667739317152
 10
135.7022520130739
 20
15.51754539317152
 10
135.6574690130739
 20
15.50574339317151
 10
135.6143050130739
 20
15.49130139317152
 10
135.5730750130739
 20
15.47424839317152
 10
135.5335660130739
 20
15.45452439317152
 10
135.4954360130739
 20
15.43209939317151
 10
135.4588100130739
 20
15.40704639317151
 10
135.4238150130739
 20
15.37943739317151
 10
135.3905770130739
 20
15.34934839317152
 10
135.3592220130739
 20
15.31685039317152
 10
135.3298750130739
 20
15.28201839317151
 10
135.3026620130739
 20
15.24492439317151
 10
135.2777090130739
 20
15.20564239317151
 10
135.2551430130739
 20
15.16424639317152
 10
135.2350890130739
 20
15.12080739317152
 10
135.2176730130739
 20
15.07540139317152
 10
135.2029530130739
 20
15.02799239317151
 10
135.1906570130739
 20
14.97812639317152
 10
135.1808640130739
 20
14.92605839317151
 10
135.1737230130739
 20
14.87216739317152
 10
135.1693830130739
 20
14.81683039317151
 10
135.1679910130739
 20
14.76042239317152
 10
135.1696960130739
 20
14.70332239317152
 10
135.1746460130739
 20
14.64590739317151
 10
135.1829900130739
 20
14.58855339317152
 10
135.1948760130739
 20
14.53163839317152
 10
135.2104520130739
 20
14.47553939317151
 10
135.2298670130739
 20
14.42063339317151
 10
135.2532680130739
 20
14.36729739317151
  0
LWPOLYLINE
  5
E26
330
1F
100
AcDbEntity
  8
OBRYS
  6
CONTINUOUS
100
AcDbPolyline
 90
       51
 70
     0
 43
0.0
 10
135.5276350130739
 20
23.47780239317152
 10
135.4974860130739
 20
23.45523039317152
 10
135.4647440130739
 20
23.43559039317153
 10
135.4297570130739
 20
23.41893939317152
 10
135.3928710130739
 20
23.40533639317153
 10
135.3544330130739
 20
23.39483739317152
 10
135.3147910130739
 20
23.38749839317152
 10
135.2742900130739
 20
23.38337939317153
 10
135.2332780130739
 20
23.38253539317153
 10
135.1921020130739
 20
23.38502439317152
 10
135.1511090130739
 20
23.39090439317153
 10
135.1106450130739
 20
23.40023139317153
 10
135.0710580130739
 20
23.41306339317152
 10
135.0327420130739
 20
23.42947339317152
 10
134.9965070130739
 20
23.44964139317152
 10
134.9625930130739
 20
23.47350639317152
 10
134.9310680130739
 20
23.50094039317152
 10
134.9020010130739
 20
23.53182039317152
 10
134.8754600130739
 20
23.56601939317152
 10
134.8515120130739
 20
23.60341239317153
 10
134.8302280130739
 20
23.64387439317152
 10
134.8116740130739
 20
23.68727939317153
 10
134.7959190130739
 20
23.73350239317152
 10
134.7830320130739
 20
23.78241739317152
 10
134.7730810130739
 20
23.83389939317152
 10
134.7661340130739
 20
23.88782239317152
 10
134.7622380130739
 20
23.94398139317152
 10
134.7614840130739
 20
24.00174739317152
 10
134.7640930130739
 20
24.06041639317153
 10
134.7702930130739
 20
24.11928739317152
 10
134.7803120130739
 20
24.17765839317152
 10
134.7943770130739
 20
24.23482939317153
 10
134.8127170130739
 20
24.29009939317152
 10
134.8355580130739
 20
24.34276839317153
 10
134.8631280130739
 20
24.39213439317152
 10
134.8956550130739
 20
24.43749739317152
 10
134.9333670130739
 20
24.47815639317152
 10
134.9764910130739
 20
24.51341039317152
 10
135.0252620130739
 20
24.54256039317152
 10
135.0805470130739
 20
24.56529939317152
 10
135.1412930130739
 20
24.58150339317152
 10
135.2052850130739
 20
24.59087639317152
 10
135.2703070130739
 20
24.59312239317152
 10
135.3341410130739
 20
24.58794539317153
 10
135.3945720130739
 20
24.57504739317152
 10
135.4497440130739
 20
24.55424339317152
 10
135.4995010130739
 20
24.52540839317152
 10
135.5439890130739
 20
24.48810039317152
 10
135.5833410130739
 20
24.44186539317153
 10
135.6176900130739
 20
24.38624739317152
 10
135.6471670130739
 20
24.32079239317152
  0
LWPOLYLINE
  5
E27
330
1F
100
AcDbEntity
  8
OBRYS
  6
CONTINUOUS
100
AcDbPolyline
 90
       51
 70
     0
 43
0.0
 10
135.8386480130739
 20
24.37986039317152
 10
135.8102880130739
 20
24.44285339317152
 10
135.7760590130739
 20
24.50073239317152
 10
135.7363280130739
 20
24.55332139317152
 10
135.6914680130739
 20
24.60044739317152
 10
135.6418490130739
 20
24.64193539317153
 10
135.5878400130739
 20
24.67761139317152
 10
135.5298130130739
 20
24.70730139317152
 10
135.4681380130739
 20
24.73083039317152
 10
135.4031850130739
 20
24.74802539317152
 10
135.3353250130739
 20
24.75871039317152
 10
135.2649280130739
 20
24.76271139317152
 10
135.1923650130739
 20
24.75985539317152
 10
135.1198870130739
 20
24.74995839317153
 10
135.0499660130739
 20
24.73308739317152
 10
134.9830100130739
 20
24.70945139317152
 10
134.9194270130739
 20
24.67926039317152
 10
134.8596250130739
 20
24.64272439317152
 10
134.8040120130739
 20
24.60005139317152
 10
134.7529950130739
 20
24.55145139317152
 10
134.7069830130739
 20
24.49713439317152
 10
134.6663830130739
 20
24.43730839317152
 10
134.6316020130739
 20
24.37218539317152
 10
134.6030490130739
 20
24.30197239317153
 10
134.5811320130739
 20
24.22688039317152
 10
134.5662490130739
 20
24.14712739317152
 10
134.5582560130739
 20
24.06366739317152
 10
134.5569530130739
 20
23.97796039317152
 10
134.5623680130739
 20
23.89130739317152
 10
134.5745310130739
 20
23.80501039317152
 10
134.5934670130739
 20
23.72036739317152
 10
134.6192050130739
 20
23.63868039317152
 10
134.6515530130739
 20
23.56173339317153
 10
134.6900590130739
 20
23.49156639317153
 10
134.7348910130739
 20
23.42856139317152
 10
134.7862500130739
 20
23.37302739317152
 10
134.8443330130739
 20
23.32527239317152
 10
134.9093420130739
 20
23.28560439317153
 10
134.9816970130739
 20
23.25428139317153
 10
135.0636550130739
 20
23.23104239317152
 10
135.1531240130739
 20
23.21639139317152
 10
135.2467560130739
 20
23.21109539317152
 10
135.3412050130739
 20
23.21591939317152
 10
135.4331240130739
 20
23.23162939317152
 10
135.5191670130739
 20
23.25899039317152
 10
135.5974050130739
 20
23.29836839317152
 10
135.6682290130739
 20
23.34930139317152
 10
135.7311710130739
 20
23.41146339317152
 10
135.7857540130739
 20
23.48452639317152
 10
135.8315020130739
 20
23.56816539317152
 10
135.8679350130739
 20
23.66205339317152
  0
LWPOLYLINE
  5
E28
330
1F
100
AcDbEntity
  8
OBRYS
  6
CONTINUOUS
100
AcDbPolyline
 90
       51
 70
     0
 43
0.0
 10
135.2532680130739
 20
14.36729739317151
 10
135.2731140130739
 20
14.32978639317152
 10
135.2954730130739
 20
14.29394739317152
 10
135.3202070130739
 20
14.25983039317151
 10
135.3471770130739
 20
14.22748639317152
 10
135.3762440130739
 20
14.19696339317151
 10
135.4072690130739
 20
14.16831439317151
 10
135.4401150130739
 20
14.14158839317152
 10
135.4746410130739
 20
14.11683539317151
 10
135.5107090130739
 20
14.09410639317151
 10
135.5481810130739
 20
14.07345239317152
 10
135.5869180130739
 20
14.05492139317151
 10
135.6267800130739
 20
14.03856539317152
 10
135.6676290130739
 20
14.02443539317151
 10
135.7093270130739
 20
14.01257939317152
 10
135.7517340130739
 20
14.00305039317152
 10
135.7947120130739
 20
13.99589639317152
 10
135.8381220130739
 20
13.99116839317152
 10
135.8818250130739
 20
13.98891739317152
 10
135.9256830130739
 20
13.98919339317152
 10
135.9695560130739
 20
13.99204639317152
 10
136.0133070130739
 20
13.99752739317152
 10
136.0567950130739
 20
14.00568539317152
 10
136.0998830130739
 20
14.01657139317152
 10
136.1424310130739
 20
14.03023639317152
 10
136.1843020130739
 20
14.04672939317152
 10
136.2249430130739
 20
14.06622639317152
 10
136.2638550130739
 20
14.08876239317152
 10
136.3009800130739
 20
14.11418639317152
 10
136.3362560130739
 20
14.14234339317151
 10
136.3696250130739
 20
14.17308039317152
 10
136.4010250130739
 20
14.20624439317151
 10
136.4303970130739
 20
14.24168039317152
 10
136.4576820130739
 20
14.27923639317151
 10
136.4828180130739
 20
14.31875839317152
 10
136.5057470130739
 20
14.36009339317152
 10
136.5264080130739
 20
14.40308639317152
 10
136.5447410130739
 20
14.44758439317152
 10
136.5606860130739
 20
14.49343539317152
 10
136.5741840130739
 20
14.54048339317151
 10
136.5851740130739
 20
14.58857739317152
 10
136.5935960130739
 20
14.63756139317152
 10
136.5993910130739
 20
14.68728439317152
 10
136.6024980130739
 20
14.73759039317151
 10
136.6028580130739
 20
14.78832839317152
 10
136.6004100130739
 20
14.83934239317152
 10
136.5950950130739
 20
14.89048039317151
 10
136.5868530130739
 20
14.94158939317151
 10
136.5756230130739
 20
14.99251339317152
 10
136.5613460130739
 20
15.04310139317152
 10
136.5439620130739
 20
15.09319939317152
  0
LWPOLYLINE
  5
E29
330
1F
100
AcDbEntity
  8
OBRYS
  6
CONTINUOUS
100
AcDbPolyline
 90
       51
 70
     0
 43
0.0
 10
137.3181180130739
 20
23.59330439317153
 10
137.3379640130739
 20
23.55579439317153
 10
137.3603230130739
 20
23.51995539317152
 10
137.3850570130739
 20
23.48583839317152
 10
137.4120270130739
 20
23.45349339317152
 10
137.4410940130739
 20
23.42297139317153
 10
137.4721200130739
 20
23.39432239317152
 10
137.5049650130739
 20
23.36759639317153
 10
137.5394910130739
 20
23.34284339317152
 10
137.5755600130739
 20
23.32011439317153
 10
137.6130310130739
 20
23.29945939317152
 10
137.6517680130739
 20
23.28092939317152
 10
137.6916300130739
 20
23.26457339317152
 10
137.7324790130739
 20
23.25044239317153
 10
137.7741770130739
 20
23.23858739317152
 10
137.8165840130739
 20
23.22905739317152
 10
137.8595620130739
 20
23.22190339317152
 10
137.9029720130739
 20
23.21717639317152
 10
137.9466760130739
 20
23.21492539317152
 10
137.9905330130739
 20
23.21520139317152
 10
138.0344070130739
 20
23.21805439317152
 10
138.0781570130739
 20
23.22353439317152
 10
138.1216450130739
 20
23.23169339317153
 10
138.1647330130739
 20
23.24257939317153
 10
138.2072820130739
 20
23.25624439317152
 10
138.2491520130739
 20
23.27273739317153
 10
138.2897930130739
 20
23.29223339317152
 10
138.3287060130739
 20
23.31477039317152
 10
138.3658300130739
 20
23.34019439317152
 10
138.4011070130739
 20
23.36835139317153
 10
138.4344750130739
 20
23.39908839317153
 10
138.4658750130739
 20
23.43225139317152
 10
138.4952480130739
 20
23.46768839317152
 10
138.5225320130739
 20
23.50524439317153
 10
138.5476690130739
 20
23.54476639317152
 10
138.5705970130739
 20
23.58610039317152
 10
138.5912580130739
 20
23.62909439317152
 10
138.6095910130739
 20
23.67359239317152
 10
138.6255360130739
 20
23.71944239317152
 10
138.6390340130739
 20
23.76649139317152
 10
138.6500240130739
 20
23.81458439317152
 10
138.6584460130739
 20
23.86356939317152
 10
138.6642410130739
 20
23.91329139317152
 10
138.6673480130739
 20
23.96359839317153
 10
138.6677080130739
 20
24.01433539317152
 10
138.6652610130739
 20
24.06535039317152
 10
138.6599460130739
 20
24.11648839317153
 10
138.6517030130739
 20
24.16759639317153
 10
138.6404730130739
 20
24.21852139317152
 10
138.6261960130739
 20
24.26910939317152
 10
138.6088120130739
 20
24.31920739317153
  0
LWPOLYLINE
  5
E2A
330
1F
100
AcDbEntity
  8
OBRYS
  6
CONTINUOUS
100
AcDbPolyline
 90
       51
 70
     0
 43
0.0
 10
136.1911110130739
 20
14.25622939317152
 10
136.1641040130739
 20
14.23663539317152
 10
136.1359340130739
 20
14.21921039317152
 10
136.1067290130739
 20
14.20394039317152
 10
136.0766180130739
 20
14.19081239317151
 10
136.0457280130739
 20
14.17980939317152
 10
136.0141880130739
 20
14.17091839317152
 10
135.9821260130739
 20
14.16412439317152
 10
135.9496700130739
 20
14.15941339317152
 10
135.9169480130739
 20
14.15677039317151
 10
135.8840880130739
 20
14.15618239317152
 10
135.8512180130739
 20
14.15763339317152
 10
135.8184670130739
 20
14.16110839317152
 10
135.7859630130739
 20
14.16659539317152
 10
135.7538330130739
 20
14.17407839317151
 10
135.7222060130739
 20
14.18354239317152
 10
135.6912100130739
 20
14.19497339317152
 10
135.6609730130739
 20
14.20835839317152
 10
135.6316230130739
 20
14.22368039317152
 10
135.6032890130739
 20
14.24092739317152
 10
135.5760980130739
 20
14.26008339317151
 10
135.5501780130739
 20
14.28113439317151
 10
135.5256590130739
 20
14.30406639317152
 10
135.5026670130739
 20
14.32886339317152
 10
135.4813320130739
 20
14.35551339317152
 10
135.4617810130739
 20
14.38399939317152
 10
135.4442130130739
 20
14.41459139317152
 10
135.4287100130739
 20
14.44738939317152
 10
135.4152160130739
 20
14.48212539317151
 10
135.4036780130739
 20
14.51853239317151
 10
135.3940440130739
 20
14.55634239317152
 10
135.3862600130739
 20
14.59528939317151
 10
135.3802730130739
 20
14.63510539317151
 10
135.3760280130739
 20
14.67552339317151
 10
135.3734740130739
 20
14.71627539317151
 10
135.3725560130739
 20
14.75709439317151
 10
135.3732220130739
 20
14.79771339317152
 10
135.3754170130739
 20
14.83786539317151
 10
135.3790700130739
 20
14.87719139317151
 10
135.3840340130739
 20
14.91497839317152
 10
135.3902890130739
 20
14.95112239317151
 10
135.3978340130739
 20
14.98562439317152
 10
135.4066690130739
 20
15.01848439317152
 10
135.4167940130739
 20
15.04970139317152
 10
135.4282100130739
 20
15.07927739317152
 10
135.4409150130739
 20
15.10721139317152
 10
135.4549110130739
 20
15.13350239317152
 10
135.4701980130739
 20
15.15815139317152
 10
135.4867740130739
 20
15.18115939317151
 10
135.5046410130739
 20
15.20252439317151
 10
135.5237980130739
 20
15.22224739317151
  0
LWPOLYLINE
  5
E2B
330
1F
100
AcDbEntity
  8
OBRYS
  6
CONTINUOUS
100
AcDbPolyline
 90
       51
 70
     0
 43
0.0
 10
138.2559610130739
 20
23.48223739317152
 10
138.2289540130739
 20
23.46264339317152
 10
138.2007840130739
 20
23.44521839317152
 10
138.1715790130739
 20
23.42994839317152
 10
138.1414680130739
 20
23.41681939317153
 10
138.1105790130739
 20
23.40581639317152
 10
138.0790390130739
 20
23.39692539317152
 10
138.0469770130739
 20
23.39013239317152
 10
138.0145200130739
 20
23.38542139317152
 10
137.9817980130739
 20
23.38277839317152
 10
137.9489380130739
 20
23.38218939317152
 10
137.9160690130739
 20
23.38364039317152
 10
137.8833170130739
 20
23.38711639317153
 10
137.8508130130739
 20
23.39260339317152
 10
137.8186830130739
 20
23.40008539317153
 10
137.7870560130739
 20
23.40955039317152
 10
137.7560600130739
 20
23.42098139317152
 10
137.7258230130739
 20
23.43436539317152
 10
137.6964730130739
 20
23.44968839317152
 10
137.6681390130739
 20
23.46693539317153
 10
137.6409480130739
 20
23.48609139317152
 10
137.6150290130739
 20
23.50714239317152
 10
137.5905090130739
 20
23.53007339317152
 10
137.5675180130739
 20
23.55487139317153
 10
137.5461820130739
 20
23.58152039317152
 10
137.5266310130739
 20
23.61000739317152
 10
137.5090640130739
 20
23.64059939317152
 10
137.4935600130739
 20
23.67339739317152
 10
137.4800660130739
 20
23.70813339317153
 10
137.4685290130739
 20
23.74453939317153
 10
137.4588950130739
 20
23.78235039317152
 10
137.4511110130739
 20
23.82129739317152
 10
137.4451230130739
 20
23.86111339317153
 10
137.4408790130739
 20
23.90153039317152
 10
137.4383240130739
 20
23.94228239317153
 10
137.4374070130739
 20
23.98310239317152
 10
137.4380720130739
 20
24.02372139317152
 10
137.4402670130739
 20
24.06387339317152
 10
137.4439200130739
 20
24.10319939317153
 10
137.4488850130739
 20
24.14098539317152
 10
137.4551390130739
 20
24.17712939317152
 10
137.4626840130739
 20
24.21163139317152
 10
137.4715190130739
 20
24.24449139317152
 10
137.4816440130739
 20
24.27570939317153
 10
137.4930600130739
 20
24.30528539317152
 10
137.5057660130739
 20
24.33321839317152
 10
137.5197620130739
 20
24.35951039317152
 10
137.5350480130739
 20
24.38415939317152
 10
137.5516240130739
 20
24.40716639317153
 10
137.5694910130739
 20
24.42853139317153
 10
137.5886480130739
 20
24.44825439317153
  0
LWPOLYLINE
  5
E2C
330
1F
100
AcDbEntity
  8
OBRYS
  6
CONTINUOUS
100
AcDbPolyline
 90
       51
 70
     0
 43
0.0
 10
139.9993060130739
 20
24.36791939317152
 10
139.9911580130739
 20
24.40992939317153
 10
139.9793630130739
 20
24.45034539317152
 10
139.9639780130739
 20
24.48900639317153
 10
139.9450580130739
 20
24.52575039317152
 10
139.9226590130739
 20
24.56041339317152
 10
139.8968370130739
 20
24.59283339317152
 10
139.8676480130739
 20
24.62284939317152
 10
139.8351480130739
 20
24.65029739317152
 10
139.7993940130739
 20
24.67501539317152
 10
139.7604400130739
 20
24.69684239317153
 10
139.7183440130739
 20
24.71561339317153
 10
139.6731510130739
 20
24.73118539317152
 10
139.6250190130739
 20
24.74358339317152
 10
139.5745220130739
 20
24.75280539317152
 10
139.5222850130739
 20
24.75882139317152
 10
139.4689350130739
 20
24.76160539317152
 10
139.4150960130739
 20
24.76112639317153
 10
139.3613950130739
 20
24.75735839317152
 10
139.3084570130739
 20
24.75027139317152
 10
139.2569080130739
 20
24.73983739317152
 10
139.2073740130739
 20
24.72602839317152
 10
139.1604810130739
 20
24.70881639317152
 10
139.1168530130739
 20
24.68817139317152
 10
139.0771180130739
 20
24.66406639317153
 10
139.0417710130739
 20
24.63647339317152
 10
139.0106660130739
 20
24.60558439317152
 10
138.9837950130739
 20
24.57185439317152
 10
138.9611830130739
 20
24.53575439317152
 10
138.9428600130739
 20
24.49775239317153
 10
138.9288530130739
 20
24.45831839317153
 10
138.9191900130739
 20
24.41792039317152
 10
138.9138980130739
 20
24.37702839317152
 10
138.9130060130739
 20
24.33611039317153
 10
138.9165400130739
 20
24.29563639317152
 10
138.9245290130739
 20
24.25607639317152
 10
138.9370010130739
 20
24.21789739317152
 10
138.9539830130739
 20
24.18156939317152
 10
138.9745620130739
 20
24.14767239317152
 10
138.9978120130739
 20
24.11641839317152
 10
139.0254450130739
 20
24.08740439317153
 10
139.0592390130739
 20
24.06021139317152
 10
139.1009710130739
 20
24.03442439317152
 10
139.1524210130739
 20
24.00962639317152
 10
139.2163000130739
 20
23.98517739317152
 10
139.2990220130739
 20
23.95929339317152
 10
139.3932130130739
 20
23.93299139317152
 10
139.4887360130739
 20
23.90789839317152
 10
139.5754500130739
 20
23.88564339317152
 10
139.6432160130739
 20
23.86785439317152
 10
139.6818940130739
 20
23.85615939317153
  0
LWPOLYLINE
  5
E2D
330
1F
100
AcDbEntity
  8
OBRYS
  6
CONTINUOUS
100
AcDbPolyline
 90
       51
 70
     0
 43
0.0
 10
139.6818940130739
 20
23.85615939317153
 10
139.7094770130739
 20
23.84441439317152
 10
139.7346640130739
 20
23.83116439317152
 10
139.7574630130739
 20
23.81654339317152
 10
139.7778830130739
 20
23.80068439317153
 10
139.7959340130739
 20
23.78372339317152
 10
139.8116230130739
 20
23.76579139317153
 10
139.8249600130739
 20
23.74702339317152
 10
139.8359540130739
 20
23.72755239317152
 10
139.8446140130739
 20
23.70751239317152
 10
139.8509480130739
 20
23.68703739317153
 10
139.8549650130739
 20
23.66626139317153
 10
139.8566740130739
 20
23.64531739317153
 10
139.8560840130739
 20
23.62433839317152
 10
139.8532040130739
 20
23.60345939317152
 10
139.8480430130739
 20
23.58281339317152
 10
139.8406090130739
 20
23.56253439317152
 10
139.8309110130739
 20
23.54275539317152
 10
139.8189590130739
 20
23.52361039317153
 10
139.8047600130739
 20
23.50523439317152
 10
139.7883250130739
 20
23.48775839317152
 10
139.7696610130739
 20
23.47131839317152
 10
139.7487780130739
 20
23.45604739317152
 10
139.7256840130739
 20
23.44207839317152
 10
139.7003880130739
 20
23.42954639317152
 10
139.6729000130739
 20
23.41858339317152
 10
139.6432450130739
 20
23.40932639317153
 10
139.6118120130739
 20
23.40190839317153
 10
139.5789940130739
 20
23.39634239317153
 10
139.5450990130739
 20
23.39261639317153
 10
139.5104400130739
 20
23.39071439317152
 10
139.4753280130739
 20
23.39062539317152
 10
139.4400720130739
 20
23.39233439317153
 10
139.4049850130739
 20
23.39582839317152
 10
139.3703770130739
 20
23.40109439317152
 10
139.3365590130739
 20
23.40811939317152
 10
139.3038420130739
 20
23.41688939317152
 10
139.2725370130739
 20
23.42739039317152
 10
139.2429540130739
 20
23.43961039317152
 10
139.2154200130739
 20
23.45347039317152
 10
139.1902160130739
 20
23.46848339317153
 10
139.1672980130739
 20
23.48460539317152
 10
139.1465760130739
 20
23.50190739317152
 10
139.1279580130739
 20
23.52045839317153
 10
139.1113540130739
 20
23.54032739317153
 10
139.0966740130739
 20
23.56158339317152
 10
139.0838270130739
 20
23.58429739317153
 10
139.0727240130739
 20
23.60853839317152
 10
139.0632730130739
 20
23.63437539317153
 10
139.0553840130739
 20
23.66187739317153
 10
139.0489670130739
 20
23.69111439317152
  0
LWPOLYLINE
  5
E2E
330
1F
100
AcDbEntity
  8
OBRYS
  6
CONTINUOUS
100
AcDbPolyline
 90
       51
 70
     0
 43
0.0
 10
137.0564150130739
 20
14.62094239317152
 10
137.1111050130739
 20
14.62068439317151
 10
137.1667020130739
 20
14.62006939317152
 10
137.2228010130739
 20
14.61933539317152
 10
137.2789980130739
 20
14.61871939317152
 10
137.3348870130739
 20
14.61846139317151
 10
137.3900630130739
 20
14.61879639317152
 10
137.4441230130739
 20
14.61996539317151
 10
137.4966610130739
 20
14.62220439317151
 10
137.5472730130739
 20
14.62575139317151
 10
137.5955540130739
 20
14.63084539317151
 10
137.6410990130739
 20
14.63772339317151
 10
137.6835030130739
 20
14.64662439317152
 10
137.7224360130739
 20
14.65776439317152
 10
137.7581380130739
 20
14.67112039317152
 10
137.7907990130739
 20
14.68654939317152
 10
137.8205570130739
 20
14.70391539317151
 10
137.8475500130739
 20
14.72308039317151
 10
137.8719150130739
 20
14.74390839317152
 10
137.8937910130739
 20
14.76626139317152
 10
137.9133150130739
 20
14.79000239317152
 10
137.9306260130739
 20
14.81499539317151
 10
137.9458610130739
 20
14.84110239317152
 10
137.9591590130739
 20
14.86818739317152
 10
137.9706570130739
 20
14.89611139317152
 10
137.9804940130739
 20
14.92473939317152
 10
137.9885980130739
 20
14.95423839317152
 10
137.9948070130739
 20
14.98471439317151
 10
137.9991160130739
 20
15.01593739317151
 10
138.0015220130739
 20
15.04767939317152
 10
138.0020220130739
 20
15.07970939317151
 10
138.0006140130739
 20
15.11179839317151
 10
137.9972940130739
 20
15.14371739317151
 10
137.9920580130739
 20
15.17523739317151
 10
137.9849040130739
 20
15.20612739317151
 10
137.9758290130739
 20
15.23615939317152
 10
137.9648290130739
 20
15.26510239317152
 10
137.9519000130739
 20
15.29272939317151
 10
137.9371330130739
 20
15.31878539317152
 10
137.9210610130739
 20
15.34299939317152
 10
137.9037330130739
 20
15.36537839317152
 10
137.8851070130739
 20
15.38596139317151
 10
137.8651400130739
 20
15.40478839317151
 10
137.8437890130739
 20
15.42189939317151
 10
137.8210110130739
 20
15.43733539317152
 10
137.7967630130739
 20
15.45113439317151
 10
137.7710020130739
 20
15.46333839317151
 10
137.7436840130739
 20
15.47398639317151
 10
137.7147670130739
 20
15.48311939317152
 10
137.6842080130739
 20
15.49077639317151
 10
137.6519630130739
 20
15.49699739317151
  0
LWPOLYLINE
  5
E2F
330
1F
100
AcDbEntity
  8
OBRYS
  6
CONTINUOUS
100
AcDbPolyline
 90
       51
 70
     0
 43
0.0
 10
137.6519630130739
 20
15.49699739317151
 10
137.6421740130739
 20
15.49868639317152
 10
137.6318900130739
 20
15.50027139317151
 10
137.6211270130739
 20
15.50175839317151
 10
137.6099010130739
 20
15.50314839317151
 10
137.5982260130739
 20
15.50444339317151
 10
137.5861180130739
 20
15.50564839317151
 10
137.5735930130739
 20
15.50676439317152
 10
137.5606660130739
 20
15.50779539317152
 10
137.5473510130739
 20
15.50874439317152
 10
137.5336650130739
 20
15.50961239317152
 10
137.5196230130739
 20
15.51040439317151
 10
137.5052390130739
 20
15.51112139317152
 10
137.4905310130739
 20
15.51176739317152
 10
137.4755120130739
 20
15.51234439317152
 10
137.4601980130739
 20
15.51285639317152
 10
137.4446040130739
 20
15.51330439317152
 10
137.4287460130739
 20
15.51369339317152
 10
137.4126400130739
 20
15.51402439317152
 10
137.3963000130739
 20
15.51430139317152
 10
137.3797420130739
 20
15.51452639317152
 10
137.3629810130739
 20
15.51470239317152
 10
137.3460320130739
 20
15.51483239317152
 10
137.3289120130739
 20
15.51491839317151
 10
137.3116340130739
 20
15.51496539317152
 10
137.2942150130739
 20
15.51497439317151
 10
137.2766700130739
 20
15.51494739317152
 10
137.2590140130739
 20
15.51488939317151
 10
137.2412630130739
 20
15.51480239317152
 10
137.2234320130739
 20
15.51468939317152
 10
137.2055360130739
 20
15.51455139317151
 10
137.1875900130739
 20
15.51439339317152
 10
137.1696100130739
 20
15.51421839317152
 10
137.1516120130739
 20
15.51402739317152
 10
137.1336100130739
 20
15.51382339317152
 10
137.1156210130739
 20
15.51361139317151
 10
137.0976580130739
 20
15.51339139317152
 10
137.0797390130739
 20
15.51316839317151
 10
137.0618770130739
 20
15.51294439317152
 10
137.0440880130739
 20
15.51272139317152
 10
137.0263890130739
 20
15.51250339317151
 10
137.0087930130739
 20
15.51229339317152
 10
136.9913160130739
 20
15.51209239317151
 10
136.9739750130739
 20
15.51190539317152
 10
136.9567830130739
 20
15.51173439317152
 10
136.9397570130739
 20
15.51158139317152
 10
136.9229110130739
 20
15.51145039317151
 10
136.9062610130739
 20
15.51134339317151
 10
136.8898230130739
 20
15.51126339317152
 10
136.8736120130739
 20
15.51121339317151
 10
136.8576430130739
 20
15.51119539317152
  0
LWPOLYLINE
  5
E30
330
1F
100
AcDbEntity
  8
OBRYS
  6
CONTINUOUS
100
AcDbPolyline
 90
       51
 70
     0
 43
0.0
 10
137.0564150130739
 20
15.33429639317151
 10
137.0684600130739
 20
15.33430439317152
 10
137.0807140130739
 20
15.33432839317152
 10
137.0931600130739
 20
15.33436639317152
 10
137.1057860130739
 20
15.33441639317152
 10
137.1185750130739
 20
15.33447739317152
 10
137.1315130130739
 20
15.33454639317152
 10
137.1445850130739
 20
15.33462339317151
 10
137.1577770130739
 20
15.33470539317152
 10
137.1710750130739
 20
15.33479139317151
 10
137.1844620130739
 20
15.33487939317152
 10
137.1979250130739
 20
15.33496839317152
 10
137.2114490130739
 20
15.33505539317151
 10
137.2250190130739
 20
15.33514039317151
 10
137.2386200130739
 20
15.33522039317152
 10
137.2522380130739
 20
15.33529339317152
 10
137.2658590130739
 20
15.33535939317151
 10
137.2794660130739
 20
15.33541539317151
 10
137.2930460130739
 20
15.33546039317151
 10
137.3065840130739
 20
15.33549239317152
 10
137.3200650130739
 20
15.33550939317152
 10
137.3334740130739
 20
15.33551039317152
 10
137.3467980130739
 20
15.33549339317152
 10
137.3600200130739
 20
15.33545639317151
 10
137.3731260130739
 20
15.33539739317152
 10
137.3861030130739
 20
15.33531639317152
 10
137.3989340130739
 20
15.33521039317152
 10
137.4116050130739
 20
15.33507739317151
 10
137.4241020130739
 20
15.33491739317152
 10
137.4364090130739
 20
15.33472639317152
 10
137.4485130130739
 20
15.33450439317151
 10
137.4603980130739
 20
15.33424939317152
 10
137.4720490130739
 20
15.33395939317151
 10
137.4834530130739
 20
15.33363239317151
 10
137.4945930130739
 20
15.33326839317152
 10
137.5054560130739
 20
15.33286339317152
 10
137.5160270130739
 20
15.33241739317152
 10
137.5262910130739
 20
15.33192839317152
 10
137.5362340130739
 20
15.33139339317152
 10
137.5458400130739
 20
15.33081239317151
 10
137.5550950130739
 20
15.33018339317152
 10
137.5639840130739
 20
15.32950439317152
 10
137.5724930130739
 20
15.32877339317151
 10
137.5806070130739
 20
15.32798939317152
 10
137.5883110130739
 20
15.32715039317152
 10
137.5955900130739
 20
15.32625439317152
 10
137.6024300130739
 20
15.32530039317152
 10
137.6088160130739
 20
15.32428539317152
 10
137.6147330130739
 20
15.32320939317152
 10
137.6201670130739
 20
15.32207039317151
 10
137.6251020130739
 20
15.32086539317151
  0
LWPOLYLINE
  5
E31
330
1F
100
AcDbEntity
  8
OBRYS
  6
CONTINUOUS
100
AcDbPolyline
 90
       51
 70
     0
 43
0.0
 10
135.6721030130739
 20
23.71626639317153
 10
135.6703210130739
 20
23.71010839317153
 10
135.6684940130739
 20
23.70400639317153
 10
135.6666210130739
 20
23.69796239317153
 10
135.6647030130739
 20
23.69197339317153
 10
135.6627390130739
 20
23.68604239317152
 10
135.6607300130739
 20
23.68016739317152
 10
135.6586760130739
 20
23.67434939317153
 10
135.6565770130739
 20
23.66858839317152
 10
135.6544320130739
 20
23.66288339317152
 10
135.6522420130739
 20
23.65723539317152
 10
135.6500060130739
 20
23.65164339317153
 10
135.6477260130739
 20
23.64610939317152
 10
135.6454000130739
 20
23.64063139317152
 10
135.6430290130739
 20
23.63520939317153
 10
135.6406120130739
 20
23.62984539317153
 10
135.6381500130739
 20
23.62453739317153
 10
135.6356440130739
 20
23.61928639317152
 10
135.6330920130739
 20
23.61409139317152
 10
135.6304940130739
 20
23.60895439317152
 10
135.6278520130739
 20
23.60387239317152
 10
135.6251640130739
 20
23.59884839317153
 10
135.6224320130739
 20
23.59388039317152
 10
135.6196540130739
 20
23.58896939317153
 10
135.6168310130739
 20
23.58411539317152
 10
135.6139630130739
 20
23.57931739317153
 10
135.6110500130739
 20
23.57457639317152
 10
135.6080910130739
 20
23.56989239317152
 10
135.6050880130739
 20
23.56526539317152
 10
135.6020400130739
 20
23.56069439317152
 10
135.5989460130739
 20
23.55617939317152
 10
135.5958080130739
 20
23.55172239317152
 10
135.5926240130739
 20
23.54732139317152
 10
135.5893950130739
 20
23.54297739317152
 10
135.5861220130739
 20
23.53869039317152
 10
135.5828030130739
 20
23.53445939317152
 10
135.5794400130739
 20
23.53028539317153
 10
135.5760310130739
 20
23.52616839317152
 10
135.5725780130739
 20
23.52210739317153
 10
135.5690800130739
 20
23.51810339317152
 10
135.5655360130739
 20
23.51415639317152
 10
135.5619480130739
 20
23.51026539317153
 10
135.5583150130739
 20
23.50643139317153
 10
135.5546370130739
 20
23.50265439317153
 10
135.5509140130739
 20
23.49893439317153
 10
135.5471460130739
 20
23.49527039317153
 10
135.5433340130739
 20
23.49166339317152
 10
135.5394760130739
 20
23.48811339317152
 10
135.5355740130739
 20
23.48461939317152
 10
135.5316270130739
 20
23.48118239317153
 10
135.5276350130739
 20
23.47780239317152
  0
LWPOLYLINE
  5
E32
330
1F
100
AcDbEntity
  8
OBRYS
  6
CONTINUOUS
100
AcDbPolyline
 90
       51
 70
     0
 43
0.0
 10
138.8585890130739
 20
23.66794239317152
 10
138.8591710130739
 20
23.66314639317152
 10
138.8597930130739
 20
23.65836839317152
 10
138.8604560130739
 20
23.65360739317152
 10
138.8611600130739
 20
23.64886439317153
 10
138.8619040130739
 20
23.64413839317152
 10
138.8626900130739
 20
23.63943039317153
 10
138.8635160130739
 20
23.63473939317152
 10
138.8643830130739
 20
23.63006639317152
 10
138.8652900130739
 20
23.62541039317152
 10
138.8662390130739
 20
23.62077139317153
 10
138.8672280130739
 20
23.61615039317153
 10
138.8682580130739
 20
23.61154639317153
 10
138.8693280130739
 20
23.60696039317152
 10
138.8704400130739
 20
23.60239139317152
 10
138.8715920130739
 20
23.59784039317153
 10
138.8727840130739
 20
23.59330639317152
 10
138.8740170130739
 20
23.58878939317153
 10
138.8752910130739
 20
23.58428939317152
 10
138.8766060130739
 20
23.57980739317152
 10
138.8779610130739
 20
23.57534339317153
 10
138.8793570130739
 20
23.57089539317152
 10
138.8807930130739
 20
23.56646539317152
 10
138.8822700130739
 20
23.56205239317152
 10
138.8837880130739
 20
23.55765739317153
 10
138.8853460130739
 20
23.55327839317153
 10
138.8869450130739
 20
23.54891739317152
 10
138.8885840130739
 20
23.54457439317152
 10
138.8902640130739
 20
23.54024739317152
 10
138.8919840130739
 20
23.53593839317152
 10
138.8937450130739
 20
23.53164639317152
 10
138.8955470130739
 20
23.52737139317152
 10
138.8973890130739
 20
23.52311339317152
 10
138.8992710130739
 20
23.51887339317152
 10
138.9011940130739
 20
23.51465039317153
 10
138.9031570130739
 20
23.51044339317152
 10
138.9051610130739
 20
23.50625539317152
 10
138.9072060130739
 20
23.50208339317152
 10
138.9092900130739
 20
23.49792839317152
 10
138.9114160130739
 20
23.49379139317152
 10
138.9135810130739
 20
23.48967039317153
 10
138.9157870130739
 20
23.48556739317153
 10
138.9180340130739
 20
23.48148139317152
 10
138.9203200130739
 20
23.47741239317152
 10
138.9226480130739
 20
23.47336039317152
 10
138.9250150130739
 20
23.46932539317152
 10
138.9274230130739
 20
23.46530739317152
 10
138.9298710130739
 20
23.46130639317152
 10
138.9323600130739
 20
23.45732239317153
 10
138.9348890130739
 20
23.45335539317152
 10
138.9374580130739
 20
23.44940639317152
  0
LWPOLYLINE
  5
E33
330
1F
100
AcDbEntity
  8
OBRYS
  6
CONTINUOUS
100
AcDbPolyline
 90
       51
 70
     0
 43
0.0
 10
135.8386480130739
 20
24.37986039317152
 10
135.8392390130739
 20
24.37824739317152
 10
135.8397730130739
 20
24.37662339317152
 10
135.8402500130739
 20
24.37498639317153
 10
135.8406690130739
 20
24.37333939317152
 10
135.8410310130739
 20
24.37167939317152
 10
135.8413370130739
 20
24.37000839317152
 10
135.8415870130739
 20
24.36832539317152
 10
135.8417790130739
 20
24.36662739317152
 10
135.8419130130739
 20
24.36491939317152
 10
135.8419900130739
 20
24.36320739317152
 10
135.8420080130739
 20
24.36149439317152
 10
135.8419680130739
 20
24.35978539317152
 10
135.8418690130739
 20
24.35808439317153
 10
135.8417130130739
 20
24.35639139317152
 10
135.8415000130739
 20
24.35470639317152
 10
135.8412290130739
 20
24.35302939317153
 10
135.8409000130739
 20
24.35136039317152
 10
135.8405130130739
 20
24.34969939317152
 10
135.8400690130739
 20
24.34804739317152
 10
135.8395670130739
 20
24.34640939317152
 10
135.8390100130739
 20
24.34479139317152
 10
135.8383980130739
 20
24.34319439317152
 10
135.8377330130739
 20
24.34162239317152
 10
135.8370170130739
 20
24.34007639317152
 10
135.8362490130739
 20
24.33855939317153
 10
135.8354300130739
 20
24.33706839317152
 10
135.8345560130739
 20
24.33560239317152
 10
135.8336320130739
 20
24.33416339317153
 10
135.8326580130739
 20
24.33275539317153
 10
135.8316360130739
 20
24.33138139317152
 10
135.8305680130739
 20
24.33004439317152
 10
135.8294580130739
 20
24.32874739317153
 10
135.8283070130739
 20
24.32749239317153
 10
135.8271160130739
 20
24.32628039317152
 10
135.8258850130739
 20
24.32510939317152
 10
135.8246140130739
 20
24.32398239317152
 10
135.8233030130739
 20
24.32289639317152
 10
135.8219530130739
 20
24.32185239317153
 10
135.8205640130739
 20
24.32085439317152
 10
135.8191390130739
 20
24.31990239317152
 10
135.8176840130739
 20
24.31900039317152
 10
135.8162010130739
 20
24.31814939317153
 10
135.8146940130739
 20
24.31735139317152
 10
135.8131670130739
 20
24.31660839317152
 10
135.8116190130739
 20
24.31591839317152
 10
135.8100470130739
 20
24.31528139317152
 10
135.8084520130739
 20
24.31469739317152
 10
135.8068340130739
 20
24.31416739317152
 10
135.8051930130739
 20
24.31369039317152
 10
135.8035280130739
 20
24.31326839317152
  0
LWPOLYLINE
  5
E34
330
1F
100
AcDbEntity
  8
OBRYS
  6
CONTINUOUS
100
AcDbPolyline
 90
       51
 70
     0
 43
0.0
 10
139.9993060130739
 20
24.36791939317152
 10
139.9995200130739
 20
24.36628439317152
 10
139.9996790130739
 20
24.36464939317152
 10
139.9997850130739
 20
24.36301639317152
 10
139.9998360130739
 20
24.36138439317152
 10
139.9998350130739
 20
24.35975439317152
 10
139.9997800130739
 20
24.35812439317153
 10
139.9996710130739
 20
24.35649439317152
 10
139.9995090130739
 20
24.35486339317152
 10
139.9992930130739
 20
24.35323439317152
 10
139.9990230130739
 20
24.35161139317153
 10
139.9987010130739
 20
24.34999839317152
 10
139.9983260130739
 20
24.34839939317152
 10
139.9979000130739
 20
24.34681739317152
 10
139.9974230130739
 20
24.34525539317152
 10
139.9968970130739
 20
24.34371139317152
 10
139.9963200130739
 20
24.34218639317152
 10
139.9956940130739
 20
24.34068039317153
 10
139.9950170130739
 20
24.33919339317152
 10
139.9942900130739
 20
24.33772539317153
 10
139.9935120130739
 20
24.33627839317153
 10
139.9926870130739
 20
24.33485539317153
 10
139.9918150130739
 20
24.33346139317152
 10
139.9908990130739
 20
24.33209739317153
 10
139.9899410130739
 20
24.33076639317152
 10
139.9889430130739
 20
24.32947339317152
 10
139.9879040130739
 20
24.32821539317152
 10
139.9868220130739
 20
24.32699039317152
 10
139.9856990130739
 20
24.32580139317152
 10
139.9845360130739
 20
24.32464739317152
 10
139.9833360130739
 20
24.32353239317152
 10
139.9821000130739
 20
24.32245639317152
 10
139.9808290130739
 20
24.32142039317153
 10
139.9795260130739
 20
24.32042639317152
 10
139.9781910130739
 20
24.31947639317152
 10
139.9768270130739
 20
24.31857039317152
 10
139.9754350130739
 20
24.31771039317153
 10
139.9740170130739
 20
24.31689839317152
 10
139.9725740130739
 20
24.31613339317152
 10
139.9711010130739
 20
24.31541539317152
 10
139.9696000130739
 20
24.31474339317153
 10
139.9680770130739
 20
24.31412039317152
 10
139.9665340130739
 20
24.31354739317152
 10
139.9649740130739
 20
24.31302539317152
 10
139.9634020130739
 20
24.31255639317152
 10
139.9618180130739
 20
24.31214039317152
 10
139.9602230130739
 20
24.31177639317152
 10
139.9586160130739
 20
24.31146539317152
 10
139.9569970130739
 20
24.31120639317152
 10
139.9553660130739
 20
24.31100039317153
 10
139.9537230130739
 20
24.31084739317152
  0
LWPOLYLINE
  5
E35
330
1F
100
AcDbEntity
  8
OBRYS
  6
CONTINUOUS
100
AcDbPolyline
 90
       51
 70
     0
 43
0.0
 10
135.8326170130739
 20
23.72566539317153
 10
135.8342010130739
 20
23.72523639317152
 10
135.8357640130739
 20
23.72475939317153
 10
135.8373040130739
 20
23.72423339317152
 10
135.8388240130739
 20
23.72365739317152
 10
135.8403210130739
 20
23.72303439317152
 10
135.8417980130739
 20
23.72236239317153
 10
135.8432540130739
 20
23.72164239317152
 10
135.8446920130739
 20
23.72087139317152
 10
135.8461070130739
 20
23.72005239317152
 10
135.8474960130739
 20
23.71918639317152
 10
135.8488560130739
 20
23.71827639317153
 10
135.8501840130739
 20
23.71732339317152
 10
135.8514760130739
 20
23.71633039317152
 10
135.8527320130739
 20
23.71529839317153
 10
135.8539520130739
 20
23.71422839317153
 10
135.8551350130739
 20
23.71311939317153
 10
135.8562820130739
 20
23.71197139317153
 10
135.8573930130739
 20
23.71078439317153
 10
135.8584670130739
 20
23.70955939317152
 10
135.8595040130739
 20
23.70829639317153
 10
135.8604990130739
 20
23.70699739317152
 10
135.8614520130739
 20
23.70566739317153
 10
135.8623600130739
 20
23.70430739317152
 10
135.8632220130739
 20
23.70292239317152
 10
135.8640350130739
 20
23.70151439317153
 10
135.8648000130739
 20
23.70008239317152
 10
135.8655180130739
 20
23.69862339317152
 10
135.8661880130739
 20
23.69714039317153
 10
135.8668110130739
 20
23.69563439317152
 10
135.8673840130739
 20
23.69410839317152
 10
135.8679090130739
 20
23.69256439317153
 10
135.8683830130739
 20
23.69100339317152
 10
135.8688060130739
 20
23.68942839317153
 10
135.8691780130739
 20
23.68784139317153
 10
135.8694980130739
 20
23.68624439317152
 10
135.8697660130739
 20
23.68463939317153
 10
135.8699800130739
 20
23.68302739317152
 10
135.8701410130739
 20
23.68141139317152
 10
135.8702490130739
 20
23.67978439317152
 10
135.8703030130739
 20
23.67815039317152
 10
135.8703050130739
 20
23.67651339317152
 10
135.8702530130739
 20
23.67487639317152
 10
135.8701480130739
 20
23.67324339317152
 10
135.8699900130739
 20
23.67161739317152
 10
135.8697790130739
 20
23.67000139317152
 10
135.8695150130739
 20
23.66839339317152
 10
135.8692000130739
 20
23.66679539317152
 10
135.8688310130739
 20
23.66520539317152
 10
135.8684100130739
 20
23.66362439317152
 10
135.8679350130739
 20
23.66205339317152
  0
LWPOLYLINE
  5
E36
330
1F
100
AcDbEntity
  8
OBRYS
  6
CONTINUOUS
100
AcDbPolyline
 90
       51
 70
     0
 43
0.0
 10
138.8585890130739
 20
23.66794239317152
 10
138.8584280130739
 20
23.66954139317152
 10
138.8583190130739
 20
23.67113739317152
 10
138.8582610130739
 20
23.67273139317152
 10
138.8582540130739
 20
23.67432239317153
 10
138.8582980130739
 20
23.67591139317152
 10
138.8583920130739
 20
23.67749639317153
 10
138.8585370130739
 20
23.67908139317152
 10
138.8587330130739
 20
23.68066639317152
 10
138.8589800130739
 20
23.68224739317153
 10
138.8592780130739
 20
23.68382239317153
 10
138.8596260130739
 20
23.68538739317153
 10
138.8600230130739
 20
23.68693839317152
 10
138.8604690130739
 20
23.68847239317153
 10
138.8609630130739
 20
23.68998639317153
 10
138.8615030130739
 20
23.69148139317152
 10
138.8620900130739
 20
23.69295739317153
 10
138.8627250130739
 20
23.69441439317152
 10
138.8634060130739
 20
23.69585139317153
 10
138.8641350130739
 20
23.69726939317153
 10
138.8649110130739
 20
23.69866839317152
 10
138.8657330130739
 20
23.70004339317152
 10
138.8666000130739
 20
23.70139339317152
 10
138.8675090130739
 20
23.70271339317152
 10
138.8684570130739
 20
23.70400139317153
 10
138.8694420130739
 20
23.70525339317152
 10
138.8704660130739
 20
23.70647139317152
 10
138.8715310130739
 20
23.70765639317152
 10
138.8726340130739
 20
23.70880839317153
 10
138.8737750130739
 20
23.70992539317152
 10
138.8749500130739
 20
23.71100639317152
 10
138.8761600130739
 20
23.71204939317152
 10
138.8774030130739
 20
23.71305339317152
 10
138.8786760130739
 20
23.71401839317152
 10
138.8799780130739
 20
23.71494139317152
 10
138.8813080130739
 20
23.71582139317153
 10
138.8826640130739
 20
23.71665839317152
 10
138.8840440130739
 20
23.71745039317152
 10
138.8854480130739
 20
23.71819539317152
 10
138.8868790130739
 20
23.71889739317152
 10
138.8883350130739
 20
23.71955539317152
 10
138.8898140130739
 20
23.72016639317153
 10
138.8913140130739
 20
23.72073239317152
 10
138.8928320130739
 20
23.72124939317152
 10
138.8943660130739
 20
23.72171739317152
 10
138.8959110130739
 20
23.72213439317152
 10
138.8974670130739
 20
23.72250239317153
 10
138.8990350130739
 20
23.72282039317152
 10
138.9006120130739
 20
23.72308839317153
 10
138.9022010130739
 20
23.72330539317152
 10
138.9038010130739
 20
23.72347239317152
  0
LWPOLYLINE
  5
E37
330
1F
100
AcDbEntity
  8
OBRYS
  6
CONTINUOUS
100
AcDbPolyline
 90
       51
 70
     0
 43
0.0
 10
135.6721030130739
 20
23.71626639317153
 10
135.6725500130739
 20
23.71775039317152
 10
135.6730400130739
 20
23.71921239317152
 10
135.6735730130739
 20
23.72065439317152
 10
135.6741490130739
 20
23.72207639317152
 10
135.6747670130739
 20
23.72347739317152
 10
135.6754280130739
 20
23.72485839317152
 10
135.6761320130739
 20
23.72622039317152
 10
135.6768800130739
 20
23.72756439317152
 10
135.6776700130739
 20
23.72888739317152
 10
135.6785020130739
 20
23.73018739317152
 10
135.6793740130739
 20
23.73146239317152
 10
135.6802850130739
 20
23.73270939317152
 10
135.6812330130739
 20
23.73392539317152
 10
135.6822140130739
 20
23.73510839317152
 10
135.6832300130739
 20
23.73625839317153
 10
135.6842780130739
 20
23.73737439317152
 10
135.6853610130739
 20
23.73845739317152
 10
135.6864760130739
 20
23.73950639317153
 10
135.6876250130739
 20
23.74052339317152
 10
135.6888090130739
 20
23.74150739317152
 10
135.6900270130739
 20
23.74245639317153
 10
135.6912750130739
 20
23.74336939317152
 10
135.6925500130739
 20
23.74424339317152
 10
135.6938500130739
 20
23.74507639317152
 10
135.6951700130739
 20
23.74586639317153
 10
135.6965100130739
 20
23.74661239317152
 10
135.6978700130739
 20
23.74731539317152
 10
135.6992510130739
 20
23.74797739317153
 10
135.7006520130739
 20
23.74859539317152
 10
135.7020740130739
 20
23.74917239317152
 10
135.7035170130739
 20
23.74970539317153
 10
135.7049790130739
 20
23.75019539317153
 10
135.7064580130739
 20
23.75064039317153
 10
135.7079500130739
 20
23.75103939317153
 10
135.7094530130739
 20
23.75139239317152
 10
135.7109630130739
 20
23.75169839317153
 10
135.7124780130739
 20
23.75195639317153
 10
135.7139960130739
 20
23.75216739317152
 10
135.7155210130739
 20
23.75233139317152
 10
135.7170510130739
 20
23.75244839317152
 10
135.7185870130739
 20
23.75251839317152
 10
135.7201260130739
 20
23.75254039317152
 10
135.7216670130739
 20
23.75251639317152
 10
135.7232070130739
 20
23.75244439317152
 10
135.7247470130739
 20
23.75232539317152
 10
135.7262840130739
 20
23.75215839317152
 10
135.7278160130739
 20
23.75194439317152
 10
135.7293430130739
 20
23.75168239317152
 10
135.7308620130739
 20
23.75137339317152
 10
135.7323730130739
 20
23.75101639317153
  0
LWPOLYLINE
  5
E38
330
1F
100
AcDbEntity
  8
OBRYS
  6
CONTINUOUS
100
AcDbPolyline
 90
       51
 70
     0
 43
0.0
 10
138.9955270130739
 20
23.73155439317152
 10
138.9970030130739
 20
23.73166239317152
 10
138.9984770130739
 20
23.73172739317153
 10
138.9999480130739
 20
23.73174939317152
 10
139.0014170130739
 20
23.73172739317153
 10
139.0028820130739
 20
23.73166239317152
 10
139.0043430130739
 20
23.73155439317152
 10
139.0058000130739
 20
23.73140339317152
 10
139.0072510130739
 20
23.73120939317153
 10
139.0086970130739
 20
23.73097239317152
 10
139.0101370130739
 20
23.73069339317152
 10
139.0115700130739
 20
23.73037039317152
 10
139.0129960130739
 20
23.73000639317153
 10
139.0144130130739
 20
23.72959939317152
 10
139.0158140130739
 20
23.72915239317152
 10
139.0171970130739
 20
23.72866539317153
 10
139.0185620130739
 20
23.72813939317152
 10
139.0199100130739
 20
23.72757339317153
 10
139.0212410130739
 20
23.72696939317152
 10
139.0225540130739
 20
23.72632539317152
 10
139.0238520130739
 20
23.72564039317152
 10
139.0251330130739
 20
23.72491539317152
 10
139.0263950130739
 20
23.72415239317153
 10
139.0276340130739
 20
23.72335139317152
 10
139.0288490130739
 20
23.72251539317152
 10
139.0300360130739
 20
23.72164439317152
 10
139.0311940130739
 20
23.72074239317152
 10
139.0323220130739
 20
23.71980839317152
 10
139.0334200130739
 20
23.71884239317152
 10
139.0344890130739
 20
23.71784639317152
 10
139.0355290130739
 20
23.71681839317153
 10
139.0365390130739
 20
23.71575939317153
 10
139.0375200130739
 20
23.71466839317153
 10
139.0384710130739
 20
23.71354439317152
 10
139.0393910130739
 20
23.71239039317152
 10
139.0402780130739
 20
23.71120939317152
 10
139.0411280130739
 20
23.71000439317152
 10
139.0419410130739
 20
23.70877739317152
 10
139.0427150130739
 20
23.70753139317153
 10
139.0434500130739
 20
23.70626339317153
 10
139.0441490130739
 20
23.70497439317153
 10
139.0448090130739
 20
23.70366439317153
 10
139.0454310130739
 20
23.70233539317153
 10
139.0460150130739
 20
23.70098739317152
 10
139.0465580130739
 20
23.69962239317153
 10
139.0470620130739
 20
23.69824039317152
 10
139.0475260130739
 20
23.69684339317152
 10
139.0479490130739
 20
23.69543039317152
 10
139.0483300130739
 20
23.69400439317153
 10
139.0486700130739
 20
23.69256539317152
 10
139.0489670130739
 20
23.69111439317152
  0
LWPOLYLINE
  5
E39
330
1F
100
AcDbEntity
  8
OBRYS
  6
CONTINUOUS
100
AcDbPolyline
 90
       51
 70
     0
 43
0.0
 10
135.7052370130739
 20
24.29009539317152
 10
135.7038270130739
 20
24.28978439317152
 10
135.7024130130739
 20
24.28951339317152
 10
135.7009960130739
 20
24.28928439317152
 10
135.6995760130739
 20
24.28909739317152
 10
135.6981530130739
 20
24.28895039317152
 10
135.6967280130739
 20
24.28884539317152
 10
135.6953010130739
 20
24.28878139317152
 10
135.6938720130739
 20
24.28875739317153
 10
135.6924430130739
 20
24.28877639317152
 10
135.6910130130739
 20
24.28883539317153
 10
135.6895820130739
 20
24.28893539317152
 10
135.6881520130739
 20
24.28907739317153
 10
135.6867230130739
 20
24.28925939317152
 10
135.6853040130739
 20
24.28948239317153
 10
135.6838960130739
 20
24.28974539317152
 10
135.6825000130739
 20
24.29004739317152
 10
135.6811140130739
 20
24.29038939317153
 10
135.6797400130739
 20
24.29077139317153
 10
135.6783770130739
 20
24.29119139317152
 10
135.6770220130739
 20
24.29165239317152
 10
135.6756780130739
 20
24.29215339317152
 10
135.6743460130739
 20
24.29269339317152
 10
135.6730280130739
 20
24.29327239317152
 10
135.6717280130739
 20
24.29388839317152
 10
135.6704460130739
 20
24.29454239317153
 10
135.6691870130739
 20
24.29523039317153
 10
135.6679520130739
 20
24.29595339317152
 10
135.6667400130739
 20
24.29670939317153
 10
135.6655520130739
 20
24.29749939317152
 10
135.6643870130739
 20
24.29832239317152
 10
135.6632460130739
 20
24.29917839317152
 10
135.6621270130739
 20
24.30006939317152
 10
135.6610310130739
 20
24.30099539317152
 10
135.6599590130739
 20
24.30195539317153
 10
135.6589140130739
 20
24.30294639317153
 10
135.6578970130739
 20
24.30396639317152
 10
135.6569120130739
 20
24.30501339317152
 10
135.6559610130739
 20
24.30608639317152
 10
135.6550410130739
 20
24.30718539317153
 10
135.6541540130739
 20
24.30830939317152
 10
135.6532990130739
 20
24.30945739317152
 10
135.6524790130739
 20
24.31062939317153
 10
135.6516910130739
 20
24.31182439317152
 10
135.6509390130739
 20
24.31304239317152
 10
135.6502200130739
 20
24.31428239317153
 10
135.6495380130739
 20
24.31554439317152
 10
135.6488900130739
 20
24.31682639317153
 10
135.6482790130739
 20
24.31812939317152
 10
135.6477050130739
 20
24.31945139317152
 10
135.6471670130739
 20
24.32079239317152
  0
LWPOLYLINE
  5
E3A
330
1F
100
AcDbEntity
  8
OBRYS
  6
CONTINUOUS
100
AcDbPolyline
 90
       51
 70
     0
 43
0.0
 10
139.8596870130739
 20
24.30364339317152
 10
139.8582460130739
 20
24.30355339317152
 10
139.8568070130739
 20
24.30350439317153
 10
139.8553700130739
 20
24.30349739317152
 10
139.8539380130739
 20
24.30353139317153
 10
139.8525090130739
 20
24.30360639317152
 10
139.8510840130739
 20
24.30372239317152
 10
139.8496640130739
 20
24.30387939317152
 10
139.8482490130739
 20
24.30407739317153
 10
139.8468390130739
 20
24.30431639317152
 10
139.8454340130739
 20
24.30459639317153
 10
139.8440360130739
 20
24.30491639317153
 10
139.8426440130739
 20
24.30527739317153
 10
139.8412600130739
 20
24.30567939317152
 10
139.8398920130739
 20
24.30611839317152
 10
139.8385420130739
 20
24.30659539317152
 10
139.8372090130739
 20
24.30711039317152
 10
139.8358920130739
 20
24.30766239317152
 10
139.8345930130739
 20
24.30825239317152
 10
139.8333110130739
 20
24.30887839317153
 10
139.8320430130739
 20
24.30954339317153
 10
139.8307920130739
 20
24.31024639317153
 10
139.8295590130739
 20
24.31098639317152
 10
139.8283470130739
 20
24.31176239317152
 10
139.8271570130739
 20
24.31257239317152
 10
139.8259910130739
 20
24.31341639317153
 10
139.8248540130739
 20
24.31429239317152
 10
139.8237450130739
 20
24.31519739317152
 10
139.8226640130739
 20
24.31613239317152
 10
139.8216120130739
 20
24.31709639317153
 10
139.8205880130739
 20
24.31809039317152
 10
139.8195930130739
 20
24.31911339317152
 10
139.8186250130739
 20
24.32016639317152
 10
139.8176850130739
 20
24.32125139317153
 10
139.8167740130739
 20
24.32236639317152
 10
139.8158950130739
 20
24.32350739317153
 10
139.8150480130739
 20
24.32467239317153
 10
139.8142370130739
 20
24.32586039317153
 10
139.8134630130739
 20
24.32706839317152
 10
139.8127240130739
 20
24.32829639317152
 10
139.8120210130739
 20
24.32954439317152
 10
139.8113550130739
 20
24.33081139317152
 10
139.8107250130739
 20
24.33209639317153
 10
139.8101320130739
 20
24.33339939317152
 10
139.8095770130739
 20
24.33472039317153
 10
139.8090590130739
 20
24.33605739317152
 10
139.8085800130739
 20
24.33740939317152
 10
139.8081390130739
 20
24.33877739317152
 10
139.8077370130739
 20
24.34015939317152
 10
139.8073740130739
 20
24.34155439317152
 10
139.8070510130739
 20
24.34296339317152
  0
LINE
  5
E3B
330
1F
100
AcDbEntity
  8
OBRYS
100
AcDbLine
 10
139.9000060130739
 20
13.54653939317151
 30
0.0
 11
139.9000060130739
 21
13.51119539317152
 31
0.0
  0
LINE
  5
E3C
330
1F
100
AcDbEntity
  8
OBRYS
100
AcDbLine
 10
136.1000060130739
 20
13.54653939317151
 30
0.0
 11
136.1000060130739
 21
13.51119539317152
 31
0.0
  0
ARC
  5
E3D
330
1F
100
AcDbEntity
  8
OBRYS
100
AcDbCircle
 10
141.7999654246436
 20
13.74686936182547
 30
0.0
 40
0.2000405884459726
100
AcDbArc
 50
270.0116253684918
 51
359.9992830604804
  0
ARC
  5
E3E
330
1F
100
AcDbEntity
  8
OBRYS
100
AcDbCircle
 10
134.2001106416963
 20
13.74702533259499
 30
0.0
 40
0.2001965824386872
100
AcDbArc
 50
178.2633559832613
 51
269.970055540124
  0
LINE
  5
1232
330
1F
100
AcDbEntity
  8
OBRYS
 62
     5
100
AcDbLine
 10
72.5
 20
8.100000000000001
 30
0.0
 11
72.5
 21
0.0
 31
0.0
  0
LINE
  5
1233
330
1F
100
AcDbEntity
  8
OBRYS
 62
     5
100
AcDbLine
 10
72.5
 20
0.0
 30
0.0
 11
67.9
 21
0.0
 31
0.0
  0
LINE
  5
1234
330
1F
100
AcDbEntity
  8
OBRYS
 62
     5
100
AcDbLine
 10
67.9
 20
0.0
 30
0.0
 11
67.9
 21
8.100000000000001
 31
0.0
  0
LINE
  5
1235
330
1F
100
AcDbEntity
  8
OBRYS
 62
     5
100
AcDbLine
 10
67.9
 20
4.5
 30
0.0
 11
66.6
 21
4.5
 31
0.0
  0
LINE
  5
1236
330
1F
100
AcDbEntity
  8
OBRYS
 62
     5
100
AcDbLine
 10
66.6
 20
4.5
 30
0.0
 11
66.6
 21
8.100000000000001
 31
0.0
  0
LINE
  5
1237
330
1F
100
AcDbEntity
  8
OBRYS
 62
     5
100
AcDbLine
 10
72.5
 20
8.100000000000001
 30
0.0
 11
28.7
 21
8.100000000000001
 31
0.0
  0
LINE
  5
1238
330
1F
100
AcDbEntity
  8
OBRYS
 62
     5
100
AcDbLine
 10
65.3
 20
8.100000000000001
 30
0.0
 11
65.3
 21
30.5
 31
0.0
  0
LINE
  5
1239
330
1F
100
AcDbEntity
  8
OBRYS
 62
     5
100
AcDbLine
 10
65.3
 20
30.5
 30
0.0
 11
72.5
 21
30.5
 31
0.0
  0
LINE
  5
123A
330
1F
100
AcDbEntity
  8
OBRYS
 62
     5
100
AcDbLine
 10
72.5
 20
30.5
 30
0.0
 11
72.5
 21
8.100000000000001
 31
0.0
  0
LINE
  5
123B
330
1F
100
AcDbEntity
  8
OBRYS
 62
     5
100
AcDbLine
 10
61.64999999999999
 20
6.199999999999999
 30
0.0
 11
49.34999999999998
 21
6.199999999999999
 31
0.0
  0
LINE
  5
123C
330
1F
100
AcDbEntity
  8
OBRYS
 62
     5
100
AcDbLine
 10
61.64999999999999
 20
6.199999999999999
 30
0.0
 11
62.8
 21
8.100000000000001
 31
0.0
  0
LINE
  5
123D
330
1F
100
AcDbEntity
  8
OBRYS
 62
     5
100
AcDbLine
 10
49.34999999999998
 20
6.199999999999999
 30
0.0
 11
48.2
 21
8.100000000000001
 31
0.0
  0
LINE
  5
123E
330
1F
100
AcDbEntity
  8
OBRYS
 62
     5
100
AcDbLine
 10
22.5
 20
11.7
 30
0.0
 11
22.5
 21
26.1
 31
0.0
  0
LINE
  5
123F
330
1F
100
AcDbEntity
  8
OBRYS
 62
     5
100
AcDbLine
 10
22.5
 20
11.7
 30
0.0
 11
23.35474539744931
 21
11.20330606154289
 31
0.0
  0
LINE
  5
1240
330
1F
100
AcDbEntity
  8
OBRYS
 62
     5
100
AcDbLine
 10
66.5
 20
30.5
 30
0.0
 11
66.5
 21
66.6
 31
0.0
  0
LINE
  5
1241
330
1F
100
AcDbEntity
  8
OBRYS
 62
     5
100
AcDbLine
 10
66.5
 20
66.6
 30
0.0
 11
72.5
 21
66.6
 31
0.0
  0
LINE
  5
1242
330
1F
100
AcDbEntity
  8
OBRYS
 62
     5
100
AcDbLine
 10
72.5
 20
66.6
 30
0.0
 11
72.5
 21
83.3
 31
0.0
  0
LINE
  5
1243
330
1F
100
AcDbEntity
  8
OBRYS
 62
     5
100
AcDbLine
 10
72.5
 20
66.6
 30
0.0
 11
72.5
 21
64.7
 31
0.0
  0
LINE
  5
1244
330
1F
100
AcDbEntity
  8
OBRYS
 62
     5
100
AcDbLine
 10
72.5
 20
64.7
 30
0.0
 11
69.5
 21
64.7
 31
0.0
  0
LINE
  5
1245
330
1F
100
AcDbEntity
  8
OBRYS
 62
     5
100
AcDbLine
 10
69.5
 20
64.7
 30
0.0
 11
68.1
 21
66.6
 31
0.0
  0
LINE
  5
1246
330
1F
100
AcDbEntity
  8
OBRYS
 62
     5
100
AcDbLine
 10
25.0
 20
26.4
 30
0.0
 11
48.5
 21
26.4
 31
0.0
  0
LINE
  5
1247
330
1F
100
AcDbEntity
  8
OBRYS
 62
     5
100
AcDbLine
 10
48.5
 20
26.4
 30
0.0
 11
48.5
 21
71.8
 31
0.0
  0
LINE
  5
1248
330
1F
100
AcDbEntity
  8
OBRYS
 62
     5
100
AcDbLine
 10
48.5
 20
71.8
 30
0.0
 11
25.0
 21
71.8
 31
0.0
  0
LINE
  5
1249
330
1F
100
AcDbEntity
  8
OBRYS
 62
     5
100
AcDbLine
 10
22.5
 20
72.1
 30
0.0
 11
22.5
 21
86.5
 31
0.0
  0
LINE
  5
124A
330
1F
100
AcDbEntity
  8
OBRYS
 62
     5
100
AcDbLine
 10
28.7
 20
90.1
 30
0.0
 11
70.8
 21
90.1
 31
0.0
  0
LINE
  5
124B
330
1F
100
AcDbEntity
  8
OBRYS
 62
     5
100
AcDbLine
 10
48.5
 20
26.6
 30
0.0
 11
-10.0
 21
26.6
 31
0.0
  0
LINE
  5
124C
330
1F
100
AcDbEntity
  8
OBRYS
 62
     5
100
AcDbLine
 10
48.5
 20
71.6
 30
0.0
 11
-10.0
 21
71.6
 31
0.0
  0
LINE
  5
124D
330
1F
100
AcDbEntity
  8
OBRYS
 62
     5
100
AcDbLine
 10
-10.0
 20
26.6
 30
0.0
 11
-10.0
 21
71.6
 31
0.0
  0
LINE
  5
124E
330
1F
100
AcDbEntity
  8
OBRYS
 62
     5
100
AcDbLine
 10
49.34999999999998
 20
92.0
 30
0.0
 11
61.64999999999999
 21
92.0
 31
0.0
  0
LINE
  5
124F
330
1F
100
AcDbEntity
  8
OBRYS
 62
     5
100
AcDbLine
 10
70.8
 20
90.1
 30
0.0
 11
72.5
 21
83.3
 31
0.0
  0
LINE
  5
1250
330
1F
100
AcDbEntity
  8
OBRYS
 62
     5
100
AcDbLine
 10
49.34999999999998
 20
92.0
 30
0.0
 11
48.2
 21
90.1
 31
0.0
  0
LINE
  5
1251
330
1F
100
AcDbEntity
  8
OBRYS
 62
     5
100
AcDbLine
 10
61.64999999999999
 20
92.0
 30
0.0
 11
62.8
 21
90.1
 31
0.0
  0
LINE
  5
1252
330
1F
100
AcDbEntity
  8
OBRYS
 62
     5
100
AcDbLine
 10
22.5
 20
86.5
 30
0.0
 11
28.7
 21
90.1
 31
0.0
  0
LINE
  5
1253
330
1F
100
AcDbEntity
  8
OBRYS
 62
     5
100
AcDbLine
 10
22.5
 20
26.1
 30
0.0
 11
25.0
 21
26.4
 31
0.0
  0
LINE
  5
1254
330
1F
100
AcDbEntity
  8
OBRYS
 62
     5
100
AcDbLine
 10
22.5
 20
72.1
 30
0.0
 11
25.0
 21
71.8
 31
0.0
  0
LINE
  5
1255
330
1F
100
AcDbEntity
  8
OBRYS
 62
     5
100
AcDbLine
 10
62.89999999999999
 20
15.6
 30
0.0
 11
62.89999999999999
 21
18.7
 31
0.0
  0
LINE
  5
1256
330
1F
100
AcDbEntity
  8
OBRYS
 62
     5
100
AcDbLine
 10
62.89999999999999
 20
18.7
 30
0.0
 11
59.8
 21
18.7
 31
0.0
  0
LINE
  5
1257
330
1F
100
AcDbEntity
  8
OBRYS
 62
     5
100
AcDbLine
 10
59.8
 20
18.7
 30
0.0
 11
59.8
 21
15.6
 31
0.0
  0
LINE
  5
1258
330
1F
100
AcDbEntity
  8
OBRYS
 62
     5
100
AcDbLine
 10
59.8
 20
15.6
 30
0.0
 11
62.89999999999999
 21
15.6
 31
0.0
  0
LINE
  5
1259
330
1F
100
AcDbEntity
  8
OBRYS
 62
     5
100
AcDbLine
 10
62.2
 20
15.6
 30
0.0
 11
62.2
 21
18.7
 31
0.0
  0
LINE
  5
125A
330
1F
100
AcDbEntity
  8
OBRYS
 62
     5
100
AcDbLine
 10
60.2
 20
15.6
 30
0.0
 11
60.2
 21
18.7
 31
0.0
  0
LINE
  5
125B
330
1F
100
AcDbEntity
  8
OBRYS
 62
     5
100
AcDbLine
 10
62.89999999999999
 20
47.5
 30
0.0
 11
62.89999999999999
 21
50.59999999999999
 31
0.0
  0
LINE
  5
125C
330
1F
100
AcDbEntity
  8
OBRYS
 62
     5
100
AcDbLine
 10
62.89999999999999
 20
50.59999999999999
 30
0.0
 11
59.8
 21
50.59999999999999
 31
0.0
  0
LINE
  5
125D
330
1F
100
AcDbEntity
  8
OBRYS
 62
     5
100
AcDbLine
 10
59.8
 20
50.59999999999999
 30
0.0
 11
59.8
 21
47.5
 31
0.0
  0
LINE
  5
125E
330
1F
100
AcDbEntity
  8
OBRYS
 62
     5
100
AcDbLine
 10
59.8
 20
47.5
 30
0.0
 11
62.89999999999999
 21
47.5
 31
0.0
  0
LINE
  5
125F
330
1F
100
AcDbEntity
  8
OBRYS
 62
     5
100
AcDbLine
 10
62.2
 20
47.5
 30
0.0
 11
62.2
 21
50.59999999999999
 31
0.0
  0
LINE
  5
1260
330
1F
100
AcDbEntity
  8
OBRYS
 62
     5
100
AcDbLine
 10
60.2
 20
47.5
 30
0.0
 11
60.2
 21
50.59999999999999
 31
0.0
  0
LINE
  5
1261
330
1F
100
AcDbEntity
  8
OBRYS
 62
     5
100
AcDbLine
 10
68.8
 20
69.8
 30
0.0
 11
68.8
 21
72.89999999999999
 31
0.0
  0
LINE
  5
1262
330
1F
100
AcDbEntity
  8
OBRYS
 62
     5
100
AcDbLine
 10
68.8
 20
72.89999999999999
 30
0.0
 11
65.7
 21
72.89999999999999
 31
0.0
  0
LINE
  5
1263
330
1F
100
AcDbEntity
  8
OBRYS
 62
     5
100
AcDbLine
 10
65.7
 20
72.89999999999999
 30
0.0
 11
65.7
 21
69.8
 31
0.0
  0
LINE
  5
1264
330
1F
100
AcDbEntity
  8
OBRYS
 62
     5
100
AcDbLine
 10
65.7
 20
69.8
 30
0.0
 11
68.8
 21
69.8
 31
0.0
  0
LINE
  5
1265
330
1F
100
AcDbEntity
  8
OBRYS
 62
     5
100
AcDbLine
 10
68.10000000000001
 20
69.8
 30
0.0
 11
68.10000000000001
 21
72.89999999999999
 31
0.0
  0
LINE
  5
1266
330
1F
100
AcDbEntity
  8
OBRYS
 62
     5
100
AcDbLine
 10
66.10000000000001
 20
69.8
 30
0.0
 11
66.10000000000001
 21
72.89999999999999
 31
0.0
  0
LINE
  5
1267
330
1F
100
AcDbEntity
  8
OBRYS
 62
     5
100
AcDbLine
 10
60.8826
 20
84.1083
 30
0.0
 11
60.8826
 21
87.2083
 31
0.0
  0
LINE
  5
1268
330
1F
100
AcDbEntity
  8
OBRYS
 62
     5
100
AcDbLine
 10
60.8826
 20
87.2083
 30
0.0
 11
57.7826
 21
87.2083
 31
0.0
  0
LINE
  5
1269
330
1F
100
AcDbEntity
  8
OBRYS
 62
     5
100
AcDbLine
 10
57.7826
 20
87.2083
 30
0.0
 11
57.7826
 21
84.1083
 31
0.0
  0
LINE
  5
126A
330
1F
100
AcDbEntity
  8
OBRYS
 62
     5
100
AcDbLine
 10
57.7826
 20
84.1083
 30
0.0
 11
60.8826
 21
84.1083
 31
0.0
  0
LINE
  5
126B
330
1F
100
AcDbEntity
  8
OBRYS
 62
     5
100
AcDbLine
 10
60.18260000000001
 20
84.1083
 30
0.0
 11
60.18260000000001
 21
87.2083
 31
0.0
  0
LINE
  5
126C
330
1F
100
AcDbEntity
  8
OBRYS
 62
     5
100
AcDbLine
 10
58.18260000000001
 20
84.1083
 30
0.0
 11
58.18260000000001
 21
87.2083
 31
0.0
  0
LINE
  5
126D
330
1F
100
AcDbEntity
  8
OBRYS
 62
     5
100
AcDbLine
 10
27.83479919941554
 20
8.602374658403875
 30
0.0
 11
28.7
 21
8.100000000000001
 31
0.0
  0
LINE
  5
126E
330
1F
100
AcDbEntity
  8
OBRYS
 62
     5
100
AcDbLine
 10
27.83479919941554
 20
8.602374658403875
 30
0.0
 11
23.35474539744931
 21
11.20330606154289
 31
0.0
  0
LINE
  5
126F
330
1F
100
AcDbEntity
  8
OBRYS
 62
     5
100
AcDbLine
 10
23.17858802006698
 20
11.88396178886323
 30
0.0
 11
23.60596071879165
 21
11.63561481963468
 31
0.0
  0
LINE
  5
1270
330
1F
100
AcDbEntity
  8
OBRYS
 62
     5
100
AcDbLine
 10
28.08586695810881
 20
9.03476913170892
 30
0.0
 11
28.51846735840103
 21
8.78358180250698
 31
0.0
  0
LINE
  5
1271
330
1F
100
AcDbEntity
  8
OBRYS
 62
     5
100
AcDbLine
 10
23.17858802006698
 20
11.88396178886323
 30
0.0
 11
23.73102181544385
 21
12.83537554756782
 31
0.0
  0
LINE
  5
1272
330
1F
100
AcDbEntity
  8
OBRYS
 62
     5
100
AcDbLine
 10
28.51846735840103
 20
8.78358180250698
 30
0.0
 11
29.07081642752618
 21
9.73484964377808
 31
0.0
  0
LINE
  5
1273
330
1F
100
AcDbEntity
  8
OBRYS
 62
     5
100
AcDbLine
 10
27.83479919941554
 20
8.602374658403875
 30
0.0
 11
28.08586695810881
 21
9.03476913170892
 31
0.0
  0
LINE
  5
1274
330
1F
100
AcDbEntity
  8
OBRYS
 62
     5
100
AcDbLine
 10
23.35474539744931
 20
11.20330606154289
 30
0.0
 11
23.60581314151945
 21
11.63570050966369
 31
0.0
  0
LINE
  5
1275
330
1F
100
AcDbEntity
  8
OBRYS
 62
     5
100
AcDbLine
 10
23.73102181544385
 20
12.83537554756782
 30
0.0
 11
29.07081642752618
 21
9.73484964377808
 31
0.0
  0
ELLIPSE
  5
1276
330
1F
100
AcDbEntity
  8
OBRYS
 62
     5
100
AcDbEllipse
 10
26.40091912148502
 20
11.28511259567295
 30
0.0
 11
-1.039943320270123
 21
0.6038380569310341
 31
0.0
210
0.0
220
0.0
230
1.0
 40
0.6385440653482459
 41
6.283185307179586
 42
9.42477796076938
  0
LINE
  5
1277
330
1F
100
AcDbEntity
  8
OBRYS
 62
     5
100
AcDbLine
 10
24.60098340460934
 20
12.33023656031044
 30
0.0
 11
24.09875154992429
 21
11.46515194972255
 31
0.0
  0
LINE
  5
1278
330
1F
100
AcDbEntity
  8
OBRYS
 62
     5
100
AcDbLine
 10
28.20211116541817
 20
10.23925915080853
 30
0.0
 11
27.70001548530882
 21
9.374409098281191
 31
0.0
  0
LINE
  5
1279
330
1F
100
AcDbEntity
  8
OBRYS
 62
     5
100
AcDbLine
 10
27.70001548530882
 20
9.374409098281191
 30
0.0
 11
24.09875154992429
 21
11.46515194972255
 31
0.0
  0
LINE
  5
127A
330
1F
100
AcDbEntity
  8
OBRYS
 62
     5
100
AcDbLine
 10
23.17858802006698
 20
86.31603821113676
 30
0.0
 11
23.60596071879165
 21
86.5643851803653
 31
0.0
  0
LINE
  5
127B
330
1F
100
AcDbEntity
  8
OBRYS
 62
     5
100
AcDbLine
 10
28.08586695810881
 20
89.16523086829106
 30
0.0
 11
28.51846735840103
 21
89.416418197493
 31
0.0
  0
LINE
  5
127C
330
1F
100
AcDbEntity
  8
OBRYS
 62
     5
100
AcDbLine
 10
23.17858802006698
 20
86.31603821113676
 30
0.0
 11
23.73102181544385
 21
85.36462445243217
 31
0.0
  0
LINE
  5
127D
330
1F
100
AcDbEntity
  8
OBRYS
 62
     5
100
AcDbLine
 10
28.51846735840103
 20
89.416418197493
 30
0.0
 11
29.07081642752618
 21
88.4651503562219
 31
0.0
  0
LINE
  5
127E
330
1F
100
AcDbEntity
  8
OBRYS
 62
     5
100
AcDbLine
 10
27.83479919941554
 20
89.59762534159611
 30
0.0
 11
28.08586695810881
 21
89.16523086829106
 31
0.0
  0
LINE
  5
127F
330
1F
100
AcDbEntity
  8
OBRYS
 62
     5
100
AcDbLine
 10
23.35474539744931
 20
86.9966939384571
 30
0.0
 11
23.60581314151945
 21
86.5642994903363
 31
0.0
  0
LINE
  5
1280
330
1F
100
AcDbEntity
  8
OBRYS
 62
     5
100
AcDbLine
 10
23.73102181544385
 20
85.36462445243217
 30
0.0
 11
29.07081642752618
 21
88.4651503562219
 31
0.0
  0
ELLIPSE
  5
1281
330
1F
100
AcDbEntity
  8
OBRYS
 62
     5
100
AcDbEllipse
 10
26.40091912148502
 20
86.91488740432703
 30
0.0
 11
-1.039943320270123
 21
-0.603838056931034
 31
0.0
210
0.0
220
0.0
230
-1.0
 40
0.6385440653482459
 41
6.283185307179586
 42
9.42477796076938
  0
LINE
  5
1282
330
1F
100
AcDbEntity
  8
OBRYS
 62
     5
100
AcDbLine
 10
24.60098340460934
 20
85.86976343968955
 30
0.0
 11
24.09875154992429
 21
86.73484805027744
 31
0.0
  0
LINE
  5
1283
330
1F
100
AcDbEntity
  8
OBRYS
 62
     5
100
AcDbLine
 10
28.20211116541817
 20
87.96074084919145
 30
0.0
 11
27.70001548530882
 21
88.8255909017188
 31
0.0
  0
LINE
  5
1284
330
1F
100
AcDbEntity
  8
OBRYS
 62
     5
100
AcDbLine
 10
27.70001548530882
 20
88.8255909017188
 30
0.0
 11
24.09875154992429
 21
86.73484805027744
 31
0.0
  0
LINE
  5
1285
330
1F
100
AcDbEntity
  8
OBRYS
 62
     5
100
AcDbLine
 10
66.5
 20
43.0145913078578
 30
0.0
 11
66.5
 21
43.47198337547407
 31
0.0
  0
LINE
  5
1286
330
1F
100
AcDbEntity
  8
OBRYS
 62
     5
100
AcDbLine
 10
48.5
 20
43.0145913078578
 30
0.0
 11
48.5
 21
43.47198337547407
 31
0.0
  0
DIMENSION
  5
1287
330
1F
100
AcDbEntity
  8
KOTY
 62
     1
100
AcDbDimension
  2
*D35
 10
82.5
 20
92.0
 30
0.0
 11
82.5
 21
46.0
 31
0.0
 70
   160
  3
STANDARD
100
AcDbAlignedDimension
 13
72.5
 23
0.0
 33
0.0
 14
61.64999999999999
 24
92.0
 34
0.0
 50
90.0
100
AcDbRotatedDimension
1001
ACAD
1000
DSTYLE
1002
{
1070
     7
1000

1070
     6
1000

1070
     5
1000

1070
    73
1070
     0
1070
   278
1070
    44
1070
   147
1040
1.0
1070
   173
1070
     1
1070
    77
1070
     1
1070
   271
1070
     0
1070
    41
1040
4.0
1070
   140
1040
4.0
1002
}
  0
DIMENSION
  5
1288
330
1F
100
AcDbEntity
  8
KOTY
 62
     1
100
AcDbDimension
  2
*D36
 10
-21.81518247604569
 20
71.6
 30
0.0
 11
-21.81518247604569
 21
46.0
 31
0.0
 70
   160
  3
STANDARD
100
AcDbAlignedDimension
 13
-10.0
 23
26.6
 33
0.0
 14
-10.0
 24
71.6
 34
0.0
 50
90.0
100
AcDbRotatedDimension
1001
ACAD
1000
DSTYLE
1002
{
1070
     7
1000

1070
     6
1000

1070
     5
1000

1070
    73
1070
     0
1070
   278
1070
    44
1070
   147
1040
1.0
1070
   173
1070
     1
1070
    77
1070
     2
1070
   271
1070
     0
1070
    41
1040
4.0
1070
   140
1040
4.0
1002
}
  0
DIMENSION
  5
1289
330
1F
100
AcDbEntity
  8
KOTY
 62
     1
100
AcDbDimension
  2
*D37
 10
-37.29853792749454
 20
90.1
 30
0.0
 11
-37.29853792749455
 21
46.0
 31
0.0
 70
   160
  3
STANDARD
100
AcDbAlignedDimension
 13
28.7
 23
8.100000000000001
 33
0.0
 14
28.7
 24
90.1
 34
0.0
 50
90.0
100
AcDbRotatedDimension
1001
ACAD
1000
DSTYLE
1002
{
1070
     7
1000

1070
     6
1000

1070
     5
1000

1070
    73
1070
     0
1070
   278
1070
    44
1070
   147
1040
1.0
1070
   173
1070
     1
1070
   280
1070
     0
1070
    77
1070
     2
1070
   271
1070
     0
1070
    41
1040
4.0
1070
   140
1040
4.0
1002
}
  0
DIMENSION
  5
128A
330
1F
100
AcDbEntity
  8
KOTY
 62
     1
100
AcDbDimension
  2
*D38
 10
22.5
 20
-10.0
 30
0.0
 11
44.5
 21
-10.0
 31
0.0
 70
   160
  3
STANDARD
100
AcDbAlignedDimension
 13
66.5
 23
30.5
 33
0.0
 14
22.5
 24
11.7
 34
0.0
100
AcDbRotatedDimension
1001
ACAD
1000
DSTYLE
1002
{
1070
     7
1000

1070
     6
1000

1070
     5
1000

1070
   278
1070
    44
1070
   147
1040
1.0
1070
    77
1070
     1
1070
   173
1070
     1
1070
   271
1070
     0
1070
   140
1040
4.0
1070
    41
1040
4.0
1002
}
  0
DIMENSION
  5
128B
330
1F
100
AcDbEntity
  8
KOTY
 62
     1
100
AcDbDimension
  2
*D39
 10
66.5
 20
-19.25634778468664
 30
0.0
 11
33.25
 21
-19.25634778468664
 31
0.0
 70
   160
  3
STANDARD
100
AcDbAlignedDimension
 13
-10.0
 23
26.6
 33
0.0
 14
66.5
 24
30.4375
 34
0.0
100
AcDbRotatedDimension
1001
ACAD
1000
DSTYLE
1002
{
1070
     7
1000

1070
     6
1000

1070
     5
1000

1070
   278
1070
    44
1070
   147
1040
1.0
1070
    77
1070
     1
1070
   173
1070
     1
1070
   271
1070
     0
1070
   140
1040
4.0
1070
    41
1040
4.0
1002
}
  0
DIMENSION
  5
128C
330
1F
100
AcDbEntity
  8
KOTY
100
AcDbDimension
  2
*D40
 10
72.5
 20
112.1978776146186
 30
0.0
 11
31.25
 21
115.2398776146186
 31
0.0
 70
    32
  3
STANDARD
100
AcDbAlignedDimension
 13
-10.0
 23
71.6
 33
0.0
 14
72.5
 24
83.3
 34
0.0
100
AcDbRotatedDimension
1001
ACAD
1000
DSTYLE
1002
{
1070
   287
1070
     5
1070
     7
1000

1070
     6
1000

1070
     5
1000

1070
   271
1070
     0
1070
   140
1040
4.0
1070
    73
1070
     0
1070
    77
1070
     1
1070
   147
1040
1.0
1070
   173
1070
     1
1070
    41
1040
4.0
1070
   279
1070
     2
1002
}
  0
LINE
  5
128D
330
1F
100
AcDbEntity
  8
OBRYS
  6
HIDDEN
 62
     5
 48
8.0
100
AcDbLine
 10
34.00002989583507
 20
90.1
 30
0.0
 11
34.00002989583507
 21
83.1
 31
0.0
  0
LINE
  5
128E
330
1F
100
AcDbEntity
  8
OBRYS
  6
HIDDEN
 62
     5
 48
8.0
100
AcDbLine
 10
34.00002989583507
 20
83.1
 30
0.0
 11
36.00002989583507
 21
83.1
 31
0.0
  0
LINE
  5
128F
330
1F
100
AcDbEntity
  8
OBRYS
  6
HIDDEN
 62
     5
 48
8.0
100
AcDbLine
 10
36.00002989583507
 20
83.1
 30
0.0
 11
36.00002989583507
 21
90.1
 31
0.0
  0
DIMENSION
  5
1290
330
1F
100
AcDbEntity
  8
KOTY
 62
     1
100
AcDbDimension
  2
*D41
 10
66.5
 20
100.1
 30
0.0
 11
51.25001494791752
 21
100.1
 31
0.0
 70
   160
  3
STANDARD
100
AcDbAlignedDimension
 13
36.00002989583507
 23
90.1
 33
0.0
 14
66.5
 24
66.6
 34
0.0
100
AcDbRotatedDimension
1001
ACAD
1000
DSTYLE
1002
{
1070
   271
1070
     1
1070
   278
1070
    44
1070
   140
1040
4.0
1070
    77
1070
     1
1070
   147
1040
1.0
1070
    41
1040
4.0
1002
}
  0
ARC
  5
132F
330
1F
100
AcDbEntity
  8
OBRYS
100
AcDbCircle
 10
144.1345940125159
 20
56.23574042060616
 30
0.0
 40
0.5976956066420848
100
AcDbArc
 50
179.3146252346619
 51
270.7994935088489
  0
ARC
  5
1330
330
1F
100
AcDbEntity
  8
OBRYS
100
AcDbCircle
 10
143.423511165158
 20
55.52329375915727
 30
0.0
 40
0.6383054513142734
100
AcDbArc
 50
179.6055939084246
 51
270.4097607154941
  0
ARC
  5
1331
330
1F
100
AcDbEntity
  8
OBRYS
100
AcDbCircle
 10
144.1346015182412
 20
57.96431737280844
 30
0.0
 40
0.597703079825413
100
AcDbArc
 50
89.16820802694194
 51
180.6851096422357
  0
ARC
  5
1332
330
1F
100
AcDbEntity
  8
OBRYS
100
AcDbCircle
 10
143.4236565433473
 20
58.67662013178702
 30
0.0
 40
0.6384510032819078
100
AcDbArc
 50
89.60337953386042
 51
180.3966204661447
  0
ARC
  5
1333
330
1F
100
AcDbEntity
  8
OBRYS
100
AcDbCircle
 10
149.866775972411
 20
57.96645676006594
 30
0.0
 40
0.5955758188666053
100
AcDbArc
 50
359.0900360803889
 51
90.90996391962476
  0
ARC
  5
1334
330
1F
100
AcDbEntity
  8
OBRYS
100
AcDbCircle
 10
150.5763602974377
 20
58.67604108509269
 30
0.0
 40
0.6390262937611978
100
AcDbArc
 50
359.6556556322382
 51
90.34434436775666
  0
ARC
  5
1335
330
1F
100
AcDbEntity
  8
OBRYS
100
AcDbCircle
 10
149.8647784718131
 20
56.23423677710801
 30
0.0
 40
0.5975583946169784
100
AcDbArc
 50
269.2846013352388
 51
0.8132008250965573
  0
ARC
  5
1336
330
1F
100
AcDbEntity
  8
OBRYS
100
AcDbCircle
 10
150.5765059397425
 20
55.52387269686406
 30
0.0
 40
0.6388805009067713
100
AcDbArc
 50
269.6425153822457
 51
0.3421299938340494
  0
LINE
  5
1337
330
1F
100
AcDbEntity
  8
OBRYS
100
AcDbLine
 10
144.1346015182412
 20
58.56202045263385
 30
0.0
 11
149.8573175144172
 21
58.56195746837031
 31
0.0
  0
LINE
  5
1338
330
1F
100
AcDbEntity
  8
OBRYS
100
AcDbLine
 10
143.4280760785091
 20
59.3150558382608
 30
0.0
 11
150.5763602974377
 21
59.31506737885391
 31
0.0
  0
LINE
  5
1339
330
1F
100
AcDbEntity
  8
OBRYS
100
AcDbLine
 10
143.423511165158
 20
54.88498830784303
 30
0.0
 11
150.587366460913
 21
54.88498830784303
 31
0.0
  0
LINE
  5
133A
330
1F
100
AcDbEntity
  8
OBRYS
100
AcDbLine
 10
144.1345940125159
 20
55.63804481396406
 30
0.0
 11
149.8573175144172
 21
55.63672496208508
 31
0.0
  0
LINE
  5
133B
330
1F
100
AcDbEntity
  8
OBRYS
100
AcDbLine
 10
142.7852208368735
 20
55.52768761804558
 30
0.0
 11
142.7852055400654
 21
58.67662013178702
 31
0.0
  0
LINE
  5
133C
330
1F
100
AcDbEntity
  8
OBRYS
100
AcDbLine
 10
143.5369411676607
 20
56.24288991259837
 30
0.0
 11
143.5368984384158
 21
57.96431737280844
 31
0.0
  0
LINE
  5
133D
330
1F
100
AcDbEntity
  8
OBRYS
100
AcDbLine
 10
150.4622766807153
 20
56.24271765771053
 30
0.0
 11
150.4623517912776
 21
57.96645676006594
 31
0.0
  0
LINE
  5
133E
330
1F
100
AcDbEntity
  8
OBRYS
100
AcDbLine
 10
151.2153750506058
 20
55.52768761804558
 30
0.0
 11
151.2153865911988
 21
58.67604108509269
 31
0.0
  0
SPLINE
  5
133F
330
1F
100
AcDbEntity
  8
OBRYS
100
AcDbSpline
210
0.0
220
0.0
230
1.0
 70
     8
 71
     3
 72
     8
 73
     4
 74
     0
 42
0.0000000001
 43
0.0000000001
 40
0.0
 40
0.0
 40
0.0
 40
0.0
 40
1.0
 40
1.0
 40
1.0
 40
1.0
 10
152.0034101057072
 20
49.27014543679181
 30
0.0
 10
152.3892610545989
 20
49.65599638568349
 30
0.0
 10
152.6063022133505
 20
50.17965124489359
 30
0.0
 10
152.6063022133505
 20
50.7256992395306
 30
0.0
  0
SPLINE
  5
1340
330
1F
100
AcDbEntity
  8
OBRYS
100
AcDbSpline
210
0.0
220
0.0
230
1.0
 70
     8
 71
     3
 72
     8
 73
     4
 74
     0
 42
0.0000000001
 43
0.0000000001
 40
0.0
 40
0.0
 40
0.0
 40
0.0
 40
1.0
 40
1.0
 40
1.0
 40
1.0
 10
150.1747522157811
 20
47.44148754686569
 30
0.0
 10
149.8106053827645
 20
47.07734071384911
 30
0.0
 10
149.6063110857174
 20
46.58365820513319
 30
0.0
 10
149.6063110857174
 20
46.0689606000938
 30
0.0
  0
LWPOLYLINE
  5
1341
330
1F
100
AcDbEntity
  8
OBRYS
100
AcDbPolyline
 90
        2
 70
     0
 43
0.0
 10
152.0034101057072
 20
49.27014543679181
 10
150.1747522157811
 20
47.44148754686569
  0
LWPOLYLINE
  5
1342
330
1F
100
AcDbEntity
  8
OBRYS
100
AcDbPolyline
 90
        2
 70
     0
 43
0.0
 10
149.6063110857174
 20
46.0689606000938
 10
149.6063110857174
 20
26.6
  0
LWPOLYLINE
  5
1343
330
1F
100
AcDbEntity
  8
OBRYS
100
AcDbPolyline
 90
        2
 70
     0
 43
0.0
 10
152.6063022133505
 20
71.6
 10
152.6063022133505
 20
50.7256992395306
  0
ARC
  5
1345
330
1F
100
AcDbEntity
  8
OBRYS
100
AcDbCircle
 10
126.1345940125159
 20
56.23574042060616
 30
0.0
 40
0.5976956066420848
100
AcDbArc
 50
179.3146252346619
 51
270.7994935088489
  0
ARC
  5
1346
330
1F
100
AcDbEntity
  8
OBRYS
100
AcDbCircle
 10
125.423511165158
 20
55.52329375915727
 30
0.0
 40
0.6383054513142734
100
AcDbArc
 50
179.6055939084246
 51
270.4097607154941
  0
ARC
  5
1347
330
1F
100
AcDbEntity
  8
OBRYS
100
AcDbCircle
 10
126.1346015182412
 20
57.96431737280844
 30
0.0
 40
0.597703079825413
100
AcDbArc
 50
89.16820802694194
 51
180.6851096422357
  0
ARC
  5
1348
330
1F
100
AcDbEntity
  8
OBRYS
100
AcDbCircle
 10
125.4236565433473
 20
58.67662013178702
 30
0.0
 40
0.6384510032819078
100
AcDbArc
 50
89.60337953386042
 51
180.3966204661447
  0
ARC
  5
1349
330
1F
100
AcDbEntity
  8
OBRYS
100
AcDbCircle
 10
131.866775972411
 20
57.96645676006594
 30
0.0
 40
0.5955758188666053
100
AcDbArc
 50
359.0900360803889
 51
90.90996391962476
  0
ARC
  5
134A
330
1F
100
AcDbEntity
  8
OBRYS
100
AcDbCircle
 10
132.5763602974377
 20
58.67604108509269
 30
0.0
 40
0.6390262937611978
100
AcDbArc
 50
359.6556556322382
 51
90.34434436775666
  0
ARC
  5
134B
330
1F
100
AcDbEntity
  8
OBRYS
100
AcDbCircle
 10
131.8647784718131
 20
56.23423677710801
 30
0.0
 40
0.5975583946169784
100
AcDbArc
 50
269.2846013352388
 51
0.8132008250965573
  0
ARC
  5
134C
330
1F
100
AcDbEntity
  8
OBRYS
100
AcDbCircle
 10
132.5765059397425
 20
55.52387269686406
 30
0.0
 40
0.6388805009067713
100
AcDbArc
 50
269.6425153822457
 51
0.3421299938340494
  0
LINE
  5
134D
330
1F
100
AcDbEntity
  8
OBRYS
100
AcDbLine
 10
126.1346015182412
 20
58.56202045263385
 30
0.0
 11
131.8573175144172
 21
58.56195746837031
 31
0.0
  0
LINE
  5
134E
330
1F
100
AcDbEntity
  8
OBRYS
100
AcDbLine
 10
125.4280760785091
 20
59.3150558382608
 30
0.0
 11
132.5763602974377
 21
59.31506737885391
 31
0.0
  0
LINE
  5
134F
330
1F
100
AcDbEntity
  8
OBRYS
100
AcDbLine
 10
125.423511165158
 20
54.88498830784303
 30
0.0
 11
132.587366460913
 21
54.88498830784303
 31
0.0
  0
LINE
  5
1350
330
1F
100
AcDbEntity
  8
OBRYS
100
AcDbLine
 10
126.1345940125159
 20
55.63804481396406
 30
0.0
 11
131.8573175144172
 21
55.63672496208508
 31
0.0
  0
LINE
  5
1351
330
1F
100
AcDbEntity
  8
OBRYS
100
AcDbLine
 10
124.7852208368735
 20
55.52768761804558
 30
0.0
 11
124.7852055400654
 21
58.67662013178702
 31
0.0
  0
LINE
  5
1352
330
1F
100
AcDbEntity
  8
OBRYS
100
AcDbLine
 10
125.5369411676607
 20
56.24288991259837
 30
0.0
 11
125.5368984384158
 21
57.96431737280844
 31
0.0
  0
LINE
  5
1353
330
1F
100
AcDbEntity
  8
OBRYS
100
AcDbLine
 10
132.4622766807153
 20
56.24271765771053
 30
0.0
 11
132.4623517912776
 21
57.96645676006594
 31
0.0
  0
LINE
  5
1354
330
1F
100
AcDbEntity
  8
OBRYS
100
AcDbLine
 10
133.2153750506058
 20
55.52768761804558
 30
0.0
 11
133.2153865911988
 21
58.67604108509269
 31
0.0
  0
SPLINE
  5
1355
330
1F
100
AcDbEntity
  8
OBRYS
100
AcDbSpline
210
0.0
220
0.0
230
1.0
 70
     8
 71
     3
 72
     8
 73
     4
 74
     0
 42
0.0000000001
 43
0.0000000001
 40
0.0
 40
0.0
 40
0.0
 40
0.0
 40
1.0
 40
1.0
 40
1.0
 40
1.0
 10
134.0034101057072
 20
49.27014543679181
 30
0.0
 10
134.3892610545989
 20
49.65599638568349
 30
0.0
 10
134.6063022133505
 20
50.17965124489359
 30
0.0
 10
134.6063022133505
 20
50.7256992395306
 30
0.0
  0
SPLINE
  5
1356
330
1F
100
AcDbEntity
  8
OBRYS
100
AcDbSpline
210
0.0
220
0.0
230
1.0
 70
     8
 71
     3
 72
     8
 73
     4
 74
     0
 42
0.0000000001
 43
0.0000000001
 40
0.0
 40
0.0
 40
0.0
 40
0.0
 40
1.0
 40
1.0
 40
1.0
 40
1.0
 10
132.1747522157811
 20
47.44148754686569
 30
0.0
 10
131.8106053827645
 20
47.07734071384911
 30
0.0
 10
131.6063110857174
 20
46.58365820513319
 30
0.0
 10
131.6063110857174
 20
46.0689606000938
 30
0.0
  0
LWPOLYLINE
  5
1357
330
1F
100
AcDbEntity
  8
OBRYS
100
AcDbPolyline
 90
        2
 70
     0
 43
0.0
 10
134.0034101057072
 20
49.27014543679181
 10
132.1747522157811
 20
47.44148754686569
  0
LWPOLYLINE
  5
1358
330
1F
100
AcDbEntity
  8
OBRYS
100
AcDbPolyline
 90
        2
 70
     0
 43
0.0
 10
131.6063110857174
 20
46.0689606000938
 10
131.6063110857174
 20
26.6
  0
LWPOLYLINE
  5
1359
330
1F
100
AcDbEntity
  8
OBRYS
100
AcDbPolyline
 90
        2
 70
     0
 43
0.0
 10
134.6063022133505
 20
71.6
 10
134.6063022133505
 20
50.7256992395306
  0
VIEWPORT
  5
139D
330
1399
100
AcDbEntity
 67
     1
  8
0
100
AcDbViewport
 10
5.25
 20
3.5
 30
0.0
 40
12.6
 41
8.4
 68
     1
 69
     1
1001
ACAD
1000
MVIEW
1002
{
1070
    16
1010
0.0
1020
0.0
1030
0.0
1010
0.0
1020
0.0
1030
1.0
1040
0.0
1040
8.4
1040
5.25
1040
3.5
1040
50.0
1040
0.0
1040
0.0
1070
     0
1070
   100
1070
     0
1070
     3
1070
     0
1070
     0
1070
     0
1070
     0
1040
0.0
1040
0.0
1040
0.0
1040
0.5
1040
0.5
1040
0.0
1040
0.0
1070
     0
1002
{
1002
}
1002
}
  0
VIEWPORT
  5
139E
330
1399
100
AcDbEntity
 67
     1
  8
0
100
AcDbViewport
 10
5.25
 20
3.5
 30
0.0
 40
8.4
 41
5.600000000000001
 68
     2
 69
     2
1001
ACAD
1000
MVIEW
1002
{
1070
    16
1010
0.0
1020
0.0
1030
0.0
1010
0.0
1020
0.0
1030
1.0
1040
0.0
1040
139.9571499072914
1040
56.80473103625272
1040
48.68343158163265
1040
50.0
1040
0.0
1040
0.0
1070
     0
1070
   100
1070
     0
1070
     3
1070
     0
1070
     0
1070
     0
1070
     0
1040
0.0
1040
0.0
1040
0.0
1040
0.5
1040
0.5
1040
0.0
1040
0.0
1070
     0
1002
{
1002
}
1002
}
  0
ENDSEC
  0
SECTION
  2
OBJECTS
  0
DICTIONARY
  5
C
330
0
100
AcDbDictionary
  3
ACAD_DETAILVIEWSTYLE
350
77A
  3
ACAD_GROUP
350
D
  3
ACAD_IMAGE_VARS
350
DC
  3
ACAD_MLINESTYLE
350
17
  3
ACAD_SCALELIST
350
135D
  3
ACAD_SECTIONVIEWSTYLE
350
77B
  3
ACDBVARIABLEDICTIONARY
350
66
  3
APPDATA
350
E1
  3
DWGPROPS
350
139F
  0
DICTIONARY
  5
754
330
2
100
AcDbDictionary
280
     1
  3
ACAD_LAYERSTATES
360
75A
  3
ACLYDICTIONARY
360
794
  0
DICTIONARY
  5
77A
102
{ACAD_REACTORS
330
C
102
}
330
C
100
AcDbDictionary
  0
DICTIONARY
  5
D
102
{ACAD_REACTORS
330
C
102
}
330
C
100
AcDbDictionary
  0
RASTERVARIABLES
  5
DC
102
{ACAD_REACTORS
330
C
102
}
330
C
100
AcDbRasterVariables
 90
        0
 70
     1
 71
     1
 72
     5
  0
DICTIONARY
  5
17
102
{ACAD_REACTORS
330
C
102
}
330
C
100
AcDbDictionary
  3
STANDARD
350
18
  0
DICTIONARY
  5
135D
102
{ACAD_REACTORS
330
C
102
}
330
C
100
AcDbDictionary
  0
DICTIONARY
  5
77B
102
{ACAD_REACTORS
330
C
102
}
330
C
100
AcDbDictionary
  0
DICTIONARY
  5
66
102
{ACAD_REACTORS
330
C
102
}
330
C
100
AcDbDictionary
  3
CANNOSCALE
350
13A0
  3
DIMASSOC
350
67
  3
HIDETEXT
350
6B
  0
DICTIONARY
  5
E1
102
{ACAD_REACTORS
330
C
102
}
330
C
100
AcDbDictionary
  0
XRECORD
  5
139F
102
{ACAD_REACTORS
330
C
102
}
330
C
100
AcDbXrecord
  1
DWGPROPS COOKIE
  2

  3

  4

  6

  7

  8
jaromir.podrabsky
  9

300
=
301
=
302
=
303
=
304
=
305
=
306
=
307
=
308
=
309
=
 40
0.0
 41
2452643.021717593
 42
2458213.395891354
  1

 90
        0
  0
DICTIONARY
  5
75A
102
{ACAD_REACTORS
330
754
102
}
330
754
100
AcDbDictionary
  0
DICTIONARY
  5
794
102
{ACAD_REACTORS
330
754
102
}
330
754
100
AcDbDictionary
1001
ACAD
1000
<All
  0
MLINESTYLE
  5
18
102
{ACAD_REACTORS
330
17
102
}
330
17
100
AcDbMlineStyle
  2
STANDARD
 70
     0
  3

 62
   256
 51
90.0
 52
90.0
 71
     2
 49
0.5
 62
   256
  6
BYLAYER
 49
-0.5
 62
   256
  6
BYLAYER
  0
DICTIONARYVAR
  5
13A0
102
{ACAD_REACTORS
330
66
102
}
330
66
100
DictionaryVariables
280
     0
  1
1:1
  0
DICTIONARYVAR
  5
67
102
{ACAD_REACTORS
330
66
102
}
330
66
100
DictionaryVariables
280
     0
  1
2
  0
DICTIONARYVAR
  5
6B
102
{ACAD_REACTORS
330
66
102
}
330
66
100
DictionaryVariables
280
     0
  1
1
  0
ENDSEC
  0
EOF
