  0
SECTION
  2
HEADER
  9
$ACADVER
  1
AC1014
  9
$ACADMAINTVER
 70
     9
  9
$DWGCODEPAGE
  3
ANSI_1250
  9
$INSBASE
 10
0.0
 20
0.0
 30
0.0
  9
$EXTMIN
 10
306.4576136542384
 20
122.1358462391053
 30
0.0
  9
$EXTMAX
 10
473.3426095781108
 20
249.8874714153149
 30
0.0
  9
$LIMMIN
 10
0.0
 20
0.0
  9
$LIMMAX
 10
12.0
 20
9.0
  9
$ORTHOMODE
 70
     0
  9
$REGENMODE
 70
     1
  9
$FILLMODE
 70
     1
  9
$QTEXTMODE
 70
     0
  9
$MIRRTEXT
 70
     0
  9
$DRAGMODE
 70
     2
  9
$LTSCALE
 40
1.0
  9
$OSMODE
 70
   511
  9
$ATTMODE
 70
     1
  9
$TEXTSIZE
 40
0.2
  9
$TRACEWID
 40
0.05
  9
$TEXTSTYLE
  7
STANDARD
  9
$CLAYER
  8
KOTY
  9
$CELTYPE
  6
BYLAYER
  9
$CECOLOR
 62
   256
  9
$CELTSCALE
 40
1.0
  9
$DELOBJ
 70
     1
  9
$DISPSILH
 70
     0
  9
$DIMSCALE
 40
1.0
  9
$DIMASZ
 40
0.18
  9
$DIMEXO
 40
0.0625
  9
$DIMDLI
 40
0.38
  9
$DIMRND
 40
0.0
  9
$DIMDLE
 40
0.0
  9
$DIMEXE
 40
0.18
  9
$DIMTP
 40
0.0
  9
$DIMTM
 40
0.0
  9
$DIMTXT
 40
0.18
  9
$DIMCEN
 40
0.09
  9
$DIMTSZ
 40
0.0
  9
$DIMTOL
 70
     0
  9
$DIMLIM
 70
     0
  9
$DIMTIH
 70
     1
  9
$DIMTOH
 70
     1
  9
$DIMSE1
 70
     0
  9
$DIMSE2
 70
     0
  9
$DIMTAD
 70
     0
  9
$DIMZIN
 70
     0
  9
$DIMBLK
  1

  9
$DIMASO
 70
     1
  9
$DIMSHO
 70
     1
  9
$DIMPOST
  1

  9
$DIMAPOST
  1

  9
$DIMALT
 70
     0
  9
$DIMALTD
 70
     2
  9
$DIMALTF
 40
25.4
  9
$DIMLFAC
 40
1.0
  9
$DIMTOFL
 70
     0
  9
$DIMTVP
 40
0.0
  9
$DIMTIX
 70
     0
  9
$DIMSOXD
 70
     0
  9
$DIMSAH
 70
     0
  9
$DIMBLK1
  1

  9
$DIMBLK2
  1

  9
$DIMSTYLE
  2
STANDARD
  9
$DIMCLRD
 70
     0
  9
$DIMCLRE
 70
     0
  9
$DIMCLRT
 70
     0
  9
$DIMTFAC
 40
1.0
  9
$DIMGAP
 40
0.09
  9
$DIMJUST
 70
     0
  9
$DIMSD1
 70
     0
  9
$DIMSD2
 70
     0
  9
$DIMTOLJ
 70
     1
  9
$DIMTZIN
 70
     0
  9
$DIMALTZ
 70
     0
  9
$DIMALTTZ
 70
     0
  9
$DIMFIT
 70
     5
  9
$DIMUPT
 70
     0
  9
$DIMUNIT
 70
     2
  9
$DIMDEC
 70
     4
  9
$DIMTDEC
 70
     4
  9
$DIMALTU
 70
     2
  9
$DIMALTTD
 70
     2
  9
$DIMTXSTY
  7
STANDARD
  9
$DIMAUNIT
 70
     0
  9
$LUNITS
 70
     2
  9
$LUPREC
 70
     4
  9
$SKETCHINC
 40
0.1
  9
$FILLETRAD
 40
0.0
  9
$AUNITS
 70
     0
  9
$AUPREC
 70
     0
  9
$MENU
  1
.
  9
$ELEVATION
 40
0.0
  9
$PELEVATION
 40
0.0
  9
$THICKNESS
 40
0.0
  9
$LIMCHECK
 70
     0
  9
$CHAMFERA
 40
0.0
  9
$CHAMFERB
 40
0.0
  9
$CHAMFERC
 40
0.0
  9
$CHAMFERD
 40
0.0
  9
$SKPOLY
 70
     0
  9
$TDCREATE
 40
2452643.105050926
  9
$TDUPDATE
 40
2457213.585221979
  9
$TDINDWG
 40
0.3612673148
  9
$TDUSRTIMER
 40
2457213.500846505
  9
$USRTIMER
 70
     1
  9
$ANGBASE
 50
0.0
  9
$ANGDIR
 70
     0
  9
$PDMODE
 70
     0
  9
$PDSIZE
 40
0.0
  9
$PLINEWID
 40
0.0
  9
$COORDS
 70
     1
  9
$SPLFRAME
 70
     0
  9
$SPLINETYPE
 70
     6
  9
$SPLINESEGS
 70
     8
  9
$ATTDIA
 70
     0
  9
$ATTREQ
 70
     1
  9
$HANDLING
 70
     1
  9
$HANDSEED
  5
2086
  9
$SURFTAB1
 70
     6
  9
$SURFTAB2
 70
     6
  9
$SURFTYPE
 70
     6
  9
$SURFU
 70
     6
  9
$SURFV
 70
     6
  9
$UCSNAME
  2

  9
$UCSORG
 10
0.0
 20
0.0
 30
0.0
  9
$UCSXDIR
 10
1.0
 20
0.0
 30
0.0
  9
$UCSYDIR
 10
0.0
 20
1.0
 30
0.0
  9
$PUCSNAME
  2

  9
$PUCSORG
 10
0.0
 20
0.0
 30
0.0
  9
$PUCSXDIR
 10
1.0
 20
0.0
 30
0.0
  9
$PUCSYDIR
 10
0.0
 20
1.0
 30
0.0
  9
$USERI1
 70
     0
  9
$USERI2
 70
     0
  9
$USERI3
 70
     0
  9
$USERI4
 70
     0
  9
$USERI5
 70
     0
  9
$USERR1
 40
0.0
  9
$USERR2
 40
0.0
  9
$USERR3
 40
0.0
  9
$USERR4
 40
0.0
  9
$USERR5
 40
0.0
  9
$WORLDVIEW
 70
     1
  9
$SHADEDGE
 70
     3
  9
$SHADEDIF
 70
    70
  9
$TILEMODE
 70
     0
  9
$MAXACTVP
 70
    64
  9
$PINSBASE
 10
0.0
 20
0.0
 30
0.0
  9
$PLIMCHECK
 70
     0
  9
$PEXTMIN
 10
1.05
 20
0.7999999999999998
 30
0.0
  9
$PEXTMAX
 10
9.45
 20
7.2
 30
0.0
  9
$PLIMMIN
 10
0.8214285714285712
 20
0.1142857142857141
  9
$PLIMMAX
 10
10.87857142857143
 20
7.885714285714286
  9
$UNITMODE
 70
     0
  9
$VISRETAIN
 70
     1
  9
$PLINEGEN
 70
     0
  9
$PSLTSCALE
 70
     1
  9
$TREEDEPTH
 70
  3020
  9
$PICKSTYLE
 70
     1
  9
$CMLSTYLE
  2
STANDARD
  9
$CMLJUST
 70
     0
  9
$CMLSCALE
 40
1.0
  9
$PROXYGRAPHICS
 70
     1
  9
$MEASUREMENT
 70
     0
  0
ENDSEC
  0
SECTION
  2
CLASSES
  0
CLASS
  1
ACDBDICTIONARYWDFLT
  2
AcDbDictionaryWithDefault
  3
ObjectDBX Classes
 90
        0
280
     0
281
     0
  0
CLASS
  1
ACDBPLACEHOLDER
  2
AcDbPlaceHolder
  3
ObjectDBX Classes
 90
        0
280
     0
281
     0
  0
CLASS
  1
LAYOUT
  2
AcDbLayout
  3
ObjectDBX Classes
 90
        0
280
     0
281
     0
  0
CLASS
  1
DICTIONARYVAR
  2
AcDbDictionaryVar
  3
ObjectDBX Classes
 90
        0
280
     0
281
     0
  0
CLASS
  1
TABLESTYLE
  2
AcDbTableStyle
  3
ObjectDBX Classes
 90
     4095
280
     0
281
     0
  0
CLASS
  1
MATERIAL
  2
AcDbMaterial
  3
ObjectDBX Classes
 90
     1153
280
     0
281
     0
  0
CLASS
  1
VISUALSTYLE
  2
AcDbVisualStyle
  3
ObjectDBX Classes
 90
     4095
280
     0
281
     0
  0
CLASS
  1
SCALE
  2
AcDbScale
  3
ObjectDBX Classes
 90
     1153
280
     0
281
     0
  0
CLASS
  1
CELLSTYLEMAP
  2
AcDbCellStyleMap
  3
ObjectDBX Classes
 90
     1152
280
     0
281
     0
  0
CLASS
  1
RASTERVARIABLES
  2
AcDbRasterVariables
  3
ISM
 90
        0
280
     0
281
     0
  0
CLASS
  1
SUN
  2
AcDbSun
  3
SCENEOE
 90
     1153
280
     0
281
     0
  0
CLASS
  1
DIMASSOC
  2
AcDbDimAssoc
  3
"AcDbDimAssoc|Product Desc:     AcDim ARX App For Dimension|Company:          Autodesk, Inc.|WEB Address:      www.autodesk.com"
 90
        0
280
     0
281
     0
  0
CLASS
  1
XRECORD
  2
AcDbXrecord
  3
ObjectDBX Classes
 90
        0
280
     0
281
     0
  0
CLASS
  1
LWPOLYLINE
  2
AcDbPolyline
  3
ObjectDBX Classes
 90
        0
280
     0
281
     1
  0
CLASS
  1
HATCH
  2
AcDbHatch
  3
ObjectDBX Classes
 90
        0
280
     0
281
     1
  0
CLASS
  1
MLEADERSTYLE
  2
AcDbMLeaderStyle
  3
ACDB_MLEADERSTYLE_CLASS
 90
     4095
280
     0
281
     0
  0
ENDSEC
  0
SECTION
  2
TABLES
  0
TABLE
  2
VPORT
  5
8
330
0
100
AcDbSymbolTable
 70
     1
  0
VPORT
  5
94
330
8
100
AcDbSymbolTableRecord
100
AcDbViewportTableRecord
  2
*ACTIVE
 70
     0
 10
0.0
 20
0.0
 11
1.0
 21
1.0
 12
420.5109241365182
 22
205.8106460958808
 13
0.0
 23
0.0
 14
0.5
 24
0.5
 15
0.5
 25
0.5
 16
0.0
 26
0.0
 36
1.0
 17
-27.66959356598278
 27
-19.53870295786226
 37
0.0
 40
135.8699220658635
 41
1.994628469113697
 42
50.0
 43
0.0
 44
0.0
 50
0.0
 51
0.0
 71
    16
 72
  1000
 73
     1
 74
     3
 75
     0
 76
     0
 77
     0
 78
     0
  0
ENDTAB
  0
TABLE
  2
LTYPE
  5
5
330
0
100
AcDbSymbolTable
 70
     1
  0
LTYPE
  5
14
330
5
100
AcDbSymbolTableRecord
100
AcDbLinetypeTableRecord
  2
BYBLOCK
 70
     0
  3

 72
    65
 73
     0
 40
0.0
  0
LTYPE
  5
15
330
5
100
AcDbSymbolTableRecord
100
AcDbLinetypeTableRecord
  2
BYLAYER
 70
     0
  3

 72
    65
 73
     0
 40
0.0
  0
LTYPE
  5
16
330
5
100
AcDbSymbolTableRecord
100
AcDbLinetypeTableRecord
  2
CONTINUOUS
 70
     0
  3
Solid line
 72
    65
 73
     0
 40
0.0
  0
ENDTAB
  0
TABLE
  2
LAYER
  5
2
102
{ACAD_XDICTIONARY
360
1326
102
}
330
0
100
AcDbSymbolTable
 70
     5
  0
LAYER
  5
10
330
2
100
AcDbSymbolTableRecord
100
AcDbLayerTableRecord
  2
0
 70
     0
 62
     7
  6
CONTINUOUS
  0
LAYER
  5
125
330
2
100
AcDbSymbolTableRecord
100
AcDbLayerTableRecord
  2
1
 70
     0
 62
     7
  6
CONTINUOUS
  0
LAYER
  5
2D3
330
2
100
AcDbSymbolTableRecord
100
AcDbLayerTableRecord
  2
DEFPOINTS
 70
     0
 62
     7
  6
CONTINUOUS
  0
LAYER
  5
132B
330
2
100
AcDbSymbolTableRecord
100
AcDbLayerTableRecord
  2
OBRYS
 70
     0
 62
     5
  6
CONTINUOUS
1001
ACAECLAYERSTANDARD
1000

1000

  0
LAYER
  5
132D
330
2
100
AcDbSymbolTableRecord
100
AcDbLayerTableRecord
  2
KOTY
 70
     0
 62
     1
  6
CONTINUOUS
1001
ACAECLAYERSTANDARD
1000

1000

  0
ENDTAB
  0
TABLE
  2
STYLE
  5
3
330
0
100
AcDbSymbolTable
 70
     2
  0
STYLE
  5
11
330
3
100
AcDbSymbolTableRecord
100
AcDbTextStyleTableRecord
  2
STANDARD
 70
     0
 40
0.0
 41
1.0
 50
0.0
 71
     0
 42
0.2
  3
arial.ttf
  4

1001
ACAD
1000
Arial
1071
        0
  0
STYLE
  5
129
330
3
100
AcDbSymbolTableRecord
100
AcDbTextStyleTableRecord
  2
ARIAL
 70
     0
 40
0.0
 41
1.0
 50
0.0
 71
     0
 42
0.2
  3
Arial
  4

1001
ACAD
1000
Arial
1071
        0
  0
ENDTAB
  0
TABLE
  2
VIEW
  5
6
330
0
100
AcDbSymbolTable
 70
     0
  0
ENDTAB
  0
TABLE
  2
UCS
  5
7
330
0
100
AcDbSymbolTable
 70
     0
  0
ENDTAB
  0
TABLE
  2
APPID
  5
9
330
0
100
AcDbSymbolTable
 70
     2
  0
APPID
  5
12
330
9
100
AcDbSymbolTableRecord
100
AcDbRegAppTableRecord
  2
ACAD
 70
     0
  0
APPID
  5
132C
330
9
100
AcDbSymbolTableRecord
100
AcDbRegAppTableRecord
  2
ACAECLAYERSTANDARD
 70
     0
  0
ENDTAB
  0
TABLE
  2
DIMSTYLE
  5
A
330
0
100
AcDbSymbolTable
 70
     1
  0
DIMSTYLE
105
27
102
{ACAD_REACTORS
330
1330
330
1340
330
1350
330
1360
330
1370
330
1380
330
202A
102
}
330
A
100
AcDbSymbolTableRecord
100
AcDbDimStyleTableRecord
  2
STANDARD
 70
     0
  3

  4

  5

  6

  7

 40
1.0
 41
0.18
 42
0.0625
 43
0.38
 44
0.18
 45
0.0
 46
0.0
 47
0.0
 48
0.0
140
0.18
141
0.09
142
0.0
143
25.4
144
1.0
145
0.0
146
1.0
147
0.09
 71
     0
 72
     0
 73
     1
 74
     1
 75
     0
 76
     0
 77
     0
 78
     0
170
     0
171
     2
172
     0
173
     0
174
     0
175
     0
176
     0
177
     0
178
     0
270
     2
271
     4
272
     4
273
     2
274
     2
340
11
275
     0
280
     0
281
     0
282
     0
283
     1
284
     0
285
     0
286
     0
287
     3
288
     0
  0
ENDTAB
  0
TABLE
  2
BLOCK_RECORD
  5
1
330
0
100
AcDbSymbolTable
 70
    18
  0
BLOCK_RECORD
  5
1F
330
1
100
AcDbSymbolTableRecord
100
AcDbBlockTableRecord
  2
*MODEL_SPACE
  0
BLOCK_RECORD
  5
13A3
330
1
100
AcDbSymbolTableRecord
100
AcDbBlockTableRecord
  2
*PAPER_SPACE
  0
BLOCK_RECORD
  5
296
330
1
100
AcDbSymbolTableRecord
100
AcDbBlockTableRecord
  2
DIMNDRAFT3D1
  0
BLOCK_RECORD
  5
2A0
330
1
100
AcDbSymbolTableRecord
100
AcDbBlockTableRecord
  2
DIMNDRAFT3D2
  0
BLOCK_RECORD
  5
2AA
330
1
100
AcDbSymbolTableRecord
100
AcDbBlockTableRecord
  2
DIMNDRAFT3D3
  0
BLOCK_RECORD
  5
2B4
330
1
100
AcDbSymbolTableRecord
100
AcDbBlockTableRecord
  2
DIMNDRAFT3D55
  0
BLOCK_RECORD
  5
2BE
330
1
100
AcDbSymbolTableRecord
100
AcDbBlockTableRecord
  2
DIMNDRAFT3D11
  0
BLOCK_RECORD
  5
2C8
330
1
100
AcDbSymbolTableRecord
100
AcDbBlockTableRecord
  2
DIMNDRAFT3D12
  0
BLOCK_RECORD
  5
B7F
330
1
100
AcDbSymbolTableRecord
100
AcDbBlockTableRecord
  2
DIMNDRAFT3D16
  0
BLOCK_RECORD
  5
1333
330
1
100
AcDbSymbolTableRecord
100
AcDbBlockTableRecord
  2
*D7
  0
BLOCK_RECORD
  5
1343
330
1
100
AcDbSymbolTableRecord
100
AcDbBlockTableRecord
  2
*D8
  0
BLOCK_RECORD
  5
1353
330
1
100
AcDbSymbolTableRecord
100
AcDbBlockTableRecord
  2
*D9
  0
BLOCK_RECORD
  5
1363
330
1
100
AcDbSymbolTableRecord
100
AcDbBlockTableRecord
  2
*D10
  0
BLOCK_RECORD
  5
1373
330
1
100
AcDbSymbolTableRecord
100
AcDbBlockTableRecord
  2
*D11
  0
BLOCK_RECORD
  5
1383
330
1
100
AcDbSymbolTableRecord
100
AcDbBlockTableRecord
  2
*D12
  0
BLOCK_RECORD
  5
198F
330
1
100
AcDbSymbolTableRecord
100
AcDbBlockTableRecord
  2
DIMNDRAFT3D6
  0
BLOCK_RECORD
  5
1F90
330
1
100
AcDbSymbolTableRecord
100
AcDbBlockTableRecord
  2
*D14
  0
BLOCK_RECORD
  5
200C
330
1
100
AcDbSymbolTableRecord
100
AcDbBlockTableRecord
  2
*D15
  0
BLOCK_RECORD
  5
201C
330
1
100
AcDbSymbolTableRecord
100
AcDbBlockTableRecord
  2
*D16
  0
BLOCK_RECORD
  5
202D
330
1
100
AcDbSymbolTableRecord
100
AcDbBlockTableRecord
  2
*D17
  0
ENDTAB
  0
ENDSEC
  0
SECTION
  2
BLOCKS
  0
BLOCK
  5
20
330
1F
100
AcDbEntity
  8
0
100
AcDbBlockBegin
  2
*MODEL_SPACE
 70
     0
 10
0.0
 20
0.0
 30
0.0
  3
*MODEL_SPACE
  1

  0
ENDBLK
  5
21
330
1F
100
AcDbEntity
  8
0
100
AcDbBlockEnd
  0
BLOCK
  5
13A5
330
13A3
100
AcDbEntity
 67
     1
  8
0
100
AcDbBlockBegin
  2
*PAPER_SPACE
 70
     0
 10
0.0
 20
0.0
 30
0.0
  3
*PAPER_SPACE
  1

  0
ENDBLK
  5
13A6
330
13A3
100
AcDbEntity
 67
     1
  8
0
100
AcDbBlockEnd
  0
BLOCK
  5
297
330
296
100
AcDbEntity
  8
0
100
AcDbBlockBegin
  2
DIMNDRAFT3D1
 70
     0
 10
0.0
 20
0.0
 30
0.0
  3
DIMNDRAFT3D1
  1
DimnDraft3D1
  0
LINE
  5
298
330
296
100
AcDbEntity
  8
1
  6
CONTINUOUS
 62
    18
100
AcDbLine
 10
32.49685266666667
 20
53.453898
 30
0.0
 11
32.49685266666667
 21
0.0
 31
0.0
  0
LINE
  5
299
330
296
100
AcDbEntity
  8
1
  6
CONTINUOUS
 62
    18
100
AcDbLine
 10
98.79685266666667
 20
57.3539
 30
0.0
 11
98.79685266666667
 21
0.0
 31
0.0
  0
LINE
  5
29A
330
296
100
AcDbEntity
  8
1
  6
CONTINUOUS
 62
    18
100
AcDbLine
 10
35.99685266666667
 20
1.0
 30
0.0
 11
95.29685266666667
 21
1.0
 31
0.0
  0
SOLID
  5
29B
330
296
100
AcDbEntity
  8
1
 62
    18
100
AcDbTrace
 10
35.99685266666667
 20
1.583333333333333
 30
0.0
 11
35.99685266666667
 21
0.4166666666666666
 31
0.0
 12
32.49685266666667
 22
1.0
 32
0.0
 13
32.49685266666667
 23
1.0
 33
0.0
  0
SOLID
  5
29C
330
296
100
AcDbEntity
  8
1
 62
    18
100
AcDbTrace
 10
95.29685266666667
 20
0.4166666666666666
 30
0.0
 11
95.29685266666667
 21
1.583333333333333
 31
0.0
 12
98.79685266666667
 22
1.0
 32
0.0
 13
98.79685266666667
 23
1.0
 33
0.0
  0
MTEXT
  5
29D
330
296
100
AcDbEntity
  8
1
 62
    18
100
AcDbMText
 10
65.64685266666666
 20
6.0525
 30
0.0
 40
5.0
 41
0.0
 71
     5
 72
     1
  1
\A1;\C18;66
  7
ARIAL
  0
POINT
  5
2D4
330
296
100
AcDbEntity
  8
DEFPOINTS
 62
     0
100
AcDbPoint
 10
32.49685266666667
 20
53.453898
 30
0.0
  0
POINT
  5
2D5
330
296
100
AcDbEntity
  8
DEFPOINTS
 62
     0
100
AcDbPoint
 10
98.79685266666667
 20
57.3539
 30
0.0
  0
POINT
  5
2D6
330
296
100
AcDbEntity
  8
DEFPOINTS
 62
     0
100
AcDbPoint
 10
98.79685266666667
 20
1.0
 30
0.0
  0
ENDBLK
  5
29E
330
296
100
AcDbEntity
  8
0
100
AcDbBlockEnd
  0
BLOCK
  5
2A1
330
2A0
100
AcDbEntity
  8
0
100
AcDbBlockBegin
  2
DIMNDRAFT3D2
 70
     0
 10
0.0
 20
0.0
 30
0.0
  3
DIMNDRAFT3D2
  1
DimnDraft3D2
  0
LINE
  5
2A2
330
2A0
100
AcDbEntity
  8
1
  6
CONTINUOUS
 62
    18
100
AcDbLine
 10
60.90518166666666
 20
120.653898
 30
0.0
 11
6.706473666666674
 21
120.653898
 31
0.0
  0
LINE
  5
2A3
330
2A0
100
AcDbEntity
  8
1
  6
CONTINUOUS
 62
    18
100
AcDbLine
 10
60.90518166666666
 20
30.853898
 30
0.0
 11
6.706473666666668
 21
30.853898
 31
0.0
  0
LINE
  5
2A4
330
2A0
100
AcDbEntity
  8
1
  6
CONTINUOUS
 62
    18
100
AcDbLine
 10
7.706473666666674
 20
117.153898
 30
0.0
 11
7.706473666666668
 21
34.353898
 31
0.0
  0
SOLID
  5
2A5
330
2A0
100
AcDbEntity
  8
1
 62
    18
100
AcDbTrace
 10
8.289807000000007
 20
117.153898
 30
0.0
 11
7.123140333333341
 21
117.153898
 31
0.0
 12
7.706473666666674
 22
120.653898
 32
0.0
 13
7.706473666666674
 23
120.653898
 33
0.0
  0
SOLID
  5
2A6
330
2A0
100
AcDbEntity
  8
1
 62
    18
100
AcDbTrace
 10
7.123140333333335
 20
34.353898
 30
0.0
 11
8.289807000000001
 21
34.353898
 31
0.0
 12
7.706473666666668
 22
30.853898
 32
0.0
 13
7.706473666666668
 23
30.853898
 33
0.0
  0
MTEXT
  5
2A7
330
2A0
100
AcDbEntity
  8
1
 62
    18
100
AcDbMText
 10
2.653973666666676
 20
75.753898
 30
0.0
 40
5.0
 41
0.0
 71
     5
 72
     1
  1
\A1;\C18;90
  7
ARIAL
 11
5.934376969043154E-17
 21
1.0
 31
0.0
  0
POINT
  5
2D7
330
2A0
100
AcDbEntity
  8
DEFPOINTS
 62
     0
100
AcDbPoint
 10
60.90518166666666
 20
120.653898
 30
0.0
  0
POINT
  5
2D8
330
2A0
100
AcDbEntity
  8
DEFPOINTS
 62
     0
100
AcDbPoint
 10
60.90518166666666
 20
30.853898
 30
0.0
  0
POINT
  5
2D9
330
2A0
100
AcDbEntity
  8
DEFPOINTS
 62
     0
100
AcDbPoint
 10
7.706473666666671
 20
30.853898
 30
0.0
  0
ENDBLK
  5
2A8
330
2A0
100
AcDbEntity
  8
0
100
AcDbBlockEnd
  0
BLOCK
  5
2AB
330
2AA
100
AcDbEntity
  8
0
100
AcDbBlockBegin
  2
DIMNDRAFT3D3
 70
     0
 10
0.0
 20
0.0
 30
0.0
  3
DIMNDRAFT3D3
  1
DimnDraft3D3
  0
LINE
  5
2AC
330
2AA
100
AcDbEntity
  8
1
  6
CONTINUOUS
 62
    18
100
AcDbLine
 10
32.69685266666667
 20
98.253898
 30
0.0
 11
18.32787566666667
 21
98.253898
 31
0.0
  0
LINE
  5
2AD
330
2AA
100
AcDbEntity
  8
1
  6
CONTINUOUS
 62
    18
100
AcDbLine
 10
32.69685266666667
 20
53.25389800000001
 30
0.0
 11
18.32787566666666
 21
53.25389800000001
 31
0.0
  0
LINE
  5
2AE
330
2AA
100
AcDbEntity
  8
1
  6
CONTINUOUS
 62
    18
100
AcDbLine
 10
19.32787566666667
 20
94.753898
 30
0.0
 11
19.32787566666666
 21
56.75389800000001
 31
0.0
  0
SOLID
  5
2AF
330
2AA
100
AcDbEntity
  8
1
 62
    18
100
AcDbTrace
 10
19.911209
 20
94.753898
 30
0.0
 11
18.74454233333334
 21
94.753898
 31
0.0
 12
19.32787566666667
 22
98.253898
 32
0.0
 13
19.32787566666667
 23
98.253898
 33
0.0
  0
SOLID
  5
2B0
330
2AA
100
AcDbEntity
  8
1
 62
    18
100
AcDbTrace
 10
18.74454233333333
 20
56.75389800000001
 30
0.0
 11
19.911209
 21
56.75389800000001
 31
0.0
 12
19.32787566666666
 22
53.25389800000001
 32
0.0
 13
19.32787566666666
 23
53.25389800000001
 33
0.0
  0
MTEXT
  5
2B1
330
2AA
100
AcDbEntity
  8
1
 62
    18
100
AcDbMText
 10
14.28537566666666
 20
75.753898
 30
0.0
 40
5.0
 41
0.0
 71
     5
 72
     1
  1
\A1;\C18;45
  7
ARIAL
 11
7.894919286223336E-17
 21
1.0
 31
0.0
  0
POINT
  5
2DA
330
2AA
100
AcDbEntity
  8
DEFPOINTS
 62
     0
100
AcDbPoint
 10
32.69685266666667
 20
98.253898
 30
0.0
  0
POINT
  5
2DB
330
2AA
100
AcDbEntity
  8
DEFPOINTS
 62
     0
100
AcDbPoint
 10
32.69685266666667
 20
53.25389800000001
 30
0.0
  0
POINT
  5
2DC
330
2AA
100
AcDbEntity
  8
DEFPOINTS
 62
     0
100
AcDbPoint
 10
19.32787566666667
 20
53.25389800000001
 30
0.0
  0
ENDBLK
  5
2B2
330
2AA
100
AcDbEntity
  8
0
100
AcDbBlockEnd
  0
BLOCK
  5
2B5
330
2B4
100
AcDbEntity
  8
0
100
AcDbBlockBegin
  2
DIMNDRAFT3D55
 70
     0
 10
0.0
 20
0.0
 30
0.0
  3
DIMNDRAFT3D55
  1
DimnDraft3D55
  0
LINE
  5
2B6
330
2B4
100
AcDbEntity
  8
1
  6
CONTINUOUS
 62
    18
100
AcDbLine
 10
119.777952
 20
103.078986
 30
0.0
 11
138.244735
 21
103.078986
 31
0.0
  0
LINE
  5
2B7
330
2B4
100
AcDbEntity
  8
1
  6
CONTINUOUS
 62
    18
100
AcDbLine
 10
121.104381
 20
196.47525
 30
0.0
 11
138.244735
 21
196.47525
 31
0.0
  0
LINE
  5
2B8
330
2B4
100
AcDbEntity
  8
1
  6
CONTINUOUS
 62
    18
100
AcDbLine
 10
137.244735
 20
103.078986
 30
0.0
 11
137.244735
 21
196.47525
 31
0.0
  0
SOLID
  5
2B9
330
2B4
100
AcDbEntity
  8
1
  6
CONTINUOUS
 62
    18
100
AcDbTrace
 10
137.244735
 20
103.078986
 30
0.0
 11
136.306912
 21
106.578982
 31
0.0
 12
138.182557
 22
106.578989
 32
0.0
 13
137.244735
 23
103.078986
 33
0.0
  0
SOLID
  5
2BA
330
2B4
100
AcDbEntity
  8
1
  6
CONTINUOUS
 62
    18
100
AcDbTrace
 10
137.244735
 20
196.47525
 30
0.0
 11
138.182557
 21
192.975254
 31
0.0
 12
136.306912
 22
192.975247
 32
0.0
 13
137.244735
 23
196.47525
 33
0.0
  0
MTEXT
  5
2BB
330
2B4
100
AcDbEntity
  8
1
  6
CONTINUOUS
 62
    18
100
AcDbMText
 10
136.224928
 20
147.392398
 30
0.0
 40
5.0
 41
0.0
 71
     7
 72
     5
  1
\W1.0000;94
  7
ARIAL
 11
6.123233995736766E-17
 21
1.0
 31
0.0
  0
ENDBLK
  5
2BC
330
2B4
100
AcDbEntity
  8
0
100
AcDbBlockEnd
  0
BLOCK
  5
2BF
330
2BE
100
AcDbEntity
  8
0
100
AcDbBlockBegin
  2
DIMNDRAFT3D11
 70
     0
 10
0.0
 20
0.0
 30
0.0
  3
DIMNDRAFT3D11
  1
DimnDraft3D11
  0
LINE
  5
2C0
330
2BE
100
AcDbEntity
  8
1
  6
CONTINUOUS
 62
    18
100
AcDbLine
 10
98.79685266666667
 20
57.3539
 30
0.0
 11
98.79685266666667
 21
11.670469
 31
0.0
  0
LINE
  5
2C1
330
2BE
100
AcDbEntity
  8
1
  6
CONTINUOUS
 62
    18
100
AcDbLine
 10
54.79685266666667
 20
34.469133
 30
0.0
 11
54.79685266666667
 21
11.670469
 31
0.0
  0
LINE
  5
2C2
330
2BE
100
AcDbEntity
  8
1
  6
CONTINUOUS
 62
    18
100
AcDbLine
 10
95.29685266666667
 20
12.670469
 30
0.0
 11
58.29685266666667
 21
12.670469
 31
0.0
  0
SOLID
  5
2C3
330
2BE
100
AcDbEntity
  8
1
 62
    18
100
AcDbTrace
 10
95.29685266666667
 20
12.08713566666666
 30
0.0
 11
95.29685266666667
 21
13.25380233333333
 31
0.0
 12
98.79685266666667
 22
12.670469
 32
0.0
 13
98.79685266666667
 23
12.670469
 33
0.0
  0
SOLID
  5
2C4
330
2BE
100
AcDbEntity
  8
1
 62
    18
100
AcDbTrace
 10
58.29685266666667
 20
13.25380233333333
 30
0.0
 11
58.29685266666667
 21
12.08713566666666
 31
0.0
 12
54.79685266666667
 22
12.670469
 32
0.0
 13
54.79685266666667
 23
12.670469
 33
0.0
  0
MTEXT
  5
2C5
330
2BE
100
AcDbEntity
  8
1
 62
    18
100
AcDbMText
 10
76.79685266666667
 20
17.670469
 30
0.0
 40
5.0
 41
0.0
 71
     5
 72
     1
  1
\A1;\C18;44
  7
ARIAL
  0
POINT
  5
2DD
330
2BE
100
AcDbEntity
  8
DEFPOINTS
 62
     0
100
AcDbPoint
 10
98.79685266666667
 20
57.3539
 30
0.0
  0
POINT
  5
2DE
330
2BE
100
AcDbEntity
  8
DEFPOINTS
 62
     0
100
AcDbPoint
 10
54.79685266666667
 20
34.469133
 30
0.0
  0
POINT
  5
2DF
330
2BE
100
AcDbEntity
  8
DEFPOINTS
 62
     0
100
AcDbPoint
 10
54.79685266666667
 20
12.670469
 30
0.0
  0
ENDBLK
  5
2C6
330
2BE
100
AcDbEntity
  8
0
100
AcDbBlockEnd
  0
BLOCK
  5
2C9
330
2C8
100
AcDbEntity
  8
0
100
AcDbBlockBegin
  2
DIMNDRAFT3D12
 70
     0
 10
0.0
 20
0.0
 30
0.0
  3
DIMNDRAFT3D12
  1
DimnDraft3D12
  0
LINE
  5
2CA
330
2C8
100
AcDbEntity
  8
1
  6
CONTINUOUS
 62
    18
100
AcDbLine
 10
104.2968526666667
 20
109.653898
 30
0.0
 11
104.2968526666667
 21
135.067356
 31
0.0
  0
LINE
  5
2CB
330
2C8
100
AcDbEntity
  8
1
  6
CONTINUOUS
 62
    18
100
AcDbLine
 10
32.49685266666667
 20
98.05389799999999
 30
0.0
 11
32.49685266666667
 21
135.067356
 31
0.0
  0
LINE
  5
2CC
330
2C8
100
AcDbEntity
  8
1
  6
CONTINUOUS
 62
    18
100
AcDbLine
 10
100.7968526666667
 20
134.067356
 30
0.0
 11
35.99685266666667
 21
134.067356
 31
0.0
  0
SOLID
  5
2CD
330
2C8
100
AcDbEntity
  8
1
 62
    18
100
AcDbTrace
 10
100.7968526666667
 20
133.4840226666667
 30
0.0
 11
100.7968526666667
 21
134.6506893333334
 31
0.0
 12
104.2968526666667
 22
134.067356
 32
0.0
 13
104.2968526666667
 23
134.067356
 33
0.0
  0
SOLID
  5
2CE
330
2C8
100
AcDbEntity
  8
1
 62
    18
100
AcDbTrace
 10
35.99685266666667
 20
134.6506893333334
 30
0.0
 11
35.99685266666667
 21
133.4840226666667
 31
0.0
 12
32.49685266666667
 22
134.067356
 32
0.0
 13
32.49685266666667
 23
134.067356
 33
0.0
  0
MTEXT
  5
2CF
330
2C8
100
AcDbEntity
  8
1
 62
    18
100
AcDbMText
 10
68.39685266666666
 20
139.077356
 30
0.0
 40
5.0
 41
0.0
 71
     5
 72
     1
  1
\A1;\C18;72
  7
ARIAL
  0
POINT
  5
2E0
330
2C8
100
AcDbEntity
  8
DEFPOINTS
 62
     0
100
AcDbPoint
 10
104.2968526666667
 20
109.653898
 30
0.0
  0
POINT
  5
2E1
330
2C8
100
AcDbEntity
  8
DEFPOINTS
 62
     0
100
AcDbPoint
 10
32.49685266666667
 20
98.05389799999999
 30
0.0
  0
POINT
  5
2E2
330
2C8
100
AcDbEntity
  8
DEFPOINTS
 62
     0
100
AcDbPoint
 10
32.49685266666667
 20
134.067356
 30
0.0
  0
ENDBLK
  5
2D0
330
2C8
100
AcDbEntity
  8
0
100
AcDbBlockEnd
  0
BLOCK
  5
B80
330
B7F
100
AcDbEntity
  8
0
100
AcDbBlockBegin
  2
DIMNDRAFT3D16
 70
     0
 10
0.0
 20
0.0
 30
0.0
  3
DIMNDRAFT3D16
  1
DimnDraft3D16
  0
LINE
  5
B81
330
B7F
100
AcDbEntity
  8
1
  6
CONTINUOUS
 62
    18
100
AcDbLine
 10
0.0000000525732275
 20
34.469133
 30
0.0
 11
0.0000000525732275
 21
0.0
 31
0.0
  0
LINE
  5
B82
330
B7F
100
AcDbEntity
  8
1
  6
CONTINUOUS
 62
    18
100
AcDbLine
 10
53.80000005257318
 20
34.469133
 30
0.0
 11
53.80000005257318
 21
0.0
 31
0.0
  0
LINE
  5
B83
330
B7F
100
AcDbEntity
  8
1
  6
CONTINUOUS
 62
    18
100
AcDbLine
 10
3.500000052573228
 20
1.0
 30
0.0
 11
50.30000005257318
 21
1.0
 31
0.0
  0
SOLID
  5
B84
330
B7F
100
AcDbEntity
  8
1
 62
    18
100
AcDbTrace
 10
3.500000052573228
 20
1.583333333333333
 30
0.0
 11
3.500000052573228
 21
0.4166666666666666
 31
0.0
 12
0.0000000525732275
 22
1.0
 32
0.0
 13
0.0000000525732275
 23
1.0
 33
0.0
  0
SOLID
  5
B85
330
B7F
100
AcDbEntity
  8
1
 62
    18
100
AcDbTrace
 10
50.30000005257318
 20
0.4166666666666666
 30
0.0
 11
50.30000005257318
 21
1.583333333333333
 31
0.0
 12
53.80000005257318
 22
1.0
 32
0.0
 13
53.80000005257318
 23
1.0
 33
0.0
  0
MTEXT
  5
B86
330
B7F
100
AcDbEntity
  8
1
 62
    18
100
AcDbMText
 10
31.49089805257324
 20
6.0425
 30
0.0
 40
5.0
 41
0.0
 71
     5
 72
     1
  1
\A1;\C18;54
  7
ARIAL
  0
POINT
  5
B8A
330
B7F
100
AcDbEntity
  8
DEFPOINTS
 62
     0
100
AcDbPoint
 10
0.0000000525732275
 20
34.469133
 30
0.0
  0
POINT
  5
B8B
330
B7F
100
AcDbEntity
  8
DEFPOINTS
 62
     0
100
AcDbPoint
 10
53.80000005257318
 20
34.469133
 30
0.0
  0
POINT
  5
B8C
330
B7F
100
AcDbEntity
  8
DEFPOINTS
 62
     0
100
AcDbPoint
 10
53.80000005257318
 20
1.0
 30
0.0
  0
ENDBLK
  5
B87
330
B7F
100
AcDbEntity
  8
0
100
AcDbBlockEnd
  0
BLOCK
  5
1334
330
1333
100
AcDbEntity
  8
0
100
AcDbBlockBegin
  2
*D7
 70
     1
 10
0.0
 20
0.0
 30
0.0
  3
*D7
  1
*D17
  0
LINE
  5
1336
330
1333
100
AcDbEntity
  8
KOTY
 62
     0
100
AcDbLine
 10
331.7600189177886
 20
213.2201939706726
 30
0.0
 11
331.7600189177886
 21
246.0494714153149
 31
0.0
  0
LINE
  5
1337
330
1333
100
AcDbEntity
  8
KOTY
 62
     0
100
AcDbLine
 10
403.5600189177886
 20
224.8201939706726
 30
0.0
 11
403.5600189177886
 21
246.0494714153149
 31
0.0
  0
LINE
  5
1338
330
1333
100
AcDbEntity
  8
KOTY
 62
     0
100
AcDbLine
 10
334.7600189177886
 20
245.8694714153149
 30
0.0
 11
400.5600189177886
 21
245.8694714153149
 31
0.0
  0
SOLID
  5
1339
330
1333
100
AcDbEntity
  8
KOTY
 62
     0
100
AcDbTrace
 10
334.7600189177886
 20
246.3694714153149
 30
0.0
 11
334.7600189177886
 21
245.3694714153149
 31
0.0
 12
331.7600189177886
 22
245.8694714153149
 32
0.0
 13
331.7600189177886
 23
245.8694714153149
 33
0.0
  0
SOLID
  5
133A
330
1333
100
AcDbEntity
  8
KOTY
 62
     0
100
AcDbTrace
 10
400.5600189177886
 20
245.3694714153149
 30
0.0
 11
400.5600189177886
 21
246.3694714153149
 31
0.0
 12
403.5600189177886
 22
245.8694714153149
 32
0.0
 13
403.5600189177886
 23
245.8694714153149
 33
0.0
  0
MTEXT
  5
133B
330
1333
100
AcDbEntity
  8
KOTY
 62
     0
100
AcDbMText
 10
367.6600189177885
 20
248.3754714153149
 30
0.0
 40
3.0
 41
0.0
 71
     5
 72
     1
  1
\A1;72
  0
POINT
  5
133C
330
1333
100
AcDbEntity
  8
DEFPOINTS
 62
     0
100
AcDbPoint
 10
331.7600189177886
 20
213.1576939706726
 30
0.0
  0
POINT
  5
133D
330
1333
100
AcDbEntity
  8
DEFPOINTS
 62
     0
100
AcDbPoint
 10
403.5600189177886
 20
224.7576939706726
 30
0.0
  0
POINT
  5
133E
330
1333
100
AcDbEntity
  8
DEFPOINTS
 62
     0
100
AcDbPoint
 10
403.5600189177886
 20
245.8694714153149
 30
0.0
  0
ENDBLK
  5
1335
330
1333
100
AcDbEntity
  8
0
100
AcDbBlockEnd
  0
BLOCK
  5
1344
330
1343
100
AcDbEntity
  8
0
100
AcDbBlockBegin
  2
*D8
 70
     1
 10
0.0
 20
0.0
 30
0.0
  3
*D8
  1
*D18
  0
LINE
  5
1346
330
1343
100
AcDbEntity
  8
KOTY
 62
     0
100
AcDbLine
 10
331.8975189177886
 20
168.3576939706726
 30
0.0
 11
320.293941592266
 21
168.3576939706726
 31
0.0
  0
LINE
  5
1347
330
1343
100
AcDbEntity
  8
KOTY
 62
     0
100
AcDbLine
 10
331.8975189177886
 20
213.3576939706726
 30
0.0
 11
320.293941592266
 21
213.3576939706726
 31
0.0
  0
LINE
  5
1348
330
1343
100
AcDbEntity
  8
KOTY
 62
     0
100
AcDbLine
 10
320.473941592266
 20
171.3576939706726
 30
0.0
 11
320.473941592266
 21
210.3576939706726
 31
0.0
  0
SOLID
  5
1349
330
1343
100
AcDbEntity
  8
KOTY
 62
     0
100
AcDbTrace
 10
319.973941592266
 20
171.3576939706726
 30
0.0
 11
320.973941592266
 21
171.3576939706726
 31
0.0
 12
320.473941592266
 22
168.3576939706726
 32
0.0
 13
320.473941592266
 23
168.3576939706726
 33
0.0
  0
SOLID
  5
134A
330
1343
100
AcDbEntity
  8
KOTY
 62
     0
100
AcDbTrace
 10
320.973941592266
 20
210.3576939706726
 30
0.0
 11
319.973941592266
 21
210.3576939706726
 31
0.0
 12
320.473941592266
 22
213.3576939706726
 32
0.0
 13
320.473941592266
 23
213.3576939706726
 33
0.0
  0
MTEXT
  5
134B
330
1343
100
AcDbEntity
  8
KOTY
 62
     0
100
AcDbMText
 10
317.948441592266
 20
190.8576939706726
 30
0.0
 40
3.0
 41
0.0
 71
     5
 72
     1
  1
\A1;45
 11
0.0
 21
1.0
 31
0.0
  0
POINT
  5
134C
330
1343
100
AcDbEntity
  8
DEFPOINTS
 62
     0
100
AcDbPoint
 10
331.9600189177886
 20
168.3576939706726
 30
0.0
  0
POINT
  5
134D
330
1343
100
AcDbEntity
  8
DEFPOINTS
 62
     0
100
AcDbPoint
 10
331.9600189177886
 20
213.3576939706726
 30
0.0
  0
POINT
  5
134E
330
1343
100
AcDbEntity
  8
DEFPOINTS
 62
     0
100
AcDbPoint
 10
320.473941592266
 20
213.3576939706726
 30
0.0
  0
ENDBLK
  5
1345
330
1343
100
AcDbEntity
  8
0
100
AcDbBlockEnd
  0
BLOCK
  5
1354
330
1353
100
AcDbEntity
  8
0
100
AcDbBlockBegin
  2
*D9
 70
     1
 10
0.0
 20
0.0
 30
0.0
  3
*D9
  1
*D19
  0
LINE
  5
1356
330
1353
100
AcDbEntity
  8
KOTY
 62
     0
100
AcDbLine
 10
360.1058479177885
 20
145.9576939706726
 30
0.0
 11
310.3466136542384
 21
145.9576939706726
 31
0.0
  0
LINE
  5
1357
330
1353
100
AcDbEntity
  8
KOTY
 62
     0
100
AcDbLine
 10
360.1058479177885
 20
235.7576939706726
 30
0.0
 11
310.3466136542384
 21
235.7576939706726
 31
0.0
  0
LINE
  5
1358
330
1353
100
AcDbEntity
  8
KOTY
 62
     0
100
AcDbLine
 10
310.5266136542384
 20
148.9576939706726
 30
0.0
 11
310.5266136542384
 21
232.7576939706726
 31
0.0
  0
SOLID
  5
1359
330
1353
100
AcDbEntity
  8
KOTY
 62
     0
100
AcDbTrace
 10
310.0266136542384
 20
148.9576939706726
 30
0.0
 11
311.0266136542384
 21
148.9576939706726
 31
0.0
 12
310.5266136542384
 22
145.9576939706726
 32
0.0
 13
310.5266136542384
 23
145.9576939706726
 33
0.0
  0
SOLID
  5
135A
330
1353
100
AcDbEntity
  8
KOTY
 62
     0
100
AcDbTrace
 10
311.0266136542384
 20
232.7576939706726
 30
0.0
 11
310.0266136542384
 21
232.7576939706726
 31
0.0
 12
310.5266136542384
 22
235.7576939706726
 32
0.0
 13
310.5266136542384
 23
235.7576939706726
 33
0.0
  0
MTEXT
  5
135B
330
1353
100
AcDbEntity
  8
KOTY
 62
     0
100
AcDbMText
 10
307.9951136542384
 20
190.8576939706726
 30
0.0
 40
3.0
 41
0.0
 71
     5
 72
     1
  1
\A1;90
 11
0.0
 21
1.0
 31
0.0
  0
POINT
  5
135C
330
1353
100
AcDbEntity
  8
DEFPOINTS
 62
     0
100
AcDbPoint
 10
360.1683479177885
 20
145.9576939706726
 30
0.0
  0
POINT
  5
135D
330
1353
100
AcDbEntity
  8
DEFPOINTS
 62
     0
100
AcDbPoint
 10
360.1683479177885
 20
235.7576939706726
 30
0.0
  0
POINT
  5
135E
330
1353
100
AcDbEntity
  8
DEFPOINTS
 62
     0
100
AcDbPoint
 10
310.5266136542384
 20
235.7576939706726
 30
0.0
  0
ENDBLK
  5
1355
330
1353
100
AcDbEntity
  8
0
100
AcDbBlockEnd
  0
BLOCK
  5
1364
330
1363
100
AcDbEntity
  8
0
100
AcDbBlockBegin
  2
*D10
 70
     1
 10
0.0
 20
0.0
 30
0.0
  3
*D10
  1
*D20
  0
LINE
  5
1366
330
1363
100
AcDbEntity
  8
KOTY
 62
     0
100
AcDbLine
 10
331.7600189177886
 20
168.4951939706726
 30
0.0
 11
331.7600189177886
 21
122.4558462391053
 31
0.0
  0
LINE
  5
1367
330
1363
100
AcDbEntity
  8
KOTY
 62
     0
100
AcDbLine
 10
398.0600189177886
 20
172.3951959706726
 30
0.0
 11
398.0600189177886
 21
122.4558462391053
 31
0.0
  0
LINE
  5
1368
330
1363
100
AcDbEntity
  8
KOTY
 62
     0
100
AcDbLine
 10
334.7600189177886
 20
122.6358462391053
 30
0.0
 11
395.0600189177886
 21
122.6358462391053
 31
0.0
  0
SOLID
  5
1369
330
1363
100
AcDbEntity
  8
KOTY
 62
     0
100
AcDbTrace
 10
334.7600189177886
 20
123.1358462391053
 30
0.0
 11
334.7600189177886
 21
122.1358462391053
 31
0.0
 12
331.7600189177886
 22
122.6358462391053
 32
0.0
 13
331.7600189177886
 23
122.6358462391053
 33
0.0
  0
SOLID
  5
136A
330
1363
100
AcDbEntity
  8
KOTY
 62
     0
100
AcDbTrace
 10
395.0600189177886
 20
122.1358462391053
 30
0.0
 11
395.0600189177886
 21
123.1358462391053
 31
0.0
 12
398.0600189177886
 22
122.6358462391053
 32
0.0
 13
398.0600189177886
 23
122.6358462391053
 33
0.0
  0
MTEXT
  5
136B
330
1363
100
AcDbEntity
  8
KOTY
 62
     0
100
AcDbMText
 10
364.9100189177885
 20
125.1673462391053
 30
0.0
 40
3.0
 41
0.0
 71
     5
 72
     1
  1
\A1;66
  0
POINT
  5
136C
330
1363
100
AcDbEntity
  8
DEFPOINTS
 62
     0
100
AcDbPoint
 10
331.7600189177886
 20
168.5576939706726
 30
0.0
  0
POINT
  5
136D
330
1363
100
AcDbEntity
  8
DEFPOINTS
 62
     0
100
AcDbPoint
 10
398.0600189177886
 20
172.4576959706726
 30
0.0
  0
POINT
  5
136E
330
1363
100
AcDbEntity
  8
DEFPOINTS
 62
     0
100
AcDbPoint
 10
398.0600189177886
 20
122.6358462391053
 30
0.0
  0
ENDBLK
  5
1365
330
1363
100
AcDbEntity
  8
0
100
AcDbBlockEnd
  0
BLOCK
  5
1374
330
1373
100
AcDbEntity
  8
0
100
AcDbBlockBegin
  2
*D11
 70
     1
 10
0.0
 20
0.0
 30
0.0
  3
*D11
  1
*D21
  0
LINE
  5
1376
330
1373
100
AcDbEntity
  8
KOTY
 62
     0
100
AcDbLine
 10
354.0600189177886
 20
149.5104289706726
 30
0.0
 11
354.0600189177886
 21
133.9706929986001
 31
0.0
  0
LINE
  5
1377
330
1373
100
AcDbEntity
  8
KOTY
 62
     0
100
AcDbLine
 10
398.0600189177886
 20
172.3951959706726
 30
0.0
 11
398.0600189177886
 21
133.9706929986001
 31
0.0
  0
LINE
  5
1378
330
1373
100
AcDbEntity
  8
KOTY
 62
     0
100
AcDbLine
 10
357.0600189177886
 20
134.1506929986001
 30
0.0
 11
395.0600189177886
 21
134.1506929986001
 31
0.0
  0
SOLID
  5
1379
330
1373
100
AcDbEntity
  8
KOTY
 62
     0
100
AcDbTrace
 10
357.0600189177886
 20
134.6506929986001
 30
0.0
 11
357.0600189177886
 21
133.6506929986001
 31
0.0
 12
354.0600189177886
 22
134.1506929986001
 32
0.0
 13
354.0600189177886
 23
134.1506929986001
 33
0.0
  0
SOLID
  5
137A
330
1373
100
AcDbEntity
  8
KOTY
 62
     0
100
AcDbTrace
 10
395.0600189177886
 20
133.6506929986001
 30
0.0
 11
395.0600189177886
 21
134.6506929986001
 31
0.0
 12
398.0600189177886
 22
134.1506929986001
 32
0.0
 13
398.0600189177886
 23
134.1506929986001
 33
0.0
  0
MTEXT
  5
137B
330
1373
100
AcDbEntity
  8
KOTY
 62
     0
100
AcDbMText
 10
376.0600189177886
 20
136.6506929986001
 30
0.0
 40
3.0
 41
0.0
 71
     5
 72
     1
  1
\A1;44
  0
POINT
  5
137C
330
1373
100
AcDbEntity
  8
DEFPOINTS
 62
     0
100
AcDbPoint
 10
354.0600189177886
 20
149.5729289706726
 30
0.0
  0
POINT
  5
137D
330
1373
100
AcDbEntity
  8
DEFPOINTS
 62
     0
100
AcDbPoint
 10
398.0600189177886
 20
172.4576959706726
 30
0.0
  0
POINT
  5
137E
330
1373
100
AcDbEntity
  8
DEFPOINTS
 62
     0
100
AcDbPoint
 10
398.0600189177886
 20
134.1506929986001
 30
0.0
  0
ENDBLK
  5
1375
330
1373
100
AcDbEntity
  8
0
100
AcDbBlockEnd
  0
BLOCK
  5
1384
330
1383
100
AcDbEntity
  8
0
100
AcDbBlockBegin
  2
*D12
 70
     1
 10
0.0
 20
0.0
 30
0.0
  3
*D12
  1
*D22
  0
LINE
  5
1386
330
1383
100
AcDbEntity
  8
KOTY
 62
     0
100
AcDbLine
 10
401.9989469177885
 20
235.7576939706726
 30
0.0
 11
412.9227093336444
 21
235.7576939706726
 31
0.0
  0
LINE
  5
1387
330
1383
100
AcDbEntity
  8
KOTY
 62
     0
100
AcDbLine
 10
402.5394312988689
 20
142.361432319528
 30
0.0
 11
412.9227093336444
 21
142.361432319528
 31
0.0
  0
LINE
  5
1388
330
1383
100
AcDbEntity
  8
KOTY
 62
     0
100
AcDbLine
 10
412.7427093336444
 20
232.7576939706726
 30
0.0
 11
412.7427093336444
 21
145.361432319528
 31
0.0
  0
SOLID
  5
1389
330
1383
100
AcDbEntity
  8
KOTY
 62
     0
100
AcDbTrace
 10
413.2427093336444
 20
232.7576939706726
 30
0.0
 11
412.2427093336444
 21
232.7576939706726
 31
0.0
 12
412.7427093336444
 22
235.7576939706726
 32
0.0
 13
412.7427093336444
 23
235.7576939706726
 33
0.0
  0
SOLID
  5
138A
330
1383
100
AcDbEntity
  8
KOTY
 62
     0
100
AcDbTrace
 10
412.2427093336444
 20
145.361432319528
 30
0.0
 11
413.2427093336444
 21
145.361432319528
 31
0.0
 12
412.7427093336444
 22
142.361432319528
 32
0.0
 13
412.7427093336444
 23
142.361432319528
 33
0.0
  0
MTEXT
  5
138B
330
1383
100
AcDbEntity
  8
KOTY
 62
     0
100
AcDbMText
 10
410.2112093336444
 20
189.0595631451003
 30
0.0
 40
3.0
 41
0.0
 71
     5
 72
     1
  1
\A1;94
 11
0.0
 21
1.0
 31
0.0
  0
POINT
  5
138C
330
1383
100
AcDbEntity
  8
DEFPOINTS
 62
     0
100
AcDbPoint
 10
401.9364469177885
 20
235.7576939706726
 30
0.0
  0
POINT
  5
138D
330
1383
100
AcDbEntity
  8
DEFPOINTS
 62
     0
100
AcDbPoint
 10
402.4769312988689
 20
142.361432319528
 30
0.0
  0
POINT
  5
138E
330
1383
100
AcDbEntity
  8
DEFPOINTS
 62
     0
100
AcDbPoint
 10
412.7427093336444
 20
142.361432319528
 30
0.0
  0
ENDBLK
  5
1385
330
1383
100
AcDbEntity
  8
0
100
AcDbBlockEnd
  0
BLOCK
  5
1990
330
198F
100
AcDbEntity
  8
0
100
AcDbBlockBegin
  2
DIMNDRAFT3D6
 70
     0
 10
0.0
 20
0.0
 30
0.0
  3
DIMNDRAFT3D6
  1
DimnDraft3D6
  0
LINE
  5
1991
330
198F
100
AcDbEntity
  8
1
  6
CONTINUOUS
 62
    18
100
AcDbLine
 10
0.0000000525732275
 20
34.469133
 30
0.0
 11
0.0000000525732275
 21
0.0
 31
0.0
  0
LINE
  5
1992
330
198F
100
AcDbEntity
  8
1
  6
CONTINUOUS
 62
    18
100
AcDbLine
 10
35.80000005257318
 20
34.469133
 30
0.0
 11
35.80000005257318
 21
0.0
 31
0.0
  0
LINE
  5
1993
330
198F
100
AcDbEntity
  8
1
  6
CONTINUOUS
 62
    18
100
AcDbLine
 10
3.500000052573228
 20
1.0
 30
0.0
 11
32.30000005257318
 21
1.0
 31
0.0
  0
SOLID
  5
1994
330
198F
100
AcDbEntity
  8
1
 62
    18
100
AcDbTrace
 10
3.500000052573228
 20
1.583333333333333
 30
0.0
 11
3.500000052573228
 21
0.4166666666666666
 31
0.0
 12
0.0000000525732275
 22
1.0
 32
0.0
 13
0.0000000525732275
 23
1.0
 33
0.0
  0
SOLID
  5
1995
330
198F
100
AcDbEntity
  8
1
 62
    18
100
AcDbTrace
 10
32.30000005257318
 20
0.4166666666666666
 30
0.0
 11
32.30000005257318
 21
1.583333333333333
 31
0.0
 12
35.80000005257318
 22
1.0
 32
0.0
 13
35.80000005257318
 23
1.0
 33
0.0
  0
MTEXT
  5
1996
330
198F
100
AcDbEntity
  8
1
 62
    18
100
AcDbMText
 10
15.39764705257323
 20
6.0525
 30
0.0
 40
5.0
 41
0.0
 71
     5
 72
     1
  1
\A1;\C18;36
  7
ARIAL
  0
POINT
  5
199A
330
198F
100
AcDbEntity
  8
DEFPOINTS
 62
     0
100
AcDbPoint
 10
0.0000000525732275
 20
34.469133
 30
0.0
  0
POINT
  5
199B
330
198F
100
AcDbEntity
  8
DEFPOINTS
 62
     0
100
AcDbPoint
 10
35.80000005257318
 20
34.469133
 30
0.0
  0
POINT
  5
199C
330
198F
100
AcDbEntity
  8
DEFPOINTS
 62
     0
100
AcDbPoint
 10
35.80000005257318
 20
1.0
 30
0.0
  0
ENDBLK
  5
1997
330
198F
100
AcDbEntity
  8
0
100
AcDbBlockEnd
  0
BLOCK
  5
1F91
330
1F90
100
AcDbEntity
  8
0
100
AcDbBlockBegin
  2
*D14
 70
     1
 10
0.0
 20
0.0
 30
0.0
  3
*D14
  1
*D18
  0
LINE
  5
1F93
330
1F90
100
AcDbEntity
  8
OBRYS
 62
     0
100
AcDbLine
 10
437.4801095781108
 20
146.4975301782606
 30
0.0
 11
437.1516702443846
 21
146.4975301782606
 31
0.0
  0
LINE
  5
1F94
330
1F90
100
AcDbEntity
  8
OBRYS
 62
     0
100
AcDbLine
 10
437.6801095781107
 20
149.0878710975039
 30
0.0
 11
437.1516702443846
 21
149.0878710975039
 31
0.0
  0
LINE
  5
1F95
330
1F90
100
AcDbEntity
  8
OBRYS
 62
     0
100
AcDbLine
 10
437.3316702443846
 20
146.6775301782606
 30
0.0
 11
437.3316702443846
 21
147.6108106378823
 31
0.0
  0
LINE
  5
1F96
330
1F90
100
AcDbEntity
  8
OBRYS
 62
     0
100
AcDbLine
 10
437.3316702443846
 20
148.9078710975039
 30
0.0
 11
437.3316702443846
 21
147.9745906378823
 31
0.0
  0
SOLID
  5
1F97
330
1F90
100
AcDbEntity
  8
OBRYS
 62
     0
100
AcDbTrace
 10
437.3016702443846
 20
146.6775301782606
 30
0.0
 11
437.3616702443846
 21
146.6775301782606
 31
0.0
 12
437.3316702443846
 22
146.4975301782606
 32
0.0
 13
437.3316702443846
 23
146.4975301782606
 33
0.0
  0
SOLID
  5
1F98
330
1F90
100
AcDbEntity
  8
OBRYS
 62
     0
100
AcDbTrace
 10
437.3616702443846
 20
148.9078710975039
 30
0.0
 11
437.3016702443846
 21
148.9078710975039
 31
0.0
 12
437.3316702443846
 22
149.0878710975039
 32
0.0
 13
437.3316702443846
 23
149.0878710975039
 33
0.0
  0
MTEXT
  5
1F99
330
1F90
100
AcDbEntity
  8
OBRYS
 62
     0
100
AcDbMText
 10
437.3316702443846
 20
147.7927006378823
 30
0.0
 40
0.18
 41
0.0
 71
     5
 72
     1
  1
\A1;2.5903
  0
POINT
  5
1F9A
330
1F90
100
AcDbEntity
  8
DEFPOINTS
 62
     0
100
AcDbPoint
 10
437.5426095781108
 20
146.4975301782606
 30
0.0
  0
POINT
  5
1F9B
330
1F90
100
AcDbEntity
  8
DEFPOINTS
 62
     0
100
AcDbPoint
 10
437.7426095781107
 20
149.0878710975039
 30
0.0
  0
POINT
  5
1F9C
330
1F90
100
AcDbEntity
  8
DEFPOINTS
 62
     0
100
AcDbPoint
 10
437.3316702443846
 20
149.0878710975039
 30
0.0
  0
ENDBLK
  5
1F92
330
1F90
100
AcDbEntity
  8
0
100
AcDbBlockEnd
  0
BLOCK
  5
200D
330
200C
100
AcDbEntity
  8
0
100
AcDbBlockBegin
  2
*D15
 70
     1
 10
0.0
 20
0.0
 30
0.0
  3
*D15
  1
*D19
  0
LINE
  5
200F
330
200C
100
AcDbEntity
  8
OBRYS
 62
     0
100
AcDbLine
 10
439.4426095228887
 20
168.5507201774337
 30
0.0
 11
439.4426095228887
 21
167.3768910421409
 31
0.0
  0
LINE
  5
2010
330
200C
100
AcDbEntity
  8
OBRYS
 62
     0
100
AcDbLine
 10
440.5426095781108
 20
168.5507201782606
 30
0.0
 11
440.5426095781108
 21
167.3768910421409
 31
0.0
  0
LINE
  5
2011
330
200C
100
AcDbEntity
  8
OBRYS
 62
     0
100
AcDbLine
 10
439.2626095228887
 20
167.5568910421409
 30
0.0
 11
439.0826095228887
 21
167.5568910421409
 31
0.0
  0
LINE
  5
2012
330
200C
100
AcDbEntity
  8
OBRYS
 62
     0
100
AcDbLine
 10
440.7226095781108
 20
167.5568910421409
 30
0.0
 11
440.9026095781108
 21
167.5568910421409
 31
0.0
  0
SOLID
  5
2013
330
200C
100
AcDbEntity
  8
OBRYS
 62
     0
100
AcDbTrace
 10
439.2626095228887
 20
167.5268910421409
 30
0.0
 11
439.2626095228887
 21
167.5868910421409
 31
0.0
 12
439.4426095228887
 22
167.5568910421409
 32
0.0
 13
439.4426095228887
 23
167.5568910421409
 33
0.0
  0
SOLID
  5
2014
330
200C
100
AcDbEntity
  8
OBRYS
 62
     0
100
AcDbTrace
 10
440.7226095781108
 20
167.5868910421409
 30
0.0
 11
440.7226095781108
 21
167.5268910421409
 31
0.0
 12
440.5426095781108
 22
167.5568910421409
 32
0.0
 13
440.5426095781108
 23
167.5568910421409
 33
0.0
  0
MTEXT
  5
2015
330
200C
100
AcDbEntity
  8
OBRYS
 62
     0
100
AcDbMText
 10
439.9926095504998
 20
167.5568910421409
 30
0.0
 40
0.18
 41
0.0
 71
     5
 72
     1
  1
\A1;1.1000
  0
POINT
  5
2016
330
200C
100
AcDbEntity
  8
DEFPOINTS
 62
     0
100
AcDbPoint
 10
439.4426095228887
 20
168.6132201774337
 30
0.0
  0
POINT
  5
2017
330
200C
100
AcDbEntity
  8
DEFPOINTS
 62
     0
100
AcDbPoint
 10
440.5426095781108
 20
168.6132201782606
 30
0.0
  0
POINT
  5
2018
330
200C
100
AcDbEntity
  8
DEFPOINTS
 62
     0
100
AcDbPoint
 10
440.5426095781108
 20
167.5568910421409
 30
0.0
  0
ENDBLK
  5
200E
330
200C
100
AcDbEntity
  8
0
100
AcDbBlockEnd
  0
BLOCK
  5
201D
330
201C
100
AcDbEntity
  8
0
100
AcDbBlockBegin
  2
*D16
 70
     1
 10
0.0
 20
0.0
 30
0.0
  3
*D16
  1
*D20
  0
LINE
  5
201F
330
201C
100
AcDbEntity
  8
OBRYS
 62
     0
100
AcDbLine
 10
470.2597665781107
 20
192.6791471782606
 30
0.0
 11
470.2597665781107
 21
192.4231906893551
 31
0.0
  0
LINE
  5
2020
330
201C
100
AcDbEntity
  8
OBRYS
 62
     0
100
AcDbLine
 10
470.7254525781107
 20
192.6791471782606
 30
0.0
 11
470.7254525781107
 21
192.4231906893551
 31
0.0
  0
LINE
  5
2021
330
201C
100
AcDbEntity
  8
OBRYS
 62
     0
100
AcDbLine
 10
470.0797665781107
 20
192.6031906893551
 30
0.0
 11
469.8997665781107
 21
192.6031906893551
 31
0.0
  0
LINE
  5
2022
330
201C
100
AcDbEntity
  8
OBRYS
 62
     0
100
AcDbLine
 10
470.9054525781107
 20
192.6031906893551
 30
0.0
 11
471.0854525781107
 21
192.6031906893551
 31
0.0
  0
SOLID
  5
2023
330
201C
100
AcDbEntity
  8
OBRYS
 62
     0
100
AcDbTrace
 10
470.0797665781107
 20
192.5731906893551
 30
0.0
 11
470.0797665781107
 21
192.6331906893551
 31
0.0
 12
470.2597665781107
 22
192.6031906893551
 32
0.0
 13
470.2597665781107
 23
192.6031906893551
 33
0.0
  0
SOLID
  5
2024
330
201C
100
AcDbEntity
  8
OBRYS
 62
     0
100
AcDbTrace
 10
470.9054525781107
 20
192.6331906893551
 30
0.0
 11
470.9054525781107
 21
192.5731906893551
 31
0.0
 12
470.7254525781107
 22
192.6031906893551
 32
0.0
 13
470.7254525781107
 23
192.6031906893551
 33
0.0
  0
MTEXT
  5
2025
330
201C
100
AcDbEntity
  8
OBRYS
 62
     0
100
AcDbMText
 10
470.4926095781107
 20
192.0125206893551
 30
0.0
 40
0.18
 41
0.0
 71
     5
 72
     1
  1
\A1;0.4657
  0
POINT
  5
2026
330
201C
100
AcDbEntity
  8
DEFPOINTS
 62
     0
100
AcDbPoint
 10
470.2597665781107
 20
192.7416471782606
 30
0.0
  0
POINT
  5
2027
330
201C
100
AcDbEntity
  8
DEFPOINTS
 62
     0
100
AcDbPoint
 10
470.7254525781107
 20
192.7416471782606
 30
0.0
  0
POINT
  5
2028
330
201C
100
AcDbEntity
  8
DEFPOINTS
 62
     0
100
AcDbPoint
 10
470.7254525781107
 20
192.6031906893551
 30
0.0
  0
ENDBLK
  5
201E
330
201C
100
AcDbEntity
  8
0
100
AcDbBlockEnd
  0
BLOCK
  5
202E
330
202D
100
AcDbEntity
  8
0
100
AcDbBlockBegin
  2
*D17
 70
     1
 10
0.0
 20
0.0
 30
0.0
  3
*D17
  1
*D21
  0
LINE
  5
2030
330
202D
100
AcDbEntity
  8
KOTY
 62
     0
100
AcDbLine
 10
437.5426095781107
 20
146.1507201782607
 30
0.0
 11
437.5426095781107
 21
122.4558462391053
 31
0.0
  0
LINE
  5
2031
330
202D
100
AcDbEntity
  8
KOTY
 62
     0
100
AcDbLine
 10
473.3426095781108
 20
146.1507201782607
 30
0.0
 11
473.3426095781108
 21
122.4558462391053
 31
0.0
  0
LINE
  5
2032
330
202D
100
AcDbEntity
  8
KOTY
 62
     0
100
AcDbLine
 10
440.5426095781107
 20
122.6358462391053
 30
0.0
 11
470.3426095781108
 21
122.6358462391053
 31
0.0
  0
SOLID
  5
2033
330
202D
100
AcDbEntity
  8
KOTY
 62
     0
100
AcDbTrace
 10
440.5426095781107
 20
123.1358462391053
 30
0.0
 11
440.5426095781107
 21
122.1358462391053
 31
0.0
 12
437.5426095781107
 22
122.6358462391053
 32
0.0
 13
437.5426095781107
 23
122.6358462391053
 33
0.0
  0
SOLID
  5
2034
330
202D
100
AcDbEntity
  8
KOTY
 62
     0
100
AcDbTrace
 10
470.3426095781108
 20
122.1358462391053
 30
0.0
 11
470.3426095781108
 21
123.1358462391053
 31
0.0
 12
473.3426095781108
 22
122.6358462391053
 32
0.0
 13
473.3426095781108
 23
122.6358462391053
 33
0.0
  0
MTEXT
  5
2035
330
202D
100
AcDbEntity
  8
KOTY
 62
     0
100
AcDbMText
 10
455.4426095781108
 20
125.1673462391053
 30
0.0
 40
3.0
 41
0.0
 71
     5
 72
     1
  1
\A1;36
  0
POINT
  5
2036
330
202D
100
AcDbEntity
  8
DEFPOINTS
 62
     0
100
AcDbPoint
 10
437.5426095781107
 20
146.2132201782607
 30
0.0
  0
POINT
  5
2037
330
202D
100
AcDbEntity
  8
DEFPOINTS
 62
     0
100
AcDbPoint
 10
473.3426095781108
 20
146.2132201782607
 30
0.0
  0
POINT
  5
2038
330
202D
100
AcDbEntity
  8
DEFPOINTS
 62
     0
100
AcDbPoint
 10
473.3426095781108
 20
122.6358462391053
 30
0.0
  0
ENDBLK
  5
202F
330
202D
100
AcDbEntity
  8
0
100
AcDbBlockEnd
  0
ENDSEC
  0
SECTION
  2
ENTITIES
  0
LINE
  5
2E4
330
1F
100
AcDbEntity
  8
OBRYS
  6
CONTINUOUS
100
AcDbLine
 10
355.0314049177886
 20
149.7049199706726
 30
0.0
 11
354.9303099177886
 21
149.7632869706726
 31
0.0
  0
LINE
  5
2EA
330
1F
100
AcDbEntity
  8
OBRYS
  6
CONTINUOUS
100
AcDbLine
 10
400.8104482467792
 20
145.9493173339249
 30
0.0
 11
400.8100179177886
 21
142.5614299706726
 31
0.0
  0
LINE
  5
2F2
330
1F
100
AcDbEntity
  8
OBRYS
  6
CONTINUOUS
100
AcDbLine
 10
398.0600179177886
 20
142.5614299706726
 30
0.0
 11
398.0604483635999
 21
145.9498841291911
 31
0.0
  0
LINE
  5
312
330
1F
100
AcDbEntity
  8
OBRYS
  6
CONTINUOUS
100
AcDbLine
 10
354.1600189177885
 20
232.3156639706726
 30
0.0
 11
354.7963379177885
 21
232.6830429706726
 31
0.0
  0
LINE
  5
316
330
1F
100
AcDbEntity
  8
OBRYS
  6
CONTINUOUS
100
AcDbLine
 10
354.6636739177886
 20
149.8025649706726
 30
0.0
 11
355.1629769177886
 21
150.6673819706726
 31
0.0
  0
LINE
  5
319
330
1F
100
AcDbEntity
  8
OBRYS
  6
CONTINUOUS
100
AcDbLine
 10
354.0600189177886
 20
149.5729289706726
 30
0.0
 11
354.0600189177886
 21
168.3576939706726
 31
0.0
  0
LINE
  5
31C
330
1F
100
AcDbEntity
  8
OBRYS
  6
CONTINUOUS
100
AcDbLine
 10
354.0600189177886
 20
213.3576939706726
 30
0.0
 11
354.0600189177886
 21
232.1424589706726
 31
0.0
  0
LINE
  5
31D
330
1F
100
AcDbEntity
  8
OBRYS
  6
CONTINUOUS
100
AcDbLine
 10
360.1683479177885
 20
235.7576939706726
 30
0.0
 11
401.9364469177885
 21
235.7576939706726
 31
0.0
  0
LINE
  5
31E
330
1F
100
AcDbEntity
  8
OBRYS
  6
CONTINUOUS
100
AcDbLine
 10
403.0598279177885
 20
151.3533359706726
 30
0.0
 11
403.0600219177886
 21
172.2576959706726
 31
0.0
  0
LINE
  5
322
330
1F
100
AcDbEntity
  8
OBRYS
  6
CONTINUOUS
100
AcDbLine
 10
403.3600189177886
 20
206.6076939706726
 30
0.0
 11
400.4435869177886
 21
206.6076939706726
 31
0.0
  0
LINE
  5
328
330
1F
100
AcDbEntity
  8
OBRYS
  6
CONTINUOUS
100
AcDbLine
 10
354.7963379177885
 20
149.0323449706726
 30
0.0
 11
354.1600189177885
 21
149.3997239706726
 31
0.0
  0
LINE
  5
329
330
1F
100
AcDbEntity
  8
OBRYS
  6
CONTINUOUS
100
AcDbLine
 10
331.9600189177886
 20
213.3576939706726
 30
0.0
 11
354.0600189177886
 21
213.3576939706726
 31
0.0
  0
LINE
  5
32C
330
1F
100
AcDbEntity
  8
OBRYS
  6
CONTINUOUS
100
AcDbLine
 10
403.5600189177886
 20
224.7576939706726
 30
0.0
 11
403.5600189177886
 21
206.8076939706726
 31
0.0
  0
LINE
  5
335
330
1F
100
AcDbEntity
  8
OBRYS
  6
CONTINUOUS
100
AcDbLine
 10
355.0966869177886
 20
149.5525649706726
 30
0.0
 11
354.6636739177886
 21
149.8025649706726
 31
0.0
  0
LINE
  5
338
330
1F
100
AcDbEntity
  8
OBRYS
  6
CONTINUOUS
100
AcDbLine
 10
360.0683479177886
 20
145.9844889706726
 30
0.0
 11
359.3854719177885
 21
146.3787479706726
 31
0.0
  0
LINE
  5
339
330
1F
100
AcDbEntity
  8
OBRYS
  6
CONTINUOUS
100
AcDbLine
 10
398.0600189177886
 20
172.4576959706726
 30
0.0
 11
402.8600219177886
 21
172.4576959706726
 31
0.0
  0
LINE
  5
342
330
1F
100
AcDbEntity
  8
OBRYS
  6
CONTINUOUS
100
AcDbLine
 10
355.1629769177886
 20
150.6673819706726
 30
0.0
 11
356.8077369177886
 21
149.7177789706726
 31
0.0
  0
LINE
  5
346
330
1F
100
AcDbEntity
  8
OBRYS
  6
CONTINUOUS
100
AcDbLine
 10
402.63240814749
 20
145.9489418145463
 30
0.0
 11
360.1683479177885
 21
145.9576939706726
 31
0.0
  0
LINE
  5
349
330
1F
100
AcDbEntity
  8
OBRYS
  6
CONTINUOUS
100
AcDbLine
 10
360.6181352347754
 20
147.5137837876596
 30
0.0
 11
360.1188329177886
 21
146.6489669706726
 31
0.0
  0
LINE
  5
34C
330
1F
100
AcDbEntity
  8
OBRYS
  6
CONTINUOUS
100
AcDbLine
 10
360.1188329177886
 20
146.6489669706726
 30
0.0
 11
359.6858199177885
 21
146.8989669706726
 31
0.0
  0
LINE
  5
34F
330
1F
100
AcDbEntity
  8
OBRYS
  6
CONTINUOUS
100
AcDbLine
 10
359.8521629177886
 20
146.9216539706726
 30
0.0
 11
359.9532569177886
 21
146.8632869706726
 31
0.0
  0
LINE
  5
351
330
1F
100
AcDbEntity
  8
OBRYS
  6
CONTINUOUS
100
AcDbLine
 10
355.9425219177886
 20
150.1026469706726
 30
0.0
 11
355.3303099177886
 21
150.4561069706726
 31
0.0
  0
LINE
  5
355
330
1F
100
AcDbEntity
  8
OBRYS
  6
CONTINUOUS
100
AcDbLine
 10
359.3531499177886
 20
235.1880999706726
 30
0.0
 11
359.5883329177885
 21
234.8522239706726
 31
0.0
  0
LINE
  5
356
330
1F
100
AcDbEntity
  8
OBRYS
  6
CONTINUOUS
100
AcDbLine
 10
356.8077359177886
 20
231.9976089706726
 30
0.0
 11
355.1629769177886
 21
231.0480059706726
 31
0.0
  0
LINE
  5
35D
330
1F
100
AcDbEntity
  8
OBRYS
  6
CONTINUOUS
100
AcDbLine
 10
354.6636739177886
 20
231.9128229706726
 30
0.0
 11
355.0966869177886
 21
232.1628229706726
 31
0.0
  0
LINE
  5
35F
330
1F
100
AcDbEntity
  8
OBRYS
  6
CONTINUOUS
100
AcDbLine
 10
359.6858199177885
 20
146.8989669706726
 30
0.0
 11
359.3854719177885
 21
146.3787479706726
 31
0.0
  0
LINE
  5
360
330
1F
100
AcDbEntity
  8
OBRYS
  6
CONTINUOUS
100
AcDbLine
 10
354.0600189177886
 20
220.4141699706726
 30
0.0
 11
354.0600189177886
 21
220.4141809706726
 31
0.0
  0
LINE
  5
361
330
1F
100
AcDbEntity
  8
OBRYS
  6
CONTINUOUS
100
AcDbLine
 10
358.9733749177886
 20
148.4633869706726
 30
0.0
 11
360.6181352347741
 21
147.5137837876604
 31
0.0
  0
LINE
  5
362
330
1F
100
AcDbEntity
  8
OBRYS
  6
CONTINUOUS
100
AcDbLine
 10
355.9467529177886
 20
149.2996129706726
 30
0.0
 11
356.0923699177886
 21
149.5623129706726
 31
0.0
  0
LINE
  5
366
330
1F
100
AcDbEntity
  8
OBRYS
  6
CONTINUOUS
100
AcDbLine
 10
354.9393809177886
 20
232.6398089706726
 30
0.0
 11
355.1126659177886
 21
232.2681969706726
 31
0.0
  0
LINE
  5
368
330
1F
100
AcDbEntity
  8
OBRYS
  6
CONTINUOUS
100
AcDbLine
 10
355.9425219177886
 20
231.6127419706726
 30
0.0
 11
355.3303099177886
 21
231.2592809706726
 31
0.0
  0
LINE
  5
369
330
1F
100
AcDbEntity
  8
OBRYS
  6
CONTINUOUS
100
AcDbLine
 10
354.7963379177885
 20
149.0323449706726
 30
0.0
 11
355.0966869177886
 21
149.5525649706726
 31
0.0
  0
LINE
  5
36A
330
1F
100
AcDbEntity
  8
OBRYS
  6
CONTINUOUS
100
AcDbLine
 10
360.1188329177886
 20
235.0664209706726
 30
0.0
 11
360.6181346546731
 21
234.2016038187628
 31
0.0
  0
LINE
  5
36C
330
1F
100
AcDbEntity
  8
OBRYS
  6
CONTINUOUS
100
AcDbLine
 10
359.6858199177885
 20
234.8164209706726
 30
0.0
 11
360.1188329177886
 21
235.0664209706726
 31
0.0
  0
LINE
  5
36D
330
1F
100
AcDbEntity
  8
OBRYS
  6
CONTINUOUS
100
AcDbLine
 10
354.0600189177886
 20
230.3512079706726
 30
0.0
 11
354.0600189177886
 21
230.3512179706726
 31
0.0
  0
LINE
  5
372
330
1F
100
AcDbEntity
  8
OBRYS
  6
CONTINUOUS
100
AcDbLine
 10
355.9467529177886
 20
232.4157749706726
 30
0.0
 11
356.0923699177886
 21
232.1530759706726
 31
0.0
  0
LINE
  5
375
330
1F
100
AcDbEntity
  8
OBRYS
  6
CONTINUOUS
100
AcDbLine
 10
355.0966869177886
 20
232.1628229706726
 30
0.0
 11
354.7963379177885
 21
232.6830429706726
 31
0.0
  0
LINE
  5
377
330
1F
100
AcDbEntity
  8
OBRYS
  6
CONTINUOUS
100
AcDbLine
 10
359.3854719177885
 20
235.3366399706726
 30
0.0
 11
359.6858199177885
 21
234.8164209706726
 31
0.0
  0
LINE
  5
378
330
1F
100
AcDbEntity
  8
OBRYS
  6
CONTINUOUS
100
AcDbLine
 10
360.6181349177886
 20
234.2016039706726
 30
0.0
 11
358.9733739177885
 21
233.2520009706726
 31
0.0
  0
LINE
  5
37D
330
1F
100
AcDbEntity
  8
OBRYS
  6
CONTINUOUS
100
AcDbLine
 10
359.0434829177885
 20
147.5117149706726
 30
0.0
 11
359.1981789177886
 21
147.7691729706726
 31
0.0
  0
LINE
  5
37F
330
1F
100
AcDbEntity
  8
OBRYS
  6
CONTINUOUS
100
AcDbLine
 10
354.9393809177886
 20
149.0755789706726
 30
0.0
 11
355.1126659177886
 21
149.4471909706726
 31
0.0
  0
LINE
  5
381
330
1F
100
AcDbEntity
  8
OBRYS
  6
CONTINUOUS
100
AcDbLine
 10
359.8521629177886
 20
234.7937339706726
 30
0.0
 11
359.9532569177886
 21
234.8521009706726
 31
0.0
  0
LINE
  5
385
330
1F
100
AcDbEntity
  8
OBRYS
  6
CONTINUOUS
100
AcDbLine
 10
359.3531499177886
 20
146.5272889706726
 30
0.0
 11
359.5883329177885
 21
146.8631639706726
 31
0.0
  0
LINE
  5
388
330
1F
100
AcDbEntity
  8
OBRYS
  6
CONTINUOUS
100
AcDbLine
 10
355.0314049177886
 20
232.0104679706726
 30
0.0
 11
354.9303099177886
 21
231.9521009706726
 31
0.0
  0
LINE
  5
38B
330
1F
100
AcDbEntity
  8
OBRYS
  6
CONTINUOUS
100
AcDbLine
 10
359.0434829177885
 20
234.2036729706726
 30
0.0
 11
359.1981789177886
 21
233.9462149706726
 31
0.0
  0
LINE
  5
38F
330
1F
100
AcDbEntity
  8
OBRYS
  6
CONTINUOUS
100
AcDbLine
 10
359.7410459177886
 20
233.8058199706726
 30
0.0
 11
360.3532569177886
 21
234.1592809706726
 31
0.0
  0
LINE
  5
390
330
1F
100
AcDbEntity
  8
OBRYS
  6
CONTINUOUS
100
AcDbLine
 10
355.1629769177886
 20
231.0480069706726
 30
0.0
 11
354.6636749659613
 21
231.912823575835
 31
0.0
  0
LINE
  5
398
330
1F
100
AcDbEntity
  8
OBRYS
  6
CONTINUOUS
100
AcDbLine
 10
400.2703819177885
 20
206.7076939706726
 30
0.0
 11
399.2600189177886
 21
208.4576939706726
 31
0.0
  0
LINE
  5
399
330
1F
100
AcDbEntity
  8
OBRYS
  6
CONTINUOUS
100
AcDbLine
 10
399.2600189177886
 20
208.4576939706726
 30
0.0
 11
398.0600189177886
 21
208.4576939706726
 31
0.0
  0
LINE
  5
3A5
330
1F
100
AcDbEntity
  8
OBRYS
  6
CONTINUOUS
100
AcDbLine
 10
398.0600189177886
 20
208.4576939706726
 30
0.0
 11
398.0600189177886
 21
172.4576959706726
 31
0.0
  0
LINE
  5
3AD
330
1F
100
AcDbEntity
  8
OBRYS
  6
CONTINUOUS
100
AcDbLine
 10
402.1347359177886
 20
235.5837989706726
 30
0.0
 11
403.5600189177886
 21
224.7576939706726
 31
0.0
  0
LINE
  5
3AF
330
1F
100
AcDbEntity
  8
OBRYS
  6
CONTINUOUS
100
AcDbLine
 10
331.7600189177886
 20
168.5576939706726
 30
0.0
 11
331.7600189177886
 21
213.1576939706726
 31
0.0
  0
LINE
  5
3B0
330
1F
100
AcDbEntity
  8
OBRYS
  6
CONTINUOUS
100
AcDbLine
 10
354.0600189177886
 20
168.3576939706726
 30
0.0
 11
331.9600189177886
 21
168.3576939706726
 31
0.0
  0
LINE
  5
3B1
330
1F
100
AcDbEntity
  8
OBRYS
  6
CONTINUOUS
100
AcDbLine
 10
359.3854717960643
 20
235.3366401815056
 30
0.0
 11
360.0683479177886
 21
235.7308989706726
 31
0.0
  0
LINE
  5
3B5
330
1F
100
AcDbEntity
  8
OBRYS
  6
CONTINUOUS
100
AcDbLine
 10
359.7410459177886
 20
147.9095679706726
 30
0.0
 11
360.3532569177886
 21
147.5561069706726
 31
0.0
  0
LINE
  5
3B9
330
1F
100
AcDbEntity
  8
OBRYS
  6
CONTINUOUS
100
AcDbLine
 10
403.0598279177885
 20
151.3533359706726
 30
0.0
 11
402.6755839177886
 21
142.5527059706726
 31
0.0
  0
LINE
  5
3BF
330
1F
100
AcDbEntity
  8
OBRYS
  6
CONTINUOUS
100
AcDbLine
 10
402.4757739177886
 20
142.3614289706726
 30
0.0
 11
398.2600179177886
 21
142.3614299706726
 31
0.0
  0
ARC
  5
3F1
330
1F
100
AcDbEntity
  8
OBRYS
  6
CONTINUOUS
100
AcDbCircle
 10
-356.1216769177886
 20
232.5127369706726
 30
0.0
 40
0.2
210
0.0
220
0.0
230
-1.0
100
AcDbArc
 50
331.0000000000053
 51
52.06319899999484
  0
ARC
  5
3F2
330
1F
100
AcDbEntity
  8
OBRYS
  6
CONTINUOUS
100
AcDbCircle
 10
359.5410459177886
 20
147.5631579706726
 30
0.0
 40
0.4
100
AcDbArc
 50
59.99999999999422
 51
148.9999999999991
  0
CIRCLE
  5
3F3
330
1F
100
AcDbEntity
  8
OBRYS
  6
CONTINUOUS
100
AcDbCircle
 10
394.5600189177886
 20
165.8576939706726
 30
0.0
 40
2.0
  0
ARC
  5
3F4
330
1F
100
AcDbEntity
  8
OBRYS
  6
CONTINUOUS
100
AcDbCircle
 10
355.7425219177886
 20
149.7562369706726
 30
0.0
 40
0.4
100
AcDbArc
 50
330.9999999999942
 51
59.99999999999925
  0
ARC
  5
3F5
330
1F
100
AcDbEntity
  8
OBRYS
  6
CONTINUOUS
100
AcDbCircle
 10
-358.8720489177886
 20
147.6147229706726
 30
0.0
 40
0.2
210
0.0
220
0.0
230
-1.0
100
AcDbArc
 50
210.9999999999925
 51
292.0631989999935
  0
ARC
  5
3F6
330
1F
100
AcDbEntity
  8
OBRYS
  6
CONTINUOUS
100
AcDbCircle
 10
-356.1216769177886
 20
149.2026509706726
 30
0.0
 40
0.2
210
0.0
220
0.0
230
-1.0
100
AcDbArc
 50
307.9368010000052
 51
28.99999999999473
  0
ARC
  5
3F7
330
1F
100
AcDbEntity
  8
OBRYS
  6
CONTINUOUS
100
AcDbCircle
 10
-354.9314049177885
 20
149.5317149706726
 30
0.0
 40
0.2
210
0.0
220
0.0
230
-1.0
100
AcDbArc
 50
120.0000000000038
 51
204.9999999999952
  0
ARC
  5
3F8
330
1F
100
AcDbEntity
  8
OBRYS
  6
CONTINUOUS
100
AcDbCircle
 10
400.6100179177886
 20
142.5614299706726
 30
0.0
 40
0.2
100
AcDbArc
 50
270.0
 51
0.0
  0
ARC
  5
3F9
330
1F
100
AcDbEntity
  8
OBRYS
  6
CONTINUOUS
100
AcDbCircle
 10
355.1206419177886
 20
148.9910559706726
 30
0.0
 40
0.2
100
AcDbArc
 50
155.0000000000048
 51
228.9900279999968
  0
ARC
  5
3FA
330
1F
100
AcDbEntity
  8
OBRYS
  6
CONTINUOUS
100
AcDbCircle
 10
400.4435869177886
 20
206.8076939706726
 30
0.0
 40
0.2
100
AcDbArc
 50
209.9999999999855
 51
270.0
  0
CIRCLE
  5
3FB
330
1F
100
AcDbEntity
  8
OBRYS
  6
CONTINUOUS
100
AcDbCircle
 10
-394.5600189177886
 20
215.8576939706726
 30
0.0
 40
0.7749999999999984
210
0.0
220
0.0
230
-1.0
  0
CIRCLE
  5
3FC
330
1F
100
AcDbEntity
  8
OBRYS
  6
CONTINUOUS
100
AcDbCircle
 10
-359.0600189177886
 20
217.3576939706726
 30
0.0
 40
0.7749999999999984
210
0.0
220
0.0
230
-1.0
  0
ARC
  5
3FD
330
1F
100
AcDbEntity
  8
OBRYS
  6
CONTINUOUS
100
AcDbCircle
 10
355.1303099177886
 20
150.1096969706726
 30
0.0
 40
0.4
100
AcDbArc
 50
60.00000000000129
 51
98.783576548096
  0
CIRCLE
  5
3FE
330
1F
100
AcDbEntity
  8
OBRYS
  6
CONTINUOUS
100
AcDbCircle
 10
-359.0600189177886
 20
164.3576939706726
 30
0.0
 40
0.7749999999999984
210
0.0
220
0.0
230
-1.0
  0
ARC
  5
3FF
330
1F
100
AcDbEntity
  8
OBRYS
  6
CONTINUOUS
100
AcDbCircle
 10
-358.8720489177886
 20
234.1006649706726
 30
0.0
 40
0.2
210
0.0
220
0.0
230
-1.0
100
AcDbArc
 50
67.93680100000643
 51
149.0000000000075
  0
ARC
  5
400
330
1F
100
AcDbEntity
  8
OBRYS
  6
CONTINUOUS
100
AcDbCircle
 10
-363.1917839177886
 20
158.2725789706726
 30
0.0
 40
11.7
210
0.0
220
0.0
230
-1.0
100
AcDbArc
 50
292.063199
 51
307.9368009999999
  0
ARC
  5
401
330
1F
100
AcDbEntity
  8
OBRYS
  6
CONTINUOUS
100
AcDbCircle
 10
355.1206419177886
 20
232.7243319706726
 30
0.0
 40
0.2
100
AcDbArc
 50
131.0099720000032
 51
204.9999999999952
  0
ARC
  5
402
330
1F
100
AcDbEntity
  8
OBRYS
  6
CONTINUOUS
100
AcDbCircle
 10
-359.7521629177886
 20
234.9669399706726
 30
0.0
 40
0.2
210
0.0
220
0.0
230
-1.0
100
AcDbArc
 50
239.9999999999922
 51
325.0000000000006
  0
ARC
  5
403
330
1F
100
AcDbEntity
  8
OBRYS
  6
CONTINUOUS
100
AcDbCircle
 10
402.63240814749
 20
146.1489418145463
 30
0.0
 40
0.2
100
AcDbArc
 50
270.0
 51
357.4999929999992
  0
ARC
  5
404
330
1F
100
AcDbEntity
  8
OBRYS
  6
CONTINUOUS
100
AcDbCircle
 10
360.1532569177887
 20
234.5056909706725
 30
0.0
 40
0.3999999999998904
100
AcDbArc
 50
299.9999999999978
 51
338.783632531472
  0
ARC
  5
405
330
1F
100
AcDbEntity
  8
OBRYS
  6
CONTINUOUS
100
AcDbCircle
 10
359.1893199177886
 20
235.0733839706726
 30
0.0
 40
0.2
100
AcDbArc
 50
34.99999999999923
 51
108.9900280000045
  0
ARC
  5
406
330
1F
100
AcDbEntity
  8
OBRYS
  6
CONTINUOUS
100
AcDbCircle
 10
359.1893199177886
 20
146.6420039706726
 30
0.0
 40
0.2
100
AcDbArc
 50
251.0099719999955
 51
325.0000000000006
  0
ARC
  5
407
330
1F
100
AcDbEntity
  8
OBRYS
  6
CONTINUOUS
100
AcDbCircle
 10
355.1303099177883
 20
231.6056909706728
 30
0.0
 40
0.3999999999997067
100
AcDbArc
 50
119.9999999999848
 51
158.7834454599002
  0
ARC
  5
408
330
1F
100
AcDbEntity
  8
OBRYS
  6
CONTINUOUS
100
AcDbCircle
 10
-354.9314049177885
 20
232.1836729706726
 30
0.0
 40
0.2
210
0.0
220
0.0
230
-1.0
100
AcDbArc
 50
155.0000000000048
 51
239.9999999999963
  0
ARC
  5
409
330
1F
100
AcDbEntity
  8
OBRYS
  6
CONTINUOUS
100
AcDbCircle
 10
-359.7521629177886
 20
146.7484489706726
 30
0.0
 40
0.2
210
0.0
220
0.0
230
-1.0
100
AcDbArc
 50
34.99999999999923
 51
120.0000000000078
  0
ARC
  5
40A
330
1F
100
AcDbEntity
  8
OBRYS
  6
CONTINUOUS
100
AcDbCircle
 10
363.1917839177886
 20
158.2725789706726
 30
0.0
 40
12.5
100
AcDbArc
 50
228.990028
 51
251.0099719999999
  0
CIRCLE
  5
40B
330
1F
100
AcDbEntity
  8
OBRYS
  6
CONTINUOUS
100
AcDbCircle
 10
359.0600189177886
 20
164.3576939706726
 30
0.0
 40
1.999999999999945
  0
ARC
  5
40C
330
1F
100
AcDbEntity
  8
OBRYS
  6
CONTINUOUS
100
AcDbCircle
 10
-363.1917839177886
 20
223.4428089706726
 30
0.0
 40
11.7
210
0.0
220
0.0
230
-1.0
100
AcDbArc
 50
52.06319899999987
 51
67.93680100000003
  0
CIRCLE
  5
40D
330
1F
100
AcDbEntity
  8
OBRYS
  6
CONTINUOUS
100
AcDbCircle
 10
-394.5600189177886
 20
165.8576939706726
 30
0.0
 40
0.7749999999999984
210
0.0
220
0.0
230
-1.0
  0
ARC
  5
40E
330
1F
100
AcDbEntity
  8
OBRYS
  6
CONTINUOUS
100
AcDbCircle
 10
363.1917839177886
 20
223.4428089706726
 30
0.0
 40
12.5
100
AcDbArc
 50
108.9900280000002
 51
131.0099720000001
  0
ARC
  5
410
330
1F
100
AcDbEntity
  8
OBRYS
  6
CONTINUOUS
100
AcDbCircle
 10
359.5410459177886
 20
234.1522309706726
 30
0.0
 40
0.4
100
AcDbArc
 50
211.0000000000009
 51
300.0000000000078
  0
ARC
  5
411
330
1F
100
AcDbEntity
  8
OBRYS
  6
CONTINUOUS
100
AcDbCircle
 10
-360.1683479177885
 20
146.1576939706726
 30
0.0
 40
0.2
210
0.0
220
0.0
230
-1.0
100
AcDbArc
 50
270.0
 51
299.9999999999896
  0
ARC
  5
412
330
1F
100
AcDbEntity
  8
OBRYS
  6
CONTINUOUS
100
AcDbCircle
 10
355.7425219177886
 20
231.9591519706726
 30
0.0
 40
0.4
100
AcDbArc
 50
300.0000000000008
 51
29.00000000000581
  0
ARC
  5
413
330
1F
100
AcDbEntity
  8
OBRYS
  6
CONTINUOUS
100
AcDbCircle
 10
-402.8600219177886
 20
172.2576959706726
 30
0.0
 40
0.2
210
0.0
220
0.0
230
-1.0
100
AcDbArc
 50
90.00000300000094
 51
180.0000069999968
  0
CIRCLE
  5
414
330
1F
100
AcDbEntity
  8
OBRYS
  6
CONTINUOUS
100
AcDbCircle
 10
359.0600189177886
 20
217.3576939706726
 30
0.0
 40
2.000000000000085
  0
ARC
  5
415
330
1F
100
AcDbEntity
  8
OBRYS
  6
CONTINUOUS
100
AcDbCircle
 10
-401.9364469177885
 20
235.5576939706726
 30
0.0
 40
0.2
210
0.0
220
0.0
230
-1.0
100
AcDbArc
 50
90.0
 51
172.4999999999986
  0
ARC
  5
416
330
1F
100
AcDbEntity
  8
OBRYS
  6
CONTINUOUS
100
AcDbCircle
 10
-398.2600179177886
 20
142.5614299706726
 30
0.0
 40
0.2
210
0.0
220
0.0
230
-1.0
100
AcDbArc
 50
270.0
 51
0.0
  0
CIRCLE
  5
417
330
1F
100
AcDbEntity
  8
OBRYS
  6
CONTINUOUS
100
AcDbCircle
 10
-394.5600189177886
 20
215.8576939706726
 30
0.0
 40
2.2
210
0.0
220
0.0
230
-1.0
  0
ARC
  5
418
330
1F
100
AcDbEntity
  8
OBRYS
  6
CONTINUOUS
100
AcDbCircle
 10
-354.2600189177886
 20
232.1424589706726
 30
0.0
 40
0.2
210
0.0
220
0.0
230
-1.0
100
AcDbArc
 50
0.0
 51
60.00000000001037
  0
ARC
  5
419
330
1F
100
AcDbEntity
  8
OBRYS
  6
CONTINUOUS
100
AcDbCircle
 10
402.4757739177886
 20
142.5614289706726
 30
0.0
 40
0.2
100
AcDbArc
 50
270.0
 51
357.4999999999987
  0
ARC
  5
41A
330
1F
100
AcDbEntity
  8
OBRYS
  6
CONTINUOUS
100
AcDbCircle
 10
331.9600189177886
 20
213.1576939706726
 30
0.0
 40
0.2
100
AcDbArc
 50
90.0
 51
180.0
  0
ARC
  5
41B
330
1F
100
AcDbEntity
  8
OBRYS
  6
CONTINUOUS
100
AcDbCircle
 10
403.3600189177886
 20
206.8076939706726
 30
0.0
 40
0.2
100
AcDbArc
 50
270.0
 51
0.0
  0
CIRCLE
  5
41D
330
1F
100
AcDbEntity
  8
OBRYS
  6
CONTINUOUS
100
AcDbCircle
 10
-359.0600189177886
 20
217.3576939706726
 30
0.0
 40
2.200000000000085
210
0.0
220
0.0
230
-1.0
  0
ARC
  5
41E
330
1F
100
AcDbEntity
  8
OBRYS
  6
CONTINUOUS
100
AcDbCircle
 10
354.2600189177886
 20
149.5729289706726
 30
0.0
 40
0.2
100
AcDbArc
 50
180.0
 51
240.0000000000063
  0
ARC
  5
41F
330
1F
100
AcDbEntity
  8
OBRYS
  6
CONTINUOUS
100
AcDbCircle
 10
-331.9600189177886
 20
168.5576939706726
 30
0.0
 40
0.2
210
0.0
220
0.0
230
-1.0
100
AcDbArc
 50
270.0
 51
0.0
  0
CIRCLE
  5
420
330
1F
100
AcDbEntity
  8
OBRYS
  6
CONTINUOUS
100
AcDbCircle
 10
-359.0600189177886
 20
164.3576939706726
 30
0.0
 40
2.199999999999945
210
0.0
220
0.0
230
-1.0
  0
CIRCLE
  5
421
330
1F
100
AcDbEntity
  8
OBRYS
  6
CONTINUOUS
100
AcDbCircle
 10
394.5600189177886
 20
215.8576939706726
 30
0.0
 40
2.0
  0
CIRCLE
  5
422
330
1F
100
AcDbEntity
  8
OBRYS
  6
CONTINUOUS
100
AcDbCircle
 10
-394.5600189177886
 20
165.8576939706726
 30
0.0
 40
2.2
210
0.0
220
0.0
230
-1.0
  0
ARC
  5
423
330
1F
100
AcDbEntity
  8
OBRYS
  6
CONTINUOUS
100
AcDbCircle
 10
-360.1683479177885
 20
235.5576939706726
 30
0.0
 40
0.2
210
0.0
220
0.0
230
-1.0
100
AcDbArc
 50
60.00000000001037
 51
90.0
  0
ARC
  5
424
330
1F
100
AcDbEntity
  8
OBRYS
  6
CONTINUOUS
100
AcDbCircle
 10
360.1532569177886
 20
147.2096969706725
 30
0.0
 40
0.3999999999999435
100
AcDbArc
 50
239.9999999999972
 51
278.7837235102699
  0
ARC
  5
1285
330
1F
100
AcDbEntity
  8
OBRYS
  6
CONTINUOUS
100
AcDbCircle
 10
355.1452900921807
 20
150.1270279937481
 30
0.0
 40
0.4225211530185476
100
AcDbArc
 50
202.9013451573865
 51
239.4158462699124
  0
ARC
  5
1286
330
1F
100
AcDbEntity
  8
OBRYS
  6
CONTINUOUS
100
AcDbCircle
 10
360.1532569177885
 20
147.2096969706725
 30
0.0
 40
0.4000000000000968
100
AcDbArc
 50
21.21626705880043
 51
59.99999999998921
  0
ARC
  5
1287
330
1F
100
AcDbEntity
  8
OBRYS
100
AcDbCircle
 10
358.3942296848468
 20
149.960143474439
 30
0.0
 40
1.604898704782981
100
AcDbArc
 50
188.6857780788603
 51
291.1532309743595
  0
ARC
  5
1288
330
1F
100
AcDbEntity
  8
OBRYS
  6
CONTINUOUS
100
AcDbCircle
 10
355.1303099177886
 20
231.6056909706726
 30
0.0
 40
0.4
100
AcDbArc
 50
261.2157102266676
 51
300.0000000000008
  0
ARC
  5
1289
330
1F
100
AcDbEntity
  8
OBRYS
100
AcDbCircle
 10
358.3942255953215
 20
231.7552455810674
 30
0.0
 40
1.604895471901022
100
AcDbArc
 50
68.84675922006521
 51
171.3142578848525
  0
ARC
  5
128A
330
1F
100
AcDbEntity
  8
OBRYS
  6
CONTINUOUS
100
AcDbCircle
 10
360.1532569177886
 20
234.5056909706726
 30
0.0
 40
0.4
100
AcDbArc
 50
81.21630003364423
 51
119.9999999999967
  0
DIMENSION
  5
1330
330
1F
100
AcDbEntity
  8
KOTY
100
AcDbDimension
  2
*D7
 10
403.5600189177886
 20
245.8694714153149
 30
0.0
 11
367.6600189177885
 21
248.3754714153149
 31
0.0
 70
    32
  3
STANDARD
100
AcDbAlignedDimension
 13
331.7600189177886
 23
213.1576939706726
 33
0.0
 14
403.5600189177886
 24
224.7576939706726
 34
0.0
100
AcDbRotatedDimension
1001
ACAD
1000
DSTYLE
1002
{
1070
   271
1070
     0
1070
   278
1070
    44
1070
   140
1040
3.0
1070
    73
1070
     0
1070
    77
1070
     1
1070
   147
1040
1.0
1070
    41
1040
3.0
1002
}
  0
DIMENSION
  5
1340
330
1F
100
AcDbEntity
  8
KOTY
100
AcDbDimension
  2
*D8
 10
320.473941592266
 20
213.3576939706726
 30
0.0
 11
317.948441592266
 21
190.8576939706726
 31
0.0
 70
    32
  3
STANDARD
100
AcDbAlignedDimension
 13
331.9600189177886
 23
168.3576939706726
 33
0.0
 14
331.9600189177886
 24
213.3576939706726
 34
0.0
 50
90.0
100
AcDbRotatedDimension
1001
ACAD
1000
DSTYLE
1002
{
1070
   271
1070
     0
1070
   278
1070
    44
1070
   140
1040
3.0
1070
    73
1070
     0
1070
    77
1070
     1
1070
   147
1040
1.0
1070
    41
1040
3.0
1002
}
  0
DIMENSION
  5
1350
330
1F
100
AcDbEntity
  8
KOTY
100
AcDbDimension
  2
*D9
 10
310.5266136542384
 20
235.7576939706726
 30
0.0
 11
307.9951136542384
 21
190.8576939706726
 31
0.0
 70
    32
  3
STANDARD
100
AcDbAlignedDimension
 13
360.1683479177885
 23
145.9576939706726
 33
0.0
 14
360.1683479177885
 24
235.7576939706726
 34
0.0
 50
90.0
100
AcDbRotatedDimension
1001
ACAD
1000
DSTYLE
1002
{
1070
   271
1070
     0
1070
   278
1070
    44
1070
   140
1040
3.0
1070
    73
1070
     0
1070
    77
1070
     1
1070
   147
1040
1.0
1070
    41
1040
3.0
1002
}
  0
DIMENSION
  5
1360
330
1F
100
AcDbEntity
  8
KOTY
100
AcDbDimension
  2
*D10
 10
398.0600189177886
 20
122.6358462391053
 30
0.0
 11
364.9100189177885
 21
125.1673462391053
 31
0.0
 70
    32
  3
STANDARD
100
AcDbAlignedDimension
 13
331.7600189177886
 23
168.5576939706726
 33
0.0
 14
398.0600189177886
 24
172.4576959706726
 34
0.0
100
AcDbRotatedDimension
1001
ACAD
1000
DSTYLE
1002
{
1070
   271
1070
     0
1070
   278
1070
    44
1070
   140
1040
3.0
1070
    73
1070
     0
1070
    77
1070
     1
1070
   147
1040
1.0
1070
    41
1040
3.0
1002
}
  0
DIMENSION
  5
1370
330
1F
100
AcDbEntity
  8
KOTY
100
AcDbDimension
  2
*D11
 10
398.0600189177886
 20
134.1506929986001
 30
0.0
 11
376.0600189177886
 21
136.6506929986001
 31
0.0
 70
    32
  3
STANDARD
100
AcDbAlignedDimension
 13
354.0600189177886
 23
149.5729289706726
 33
0.0
 14
398.0600189177886
 24
172.4576959706726
 34
0.0
100
AcDbRotatedDimension
1001
ACAD
1000
DSTYLE
1002
{
1070
   271
1070
     0
1070
   278
1070
    44
1070
   140
1040
3.0
1070
    73
1070
     0
1070
    77
1070
     1
1070
   147
1040
1.0
1070
    41
1040
3.0
1002
}
  0
DIMENSION
  5
1380
330
1F
100
AcDbEntity
  8
KOTY
100
AcDbDimension
  2
*D12
 10
412.7427093336444
 20
142.361432319528
 30
0.0
 11
410.2112093336444
 21
189.0595631451003
 31
0.0
 70
    32
  1
94
  3
STANDARD
100
AcDbAlignedDimension
 13
401.9364469177885
 23
235.7576939706726
 33
0.0
 14
402.4769312988689
 24
142.361432319528
 34
0.0
 50
90.0
100
AcDbRotatedDimension
1001
ACAD
1000
DSTYLE
1002
{
1070
   271
1070
     3
1070
   278
1070
    44
1070
   140
1040
3.0
1070
    73
1070
     0
1070
    77
1070
     1
1070
   147
1040
1.0
1070
    41
1040
3.0
1002
}
  0
LINE
  5
19B1
330
1F
100
AcDbEntity
  8
OBRYS
  6
CONTINUOUS
100
AcDbLine
 10
464.9426095781108
 20
159.2717001782606
 30
0.0
 11
464.9426095781108
 21
157.6382201782606
 31
0.0
  0
LINE
  5
19BD
330
1F
100
AcDbEntity
  8
OBRYS
  6
CONTINUOUS
100
AcDbLine
 10
465.6676095781108
 20
156.9132201782606
 30
0.0
 11
466.5447125781107
 21
156.9132201782606
 31
0.0
  0
LINE
  5
19C0
330
1F
100
AcDbEntity
  8
OBRYS
  6
CONTINUOUS
100
AcDbLine
 10
458.4426095781108
 20
188.0847931782606
 30
0.0
 11
458.4426095781108
 21
168.4132201782607
 31
0.0
  0
LINE
  5
19C2
330
1F
100
AcDbEntity
  8
OBRYS
  6
CONTINUOUS
100
AcDbLine
 10
460.8861125781107
 20
191.3981441782606
 30
0.0
 11
459.0576855781108
 21
189.5697171782606
 31
0.0
  0
LINE
  5
19C3
330
1F
100
AcDbEntity
  8
OBRYS
  6
CONTINUOUS
100
AcDbLine
 10
445.3205155781107
 20
155.9058801782606
 30
0.0
 11
445.3205155781107
 21
156.9205601782606
 31
0.0
  0
LINE
  5
19D1
330
1F
100
AcDbEntity
  8
OBRYS
  6
CONTINUOUS
100
AcDbLine
 10
461.4426095781108
 20
213.4132201782607
 30
0.0
 11
461.4426095781108
 21
192.7416471782606
 31
0.0
  0
LINE
  5
19D9
330
1F
100
AcDbEntity
  8
OBRYS
  6
CONTINUOUS
100
AcDbLine
 10
460.4426095781108
 20
192.7416471782606
 30
0.0
 11
460.4426095781108
 21
213.4132201782607
 31
0.0
  0
LINE
  5
19DC
330
1F
100
AcDbEntity
  8
OBRYS
  6
CONTINUOUS
100
AcDbLine
 10
445.7302615781107
 20
155.7008731782606
 30
0.0
 11
445.3023705781108
 21
155.2729811782606
 31
0.0
  0
LINE
  5
19DD
330
1F
100
AcDbEntity
  8
OBRYS
  6
CONTINUOUS
100
AcDbLine
 10
447.1549575781108
 20
157.1255681782606
 30
0.0
 11
447.5828485781107
 21
157.5534591782607
 31
0.0
  0
LINE
  5
19DF
330
1F
100
AcDbEntity
  8
OBRYS
  6
CONTINUOUS
100
AcDbLine
 10
458.3505785781107
 20
190.2768241782606
 30
0.0
 11
460.1790055781108
 21
192.1052511782606
 31
0.0
  0
LINE
  5
19E2
330
1F
100
AcDbEntity
  8
OBRYS
  6
CONTINUOUS
100
AcDbLine
 10
445.9352695781108
 20
157.5353151782606
 30
0.0
 11
446.9499495781108
 21
157.5353151782606
 31
0.0
  0
LINE
  5
19E3
330
1F
100
AcDbEntity
  8
OBRYS
  6
CONTINUOUS
100
AcDbLine
 10
447.5647035781107
 20
156.9205601782606
 30
0.0
 11
447.5647035781107
 21
155.9058801782606
 31
0.0
  0
LINE
  5
19E6
330
1F
100
AcDbEntity
  8
OBRYS
  6
CONTINUOUS
100
AcDbLine
 10
445.9426095781108
 20
154.8292461782606
 30
0.0
 11
446.9426095781108
 21
154.8292461782606
 31
0.0
  0
LINE
  5
19E8
330
1F
100
AcDbEntity
  8
OBRYS
  6
CONTINUOUS
100
AcDbLine
 10
446.9499495781108
 20
155.2911261782606
 30
0.0
 11
445.9352695781108
 21
155.2911261782606
 31
0.0
  0
LINE
  5
19E9
330
1F
100
AcDbEntity
  8
OBRYS
  6
CONTINUOUS
100
AcDbLine
 10
451.0426125781108
 20
196.5132201782606
 30
0.0
 11
447.6426095781108
 21
196.5132201782606
 31
0.0
  0
LINE
  5
19ED
330
1F
100
AcDbEntity
  8
OBRYS
  6
CONTINUOUS
100
AcDbLine
 10
445.7302615781107
 20
157.1255681782606
 30
0.0
 11
445.3023705781108
 21
157.5534591782607
 31
0.0
  0
LINE
  5
19F0
330
1F
100
AcDbEntity
  8
OBRYS
  6
CONTINUOUS
100
AcDbLine
 10
457.4426095781108
 20
168.4132201782607
 30
0.0
 11
457.4426095781108
 21
188.0847931782606
 31
0.0
  0
LINE
  5
19F2
330
1F
100
AcDbEntity
  8
OBRYS
  6
CONTINUOUS
100
AcDbLine
 10
446.9426095781108
 20
157.9971951782607
 30
0.0
 11
445.9426095781108
 21
157.9971951782607
 31
0.0
  0
LINE
  5
19F8
330
1F
100
AcDbEntity
  8
OBRYS
  6
CONTINUOUS
100
AcDbLine
 10
451.8426095781107
 20
198.9132201782606
 30
0.0
 11
451.8426095781107
 21
197.3132201782606
 31
0.0
  0
LINE
  5
19FA
330
1F
100
AcDbEntity
  8
OBRYS
  6
CONTINUOUS
100
AcDbLine
 10
447.1549575781108
 20
155.7008731782606
 30
0.0
 11
447.5828485781107
 21
155.2729811782606
 31
0.0
  0
LINE
  5
19FC
330
1F
100
AcDbEntity
  8
OBRYS
  6
CONTINUOUS
100
AcDbLine
 10
447.6426095781108
 20
199.7132201782606
 30
0.0
 11
451.0426095781108
 21
199.7132201782606
 31
0.0
  0
LINE
  5
19FF
330
1F
100
AcDbEntity
  8
OBRYS
  6
CONTINUOUS
100
AcDbLine
 10
446.8426095781107
 20
197.3132201782606
 30
0.0
 11
446.8426095781107
 21
198.9132231782606
 31
0.0
  0
LINE
  5
1A1A
330
1F
100
AcDbEntity
  8
OBRYS
  6
CONTINUOUS
100
AcDbLine
 10
451.3499495781107
 20
224.3411261782606
 30
0.0
 11
450.3352695781107
 21
224.3411261782606
 31
0.0
  0
LINE
  5
1A1C
330
1F
100
AcDbEntity
  8
OBRYS
  6
CONTINUOUS
100
AcDbLine
 10
472.4479265781108
 20
228.7432201782606
 30
0.0
 11
472.4479265781108
 21
222.0832201782606
 31
0.0
  0
LINE
  5
1A21
330
1F
100
AcDbEntity
  8
OBRYS
  6
CONTINUOUS
100
AcDbLine
 10
450.3352695781107
 20
226.5853151782606
 30
0.0
 11
451.3499495781107
 21
226.5853151782606
 31
0.0
  0
LINE
  5
1A2D
330
1F
100
AcDbEntity
  8
OBRYS
  6
CONTINUOUS
100
AcDbLine
 10
451.9647035781108
 20
225.9705601782606
 30
0.0
 11
451.9647035781108
 21
224.9558801782606
 31
0.0
  0
LINE
  5
1A37
330
1F
100
AcDbEntity
  8
OBRYS
  6
CONTINUOUS
100
AcDbLine
 10
451.5549575781108
 20
226.1755681782606
 30
0.0
 11
451.9828485781108
 21
226.6034591782606
 31
0.0
  0
LINE
  5
1A3A
330
1F
100
AcDbEntity
  8
OBRYS
  6
CONTINUOUS
100
AcDbLine
 10
451.5549575781108
 20
224.7508731782606
 30
0.0
 11
451.9828485781108
 21
224.3229811782606
 31
0.0
  0
LINE
  5
1A3D
330
1F
100
AcDbEntity
  8
OBRYS
  6
CONTINUOUS
100
AcDbLine
 10
456.4372915781108
 20
222.0832201782606
 30
0.0
 11
456.4372915781108
 21
228.7432201782606
 31
0.0
  0
LINE
  5
1A3E
330
1F
100
AcDbEntity
  8
OBRYS
  6
CONTINUOUS
100
AcDbLine
 10
451.3426095781107
 20
227.0471951782606
 30
0.0
 11
450.3426095781107
 21
227.0471951782606
 31
0.0
  0
LINE
  5
1A49
330
1F
100
AcDbEntity
  8
OBRYS
  6
CONTINUOUS
100
AcDbLine
 10
449.7205155781108
 20
224.9558801782606
 30
0.0
 11
449.7205155781108
 21
225.9705601782606
 31
0.0
  0
LINE
  5
1A4A
330
1F
100
AcDbEntity
  8
OBRYS
  6
CONTINUOUS
100
AcDbLine
 10
471.1926095781108
 20
220.8285271782606
 30
0.0
 11
457.6926095781108
 21
220.8285271782606
 31
0.0
  0
LINE
  5
1A4B
330
1F
100
AcDbEntity
  8
OBRYS
  6
CONTINUOUS
100
AcDbLine
 10
450.1302615781107
 20
224.7508731782606
 30
0.0
 11
449.7023705781108
 21
224.3229811782606
 31
0.0
  0
LINE
  5
1A50
330
1F
100
AcDbEntity
  8
OBRYS
  6
CONTINUOUS
100
AcDbLine
 10
450.3426095781107
 20
223.8792461782606
 30
0.0
 11
451.3426095781107
 21
223.8792461782606
 31
0.0
  0
LINE
  5
1A52
330
1F
100
AcDbEntity
  8
OBRYS
  6
CONTINUOUS
100
AcDbLine
 10
450.1302615781107
 20
226.1755681782606
 30
0.0
 11
449.7023705781108
 21
226.6034591782606
 31
0.0
  0
LINE
  5
1A54
330
1F
100
AcDbEntity
  8
OBRYS
  6
CONTINUOUS
100
AcDbLine
 10
457.6926095781108
 20
229.9979141782606
 30
0.0
 11
471.1926095781108
 21
229.9979141782606
 31
0.0
  0
LINE
  5
1A55
330
1F
100
AcDbEntity
  8
OBRYS
  6
CONTINUOUS
100
AcDbLine
 10
460.5426095781108
 20
224.2382201782606
 30
0.0
 11
460.5426095781108
 21
222.5566691782606
 31
0.0
  0
LINE
  5
1A59
330
1F
100
AcDbEntity
  8
OBRYS
  6
CONTINUOUS
100
AcDbLine
 10
442.5426095781108
 20
224.2382201782606
 30
0.0
 11
442.5426095781108
 21
222.5566691782606
 31
0.0
  0
LINE
  5
1A5C
330
1F
100
AcDbEntity
  8
OBRYS
  6
CONTINUOUS
100
AcDbLine
 10
443.2676095781108
 20
225.9632201782606
 30
0.0
 11
444.1447125781107
 21
225.9632201782606
 31
0.0
  0
LINE
  5
1A60
330
1F
100
AcDbEntity
  8
OBRYS
  6
CONTINUOUS
100
AcDbLine
 10
441.5426095781108
 20
222.5547541782606
 30
0.0
 11
441.5426095781108
 21
224.2382201782606
 31
0.0
  0
LINE
  5
1A63
330
1F
100
AcDbEntity
  8
OBRYS
  6
CONTINUOUS
100
AcDbLine
 10
439.9405065781107
 20
225.9632201782606
 30
0.0
 11
440.8176095781108
 21
225.9632201782606
 31
0.0
  0
LINE
  5
1A65
330
1F
100
AcDbEntity
  8
OBRYS
  6
CONTINUOUS
100
AcDbLine
 10
444.1447125781107
 20
224.9632201782606
 30
0.0
 11
443.2676095781108
 21
224.9632201782606
 31
0.0
  0
LINE
  5
1A66
330
1F
100
AcDbEntity
  8
OBRYS
  6
CONTINUOUS
100
AcDbLine
 10
441.5426095781108
 20
226.6882201782606
 30
0.0
 11
441.5426095781108
 21
228.2717111782606
 31
0.0
  0
LINE
  5
1A67
330
1F
100
AcDbEntity
  8
OBRYS
  6
CONTINUOUS
100
AcDbLine
 10
461.2676095781108
 20
225.9632201782606
 30
0.0
 11
462.1447125781107
 21
225.9632201782606
 31
0.0
  0
LINE
  5
1A69
330
1F
100
AcDbEntity
  8
OBRYS
  6
CONTINUOUS
100
AcDbLine
 10
440.8176095781108
 20
224.9632201782606
 30
0.0
 11
439.9405065781107
 21
224.9632201782606
 31
0.0
  0
LINE
  5
1A6A
330
1F
100
AcDbEntity
  8
OBRYS
  6
CONTINUOUS
100
AcDbLine
 10
442.5426095781108
 20
228.2697761782606
 30
0.0
 11
442.5426095781108
 21
226.6882201782606
 31
0.0
  0
LINE
  5
1A6C
330
1F
100
AcDbEntity
  8
OBRYS
  6
CONTINUOUS
100
AcDbLine
 10
462.1447125781107
 20
224.9632201782606
 30
0.0
 11
461.2676095781108
 21
224.9632201782606
 31
0.0
  0
LINE
  5
1A6F
330
1F
100
AcDbEntity
  8
OBRYS
  6
CONTINUOUS
100
AcDbLine
 10
453.1926095781108
 20
220.8285271782606
 30
0.0
 11
439.6926095781108
 21
220.8285271782606
 31
0.0
  0
LINE
  5
1A70
330
1F
100
AcDbEntity
  8
OBRYS
  6
CONTINUOUS
100
AcDbLine
 10
463.7302615781107
 20
157.1255681782606
 30
0.0
 11
463.3023705781108
 21
157.5534591782607
 31
0.0
  0
LINE
  5
1A72
330
1F
100
AcDbEntity
  8
OBRYS
  6
CONTINUOUS
100
AcDbLine
 10
468.1302615781107
 20
226.1755681782606
 30
0.0
 11
467.7023705781108
 21
226.6034591782606
 31
0.0
  0
LINE
  5
1A74
330
1F
100
AcDbEntity
  8
OBRYS
  6
CONTINUOUS
100
AcDbLine
 10
439.6926095781108
 20
229.9979141782606
 30
0.0
 11
453.1926095781108
 21
229.9979141782606
 31
0.0
  0
LINE
  5
1A7C
330
1F
100
AcDbEntity
  8
OBRYS
  6
CONTINUOUS
100
AcDbLine
 10
469.3426095781107
 20
227.0471951782606
 30
0.0
 11
468.3426095781107
 21
227.0471951782606
 31
0.0
  0
LINE
  5
1A82
330
1F
100
AcDbEntity
  8
OBRYS
  6
CONTINUOUS
100
AcDbLine
 10
469.9647035781108
 20
225.9705601782606
 30
0.0
 11
469.9647035781108
 21
224.9558801782606
 31
0.0
  0
LINE
  5
1A89
330
1F
100
AcDbEntity
  8
OBRYS
  6
CONTINUOUS
100
AcDbLine
 10
467.7205155781108
 20
224.9558801782606
 30
0.0
 11
467.7205155781108
 21
225.9705601782606
 31
0.0
  0
LINE
  5
1A8A
330
1F
100
AcDbEntity
  8
OBRYS
  6
CONTINUOUS
100
AcDbLine
 10
469.5549575781108
 20
224.7508731782606
 30
0.0
 11
469.9828485781108
 21
224.3229811782606
 31
0.0
  0
LINE
  5
1A8B
330
1F
100
AcDbEntity
  8
OBRYS
  6
CONTINUOUS
100
AcDbLine
 10
437.7426095781107
 20
235.8132201782606
 30
0.0
 11
473.1426095781108
 21
235.8132201782606
 31
0.0
  0
LINE
  5
1A91
330
1F
100
AcDbEntity
  8
OBRYS
  6
CONTINUOUS
100
AcDbLine
 10
438.4372915781108
 20
222.0832201782606
 30
0.0
 11
438.4372915781108
 21
228.7432201782606
 31
0.0
  0
LINE
  5
1A94
330
1F
100
AcDbEntity
  8
OBRYS
  6
CONTINUOUS
100
AcDbLine
 10
459.5426095781108
 20
223.8792461782606
 30
0.0
 11
460.5426095781108
 21
223.8792461782606
 31
0.0
  0
LINE
  5
1A96
330
1F
100
AcDbEntity
  8
OBRYS
  6
CONTINUOUS
100
AcDbLine
 10
439.3926095781108
 20
220.7632201782606
 30
0.0
 11
439.3925885781107
 21
220.7620151782606
 31
0.0
  0
LINE
  5
1A97
330
1F
100
AcDbEntity
  8
OBRYS
  6
CONTINUOUS
100
AcDbLine
 10
468.3426095781107
 20
223.8792461782606
 30
0.0
 11
469.3426095781107
 21
223.8792461782606
 31
0.0
  0
LINE
  5
1A99
330
1F
100
AcDbEntity
  8
OBRYS
  6
CONTINUOUS
100
AcDbLine
 10
465.1549575781108
 20
155.7008731782606
 30
0.0
 11
465.5828485781107
 21
155.2729811782606
 31
0.0
  0
LINE
  5
1A9A
330
1F
100
AcDbEntity
  8
OBRYS
  6
CONTINUOUS
100
AcDbLine
 10
468.1302615781107
 20
224.7508731782606
 30
0.0
 11
467.7023705781108
 21
224.3229811782606
 31
0.0
  0
LINE
  5
1A9C
330
1F
100
AcDbEntity
  8
OBRYS
  6
CONTINUOUS
100
AcDbLine
 10
463.7302615781107
 20
155.7008731782606
 30
0.0
 11
463.3023705781108
 21
155.2729811782606
 31
0.0
  0
LINE
  5
1A9D
330
1F
100
AcDbEntity
  8
OBRYS
  6
CONTINUOUS
100
AcDbLine
 10
469.3499495781107
 20
224.3411261782606
 30
0.0
 11
468.3352695781107
 21
224.3411261782606
 31
0.0
  0
LINE
  5
1AAA
330
1F
100
AcDbEntity
  8
OBRYS
  6
CONTINUOUS
100
AcDbLine
 10
469.5549575781108
 20
226.1755681782606
 30
0.0
 11
469.9828485781108
 21
226.6034591782606
 31
0.0
  0
LINE
  5
1AAC
330
1F
100
AcDbEntity
  8
OBRYS
  6
CONTINUOUS
100
AcDbLine
 10
454.4479265781108
 20
228.7432201782606
 30
0.0
 11
454.4479265781108
 21
222.0832201782606
 31
0.0
  0
LINE
  5
1AB0
330
1F
100
AcDbEntity
  8
OBRYS
  6
CONTINUOUS
100
AcDbLine
 10
467.5840305781108
 20
168.4132201782607
 30
0.0
 11
467.5840305781108
 21
188.0847931782606
 31
0.0
  0
LINE
  5
1AB7
330
1F
100
AcDbEntity
  8
OBRYS
  6
CONTINUOUS
100
AcDbLine
 10
446.4426095781108
 20
235.3289111782606
 30
0.0
 11
446.4426095781108
 21
235.8132201782606
 31
0.0
  0
LINE
  5
1AC0
330
1F
100
AcDbEntity
  8
OBRYS
  6
CONTINUOUS
100
AcDbLine
 10
446.4426095781108
 20
146.0132201782606
 30
0.0
 11
446.4426095781108
 21
146.4975291782606
 31
0.0
  0
LINE
  5
1AC9
330
1F
100
AcDbEntity
  8
OBRYS
  6
CONTINUOUS
100
AcDbLine
 10
468.0991065781107
 20
189.3282961782606
 30
0.0
 11
469.9275335781107
 21
191.1567231782606
 31
0.0
  0
LINE
  5
1ACB
330
1F
100
AcDbEntity
  8
OBRYS
  6
CONTINUOUS
100
AcDbLine
 10
453.1926095781108
 20
151.8285551782606
 30
0.0
 11
439.6925545781108
 21
151.8285551782606
 31
0.0
  0
LINE
  5
1AD9
330
1F
100
AcDbEntity
  8
OBRYS
  6
CONTINUOUS
100
AcDbLine
 10
439.6926095781108
 20
160.9978851782606
 30
0.0
 11
453.1926645781107
 21
160.9978851782606
 31
0.0
  0
LINE
  5
1ADB
330
1F
100
AcDbEntity
  8
OBRYS
  6
CONTINUOUS
100
AcDbLine
 10
438.4372915781108
 20
153.0831931782606
 30
0.0
 11
438.4372915781108
 21
159.7432471782606
 31
0.0
  0
LINE
  5
1AE3
330
1F
100
AcDbEntity
  8
OBRYS
  6
CONTINUOUS
100
AcDbLine
 10
470.5840305781108
 20
192.7416471782606
 30
0.0
 11
470.5840305781108
 21
213.4132201782607
 31
0.0
  0
LINE
  5
1AE5
330
1F
100
AcDbEntity
  8
OBRYS
  6
CONTINUOUS
100
AcDbLine
 10
454.4479265781108
 20
159.7432471782606
 30
0.0
 11
454.4479265781108
 21
153.0831931782606
 31
0.0
  0
LINE
  5
1AEA
330
1F
100
AcDbEntity
  8
OBRYS
  6
CONTINUOUS
100
AcDbLine
 10
469.7982445781108
 20
191.2860121782606
 30
0.0
 11
467.9698175781107
 21
189.4575851782606
 31
0.0
  0
LINE
  5
1AF4
330
1F
100
AcDbEntity
  8
OBRYS
  6
CONTINUOUS
100
AcDbLine
 10
464.4433400696378
 20
230.1438116403413
 30
0.0
 11
464.4427204210049
 21
232.7329960463578
 31
0.0
  0
LINE
  5
1AF8
330
1F
100
AcDbEntity
  8
OBRYS
  6
CONTINUOUS
100
AcDbLine
 10
470.4011885781107
 20
213.4132201782607
 30
0.0
 11
470.4011885781107
 21
192.7416471782606
 31
0.0
  0
LINE
  5
1B00
330
1F
100
AcDbEntity
  8
OBRYS
  6
CONTINUOUS
100
AcDbLine
 10
469.9426095781108
 20
198.9132201782606
 30
0.0
 11
469.9426095781108
 21
197.3132201782606
 31
0.0
  0
LINE
  5
1B0B
330
1F
100
AcDbEntity
  8
OBRYS
  6
CONTINUOUS
100
AcDbLine
 10
464.442378833721
 20
161.093838648883
 30
0.0
 11
464.4426095781108
 21
168.4132201782606
 31
0.0
  0
LINE
  5
1B0D
330
1F
100
AcDbEntity
  8
OBRYS
  6
CONTINUOUS
100
AcDbLine
 10
467.4011885781107
 20
188.0847931782606
 30
0.0
 11
467.4011885781107
 21
168.4132201782607
 31
0.0
  0
LINE
  5
1B0F
330
1F
100
AcDbEntity
  8
OBRYS
  6
CONTINUOUS
100
AcDbLine
 10
465.7426065781107
 20
199.7132201782606
 30
0.0
 11
469.1426095781108
 21
199.7132201782606
 31
0.0
  0
LINE
  5
1B10
330
1F
100
AcDbEntity
  8
OBRYS
  6
CONTINUOUS
100
AcDbLine
 10
464.4427204357936
 20
149.0934450615663
 30
0.0
 11
464.4423788345533
 21
151.7209127076389
 31
0.0
  0
LINE
  5
1B19
330
1F
100
AcDbEntity
  8
OBRYS
  6
CONTINUOUS
100
AcDbLine
 10
469.1426095781108
 20
196.5132201782606
 30
0.0
 11
465.7426095781107
 21
196.5132201782606
 31
0.0
  0
LINE
  5
1B1A
330
1F
100
AcDbEntity
  8
OBRYS
  6
CONTINUOUS
100
AcDbLine
 10
464.9426095781108
 20
197.3132201782606
 30
0.0
 11
464.9426095781108
 21
198.9132231782606
 31
0.0
  0
LINE
  5
1B2A
330
1F
100
AcDbEntity
  8
OBRYS
  6
CONTINUOUS
100
AcDbLine
 10
472.4926095781107
 20
153.0265311782607
 30
0.0
 11
472.4926095781107
 21
159.7882201782606
 31
0.0
  0
LINE
  5
1B2E
330
1F
100
AcDbEntity
  8
OBRYS
  6
CONTINUOUS
100
AcDbLine
 10
464.4426095781108
 20
213.4132201782606
 30
0.0
 11
464.442378833721
 21
220.7326017076383
 31
0.0
  0
LINE
  5
1B3C
330
1F
100
AcDbEntity
  8
OBRYS
  6
CONTINUOUS
100
AcDbLine
 10
456.3926095781108
 20
159.7995161782606
 30
0.0
 11
456.3926095781108
 21
153.0152361782606
 31
0.0
  0
LINE
  5
1B47
330
1F
100
AcDbEntity
  8
OBRYS
  6
CONTINUOUS
100
AcDbLine
 10
454.4926095781107
 20
153.0152361782606
 30
0.0
 11
454.4926095781107
 21
159.7995161782606
 31
0.0
  0
LINE
  5
1B4B
330
1F
100
AcDbEntity
  8
OBRYS
  6
CONTINUOUS
100
AcDbLine
 10
446.4426095781108
 20
213.4132201782606
 30
0.0
 11
446.4426095781108
 21
220.3868611782606
 31
0.0
  0
LINE
  5
1B51
330
1F
100
AcDbEntity
  8
OBRYS
  6
CONTINUOUS
100
AcDbLine
 10
454.4926095781107
 20
222.0269251782606
 30
0.0
 11
454.4926095781107
 21
228.8495161782606
 31
0.0
  0
LINE
  5
1B65
330
1F
100
AcDbEntity
  8
OBRYS
  6
CONTINUOUS
100
AcDbLine
 10
457.6812645781108
 20
220.7269741782606
 30
0.0
 11
471.1926095781108
 21
220.7382201782606
 31
0.0
  0
LINE
  5
1B74
330
1F
100
AcDbEntity
  8
OBRYS
  6
CONTINUOUS
100
AcDbLine
 10
457.6812645781108
 20
151.7152851782606
 30
0.0
 11
471.1926095781108
 21
151.7265311782607
 31
0.0
  0
LINE
  5
1B8B
330
1F
100
AcDbEntity
  8
OBRYS
  6
CONTINUOUS
100
AcDbLine
 10
471.1926095781108
 20
161.0882201782607
 30
0.0
 11
457.6812645781108
 21
161.0994661782606
 31
0.0
  0
LINE
  5
1B96
330
1F
100
AcDbEntity
  8
OBRYS
  6
CONTINUOUS
100
AcDbLine
 10
456.3926095781108
 20
228.8495161782606
 30
0.0
 11
456.3926095781108
 21
222.0269251782606
 31
0.0
  0
LINE
  5
1B9A
330
1F
100
AcDbEntity
  8
OBRYS
  6
CONTINUOUS
100
AcDbLine
 10
471.2054155611648
 20
230.138157102422
 30
0.0
 11
457.6812645781108
 21
230.1494661782606
 31
0.0
  0
LINE
  5
1B9F
330
1F
100
AcDbEntity
  8
OBRYS
  6
CONTINUOUS
100
AcDbLine
 10
446.4427212086167
 20
149.089715341056
 30
0.0
 11
446.4426095655347
 21
151.7152854282689
 31
0.0
  0
LINE
  5
1BA0
330
1F
100
AcDbEntity
  8
OBRYS
  6
CONTINUOUS
100
AcDbLine
 10
453.2039535781108
 20
230.1494661782606
 30
0.0
 11
439.6812650819629
 21
230.1494666782441
 31
0.0
  0
LINE
  5
1BB3
330
1F
100
AcDbEntity
  8
OBRYS
  6
CONTINUOUS
100
AcDbLine
 10
439.6812650819629
 20
220.7269746782772
 30
0.0
 11
453.2039535781108
 21
220.7269741782606
 31
0.0
  0
LINE
  5
1BB7
330
1F
100
AcDbEntity
  8
OBRYS
  6
CONTINUOUS
100
AcDbLine
 10
446.442609590686
 20
161.0994664282524
 30
0.0
 11
446.4426095781108
 21
168.4132201782606
 31
0.0
  0
LINE
  5
1BB8
330
1F
100
AcDbEntity
  8
OBRYS
  6
CONTINUOUS
100
AcDbLine
 10
446.4426095655355
 20
230.1494664282523
 30
0.0
 11
446.4427211936196
 21
232.7367252640748
 31
0.0
  0
LINE
  5
1BB9
330
1F
100
AcDbEntity
  8
OBRYS
  6
CONTINUOUS
100
AcDbLine
 10
459.5352695781108
 20
226.5853151782606
 30
0.0
 11
460.5499495781108
 21
226.5853151782606
 31
0.0
  0
LINE
  5
1BBE
330
1F
100
AcDbEntity
  8
OBRYS
  6
CONTINUOUS
100
AcDbLine
 10
460.7549575781108
 20
224.7508731782606
 30
0.0
 11
461.1828485781107
 21
224.3229811782606
 31
0.0
  0
LINE
  5
1BC0
330
1F
100
AcDbEntity
  8
OBRYS
  6
CONTINUOUS
100
AcDbLine
 10
460.5426095781108
 20
227.0471951782606
 30
0.0
 11
459.5426095781108
 21
227.0471951782606
 31
0.0
  0
LINE
  5
1BC4
330
1F
100
AcDbEntity
  8
OBRYS
  6
CONTINUOUS
100
AcDbLine
 10
468.3352695781107
 20
226.5853151782606
 30
0.0
 11
469.3499495781107
 21
226.5853151782606
 31
0.0
  0
LINE
  5
1BC5
330
1F
100
AcDbEntity
  8
OBRYS
  6
CONTINUOUS
100
AcDbLine
 10
473.1426095781108
 20
146.0132201782606
 30
0.0
 11
437.7426095781107
 21
146.0132201782606
 31
0.0
  0
LINE
  5
1BC6
330
1F
100
AcDbEntity
  8
OBRYS
  6
CONTINUOUS
100
AcDbLine
 10
464.4426095781108
 20
235.3289131782606
 30
0.0
 11
464.4426095781108
 21
235.8132201782606
 31
0.0
  0
LINE
  5
1BC9
330
1F
100
AcDbEntity
  8
OBRYS
  6
CONTINUOUS
100
AcDbLine
 10
441.5426095781108
 20
223.8792461782606
 30
0.0
 11
442.5426095781108
 21
223.8792461782606
 31
0.0
  0
LINE
  5
1BCA
330
1F
100
AcDbEntity
  8
OBRYS
  6
CONTINUOUS
100
AcDbLine
 10
460.7549575781108
 20
226.1755681782606
 30
0.0
 11
461.1828485781107
 21
226.6034591782606
 31
0.0
  0
LINE
  5
1BCB
330
1F
100
AcDbEntity
  8
OBRYS
  6
CONTINUOUS
100
AcDbLine
 10
437.5426095781108
 20
146.4975301782606
 30
0.0
 11
473.3426095781107
 21
146.4975301782606
 31
0.0
  0
LINE
  5
1BCE
330
1F
100
AcDbEntity
  8
OBRYS
  6
CONTINUOUS
100
AcDbLine
 10
459.3302615781108
 20
226.1755681782606
 30
0.0
 11
458.9023705781107
 21
226.6034591782606
 31
0.0
  0
LINE
  5
1BCF
330
1F
100
AcDbEntity
  8
OBRYS
  6
CONTINUOUS
100
AcDbLine
 10
441.5352695781108
 20
226.5853151782606
 30
0.0
 11
442.5499495781108
 21
226.5853151782606
 31
0.0
  0
LINE
  5
1BD2
330
1F
100
AcDbEntity
  8
OBRYS
  6
CONTINUOUS
100
AcDbLine
 10
472.4926095781107
 20
222.0382201782606
 30
0.0
 11
472.4926095781107
 21
228.8382201782606
 31
0.0
  0
LINE
  5
1BD4
330
1F
100
AcDbEntity
  8
OBRYS
  6
CONTINUOUS
100
AcDbLine
 10
441.3302615781108
 20
224.7508731782606
 30
0.0
 11
440.9023705781107
 21
224.3229811782606
 31
0.0
  0
LINE
  5
1BD5
330
1F
100
AcDbEntity
  8
OBRYS
  6
CONTINUOUS
100
AcDbLine
 10
460.5499495781108
 20
224.3411261782606
 30
0.0
 11
459.5352695781108
 21
224.3411261782606
 31
0.0
  0
LINE
  5
1BD8
330
1F
100
AcDbEntity
  8
OBRYS
  6
CONTINUOUS
100
AcDbLine
 10
443.1647035781107
 20
225.9705601782606
 30
0.0
 11
443.1647035781107
 21
224.9558801782606
 31
0.0
  0
LINE
  5
1BDA
330
1F
100
AcDbEntity
  8
OBRYS
  6
CONTINUOUS
100
AcDbLine
 10
442.5499495781108
 20
224.3411261782606
 30
0.0
 11
441.5352695781108
 21
224.3411261782606
 31
0.0
  0
LINE
  5
1BDB
330
1F
100
AcDbEntity
  8
OBRYS
  6
CONTINUOUS
100
AcDbLine
 10
442.7549575781108
 20
226.1755681782606
 30
0.0
 11
443.1828485781107
 21
226.6034591782606
 31
0.0
  0
LINE
  5
1BE1
330
1F
100
AcDbEntity
  8
OBRYS
  6
CONTINUOUS
100
AcDbLine
 10
458.9205155781107
 20
224.9558801782606
 30
0.0
 11
458.9205155781107
 21
225.9705601782606
 31
0.0
  0
LINE
  5
1BE2
330
1F
100
AcDbEntity
  8
OBRYS
  6
CONTINUOUS
100
AcDbLine
 10
461.1647035781107
 20
225.9705601782606
 30
0.0
 11
461.1647035781107
 21
224.9558801782606
 31
0.0
  0
LINE
  5
1BE3
330
1F
100
AcDbEntity
  8
OBRYS
  6
CONTINUOUS
100
AcDbLine
 10
463.9426095781108
 20
154.8292461782606
 30
0.0
 11
464.9426095781108
 21
154.8292461782606
 31
0.0
  0
LINE
  5
1BE4
330
1F
100
AcDbEntity
  8
OBRYS
  6
CONTINUOUS
100
AcDbLine
 10
440.9205155781107
 20
224.9558801782606
 30
0.0
 11
440.9205155781107
 21
225.9705601782606
 31
0.0
  0
LINE
  5
1BE7
330
1F
100
AcDbEntity
  8
OBRYS
  6
CONTINUOUS
100
AcDbLine
 10
441.3302615781108
 20
226.1755681782606
 30
0.0
 11
440.9023705781107
 21
226.6034591782606
 31
0.0
  0
LINE
  5
1BE8
330
1F
100
AcDbEntity
  8
OBRYS
  6
CONTINUOUS
100
AcDbLine
 10
442.5426095781108
 20
227.0471951782606
 30
0.0
 11
441.5426095781108
 21
227.0471951782606
 31
0.0
  0
LINE
  5
1BE9
330
1F
100
AcDbEntity
  8
OBRYS
  6
CONTINUOUS
100
AcDbLine
 10
442.7549575781108
 20
224.7508731782606
 30
0.0
 11
443.1828485781107
 21
224.3229811782606
 31
0.0
  0
LINE
  5
1BEF
330
1F
100
AcDbEntity
  8
OBRYS
  6
CONTINUOUS
100
AcDbLine
 10
464.4426095781108
 20
146.0132201782606
 30
0.0
 11
464.4426095781108
 21
146.4975281782606
 31
0.0
  0
LINE
  5
1BF0
330
1F
100
AcDbEntity
  8
OBRYS
  6
CONTINUOUS
100
AcDbLine
 10
459.3302615781108
 20
224.7508731782606
 30
0.0
 11
458.9023705781107
 21
224.3229811782606
 31
0.0
  0
LINE
  5
1BF1
330
1F
100
AcDbEntity
  8
OBRYS
  6
CONTINUOUS
100
AcDbLine
 10
473.3426095781107
 20
235.6132201782606
 30
0.0
 11
473.3426095781108
 21
146.2132201782607
 31
0.0
  0
LINE
  5
1BF8
330
1F
100
AcDbEntity
  8
OBRYS
  6
CONTINUOUS
100
AcDbLine
 10
462.3405065781107
 20
156.9132201782606
 30
0.0
 11
463.2176095781107
 21
156.9132201782606
 31
0.0
  0
LINE
  5
1BF9
330
1F
100
AcDbEntity
  8
OBRYS
  6
CONTINUOUS
100
AcDbLine
 10
463.2176095781107
 20
155.9132201782606
 30
0.0
 11
462.3405065781107
 21
155.9132201782606
 31
0.0
  0
LINE
  5
1BFA
330
1F
100
AcDbEntity
  8
OBRYS
  6
CONTINUOUS
100
AcDbLine
 10
458.8176095781108
 20
224.9632201782606
 30
0.0
 11
457.9405065781107
 21
224.9632201782606
 31
0.0
  0
LINE
  5
1BFB
330
1F
100
AcDbEntity
  8
OBRYS
  6
CONTINUOUS
100
AcDbLine
 10
468.3426095781107
 20
226.6882201782606
 30
0.0
 11
468.3426095781107
 21
228.2697761782606
 31
0.0
  0
LINE
  5
1BFC
330
1F
100
AcDbEntity
  8
OBRYS
  6
CONTINUOUS
100
AcDbLine
 10
464.9426095781108
 20
155.1882201782606
 30
0.0
 11
464.9426095781108
 21
153.5547401782606
 31
0.0
  0
LINE
  5
1BFD
330
1F
100
AcDbEntity
  8
OBRYS
  6
CONTINUOUS
100
AcDbLine
 10
460.5426095781108
 20
228.2697761782606
 30
0.0
 11
460.5426095781108
 21
226.6882201782606
 31
0.0
  0
LINE
  5
1BFE
330
1F
100
AcDbEntity
  8
OBRYS
  6
CONTINUOUS
100
AcDbLine
 10
463.9426095781108
 20
153.5566661782606
 30
0.0
 11
463.9426095781108
 21
155.1882201782606
 31
0.0
  0
LINE
  5
1BFF
330
1F
100
AcDbEntity
  8
OBRYS
  6
CONTINUOUS
100
AcDbLine
 10
466.5447125781107
 20
155.9132201782606
 30
0.0
 11
465.6676095781108
 21
155.9132201782606
 31
0.0
  0
LINE
  5
1C00
330
1F
100
AcDbEntity
  8
OBRYS
  6
CONTINUOUS
100
AcDbLine
 10
469.3426095781107
 20
224.2382201782606
 30
0.0
 11
469.3426095781107
 21
222.5547541782606
 31
0.0
  0
LINE
  5
1C01
330
1F
100
AcDbEntity
  8
OBRYS
  6
CONTINUOUS
100
AcDbLine
 10
470.9447125781108
 20
224.9632201782606
 30
0.0
 11
470.0676095781108
 21
224.9632201782606
 31
0.0
  0
LINE
  5
1C02
330
1F
100
AcDbEntity
  8
OBRYS
  6
CONTINUOUS
100
AcDbLine
 10
468.3426095781107
 20
222.5566691782606
 30
0.0
 11
468.3426095781107
 21
224.2382201782606
 31
0.0
  0
LINE
  5
1C03
330
1F
100
AcDbEntity
  8
OBRYS
  6
CONTINUOUS
100
AcDbLine
 10
463.9426095781108
 20
157.6382201782606
 30
0.0
 11
463.9426095781108
 21
159.2697741782606
 31
0.0
  0
LINE
  5
1C04
330
1F
100
AcDbEntity
  8
OBRYS
  6
CONTINUOUS
100
AcDbLine
 10
457.9405065781107
 20
225.9632201782606
 30
0.0
 11
458.8176095781108
 21
225.9632201782606
 31
0.0
  0
LINE
  5
1C05
330
1F
100
AcDbEntity
  8
OBRYS
  6
CONTINUOUS
100
AcDbLine
 10
466.7405065781108
 20
225.9632201782606
 30
0.0
 11
467.6176095781107
 21
225.9632201782606
 31
0.0
  0
LINE
  5
1C06
330
1F
100
AcDbEntity
  8
OBRYS
  6
CONTINUOUS
100
AcDbLine
 10
470.0676095781108
 20
225.9632201782606
 30
0.0
 11
470.9447125781108
 21
225.9632201782606
 31
0.0
  0
LINE
  5
1C07
330
1F
100
AcDbEntity
  8
OBRYS
  6
CONTINUOUS
100
AcDbLine
 10
459.5426095781108
 20
226.6882201782606
 30
0.0
 11
459.5426095781108
 21
228.2717111782606
 31
0.0
  0
LINE
  5
1C08
330
1F
100
AcDbEntity
  8
OBRYS
  6
CONTINUOUS
100
AcDbLine
 10
467.6176095781107
 20
224.9632201782606
 30
0.0
 11
466.7405065781108
 21
224.9632201782606
 31
0.0
  0
LINE
  5
1C09
330
1F
100
AcDbEntity
  8
OBRYS
  6
CONTINUOUS
100
AcDbLine
 10
469.3426095781107
 20
228.2717111782606
 30
0.0
 11
469.3426095781107
 21
226.6882201782606
 31
0.0
  0
LINE
  5
1C0A
330
1F
100
AcDbEntity
  8
OBRYS
  6
CONTINUOUS
100
AcDbLine
 10
459.5426095781108
 20
222.5547541782606
 30
0.0
 11
459.5426095781108
 21
224.2382201782606
 31
0.0
  0
LINE
  5
1C0B
330
1F
100
AcDbEntity
  8
OBRYS
  6
CONTINUOUS
100
AcDbLine
 10
450.3426095781107
 20
226.6882201782606
 30
0.0
 11
450.3426095781107
 21
228.2697761782606
 31
0.0
  0
LINE
  5
1C0C
330
1F
100
AcDbEntity
  8
OBRYS
  6
CONTINUOUS
100
AcDbLine
 10
449.6176095781107
 20
224.9632201782606
 30
0.0
 11
448.7405065781108
 21
224.9632201782606
 31
0.0
  0
LINE
  5
1C0D
330
1F
100
AcDbEntity
  8
OBRYS
  6
CONTINUOUS
100
AcDbLine
 10
452.0676095781108
 20
225.9632201782606
 30
0.0
 11
452.9447125781108
 21
225.9632201782606
 31
0.0
  0
LINE
  5
1C0E
330
1F
100
AcDbEntity
  8
OBRYS
  6
CONTINUOUS
100
AcDbLine
 10
450.3426095781107
 20
222.5566691782606
 30
0.0
 11
450.3426095781107
 21
224.2382201782606
 31
0.0
  0
LINE
  5
1C0F
330
1F
100
AcDbEntity
  8
OBRYS
  6
CONTINUOUS
100
AcDbLine
 10
452.9447125781108
 20
224.9632201782606
 30
0.0
 11
452.0676095781108
 21
224.9632201782606
 31
0.0
  0
LINE
  5
1C10
330
1F
100
AcDbEntity
  8
OBRYS
  6
CONTINUOUS
100
AcDbLine
 10
451.3426095781107
 20
228.2717111782606
 30
0.0
 11
451.3426095781107
 21
226.6882201782606
 31
0.0
  0
LINE
  5
1C12
330
1F
100
AcDbEntity
  8
OBRYS
  6
CONTINUOUS
100
AcDbLine
 10
451.3426095781107
 20
224.2382201782606
 30
0.0
 11
451.3426095781107
 21
222.5547541782606
 31
0.0
  0
LINE
  5
1C16
330
1F
100
AcDbEntity
  8
OBRYS
  6
CONTINUOUS
100
AcDbLine
 10
448.7405065781108
 20
225.9632201782606
 30
0.0
 11
449.6176095781107
 21
225.9632201782606
 31
0.0
  0
LINE
  5
1C2E
330
1F
100
AcDbEntity
  8
OBRYS
  6
CONTINUOUS
100
AcDbLine
 10
473.3426095781107
 20
235.3289101782606
 30
0.0
 11
437.5426095781108
 21
235.3289101782606
 31
0.0
  0
LINE
  5
1C2F
330
1F
100
AcDbEntity
  8
OBRYS
  6
CONTINUOUS
100
AcDbLine
 10
456.4372915781108
 20
153.0831931782606
 30
0.0
 11
456.4372915781108
 21
159.7432471782606
 31
0.0
  0
LINE
  5
1C45
330
1F
100
AcDbEntity
  8
OBRYS
  6
CONTINUOUS
100
AcDbLine
 10
471.1926095781108
 20
151.8285551782606
 30
0.0
 11
457.6925545781108
 21
151.8285551782606
 31
0.0
  0
LINE
  5
1C53
330
1F
100
AcDbEntity
  8
OBRYS
  6
CONTINUOUS
100
AcDbLine
 10
457.6926095781108
 20
160.9978851782606
 30
0.0
 11
471.1926645781107
 21
160.9978851782606
 31
0.0
  0
LINE
  5
1C5D
330
1F
100
AcDbEntity
  8
OBRYS
  6
CONTINUOUS
100
AcDbLine
 10
472.4479265781108
 20
159.7432471782606
 30
0.0
 11
472.4479265781108
 21
153.0831931782606
 31
0.0
  0
LINE
  5
1C60
330
1F
100
AcDbEntity
  8
OBRYS
  6
CONTINUOUS
100
AcDbLine
 10
445.9426095781108
 20
153.5566661782606
 30
0.0
 11
445.9426095781108
 21
155.1882201782606
 31
0.0
  0
LINE
  5
1C62
330
1F
100
AcDbEntity
  8
OBRYS
  6
CONTINUOUS
100
AcDbLine
 10
445.9426095781108
 20
157.6382201782606
 30
0.0
 11
445.9426095781108
 21
159.2697741782606
 31
0.0
  0
LINE
  5
1C64
330
1F
100
AcDbEntity
  8
OBRYS
  6
CONTINUOUS
100
AcDbLine
 10
446.9426095781108
 20
155.1882201782606
 30
0.0
 11
446.9426095781108
 21
153.5547401782606
 31
0.0
  0
LINE
  5
1C68
330
1F
100
AcDbEntity
  8
OBRYS
  6
CONTINUOUS
100
AcDbLine
 10
445.2176095781107
 20
155.9132201782606
 30
0.0
 11
444.3405065781107
 21
155.9132201782606
 31
0.0
  0
LINE
  5
1C6B
330
1F
100
AcDbEntity
  8
OBRYS
  6
CONTINUOUS
100
AcDbLine
 10
447.6676095781108
 20
156.9132201782606
 30
0.0
 11
448.5447125781107
 21
156.9132201782606
 31
0.0
  0
LINE
  5
1C6D
330
1F
100
AcDbEntity
  8
OBRYS
  6
CONTINUOUS
100
AcDbLine
 10
444.3405065781107
 20
156.9132201782606
 30
0.0
 11
445.2176095781107
 21
156.9132201782606
 31
0.0
  0
LINE
  5
1C6E
330
1F
100
AcDbEntity
  8
OBRYS
  6
CONTINUOUS
100
AcDbLine
 10
448.5447125781107
 20
155.9132201782606
 30
0.0
 11
447.6676095781108
 21
155.9132201782606
 31
0.0
  0
LINE
  5
1C70
330
1F
100
AcDbEntity
  8
OBRYS
  6
CONTINUOUS
100
AcDbLine
 10
446.9426095781108
 20
159.2717001782606
 30
0.0
 11
446.9426095781108
 21
157.6382201782606
 31
0.0
  0
LINE
  5
1C91
330
1F
100
AcDbEntity
  8
OBRYS
  6
CONTINUOUS
100
AcDbLine
 10
464.4426095781108
 20
219.4233271782606
 30
0.0
 11
464.4426095781108
 21
219.4134611782606
 31
0.0
  0
LINE
  5
1CAF
330
1F
100
AcDbEntity
  8
OBRYS
  6
CONTINUOUS
100
AcDbLine
 10
464.9426095781108
 20
157.9971951782607
 30
0.0
 11
463.9426095781108
 21
157.9971951782607
 31
0.0
  0
LINE
  5
1CB4
330
1F
100
AcDbEntity
  8
OBRYS
  6
CONTINUOUS
100
AcDbLine
 10
465.5647035781107
 20
156.9205601782606
 30
0.0
 11
465.5647035781107
 21
155.9058801782606
 31
0.0
  0
LINE
  5
1CBB
330
1F
100
AcDbEntity
  8
OBRYS
  6
CONTINUOUS
100
AcDbLine
 10
442.8861125781107
 20
191.3981441782606
 30
0.0
 11
441.0576855781108
 21
189.5697171782606
 31
0.0
  0
LINE
  5
1CBE
330
1F
100
AcDbEntity
  8
OBRYS
  6
CONTINUOUS
100
AcDbLine
 10
464.9499495781108
 20
155.2911261782606
 30
0.0
 11
463.9352695781108
 21
155.2911261782606
 31
0.0
  0
LINE
  5
1CC6
330
1F
100
AcDbEntity
  8
OBRYS
  6
CONTINUOUS
100
AcDbLine
 10
440.3505785781107
 20
190.2768241782606
 30
0.0
 11
442.1790055781108
 21
192.1052511782606
 31
0.0
  0
LINE
  5
1CC8
330
1F
100
AcDbEntity
  8
OBRYS
  6
CONTINUOUS
100
AcDbLine
 10
443.4426095781108
 20
213.4132201782606
 30
0.0
 11
443.4426095781108
 21
192.7416471782606
 31
0.0
  0
LINE
  5
1CCC
330
1F
100
AcDbEntity
  8
OBRYS
  6
CONTINUOUS
100
AcDbLine
 10
465.1549575781108
 20
157.1255681782606
 30
0.0
 11
465.5828485781107
 21
157.5534591782607
 31
0.0
  0
LINE
  5
1CD2
330
1F
100
AcDbEntity
  8
OBRYS
  6
CONTINUOUS
100
AcDbLine
 10
439.4426095781108
 20
168.4132201782606
 30
0.0
 11
439.4426095781108
 21
188.0847931782606
 31
0.0
  0
LINE
  5
1CD4
330
1F
100
AcDbEntity
  8
OBRYS
  6
CONTINUOUS
100
AcDbLine
 10
473.3426095781108
 20
168.4132201782607
 30
0.0
 11
437.5426095781107
 21
168.4132201782606
 31
0.0
  0
LINE
  5
1CD9
330
1F
100
AcDbEntity
  8
OBRYS
  6
CONTINUOUS
100
AcDbLine
 10
439.6812645781108
 20
151.7152851782606
 30
0.0
 11
453.2039540742587
 21
151.7152856782772
 31
0.0
  0
LINE
  5
1CDB
330
1F
100
AcDbEntity
  8
OBRYS
  6
CONTINUOUS
100
AcDbLine
 10
440.4426095781108
 20
188.0847931782606
 30
0.0
 11
440.4426095781108
 21
168.4132201782606
 31
0.0
  0
LINE
  5
1CE0
330
1F
100
AcDbEntity
  8
OBRYS
  6
CONTINUOUS
100
AcDbLine
 10
437.5426095781107
 20
213.4132201782606
 30
0.0
 11
473.3426095781107
 21
213.4132201782607
 31
0.0
  0
LINE
  5
1CE1
330
1F
100
AcDbEntity
  8
OBRYS
  6
CONTINUOUS
100
AcDbLine
 10
463.3205155781107
 20
155.9058801782606
 30
0.0
 11
463.3205155781107
 21
156.9205601782606
 31
0.0
  0
LINE
  5
1CE2
330
1F
100
AcDbEntity
  8
OBRYS
  6
CONTINUOUS
100
AcDbLine
 10
438.3926095781108
 20
159.7995161782606
 30
0.0
 11
438.3926095781108
 21
153.0152361782606
 31
0.0
  0
LINE
  5
1CEA
330
1F
100
AcDbEntity
  8
OBRYS
  6
CONTINUOUS
100
AcDbLine
 10
463.9352695781108
 20
157.5353151782606
 30
0.0
 11
464.9499495781108
 21
157.5353151782606
 31
0.0
  0
LINE
  5
1CEE
330
1F
100
AcDbEntity
  8
OBRYS
  6
CONTINUOUS
100
AcDbLine
 10
442.4426095781108
 20
192.7416471782606
 30
0.0
 11
442.4426095781108
 21
213.4132201782606
 31
0.0
  0
LINE
  5
1CFC
330
1F
100
AcDbEntity
  8
OBRYS
  6
CONTINUOUS
100
AcDbLine
 10
446.4426093300368
 20
220.7269744282689
 30
0.0
 11
446.4426095781108
 21
213.5155851782606
 31
0.0
  0
LINE
  5
1D0A
330
1F
100
AcDbEntity
  8
OBRYS
  6
CONTINUOUS
100
AcDbLine
 10
473.3426095781108
 20
149.4552501782607
 30
0.0
 11
437.5426095781107
 21
149.4552501782606
 31
0.0
  0
LINE
  5
1D0D
330
1F
100
AcDbEntity
  8
OBRYS
  6
CONTINUOUS
100
AcDbLine
 10
453.2039540742587
 20
161.0994666782441
 30
0.0
 11
439.6812645781108
 21
161.0994661782606
 31
0.0
  0
LINE
  5
1D0E
330
1F
100
AcDbEntity
  8
OBRYS
  6
CONTINUOUS
100
AcDbLine
 10
437.5426095781107
 20
149.0878711782606
 30
0.0
 11
473.3426095781108
 21
149.0952891782607
 31
0.0
  0
LINE
  5
1D0F
330
1F
100
AcDbEntity
  8
OBRYS
  6
CONTINUOUS
100
AcDbLine
 10
437.5426095781107
 20
232.3711901782606
 30
0.0
 11
473.3426095781107
 21
232.3711901782607
 31
0.0
  0
LINE
  5
1D15
330
1F
100
AcDbEntity
  8
OBRYS
  6
CONTINUOUS
100
AcDbLine
 10
438.3926095781108
 20
228.8495161782606
 30
0.0
 11
438.3926095781108
 21
222.0269251782606
 31
0.0
  0
LINE
  5
1D29
330
1F
100
AcDbEntity
  8
OBRYS
  6
CONTINUOUS
100
AcDbLine
 10
437.5426095781107
 20
232.7385691782606
 30
0.0
 11
473.3426095781107
 21
232.7311521782607
 31
0.0
  0
ARC
  5
1D63
330
1F
100
AcDbEntity
  8
OBRYS
  6
CONTINUOUS
100
AcDbCircle
 10
439.6926095781108
 20
159.7995161782606
 30
0.0
 40
1.3
100
AcDbArc
 50
90.50000000000055
 51
180.0
  0
ARC
  5
1D65
330
1F
100
AcDbEntity
  8
OBRYS
  6
CONTINUOUS
100
AcDbCircle
 10
-442.5426095781108
 20
188.0847931782606
 30
0.0
 40
3.1
210
0.0
220
0.0
230
-1.0
100
AcDbArc
 50
0.0
 51
45.0
  0
ARC
  5
1D66
330
1F
100
AcDbEntity
  8
OBRYS
  6
CONTINUOUS
100
AcDbCircle
 10
442.5426095781108
 20
188.0847931782606
 30
0.0
 40
2.1
100
AcDbArc
 50
135.0
 51
180.0
  0
ARC
  5
1D68
330
1F
100
AcDbEntity
  8
OBRYS
  6
CONTINUOUS
100
AcDbCircle
 10
439.6926095781108
 20
222.0269251782606
 30
0.0
 40
1.3
100
AcDbArc
 50
180.0
 51
269.4999999999994
  0
ARC
  5
1D6A
330
1F
100
AcDbEntity
  8
OBRYS
  6
CONTINUOUS
100
AcDbCircle
 10
-441.5426095781108
 20
192.7416471782606
 30
0.0
 40
1.9
210
0.0
220
0.0
230
-1.0
100
AcDbArc
 50
180.0
 51
224.9999999999987
  0
ARC
  5
1D6B
330
1F
100
AcDbEntity
  8
OBRYS
  6
CONTINUOUS
100
AcDbCircle
 10
439.6926095781108
 20
228.8495161782606
 30
0.0
 40
1.3
100
AcDbArc
 50
90.50000000000055
 51
180.0
  0
ARC
  5
1D6F
330
1F
100
AcDbEntity
  8
OBRYS
  6
CONTINUOUS
100
AcDbCircle
 10
-437.7426095781107
 20
146.2132201782606
 30
0.0
 40
0.2
210
0.0
220
0.0
230
-1.0
100
AcDbArc
 50
270.0
 51
0.0
  0
ARC
  5
1D70
330
1F
100
AcDbEntity
  8
OBRYS
  6
CONTINUOUS
100
AcDbCircle
 10
441.5426095781108
 20
192.7416471782606
 30
0.0
 40
0.8999999999999869
100
AcDbArc
 50
315.0000000000026
 51
0.0
  0
ARC
  5
1D72
330
1F
100
AcDbEntity
  8
OBRYS
  6
CONTINUOUS
100
AcDbCircle
 10
437.7426095781107
 20
235.6132201782606
 30
0.0
 40
0.2
100
AcDbArc
 50
90.0
 51
180.0
  0
ARC
  5
1D74
330
1F
100
AcDbEntity
  8
OBRYS
  6
CONTINUOUS
100
AcDbCircle
 10
439.6926095781108
 20
153.0152361782606
 30
0.0
 40
1.3
100
AcDbArc
 50
180.0
 51
269.4999999999994
  0
CIRCLE
  5
1D76
330
1F
100
AcDbEntity
  8
OBRYS
  6
CONTINUOUS
100
AcDbCircle
 10
446.4426095781108
 20
156.4132201782606
 30
0.0
 40
2.992125035431825
  0
ARC
  5
1D79
330
1F
100
AcDbEntity
  8
OBRYS
  6
CONTINUOUS
100
AcDbCircle
 10
453.1926095781108
 20
222.0269251782606
 30
0.0
 40
1.3
100
AcDbArc
 50
270.5000000000006
 51
0.0
  0
ARC
  5
1D7F
330
1F
100
AcDbEntity
  8
OBRYS
  6
CONTINUOUS
100
AcDbCircle
 10
457.6926095781108
 20
228.8495161782606
 30
0.0
 40
1.3
100
AcDbArc
 50
90.50000000000055
 51
180.0
  0
ARC
  5
1D80
330
1F
100
AcDbEntity
  8
OBRYS
  6
CONTINUOUS
100
AcDbCircle
 10
457.6926095781108
 20
153.0152361782606
 30
0.0
 40
1.3
100
AcDbArc
 50
180.0
 51
269.4999999999994
  0
ARC
  5
1D89
330
1F
100
AcDbEntity
  8
OBRYS
  6
CONTINUOUS
100
AcDbCircle
 10
453.1926095781108
 20
159.7995161782606
 30
0.0
 40
1.3
100
AcDbArc
 50
0.0
 51
89.49999999999942
  0
ARC
  5
1D8C
330
1F
100
AcDbEntity
  8
OBRYS
  6
CONTINUOUS
100
AcDbCircle
 10
453.1926095781108
 20
228.8495161782606
 30
0.0
 40
1.3
100
AcDbArc
 50
0.0
 51
89.49999999999942
  0
ARC
  5
1D8F
330
1F
100
AcDbEntity
  8
OBRYS
  6
CONTINUOUS
100
AcDbCircle
 10
459.5426095781108
 20
192.7416471782606
 30
0.0
 40
0.9
100
AcDbArc
 50
315.0000000000013
 51
0.0
  0
ARC
  5
1D92
330
1F
100
AcDbEntity
  8
OBRYS
  6
CONTINUOUS
100
AcDbCircle
 10
453.1926095781108
 20
153.0152361782606
 30
0.0
 40
1.3
100
AcDbArc
 50
270.5000000000006
 51
0.0
  0
ARC
  5
1D99
330
1F
100
AcDbEntity
  8
OBRYS
  6
CONTINUOUS
100
AcDbCircle
 10
-459.5426095781108
 20
192.7416471782606
 30
0.0
 40
1.9
210
0.0
220
0.0
230
-1.0
100
AcDbArc
 50
180.0
 51
224.9999999999987
  0
ARC
  5
1D9C
330
1F
100
AcDbEntity
  8
OBRYS
  6
CONTINUOUS
100
AcDbCircle
 10
457.6926095781108
 20
222.0269251782606
 30
0.0
 40
1.3
100
AcDbArc
 50
180.0
 51
269.4999999999994
  0
ARC
  5
1D9E
330
1F
100
AcDbEntity
  8
OBRYS
  6
CONTINUOUS
100
AcDbCircle
 10
457.6926095781108
 20
159.7995161782606
 30
0.0
 40
1.3
100
AcDbArc
 50
90.50000000000055
 51
180.0
  0
ARC
  5
1D9F
330
1F
100
AcDbEntity
  8
OBRYS
  6
CONTINUOUS
100
AcDbCircle
 10
-473.1426095781108
 20
146.2132201782606
 30
0.0
 40
0.2
210
0.0
220
0.0
230
-1.0
100
AcDbArc
 50
180.0
 51
270.0
  0
ARC
  5
1DA0
330
1F
100
AcDbEntity
  8
OBRYS
  6
CONTINUOUS
100
AcDbCircle
 10
471.1926095781108
 20
222.0382201782606
 30
0.0
 40
1.300000000000011
100
AcDbArc
 50
270.0
 51
0.0
  0
ARC
  5
1DA1
330
1F
100
AcDbEntity
  8
OBRYS
  6
CONTINUOUS
100
AcDbCircle
 10
473.1426095781108
 20
235.6132201782606
 30
0.0
 40
0.2
100
AcDbArc
 50
0.0
 51
90.0
  0
ARC
  5
1DA2
330
1F
100
AcDbEntity
  8
OBRYS
  6
CONTINUOUS
100
AcDbCircle
 10
471.1926095781108
 20
159.7882201782606
 30
0.0
 40
1.300000000000001
100
AcDbArc
 50
0.0
 51
90.0
  0
CIRCLE
  5
1DAA
330
1F
100
AcDbEntity
  8
OBRYS
  6
CONTINUOUS
100
AcDbCircle
 10
442.0426095781108
 20
225.4132201782606
 30
0.0
 40
2.98964178702984
  0
CIRCLE
  5
1DAD
330
1F
100
AcDbEntity
  8
OBRYS
  6
CONTINUOUS
100
AcDbCircle
 10
450.8426095781107
 20
225.4132201782606
 30
0.0
 40
2.989641787029825
  0
CIRCLE
  5
1DC3
330
1F
100
AcDbEntity
  8
OBRYS
  6
CONTINUOUS
100
AcDbCircle
 10
468.8426095781107
 20
225.4132201782606
 30
0.0
 40
2.989641787029825
  0
CIRCLE
  5
1DC7
330
1F
100
AcDbEntity
  8
OBRYS
  6
CONTINUOUS
100
AcDbCircle
 10
460.0426095781108
 20
225.4132201782606
 30
0.0
 40
2.98964178702984
  0
ARC
  5
1DD0
330
1F
100
AcDbEntity
  8
OBRYS
  6
CONTINUOUS
100
AcDbCircle
 10
-451.0426095781108
 20
198.9132201782606
 30
0.0
 40
0.8
210
0.0
220
0.0
230
-1.0
100
AcDbArc
 50
90.0
 51
180.0
  0
ARC
  5
1DDB
330
1F
100
AcDbEntity
  8
OBRYS
  6
CONTINUOUS
100
AcDbCircle
 10
-460.5426095781108
 20
188.0847931782606
 30
0.0
 40
3.1
210
0.0
220
0.0
230
-1.0
100
AcDbArc
 50
0.0
 51
45.0
  0
ARC
  5
1DE0
330
1F
100
AcDbEntity
  8
OBRYS
  6
CONTINUOUS
100
AcDbCircle
 10
-447.6426095781108
 20
197.3132201782606
 30
0.0
 40
0.8
210
0.0
220
0.0
230
-1.0
100
AcDbArc
 50
270.0
 51
0.0
  0
ARC
  5
1DE4
330
1F
100
AcDbEntity
  8
OBRYS
  6
CONTINUOUS
100
AcDbCircle
 10
-447.6426095781108
 20
198.9132201782606
 30
0.0
 40
0.8
210
0.0
220
0.0
230
-1.0
100
AcDbArc
 50
0.0002130000005119
 51
90.0
  0
ARC
  5
1DE6
330
1F
100
AcDbEntity
  8
OBRYS
  6
CONTINUOUS
100
AcDbCircle
 10
460.5426095781108
 20
188.0847931782606
 30
0.0
 40
2.1
100
AcDbArc
 50
135.0
 51
180.0
  0
CIRCLE
  5
1DE8
330
1F
100
AcDbEntity
  8
OBRYS
  6
CONTINUOUS
100
AcDbCircle
 10
464.4426095781108
 20
156.4132201782606
 30
0.0
 40
2.992125035431825
  0
ARC
  5
1DEF
330
1F
100
AcDbEntity
  8
OBRYS
  6
CONTINUOUS
100
AcDbCircle
 10
-451.0426095781108
 20
197.3132201782606
 30
0.0
 40
0.8
210
0.0
220
0.0
230
-1.0
100
AcDbArc
 50
180.0
 51
269.9997860000025
  0
ARC
  5
1DF5
330
1F
100
AcDbEntity
  8
OBRYS
  6
CONTINUOUS
100
AcDbCircle
 10
469.3426095781107
 20
188.0847931782606
 30
0.0
 40
1.941421356237309
100
AcDbArc
 50
135.0000000000018
 51
180.0
  0
ARC
  5
1DF6
330
1F
100
AcDbEntity
  8
OBRYS
  6
CONTINUOUS
100
AcDbCircle
 10
471.1926095781108
 20
228.8382201782606
 30
0.0
 40
1.300000000000001
100
AcDbArc
 50
0.0
 51
90.0
  0
ARC
  5
1DF8
330
1F
100
AcDbEntity
  8
OBRYS
  6
CONTINUOUS
100
AcDbCircle
 10
-469.1426095781108
 20
197.3132201782606
 30
0.0
 40
0.7999999999999952
210
0.0
220
0.0
230
-1.0
100
AcDbArc
 50
180.0
 51
270.0
  0
ARC
  5
1DFA
330
1F
100
AcDbEntity
  8
OBRYS
  6
CONTINUOUS
100
AcDbCircle
 10
468.3426095781107
 20
192.7416471782606
 30
0.0
 40
2.241421356237308
100
AcDbArc
 50
315.000000000001
 51
0.0
  0
ARC
  5
1DFC
330
1F
100
AcDbEntity
  8
OBRYS
  6
CONTINUOUS
100
AcDbCircle
 10
471.1926095781108
 20
153.0265311782607
 30
0.0
 40
1.299999999999983
100
AcDbArc
 50
270.0
 51
0.0
  0
ARC
  5
1DFE
330
1F
100
AcDbEntity
  8
OBRYS
  6
CONTINUOUS
100
AcDbCircle
 10
-469.1426095781108
 20
198.9132201782606
 30
0.0
 40
0.7999999999999952
210
0.0
220
0.0
230
-1.0
100
AcDbArc
 50
90.0
 51
180.0
  0
ARC
  5
1E04
330
1F
100
AcDbEntity
  8
OBRYS
  6
CONTINUOUS
100
AcDbCircle
 10
-465.7426095781107
 20
198.9132201782606
 30
0.0
 40
0.7999999999999952
210
0.0
220
0.0
230
-1.0
100
AcDbArc
 50
0.0002139999994727
 51
89.99978600000257
  0
ARC
  5
1E07
330
1F
100
AcDbEntity
  8
OBRYS
  6
CONTINUOUS
100
AcDbCircle
 10
-465.7426095781107
 20
197.3132201782606
 30
0.0
 40
0.7999999999999958
210
0.0
220
0.0
230
-1.0
100
AcDbArc
 50
270.0
 51
0.0
  0
ARC
  5
1E09
330
1F
100
AcDbEntity
  8
OBRYS
  6
CONTINUOUS
100
AcDbCircle
 10
-469.3426095781107
 20
188.0847931782606
 30
0.0
 40
1.758578643762689
210
0.0
220
0.0
230
-1.0
100
AcDbArc
 50
0.0
 51
45.0
  0
ARC
  5
1E0B
330
1F
100
AcDbEntity
  8
OBRYS
  6
CONTINUOUS
100
AcDbCircle
 10
-468.3426095781107
 20
192.7416471782606
 30
0.0
 40
2.058578643762688
210
0.0
220
0.0
230
-1.0
100
AcDbArc
 50
180.0
 51
225.0000000000011
  0
SPLINE
  5
1ED3
330
1F
100
AcDbEntity
  8
OBRYS
  6
CONTINUOUS
100
AcDbSpline
210
0.0
220
0.0
230
1.0
 70
    24
 71
     3
 72
     8
 73
     4
 74
     0
 42
0.000000001
 43
0.0000000001
 40
0.0
 40
0.0
 40
0.0
 40
0.0
 40
1.0
 40
1.0
 40
1.0
 40
1.0
 10
464.4426095311375
 20
162.5148694987802
 30
0.0
 10
464.4426095311375
 20
162.5074428000119
 30
0.0
 10
464.4426095311375
 20
162.500066073727
 30
0.0
 10
464.4426095311375
 20
162.4928084987802
 30
0.0
  0
LINE
  5
1F6B
330
1F
100
AcDbEntity
  8
OBRYS
  6
CONTINUOUS
100
AcDbLine
 10
452.1425499313468
 20
144.0131421782606
 30
0.0
 11
452.1425499313468
 21
146.0132101782606
 31
0.0
  0
LINE
  5
1F6C
330
1F
100
AcDbEntity
  8
OBRYS
  6
CONTINUOUS
100
AcDbLine
 10
440.7425499313467
 20
144.0131421782606
 30
0.0
 11
452.1425499313468
 21
144.0131421782606
 31
0.0
  0
LINE
  5
1F6D
330
1F
100
AcDbEntity
  8
OBRYS
  6
CONTINUOUS
100
AcDbLine
 10
440.7425499313467
 20
146.0132101782606
 30
0.0
 11
440.7425499313467
 21
144.0131421782606
 31
0.0
  0
LINE
  5
1F6E
330
1F
100
AcDbEntity
  8
OBRYS
  6
CONTINUOUS
100
AcDbLine
 10
450.2425499313467
 20
142.4168751782606
 30
0.0
 11
450.2425499313467
 21
142.4168761782606
 31
0.0
  0
LINE
  5
1F6F
330
1F
100
AcDbEntity
  8
OBRYS
  6
CONTINUOUS
100
AcDbLine
 10
442.6425499313468
 20
142.4168761782606
 30
0.0
 11
442.6425499313468
 21
142.4168751782606
 31
0.0
  0
LINE
  5
1F70
330
1F
100
AcDbEntity
  8
OBRYS
  6
CONTINUOUS
100
AcDbLine
 10
448.7249719313467
 20
144.0131421782606
 30
0.0
 11
448.7181839313467
 21
146.0131861782606
 31
0.0
  0
LINE
  5
1F71
330
1F
100
AcDbEntity
  8
OBRYS
  6
CONTINUOUS
100
AcDbLine
 10
453.6425499313468
 20
146.0132201782606
 30
0.0
 11
453.6425499313468
 21
143.9168761782606
 31
0.0
  0
LINE
  5
1F72
330
1F
100
AcDbEntity
  8
OBRYS
  6
CONTINUOUS
100
AcDbLine
 10
452.1425499313468
 20
142.4168761782606
 30
0.0
 11
440.7425499313467
 21
142.4168761782606
 31
0.0
  0
LINE
  5
1F73
330
1F
100
AcDbEntity
  8
OBRYS
  6
CONTINUOUS
100
AcDbLine
 10
442.6425499313468
 20
142.4168751782606
 30
0.0
 11
450.2425499313467
 21
142.4168751782606
 31
0.0
  0
LINE
  5
1F74
330
1F
100
AcDbEntity
  8
OBRYS
  6
CONTINUOUS
100
AcDbLine
 10
440.5425499313467
 20
143.8131421782606
 30
0.0
 11
440.5425499313467
 21
146.0132031782606
 31
0.0
  0
LINE
  5
1F75
330
1F
100
AcDbEntity
  8
OBRYS
  6
CONTINUOUS
100
AcDbLine
 10
452.3425499313467
 20
146.0132031782606
 30
0.0
 11
452.3425499313467
 21
143.8131421782606
 31
0.0
  0
LINE
  5
1F76
330
1F
100
AcDbEntity
  8
OBRYS
  6
CONTINUOUS
100
AcDbLine
 10
439.2425499313467
 20
143.9168761782606
 30
0.0
 11
439.2425499313467
 21
146.0132201782606
 31
0.0
  0
LINE
  5
1F77
330
1F
100
AcDbEntity
  8
OBRYS
  6
CONTINUOUS
100
AcDbLine
 10
452.3425499313467
 20
143.8131421782606
 30
0.0
 11
440.5425499313467
 21
143.8131421782606
 31
0.0
  0
LINE
  5
1F78
330
1F
100
AcDbEntity
  8
OBRYS
  6
CONTINUOUS
100
AcDbLine
 10
444.1601289313467
 20
144.0131421782606
 30
0.0
 11
444.1669159313468
 21
146.0131861782606
 31
0.0
  0
ARC
  5
1F79
330
1F
100
AcDbEntity
  8
OBRYS
  6
CONTINUOUS
100
AcDbCircle
 10
440.7425499313467
 20
143.9168761782606
 30
0.0
 40
1.5
100
AcDbArc
 50
180.0
 51
270.0
  0
ARC
  5
1F7A
330
1F
100
AcDbEntity
  8
OBRYS
  6
CONTINUOUS
100
AcDbCircle
 10
-452.1425499313468
 20
143.9168761782606
 30
0.0
 40
1.5
210
0.0
220
0.0
230
-1.0
100
AcDbArc
 50
180.0
 51
270.0
  0
LINE
  5
1F8B
330
1F
100
AcDbEntity
  8
OBRYS
100
AcDbLine
 10
437.5426095781107
 20
235.6132201782606
 30
0.0
 11
437.5426095781107
 21
146.2132201782607
 31
0.0
  0
ARC
  5
1F9D
330
1F
100
AcDbEntity
  8
OBRYS
100
AcDbCircle
 10
439.6926043997124
 20
228.7426012040667
 30
0.0
 40
1.255312974204602
100
AcDbArc
 50
89.99976364430319
 51
179.9717483917508
  0
ARC
  5
1F9F
330
1F
100
AcDbEntity
  8
OBRYS
100
AcDbCircle
 10
439.6926031638648
 20
222.0838389164851
 30
0.0
 40
1.255311738240851
100
AcDbArc
 50
180.0282408657869
 51
270.0002927633114
  0
ARC
  5
1FA0
330
1F
100
AcDbEntity
  8
OBRYS
100
AcDbCircle
 10
453.1926124088566
 20
222.0838474470089
 30
0.0
 40
1.255320268751441
100
AcDbArc
 50
269.9998707980807
 51
359.9999999999987
  0
ARC
  5
1FA1
330
1F
100
AcDbEntity
  8
OBRYS
100
AcDbCircle
 10
453.1926152813564
 20
228.7426027296673
 30
0.0
 40
1.255311448606274
100
AcDbArc
 50
0.0281820100733916
 51
90.00026031141826
  0
ARC
  5
1FA2
330
1F
100
AcDbEntity
  8
OBRYS
100
AcDbCircle
 10
457.6926043997124
 20
228.7426012040667
 30
0.0
 40
1.255312974204602
100
AcDbArc
 50
89.99976364430319
 51
179.9717483917508
  0
ARC
  5
1FA3
330
1F
100
AcDbEntity
  8
OBRYS
100
AcDbCircle
 10
457.6926031638648
 20
222.0838389164851
 30
0.0
 40
1.255311738240872
100
AcDbArc
 50
180.0282408657869
 51
270.0002927633114
  0
ARC
  5
1FA4
330
1F
100
AcDbEntity
  8
OBRYS
100
AcDbCircle
 10
471.192616535905
 20
222.0838373721739
 30
0.0
 40
1.255310193932543
100
AcDbArc
 50
269.9996824273042
 51
359.9718295860525
  0
ARC
  5
1FA5
330
1F
100
AcDbEntity
  8
OBRYS
100
AcDbCircle
 10
471.1926152813565
 20
228.7426027296675
 30
0.0
 40
1.255311448606131
100
AcDbArc
 50
0.0281820100669079
 51
90.00026031142346
  0
ARC
  5
1FA6
330
1F
100
AcDbEntity
  8
OBRYS
100
AcDbCircle
 10
439.6925472476495
 20
153.08381099982
 30
0.0
 40
1.255255821580828
100
AcDbArc
 50
180.0282002828964
 51
270.000334596731
  0
ARC
  5
1FA7
330
1F
100
AcDbEntity
  8
OBRYS
100
AcDbCircle
 10
439.6925467725043
 20
159.7426298336307
 30
0.0
 40
1.255255346201081
100
AcDbArc
 50
89.99713325564338
 51
179.9718214757415
  0
ARC
  5
1FA8
330
1F
100
AcDbEntity
  8
OBRYS
100
AcDbCircle
 10
453.1926729204103
 20
159.7426313695346
 30
0.0
 40
1.255253808753717
100
AcDbArc
 50
0.028108452773573
 51
90.00038078239895
  0
ARC
  5
1FA9
330
1F
100
AcDbEntity
  8
OBRYS
100
AcDbCircle
 10
453.1926724422732
 20
153.0838094638112
 30
0.0
 40
1.255254287124736
100
AcDbArc
 50
269.9971305804477
 51
359.971869793392
  0
ARC
  5
1FAA
330
1F
100
AcDbEntity
  8
OBRYS
100
AcDbCircle
 10
457.6925472476495
 20
153.08381099982
 30
0.0
 40
1.255255821580828
100
AcDbArc
 50
180.0282002828964
 51
270.000334596731
  0
ARC
  5
1FAB
330
1F
100
AcDbEntity
  8
OBRYS
100
AcDbCircle
 10
457.6925467725043
 20
159.7426298336307
 30
0.0
 40
1.255255346201081
100
AcDbArc
 50
89.99713325564338
 51
179.9718214757415
  0
ARC
  5
1FAC
330
1F
100
AcDbEntity
  8
OBRYS
100
AcDbCircle
 10
471.1926729204103
 20
159.7426313695346
 30
0.0
 40
1.255253808753717
100
AcDbArc
 50
0.028108452773573
 51
90.00038078239895
  0
ARC
  5
1FAD
330
1F
100
AcDbEntity
  8
OBRYS
100
AcDbCircle
 10
471.1926724422734
 20
153.0838094638111
 30
0.0
 40
1.255254287124594
100
AcDbArc
 50
269.9971305804399
 51
359.9718697933986
  0
LINE
  5
1FAE
330
1F
100
AcDbEntity
  8
OBRYS
100
AcDbLine
 10
444.3405065781107
 20
156.9132201782606
 30
0.0
 11
444.3405065781107
 21
155.9132201782606
 31
0.0
  0
LINE
  5
1FAF
330
1F
100
AcDbEntity
  8
OBRYS
100
AcDbLine
 10
448.5447125781107
 20
156.9132201782606
 30
0.0
 11
448.5447125781107
 21
155.9132201782606
 31
0.0
  0
CIRCLE
  5
1FB0
330
1F
100
AcDbEntity
  8
OBRYS
100
AcDbCircle
 10
446.4426095781108
 20
156.4132201782606
 30
0.0
 40
2.9
  0
ARC
  5
1FB1
330
1F
100
AcDbEntity
  8
OBRYS
100
AcDbCircle
 10
445.2176098636754
 20
155.1882204638252
 30
0.0
 40
0.7249997144354545
100
AcDbArc
 50
359.9999774322011
 51
90.00002256779891
  0
ARC
  5
1FB2
330
1F
100
AcDbEntity
  8
OBRYS
100
AcDbCircle
 10
445.2176081565646
 20
157.6382215998068
 30
0.0
 40
0.7250014215475754
100
AcDbArc
 50
270.0001123426676
 51
359.999887657328
  0
ARC
  5
1FB3
330
1F
100
AcDbEntity
  8
OBRYS
100
AcDbCircle
 10
447.6676092925462
 20
155.1882204638252
 30
0.0
 40
0.7249997144354545
100
AcDbArc
 50
89.9999774322011
 51
180.0000225677989
  0
ARC
  5
1FB4
330
1F
100
AcDbEntity
  8
OBRYS
100
AcDbCircle
 10
447.6676109996569
 20
157.6382215998068
 30
0.0
 40
0.725001421547547
100
AcDbArc
 50
180.0001123426721
 51
269.9998876573324
  0
LINE
  5
1FB5
330
1F
100
AcDbEntity
  8
OBRYS
100
AcDbLine
 10
445.5911870007268
 20
155.8095615204149
 30
0.0
 11
445.3023728035113
 21
155.2729834036611
 31
0.0
  0
LINE
  5
1FB6
330
1F
100
AcDbEntity
  8
OBRYS
100
AcDbLine
 10
445.3023728035113
 20
155.2729834036611
 30
0.0
 11
445.838950920265
 21
155.5617976008767
 31
0.0
  0
LINE
  5
1FB7
330
1F
100
AcDbEntity
  8
OBRYS
100
AcDbLine
 10
447.0462682359565
 20
155.5617976008767
 30
0.0
 11
447.5828463527104
 21
155.272983403661
 31
0.0
  0
LINE
  5
1FB8
330
1F
100
AcDbEntity
  8
OBRYS
100
AcDbLine
 10
447.5828463527104
 20
155.272983403661
 30
0.0
 11
447.2940321554946
 21
155.8095615204149
 31
0.0
  0
LINE
  5
1FB9
330
1F
100
AcDbEntity
  8
OBRYS
100
AcDbLine
 10
447.0462687937712
 20
157.2646430613026
 30
0.0
 11
447.5828463527101
 21
157.55345695286
 31
0.0
  0
LINE
  5
1FBA
330
1F
100
AcDbEntity
  8
OBRYS
100
AcDbLine
 10
447.5828463527101
 20
157.55345695286
 30
0.0
 11
447.2940324611527
 21
157.016879393921
 31
0.0
  0
LINE
  5
1FBB
330
1F
100
AcDbEntity
  8
OBRYS
100
AcDbLine
 10
445.8389503624504
 20
157.2646430613026
 30
0.0
 11
445.3023728035111
 21
157.5534569528602
 31
0.0
  0
LINE
  5
1FBC
330
1F
100
AcDbEntity
  8
OBRYS
100
AcDbLine
 10
445.3023728035111
 20
157.5534569528602
 30
0.0
 11
445.5911866950688
 21
157.016879393921
 31
0.0
  0
CIRCLE
  5
1FBD
330
1F
100
AcDbEntity
  8
OBRYS
100
AcDbCircle
 10
464.4426095781108
 20
156.4132201782606
 30
0.0
 40
2.9
  0
LINE
  5
1FBE
330
1F
100
AcDbEntity
  8
OBRYS
100
AcDbLine
 10
462.3405065781107
 20
156.9132201782606
 30
0.0
 11
462.3405065781107
 21
155.9132201782606
 31
0.0
  0
LINE
  5
1FBF
330
1F
100
AcDbEntity
  8
OBRYS
100
AcDbLine
 10
466.5447125781107
 20
156.9132201782606
 30
0.0
 11
466.5447125781107
 21
155.9132201782606
 31
0.0
  0
ARC
  5
1FC0
330
1F
100
AcDbEntity
  8
OBRYS
100
AcDbCircle
 10
465.6676092925462
 20
155.1882204638252
 30
0.0
 40
0.7249997144354545
100
AcDbArc
 50
89.9999774322011
 51
180.0000225677989
  0
ARC
  5
1FC1
330
1F
100
AcDbEntity
  8
OBRYS
100
AcDbCircle
 10
465.6676109996569
 20
157.6382215998068
 30
0.0
 40
0.725001421547547
100
AcDbArc
 50
180.0001123426721
 51
269.9998876573324
  0
ARC
  5
1FC2
330
1F
100
AcDbEntity
  8
OBRYS
100
AcDbCircle
 10
463.2176081565646
 20
157.6382215998068
 30
0.0
 40
0.725001421547547
100
AcDbArc
 50
270.0001123426676
 51
359.999887657328
  0
ARC
  5
1FC3
330
1F
100
AcDbEntity
  8
OBRYS
100
AcDbCircle
 10
463.2176098636754
 20
155.1882204638252
 30
0.0
 40
0.7249997144354545
100
AcDbArc
 50
359.9999774322011
 51
90.00002256779891
  0
LINE
  5
1FC4
330
1F
100
AcDbEntity
  8
OBRYS
100
AcDbLine
 10
463.8389509202649
 20
155.5617976008767
 30
0.0
 11
463.3023713459182
 21
155.2729806452277
 31
0.0
  0
LINE
  5
1FC5
330
1F
100
AcDbEntity
  8
OBRYS
100
AcDbLine
 10
463.3023713459182
 20
155.2729806452277
 30
0.0
 11
463.5911870007268
 21
155.8095615204149
 31
0.0
  0
LINE
  5
1FC6
330
1F
100
AcDbEntity
  8
OBRYS
100
AcDbLine
 10
463.5911866950689
 20
157.016879393921
 30
0.0
 11
463.3023713459182
 21
157.5534597112936
 31
0.0
  0
LINE
  5
1FC7
330
1F
100
AcDbEntity
  8
OBRYS
100
AcDbLine
 10
463.3023713459182
 20
157.5534597112936
 30
0.0
 11
463.8389503624504
 21
157.2646430613025
 31
0.0
  0
LINE
  5
1FC8
330
1F
100
AcDbEntity
  8
OBRYS
100
AcDbLine
 10
465.0462687937711
 20
157.2646430613026
 30
0.0
 11
465.5828491111438
 21
157.5534584104532
 31
0.0
  0
LINE
  5
1FC9
330
1F
100
AcDbEntity
  8
OBRYS
100
AcDbLine
 10
465.5828491111438
 20
157.5534584104532
 30
0.0
 11
465.2940324611527
 21
157.016879393921
 31
0.0
  0
LINE
  5
1FCA
330
1F
100
AcDbEntity
  8
OBRYS
100
AcDbLine
 10
465.2940321554947
 20
155.8095615204149
 30
0.0
 11
465.5828463527103
 21
155.2729834036611
 31
0.0
  0
LINE
  5
1FCB
330
1F
100
AcDbEntity
  8
OBRYS
100
AcDbLine
 10
465.5828463527103
 20
155.2729834036611
 30
0.0
 11
465.0462682359565
 21
155.5617976008768
 31
0.0
  0
CIRCLE
  5
1FCC
330
1F
100
AcDbEntity
  8
OBRYS
100
AcDbCircle
 10
442.0426095781108
 20
225.4132201782606
 30
0.0
 40
2.9
  0
LINE
  5
1FCD
330
1F
100
AcDbEntity
  8
OBRYS
100
AcDbLine
 10
439.9405065781107
 20
225.9632201782606
 30
0.0
 11
439.9405065781107
 21
224.9632201782606
 31
0.0
  0
LINE
  5
1FCE
330
1F
100
AcDbEntity
  8
OBRYS
100
AcDbLine
 10
444.1447125781107
 20
225.9632201782606
 30
0.0
 11
444.1447125781107
 21
224.9632201782606
 31
0.0
  0
LINE
  5
1FCF
330
1F
100
AcDbEntity
  8
OBRYS
100
AcDbLine
 10
441.1911860613006
 20
226.0668785617532
 30
0.0
 11
440.9023728035112
 21
226.6034569528602
 31
0.0
  0
LINE
  5
1FD0
330
1F
100
AcDbEntity
  8
OBRYS
100
AcDbLine
 10
440.9023728035112
 20
226.6034569528602
 30
0.0
 11
441.4389508271503
 21
226.3146428066672
 31
0.0
  0
LINE
  5
1FD1
330
1F
100
AcDbEntity
  8
OBRYS
100
AcDbLine
 10
442.6462677764178
 20
226.3146437861208
 30
0.0
 11
443.1828478103034
 21
226.6034597112936
 31
0.0
  0
LINE
  5
1FD2
330
1F
100
AcDbEntity
  8
OBRYS
100
AcDbLine
 10
443.1828478103034
 20
226.6034597112936
 30
0.0
 11
442.8940322065251
 21
226.066878929235
 31
0.0
  0
ARC
  5
1FD3
330
1F
100
AcDbEntity
  8
OBRYS
100
AcDbCircle
 10
440.8176081565646
 20
226.6882215998068
 30
0.0
 40
0.7250014215476038
100
AcDbArc
 50
270.000112342672
 51
359.9998876573257
  0
ARC
  5
1FD4
330
1F
100
AcDbEntity
  8
OBRYS
100
AcDbCircle
 10
443.267610999657
 20
226.6882215998068
 30
0.0
 40
0.7250014215476038
100
AcDbArc
 50
180.0001123426743
 51
269.999887657328
  0
LINE
  5
1FD5
330
1F
100
AcDbEntity
  8
OBRYS
100
AcDbLine
 10
441.191186983738
 20
224.8595614894108
 30
0.0
 11
440.9023728035174
 21
224.3229834036725
 31
0.0
  0
LINE
  5
1FD6
330
1F
100
AcDbEntity
  8
OBRYS
100
AcDbLine
 10
440.9023728035174
 20
224.3229834036725
 30
0.0
 11
441.4389513334272
 21
224.6117967089958
 31
0.0
  0
ARC
  5
1FD7
330
1F
100
AcDbEntity
  8
OBRYS
100
AcDbCircle
 10
440.8176098636754
 20
224.2382204638253
 30
0.0
 40
0.7249997144353977
100
AcDbArc
 50
359.9999774321989
 51
90.00002256780338
  0
ARC
  5
1FD8
330
1F
100
AcDbEntity
  8
OBRYS
100
AcDbCircle
 10
443.2676092925461
 20
224.2382204638253
 30
0.0
 40
0.7249997144353977
100
AcDbArc
 50
89.99997743219662
 51
180.0000225678012
  0
LINE
  5
1FD9
330
1F
100
AcDbEntity
  8
OBRYS
100
AcDbLine
 10
442.8940321724835
 20
224.8595614894108
 30
0.0
 11
443.1828463527212
 21
224.3229834036553
 31
0.0
  0
LINE
  5
1FDA
330
1F
100
AcDbEntity
  8
OBRYS
100
AcDbLine
 10
443.1828463527212
 20
224.3229834036553
 30
0.0
 11
442.6462682669605
 21
224.6117975838879
 31
0.0
  0
CIRCLE
  5
1FDB
330
1F
100
AcDbEntity
  8
OBRYS
100
AcDbCircle
 10
450.8426095781107
 20
225.4132201782606
 30
0.0
 40
2.9
  0
LINE
  5
1FDC
330
1F
100
AcDbEntity
  8
OBRYS
100
AcDbLine
 10
448.7405065781108
 20
225.9632201782606
 30
0.0
 11
448.7405065781108
 21
224.9632201782606
 31
0.0
  0
LINE
  5
1FDD
330
1F
100
AcDbEntity
  8
OBRYS
100
AcDbLine
 10
452.9447125781108
 20
225.9632201782606
 30
0.0
 11
452.9447125781108
 21
224.9632201782606
 31
0.0
  0
ARC
  5
1FDE
330
1F
100
AcDbEntity
  8
OBRYS
100
AcDbCircle
 10
449.6176098636754
 20
224.2382204638253
 30
0.0
 40
0.7249997144353977
100
AcDbArc
 50
359.9999774321989
 51
90.00002256780338
  0
ARC
  5
1FDF
330
1F
100
AcDbEntity
  8
OBRYS
100
AcDbCircle
 10
449.6176081565645
 20
226.6882215998068
 30
0.0
 40
0.7250014215476038
100
AcDbArc
 50
270.000112342672
 51
359.9998876573257
  0
ARC
  5
1FE0
330
1F
100
AcDbEntity
  8
OBRYS
100
AcDbCircle
 10
452.0676109996569
 20
226.6882215998068
 30
0.0
 40
0.7250014215476038
100
AcDbArc
 50
180.0001123426743
 51
269.999887657328
  0
ARC
  5
1FE1
330
1F
100
AcDbEntity
  8
OBRYS
100
AcDbCircle
 10
452.0676092925461
 20
224.2382204638253
 30
0.0
 40
0.7249997144353977
100
AcDbArc
 50
89.99997743219662
 51
180.0000225678012
  0
LINE
  5
1FE2
330
1F
100
AcDbEntity
  8
OBRYS
100
AcDbLine
 10
449.991186983738
 20
224.8595614894108
 30
0.0
 11
449.7023700450778
 21
224.3229819460681
 31
0.0
  0
LINE
  5
1FE3
330
1F
100
AcDbEntity
  8
OBRYS
100
AcDbLine
 10
449.7023700450778
 20
224.3229819460681
 30
0.0
 11
450.238950889261
 21
224.6117975838879
 31
0.0
  0
LINE
  5
1FE4
330
1F
100
AcDbEntity
  8
OBRYS
100
AcDbLine
 10
449.991186983738
 20
226.0668788671104
 30
0.0
 11
449.7023713459182
 21
226.6034597112936
 31
0.0
  0
LINE
  5
1FE5
330
1F
100
AcDbEntity
  8
OBRYS
100
AcDbLine
 10
449.7023713459182
 20
226.6034597112936
 30
0.0
 11
450.238950889261
 21
226.3146427726334
 31
0.0
  0
LINE
  5
1FE6
330
1F
100
AcDbEntity
  8
OBRYS
100
AcDbLine
 10
451.6940324611527
 20
226.066879393921
 30
0.0
 11
451.9828491111438
 21
226.6034584104532
 31
0.0
  0
LINE
  5
1FE7
330
1F
100
AcDbEntity
  8
OBRYS
100
AcDbLine
 10
451.9828491111438
 20
226.6034584104532
 30
0.0
 11
451.4462682669605
 21
226.3146427726334
 31
0.0
  0
LINE
  5
1FE8
330
1F
100
AcDbEntity
  8
OBRYS
100
AcDbLine
 10
451.6940321724835
 20
224.8595614894108
 30
0.0
 11
451.9828491111437
 21
224.3229819460681
 31
0.0
  0
LINE
  5
1FE9
330
1F
100
AcDbEntity
  8
OBRYS
100
AcDbLine
 10
451.9828491111437
 20
224.3229819460681
 30
0.0
 11
451.4462682669605
 21
224.6117975838879
 31
0.0
  0
CIRCLE
  5
1FEA
330
1F
100
AcDbEntity
  8
OBRYS
100
AcDbCircle
 10
460.0426095781108
 20
225.4132201782606
 30
0.0
 40
2.9
  0
LINE
  5
1FEB
330
1F
100
AcDbEntity
  8
OBRYS
100
AcDbLine
 10
457.9405065781107
 20
225.9632201782606
 30
0.0
 11
457.9405065781107
 21
224.9632201782606
 31
0.0
  0
LINE
  5
1FEC
330
1F
100
AcDbEntity
  8
OBRYS
100
AcDbLine
 10
462.1447125781107
 20
225.9632201782606
 30
0.0
 11
462.1447125781107
 21
224.9632201782606
 31
0.0
  0
ARC
  5
1FED
330
1F
100
AcDbEntity
  8
OBRYS
100
AcDbCircle
 10
458.8176098636754
 20
224.2382204638253
 30
0.0
 40
0.7249997144353977
100
AcDbArc
 50
359.9999774321989
 51
90.00002256780338
  0
ARC
  5
1FEE
330
1F
100
AcDbEntity
  8
OBRYS
100
AcDbCircle
 10
458.8176081565646
 20
226.6882215998068
 30
0.0
 40
0.7250014215476038
100
AcDbArc
 50
270.000112342672
 51
359.9998876573257
  0
ARC
  5
1FEF
330
1F
100
AcDbEntity
  8
OBRYS
100
AcDbCircle
 10
461.267610999657
 20
226.6882215998068
 30
0.0
 40
0.7250014215476038
100
AcDbArc
 50
180.0001123426743
 51
269.999887657328
  0
ARC
  5
1FF0
330
1F
100
AcDbEntity
  8
OBRYS
100
AcDbCircle
 10
461.2675395738028
 20
224.2382901825686
 30
0.0
 40
0.724929999072061
100
AcDbArc
 50
89.99446711902296
 51
180.0055328809771
  0
LINE
  5
1FF1
330
1F
100
AcDbEntity
  8
OBRYS
100
AcDbLine
 10
459.191186983738
 20
224.8595614894108
 30
0.0
 11
458.9023713459182
 21
224.3229806452277
 31
0.0
  0
LINE
  5
1FF2
330
1F
100
AcDbEntity
  8
OBRYS
100
AcDbLine
 10
458.9023713459182
 20
224.3229806452277
 30
0.0
 11
459.438950889261
 21
224.6117975838879
 31
0.0
  0
LINE
  5
1FF3
330
1F
100
AcDbEntity
  8
OBRYS
100
AcDbLine
 10
459.1911866950687
 20
226.066879393921
 30
0.0
 11
458.9023713459182
 21
226.6034597112936
 31
0.0
  0
LINE
  5
1FF4
330
1F
100
AcDbEntity
  8
OBRYS
100
AcDbLine
 10
458.9023713459182
 20
226.6034597112936
 30
0.0
 11
459.4389503624504
 21
226.3146430613025
 31
0.0
  0
LINE
  5
1FF5
330
1F
100
AcDbEntity
  8
OBRYS
100
AcDbLine
 10
460.6462682669605
 20
226.3146427726334
 30
0.0
 11
461.1828463527104
 21
226.6034569528604
 31
0.0
  0
LINE
  5
1FF6
330
1F
100
AcDbEntity
  8
OBRYS
100
AcDbLine
 10
461.1828463527104
 20
226.6034569528604
 30
0.0
 11
460.8940321724837
 21
226.0668788671107
 31
0.0
  0
LINE
  5
1FF7
330
1F
100
AcDbEntity
  8
OBRYS
100
AcDbLine
 10
460.6462682669605
 20
224.6117975838879
 30
0.0
 11
461.1828478103034
 21
224.3229806452277
 31
0.0
  0
LINE
  5
1FF8
330
1F
100
AcDbEntity
  8
OBRYS
100
AcDbLine
 10
461.1828478103034
 20
224.3229806452277
 30
0.0
 11
460.8940321724835
 21
224.8595614894108
 31
0.0
  0
CIRCLE
  5
1FF9
330
1F
100
AcDbEntity
  8
OBRYS
100
AcDbCircle
 10
468.8426095781107
 20
225.4132201782606
 30
0.0
 40
2.9
  0
LINE
  5
1FFA
330
1F
100
AcDbEntity
  8
OBRYS
100
AcDbLine
 10
466.7405065781108
 20
225.9632201782606
 30
0.0
 11
466.7405065781108
 21
224.9632201782606
 31
0.0
  0
LINE
  5
1FFB
330
1F
100
AcDbEntity
  8
OBRYS
100
AcDbLine
 10
470.9447125781108
 20
225.9632201782606
 30
0.0
 11
470.9447125781108
 21
224.9632201782606
 31
0.0
  0
ARC
  5
1FFC
330
1F
100
AcDbEntity
  8
OBRYS
100
AcDbCircle
 10
467.6176081565645
 20
226.6882215998068
 30
0.0
 40
0.7250014215476038
100
AcDbArc
 50
270.000112342672
 51
359.9998876573257
  0
ARC
  5
1FFD
330
1F
100
AcDbEntity
  8
OBRYS
100
AcDbCircle
 10
467.6176098636754
 20
224.2382204638253
 30
0.0
 40
0.7249997144353977
100
AcDbArc
 50
359.9999774321989
 51
90.00002256780338
  0
ARC
  5
1FFF
330
1F
100
AcDbEntity
  8
OBRYS
100
AcDbCircle
 10
470.0676092925461
 20
224.2382204638253
 30
0.0
 40
0.7249997144353977
100
AcDbArc
 50
89.99997743219662
 51
180.0000225678012
  0
ARC
  5
2000
330
1F
100
AcDbEntity
  8
OBRYS
100
AcDbCircle
 10
470.0676109996569
 20
226.6882215998068
 30
0.0
 40
0.7250014215476038
100
AcDbArc
 50
180.0001123426743
 51
269.999887657328
  0
LINE
  5
2001
330
1F
100
AcDbEntity
  8
OBRYS
100
AcDbLine
 10
467.991186983738
 20
224.8595614894108
 30
0.0
 11
467.7023700450779
 21
224.3229819460681
 31
0.0
  0
LINE
  5
2002
330
1F
100
AcDbEntity
  8
OBRYS
100
AcDbLine
 10
467.7023700450779
 20
224.3229819460681
 30
0.0
 11
468.238950889261
 21
224.6117975838879
 31
0.0
  0
LINE
  5
2003
330
1F
100
AcDbEntity
  8
OBRYS
100
AcDbLine
 10
467.991186983738
 20
226.0668788671104
 30
0.0
 11
467.7023700450778
 21
226.6034584104532
 31
0.0
  0
LINE
  5
2004
330
1F
100
AcDbEntity
  8
OBRYS
100
AcDbLine
 10
467.7023700450778
 20
226.6034584104532
 30
0.0
 11
468.2389503624503
 21
226.3146430613026
 31
0.0
  0
LINE
  5
2005
330
1F
100
AcDbEntity
  8
OBRYS
100
AcDbLine
 10
469.4462682669606
 20
226.3146427726334
 30
0.0
 11
469.9828463527101
 21
226.60345695286
 31
0.0
  0
LINE
  5
2006
330
1F
100
AcDbEntity
  8
OBRYS
100
AcDbLine
 10
469.9828463527101
 20
226.60345695286
 30
0.0
 11
469.6940321724836
 21
226.0668788671107
 31
0.0
  0
LINE
  5
2007
330
1F
100
AcDbEntity
  8
OBRYS
100
AcDbLine
 10
469.6940321724835
 20
224.8595614894108
 30
0.0
 11
469.9828463527102
 21
224.3229834036612
 31
0.0
  0
LINE
  5
2008
330
1F
100
AcDbEntity
  8
OBRYS
100
AcDbLine
 10
469.9828463527102
 20
224.3229834036612
 30
0.0
 11
469.4462682669605
 21
224.6117975838879
 31
0.0
  0
DIMENSION
  5
202A
330
1F
100
AcDbEntity
  8
KOTY
100
AcDbDimension
  2
*D17
 10
473.3426095781108
 20
122.6358462391053
 30
0.0
 11
455.4426095781108
 21
125.1673462391053
 31
0.0
 70
    32
  3
STANDARD
100
AcDbAlignedDimension
 13
437.5426095781107
 23
146.2132201782607
 33
0.0
 14
473.3426095781108
 24
146.2132201782607
 34
0.0
100
AcDbRotatedDimension
1001
ACAD
1000
DSTYLE
1002
{
1070
   287
1070
     5
1070
   271
1070
     0
1070
   278
1070
    44
1070
   140
1040
3.0
1070
    73
1070
     0
1070
    77
1070
     1
1070
   147
1040
1.0
1070
    41
1040
3.0
1070
   279
1070
     2
1002
}
  0
VIEWPORT
  5
13A7
330
13A3
100
AcDbEntity
 67
     1
  8
0
100
AcDbViewport
 10
0.0
 20
0.0
 30
0.0
 40
10.25828571428572
 41
7.926857142857144
 68
     1
 69
     1
1001
ACAD
1000
MVIEW
1002
{
1070
    16
1010
0.0
1020
0.0
1030
0.0
1010
0.0
1020
0.0
1030
1.0
1040
0.0
1040
7.926857142857144
1040
5.850000000000001
1040
4.0
1040
50.0
1040
0.0
1040
0.0
1070
     0
1070
   100
1070
     0
1070
     3
1070
     0
1070
     0
1070
     0
1070
     0
1040
0.0
1040
0.0
1040
0.0
1040
0.5
1040
0.5
1040
0.0
1040
0.0
1070
     0
1002
{
1002
}
1002
}
  0
VIEWPORT
  5
13A8
330
13A3
100
AcDbEntity
 67
     1
  8
0
100
AcDbViewport
 10
5.25
 20
4.0
 30
0.0
 40
8.4
 41
6.4
 68
     2
 69
     2
1001
ACAD
1000
MVIEW
1002
{
1070
    16
1010
0.0
1020
0.0
1030
0.0
1010
0.0
1020
0.0
1030
1.0
1040
0.0
1040
148.6297148340291
1040
402.0833493011321
1040
186.0116588272101
1040
50.0
1040
0.0
1040
0.0
1070
     0
1070
   100
1070
     0
1070
     3
1070
     0
1070
     0
1070
     0
1070
     0
1040
0.0
1040
0.0
1040
0.0
1040
0.5
1040
0.5
1040
0.0
1040
0.0
1070
     0
1002
{
1002
}
1002
}
  0
ENDSEC
  0
SECTION
  2
OBJECTS
  0
DICTIONARY
  5
C
330
0
100
AcDbDictionary
  3
ACAD_DETAILVIEWSTYLE
350
122
  3
ACAD_GROUP
350
D
  3
ACAD_IMAGE_VARS
350
DC
  3
ACAD_MLINESTYLE
350
17
  3
ACAD_SCALELIST
350
203D
  3
ACAD_SECTIONVIEWSTYLE
350
123
  3
ACDBVARIABLEDICTIONARY
350
66
  3
APPDATA
350
E1
  3
DWGPROPS
350
2085
  0
DICTIONARY
  5
1326
330
2
100
AcDbDictionary
280
     1
  3
ACAD_LAYERSTATES
360
1329
  3
ACLYDICTIONARY
360
132E
  0
DICTIONARY
  5
122
102
{ACAD_REACTORS
330
C
102
}
330
C
100
AcDbDictionary
  0
DICTIONARY
  5
D
102
{ACAD_REACTORS
330
C
102
}
330
C
100
AcDbDictionary
  0
RASTERVARIABLES
  5
DC
102
{ACAD_REACTORS
330
C
102
}
330
C
100
AcDbRasterVariables
 90
        0
 70
     1
 71
     1
 72
     5
  0
DICTIONARY
  5
17
102
{ACAD_REACTORS
330
C
102
}
330
C
100
AcDbDictionary
  3
STANDARD
350
18
  0
DICTIONARY
  5
203D
102
{ACAD_REACTORS
330
C
102
}
330
C
100
AcDbDictionary
  0
DICTIONARY
  5
123
102
{ACAD_REACTORS
330
C
102
}
330
C
100
AcDbDictionary
  0
DICTIONARY
  5
66
102
{ACAD_REACTORS
330
C
102
}
330
C
100
AcDbDictionary
  3
DIMASSOC
350
67
  3
HIDETEXT
350
6B
  0
DICTIONARY
  5
E1
102
{ACAD_REACTORS
330
C
102
}
330
C
100
AcDbDictionary
  0
XRECORD
  5
2085
102
{ACAD_REACTORS
330
C
102
}
330
C
100
AcDbXrecord
  1
DWGPROPS COOKIE
  2

  3

  4

  6

  7

  8
jaromir.podrabsky
  9

300
=
301
=
302
=
303
=
304
=
305
=
306
=
307
=
308
=
309
=
 40
0.0
 41
2452643.021717593
 42
2457213.501888646
  1

 90
        0
  0
DICTIONARY
  5
1329
102
{ACAD_REACTORS
330
1326
102
}
330
1326
100
AcDbDictionary
  0
DICTIONARY
  5
132E
102
{ACAD_REACTORS
330
1326
102
}
330
1326
100
AcDbDictionary
1001
ACAD
1000
<All
  0
MLINESTYLE
  5
18
102
{ACAD_REACTORS
330
17
102
}
330
17
100
AcDbMlineStyle
  2
STANDARD
 70
     0
  3

 62
   256
 51
90.0
 52
90.0
 71
     2
 49
0.5
 62
   256
  6
BYLAYER
 49
-0.5
 62
   256
  6
BYLAYER
  0
DICTIONARYVAR
  5
67
102
{ACAD_REACTORS
330
66
102
}
330
66
100
DictionaryVariables
280
     0
  1
2
  0
DICTIONARYVAR
  5
6B
102
{ACAD_REACTORS
330
66
102
}
330
66
100
DictionaryVariables
280
     0
  1
1
  0
ENDSEC
  0
EOF
