  0
SECTION
  2
HEADER
  9
$ACADVER
  1
AC1014
  9
$ACADMAINTVER
 70
     9
  9
$DWGCODEPAGE
  3
ANSI_1250
  9
$INSBASE
 10
0.0
 20
0.0
 30
0.0
  9
$EXTMIN
 10
194.3097196241677
 20
186.2230517786344
 30
0.0
  9
$EXTMAX
 10
359.2192885494059
 20
286.6936323808106
 30
0.0
  9
$LIMMIN
 10
0.0
 20
0.0
  9
$LIMMAX
 10
12.0
 20
9.0
  9
$ORTHOMODE
 70
     0
  9
$REGENMODE
 70
     1
  9
$FILLMODE
 70
     1
  9
$QTEXTMODE
 70
     0
  9
$MIRRTEXT
 70
     0
  9
$DRAGMODE
 70
     2
  9
$LTSCALE
 40
1.0
  9
$OSMODE
 70
 15359
  9
$ATTMODE
 70
     1
  9
$TEXTSIZE
 40
0.2
  9
$TRACEWID
 40
0.05
  9
$TEXTSTYLE
  7
STANDARD
  9
$CLAYER
  8
KOTY
  9
$CELTYPE
  6
BYLAYER
  9
$CECOLOR
 62
   256
  9
$CELTSCALE
 40
1.0
  9
$DELOBJ
 70
     1
  9
$DISPSILH
 70
     0
  9
$DIMSCALE
 40
1.0
  9
$DIMASZ
 40
0.18
  9
$DIMEXO
 40
0.0625
  9
$DIMDLI
 40
0.38
  9
$DIMRND
 40
0.0
  9
$DIMDLE
 40
0.0
  9
$DIMEXE
 40
0.18
  9
$DIMTP
 40
0.0
  9
$DIMTM
 40
0.0
  9
$DIMTXT
 40
0.18
  9
$DIMCEN
 40
0.09
  9
$DIMTSZ
 40
0.0
  9
$DIMTOL
 70
     0
  9
$DIMLIM
 70
     0
  9
$DIMTIH
 70
     1
  9
$DIMTOH
 70
     1
  9
$DIMSE1
 70
     0
  9
$DIMSE2
 70
     0
  9
$DIMTAD
 70
     0
  9
$DIMZIN
 70
     0
  9
$DIMBLK
  1

  9
$DIMASO
 70
     1
  9
$DIMSHO
 70
     1
  9
$DIMPOST
  1

  9
$DIMAPOST
  1

  9
$DIMALT
 70
     0
  9
$DIMALTD
 70
     2
  9
$DIMALTF
 40
25.4
  9
$DIMLFAC
 40
1.0
  9
$DIMTOFL
 70
     0
  9
$DIMTVP
 40
0.0
  9
$DIMTIX
 70
     0
  9
$DIMSOXD
 70
     0
  9
$DIMSAH
 70
     0
  9
$DIMBLK1
  1

  9
$DIMBLK2
  1

  9
$DIMSTYLE
  2
STANDARD
  9
$DIMCLRD
 70
     0
  9
$DIMCLRE
 70
     0
  9
$DIMCLRT
 70
     0
  9
$DIMTFAC
 40
1.0
  9
$DIMGAP
 40
0.09
  9
$DIMJUST
 70
     0
  9
$DIMSD1
 70
     0
  9
$DIMSD2
 70
     0
  9
$DIMTOLJ
 70
     1
  9
$DIMTZIN
 70
     0
  9
$DIMALTZ
 70
     0
  9
$DIMALTTZ
 70
     0
  9
$DIMFIT
 70
     5
  9
$DIMUPT
 70
     0
  9
$DIMUNIT
 70
     2
  9
$DIMDEC
 70
     4
  9
$DIMTDEC
 70
     4
  9
$DIMALTU
 70
     2
  9
$DIMALTTD
 70
     2
  9
$DIMTXSTY
  7
STANDARD
  9
$DIMAUNIT
 70
     0
  9
$LUNITS
 70
     2
  9
$LUPREC
 70
     4
  9
$SKETCHINC
 40
0.1
  9
$FILLETRAD
 40
0.0
  9
$AUNITS
 70
     0
  9
$AUPREC
 70
     0
  9
$MENU
  1
.
  9
$ELEVATION
 40
0.0
  9
$PELEVATION
 40
0.0
  9
$THICKNESS
 40
0.0
  9
$LIMCHECK
 70
     0
  9
$CHAMFERA
 40
0.0
  9
$CHAMFERB
 40
0.0
  9
$CHAMFERC
 40
0.0
  9
$CHAMFERD
 40
0.0
  9
$SKPOLY
 70
     0
  9
$TDCREATE
 40
2452643.105050926
  9
$TDUPDATE
 40
2456764.557421204
  9
$TDINDWG
 40
0.0537736227
  9
$TDUSRTIMER
 40
2456764.470373912
  9
$USRTIMER
 70
     1
  9
$ANGBASE
 50
0.0
  9
$ANGDIR
 70
     0
  9
$PDMODE
 70
     0
  9
$PDSIZE
 40
0.0
  9
$PLINEWID
 40
0.0
  9
$COORDS
 70
     2
  9
$SPLFRAME
 70
     0
  9
$SPLINETYPE
 70
     6
  9
$SPLINESEGS
 70
     8
  9
$ATTDIA
 70
     0
  9
$ATTREQ
 70
     1
  9
$HANDLING
 70
     1
  9
$HANDSEED
  5
44C
  9
$SURFTAB1
 70
     6
  9
$SURFTAB2
 70
     6
  9
$SURFTYPE
 70
     6
  9
$SURFU
 70
     6
  9
$SURFV
 70
     6
  9
$UCSNAME
  2

  9
$UCSORG
 10
0.0
 20
0.0
 30
0.0
  9
$UCSXDIR
 10
1.0
 20
0.0
 30
0.0
  9
$UCSYDIR
 10
0.0
 20
1.0
 30
0.0
  9
$PUCSNAME
  2

  9
$PUCSORG
 10
0.0
 20
0.0
 30
0.0
  9
$PUCSXDIR
 10
1.0
 20
0.0
 30
0.0
  9
$PUCSYDIR
 10
0.0
 20
1.0
 30
0.0
  9
$USERI1
 70
     0
  9
$USERI2
 70
     0
  9
$USERI3
 70
     0
  9
$USERI4
 70
     0
  9
$USERI5
 70
     0
  9
$USERR1
 40
0.0
  9
$USERR2
 40
0.0
  9
$USERR3
 40
0.0
  9
$USERR4
 40
0.0
  9
$USERR5
 40
0.0
  9
$WORLDVIEW
 70
     1
  9
$SHADEDGE
 70
     3
  9
$SHADEDIF
 70
    70
  9
$TILEMODE
 70
     0
  9
$MAXACTVP
 70
    64
  9
$PINSBASE
 10
0.0
 20
0.0
 30
0.0
  9
$PLIMCHECK
 70
     0
  9
$PEXTMIN
 10
1.05
 20
0.7999999999999998
 30
0.0
  9
$PEXTMAX
 10
9.45
 20
7.2
 30
0.0
  9
$PLIMMIN
 10
0.8500000000000006
 20
0.5999999999999998
  9
$PLIMMAX
 10
9.650000000000002
 20
7.4
  9
$UNITMODE
 70
     0
  9
$VISRETAIN
 70
     1
  9
$PLINEGEN
 70
     0
  9
$PSLTSCALE
 70
     1
  9
$TREEDEPTH
 70
  3020
  9
$PICKSTYLE
 70
     0
  9
$CMLSTYLE
  2
STANDARD
  9
$CMLJUST
 70
     0
  9
$CMLSCALE
 40
1.0
  9
$PROXYGRAPHICS
 70
     1
  9
$MEASUREMENT
 70
     0
  0
ENDSEC
  0
SECTION
  2
CLASSES
  0
CLASS
  1
ACDBDICTIONARYWDFLT
  2
AcDbDictionaryWithDefault
  3
ObjectDBX Classes
 90
        0
280
     0
281
     0
  0
CLASS
  1
ACDBPLACEHOLDER
  2
AcDbPlaceHolder
  3
ObjectDBX Classes
 90
        0
280
     0
281
     0
  0
CLASS
  1
LAYOUT
  2
AcDbLayout
  3
ObjectDBX Classes
 90
        0
280
     0
281
     0
  0
CLASS
  1
DICTIONARYVAR
  2
AcDbDictionaryVar
  3
ObjectDBX Classes
 90
        0
280
     0
281
     0
  0
CLASS
  1
TABLESTYLE
  2
AcDbTableStyle
  3
ObjectDBX Classes
 90
     4095
280
     0
281
     0
  0
CLASS
  1
MATERIAL
  2
AcDbMaterial
  3
ObjectDBX Classes
 90
     1153
280
     0
281
     0
  0
CLASS
  1
VISUALSTYLE
  2
AcDbVisualStyle
  3
ObjectDBX Classes
 90
     4095
280
     0
281
     0
  0
CLASS
  1
SCALE
  2
AcDbScale
  3
ObjectDBX Classes
 90
     1153
280
     0
281
     0
  0
CLASS
  1
CELLSTYLEMAP
  2
AcDbCellStyleMap
  3
ObjectDBX Classes
 90
     1152
280
     0
281
     0
  0
CLASS
  1
RASTERVARIABLES
  2
AcDbRasterVariables
  3
ISM
 90
        0
280
     0
281
     0
  0
CLASS
  1
SUN
  2
AcDbSun
  3
SCENEOE
 90
     1153
280
     0
281
     0
  0
CLASS
  1
DIMASSOC
  2
AcDbDimAssoc
  3
"AcDbDimAssoc|Product Desc:     AcDim ARX App For Dimension|Company:          Autodesk, Inc.|WEB Address:      www.autodesk.com"
 90
        0
280
     0
281
     0
  0
CLASS
  1
XRECORD
  2
AcDbXrecord
  3
ObjectDBX Classes
 90
        0
280
     0
281
     0
  0
CLASS
  1
LWPOLYLINE
  2
AcDbPolyline
  3
ObjectDBX Classes
 90
        0
280
     0
281
     1
  0
CLASS
  1
HATCH
  2
AcDbHatch
  3
ObjectDBX Classes
 90
        0
280
     0
281
     1
  0
ENDSEC
  0
SECTION
  2
TABLES
  0
TABLE
  2
VPORT
  5
8
330
0
100
AcDbSymbolTable
 70
     1
  0
VPORT
  5
94
330
8
100
AcDbSymbolTableRecord
100
AcDbViewportTableRecord
  2
*ACTIVE
 70
     0
 10
0.0
 20
0.0
 11
1.0
 21
1.0
 12
305.7965430930353
 22
258.1284272825548
 13
0.0
 23
0.0
 14
0.5
 24
0.5
 15
0.5
 25
0.5
 16
0.0
 26
0.0
 36
1.0
 17
-27.66959356597999
 27
-19.53870295786186
 37
0.0
 40
138.6097353682258
 41
1.259351620947631
 42
50.0
 43
0.0
 44
0.0
 50
0.0
 51
0.0
 71
    16
 72
  1000
 73
     1
 74
     3
 75
     0
 76
     0
 77
     0
 78
     0
  0
ENDTAB
  0
TABLE
  2
LTYPE
  5
5
330
0
100
AcDbSymbolTable
 70
     1
  0
LTYPE
  5
14
330
5
100
AcDbSymbolTableRecord
100
AcDbLinetypeTableRecord
  2
BYBLOCK
 70
     0
  3

 72
    65
 73
     0
 40
0.0
  0
LTYPE
  5
15
330
5
100
AcDbSymbolTableRecord
100
AcDbLinetypeTableRecord
  2
BYLAYER
 70
     0
  3
Solid line
 72
    65
 73
     0
 40
0.0
  0
LTYPE
  5
16
330
5
100
AcDbSymbolTableRecord
100
AcDbLinetypeTableRecord
  2
CONTINUOUS
 70
     0
  3
Solid line
 72
    65
 73
     0
 40
0.0
  0
ENDTAB
  0
TABLE
  2
LAYER
  5
2
102
{ACAD_XDICTIONARY
360
300
102
}
330
0
100
AcDbSymbolTable
 70
     5
  0
LAYER
  5
10
330
2
100
AcDbSymbolTableRecord
100
AcDbLayerTableRecord
  2
0
 70
     0
 62
     7
  6
CONTINUOUS
  0
LAYER
  5
125
330
2
100
AcDbSymbolTableRecord
100
AcDbLayerTableRecord
  2
POTISK
 70
     0
 62
   250
  6
CONTINUOUS
  0
LAYER
  5
127
330
2
100
AcDbSymbolTableRecord
100
AcDbLayerTableRecord
  2
OBRYS
 70
     0
 62
     5
  6
CONTINUOUS
  0
LAYER
  5
129
330
2
100
AcDbSymbolTableRecord
100
AcDbLayerTableRecord
  2
KOTY
 70
     0
 62
     1
  6
CONTINUOUS
  0
LAYER
  5
3AB
330
2
100
AcDbSymbolTableRecord
100
AcDbLayerTableRecord
  2
DEFPOINTS
 70
     0
 62
     7
  6
CONTINUOUS
  0
ENDTAB
  0
TABLE
  2
STYLE
  5
3
330
0
100
AcDbSymbolTable
 70
     1
  0
STYLE
  5
11
330
3
100
AcDbSymbolTableRecord
100
AcDbTextStyleTableRecord
  2
STANDARD
 70
     0
 40
0.0
 41
1.0
 50
0.0
 71
     0
 42
0.2
  3
arial.ttf
  4

1001
ACAD
1000
Arial
1071
        0
  0
ENDTAB
  0
TABLE
  2
VIEW
  5
6
330
0
100
AcDbSymbolTable
 70
     0
  0
ENDTAB
  0
TABLE
  2
UCS
  5
7
330
0
100
AcDbSymbolTable
 70
     0
  0
ENDTAB
  0
TABLE
  2
APPID
  5
9
330
0
100
AcDbSymbolTable
 70
     1
  0
APPID
  5
12
330
9
100
AcDbSymbolTableRecord
100
AcDbRegAppTableRecord
  2
ACAD
 70
     0
  0
ENDTAB
  0
TABLE
  2
DIMSTYLE
  5
A
330
0
100
AcDbSymbolTable
 70
     1
  0
DIMSTYLE
105
27
102
{ACAD_REACTORS
330
3C1
330
3D1
330
3E1
330
3F1
102
}
330
A
100
AcDbSymbolTableRecord
100
AcDbDimStyleTableRecord
  2
STANDARD
 70
     0
  3

  4

  5

  6

  7

 40
1.0
 41
0.18
 42
0.0625
 43
0.38
 44
0.18
 45
0.0
 46
0.0
 47
0.0
 48
0.0
140
0.18
141
0.09
142
0.0
143
25.4
144
1.0
145
0.0
146
1.0
147
0.09
 71
     0
 72
     0
 73
     1
 74
     1
 75
     0
 76
     0
 77
     0
 78
     0
170
     0
171
     2
172
     0
173
     0
174
     0
175
     0
176
     0
177
     0
178
     0
270
     2
271
     4
272
     4
273
     2
274
     2
340
11
275
     0
280
     0
281
     0
282
     0
283
     1
284
     0
285
     0
286
     0
287
     3
288
     0
  0
ENDTAB
  0
TABLE
  2
BLOCK_RECORD
  5
1
330
0
100
AcDbSymbolTable
 70
     6
  0
BLOCK_RECORD
  5
1F
330
1
100
AcDbSymbolTableRecord
100
AcDbBlockTableRecord
  2
*MODEL_SPACE
  0
BLOCK_RECORD
  5
58
330
1
100
AcDbSymbolTableRecord
100
AcDbBlockTableRecord
  2
*PAPER_SPACE
  0
BLOCK_RECORD
  5
5D
330
1
100
AcDbSymbolTableRecord
100
AcDbBlockTableRecord
  2
*PAPER_SPACE0
  0
BLOCK_RECORD
  5
3B0
330
1
100
AcDbSymbolTableRecord
100
AcDbBlockTableRecord
  2
*D1
  0
BLOCK_RECORD
  5
3C4
330
1
100
AcDbSymbolTableRecord
100
AcDbBlockTableRecord
  2
*D2
  0
BLOCK_RECORD
  5
3D4
330
1
100
AcDbSymbolTableRecord
100
AcDbBlockTableRecord
  2
*D3
  0
BLOCK_RECORD
  5
3E4
330
1
100
AcDbSymbolTableRecord
100
AcDbBlockTableRecord
  2
*D4
  0
BLOCK_RECORD
  5
3F4
330
1
100
AcDbSymbolTableRecord
100
AcDbBlockTableRecord
  2
*D5
  0
ENDTAB
  0
ENDSEC
  0
SECTION
  2
BLOCKS
  0
BLOCK
  5
20
330
1F
100
AcDbEntity
  8
0
100
AcDbBlockBegin
  2
*MODEL_SPACE
 70
     0
 10
0.0
 20
0.0
 30
0.0
  3
*MODEL_SPACE
  1

  0
ENDBLK
  5
21
330
1F
100
AcDbEntity
  8
0
100
AcDbBlockEnd
  0
BLOCK
  5
5A
330
58
100
AcDbEntity
 67
     1
  8
0
100
AcDbBlockBegin
  2
*PAPER_SPACE
 70
     0
 10
0.0
 20
0.0
 30
0.0
  3
*PAPER_SPACE
  1

  0
ENDBLK
  5
5B
330
58
100
AcDbEntity
 67
     1
  8
0
100
AcDbBlockEnd
  0
BLOCK
  5
5F
330
5D
100
AcDbEntity
  8
0
100
AcDbBlockBegin
  2
*PAPER_SPACE0
 70
     0
 10
0.0
 20
0.0
 30
0.0
  3
*PAPER_SPACE0
  1
*PAPER_SPACE0
  0
ENDBLK
  5
60
330
5D
100
AcDbEntity
  8
0
100
AcDbBlockEnd
  0
BLOCK
  5
3B1
330
3B0
100
AcDbEntity
  8
0
100
AcDbBlockBegin
  2
*D1
 70
     1
 10
0.0
 20
0.0
 30
0.0
  3
*D1
  1
*D6
  0
LINE
  5
3B3
330
3B0
100
AcDbEntity
  8
0
 62
     0
100
AcDbLine
 10
298.081788549406
 20
205.1008105820196
 30
0.0
 11
298.7363437350632
 21
205.1008105820196
 31
0.0
  0
LINE
  5
3B4
330
3B0
100
AcDbEntity
  8
0
 62
     0
100
AcDbLine
 10
298.081788549406
 20
201.6075762809267
 30
0.0
 11
298.7363437350632
 21
201.6075762809267
 31
0.0
  0
LINE
  5
3B5
330
3B0
100
AcDbEntity
  8
0
 62
     0
100
AcDbLine
 10
298.5563437350632
 20
204.9208105820196
 30
0.0
 11
298.5563437350632
 21
203.5360834314731
 31
0.0
  0
LINE
  5
3B6
330
3B0
100
AcDbEntity
  8
0
 62
     0
100
AcDbLine
 10
298.5563437350632
 20
201.7875762809267
 30
0.0
 11
298.5563437350632
 21
203.1723034314731
 31
0.0
  0
SOLID
  5
3B7
330
3B0
100
AcDbEntity
  8
0
 62
     0
100
AcDbTrace
 10
298.5863437350632
 20
204.9208105820196
 30
0.0
 11
298.5263437350632
 21
204.9208105820196
 31
0.0
 12
298.5563437350632
 22
205.1008105820196
 32
0.0
 13
298.5563437350632
 23
205.1008105820196
 33
0.0
  0
SOLID
  5
3B8
330
3B0
100
AcDbEntity
  8
0
 62
     0
100
AcDbTrace
 10
298.5263437350632
 20
201.7875762809267
 30
0.0
 11
298.5863437350632
 21
201.7875762809267
 31
0.0
 12
298.5563437350632
 22
201.6075762809267
 32
0.0
 13
298.5563437350632
 23
201.6075762809267
 33
0.0
  0
MTEXT
  5
3B9
330
3B0
100
AcDbEntity
  8
0
 62
     0
100
AcDbMText
 10
298.5563437350632
 20
203.3541934314731
 30
0.0
 40
0.18
 41
0.0
 71
     5
 72
     1
  1
\A1;3.4932
  0
POINT
  5
3BA
330
3B0
100
AcDbEntity
  8
DEFPOINTS
 62
     0
100
AcDbPoint
 10
298.019288549406
 20
205.1008105820196
 30
0.0
  0
POINT
  5
3BB
330
3B0
100
AcDbEntity
  8
DEFPOINTS
 62
     0
100
AcDbPoint
 10
298.019288549406
 20
201.6075762809267
 30
0.0
  0
POINT
  5
3BC
330
3B0
100
AcDbEntity
  8
DEFPOINTS
 62
     0
100
AcDbPoint
 10
298.5563437350632
 20
201.6075762809267
 30
0.0
  0
ENDBLK
  5
3B2
330
3B0
100
AcDbEntity
  8
0
100
AcDbBlockEnd
  0
BLOCK
  5
3C5
330
3C4
100
AcDbEntity
  8
0
100
AcDbBlockBegin
  2
*D2
 70
     1
 10
0.0
 20
0.0
 30
0.0
  3
*D2
  1
*D7
  0
LINE
  5
3C7
330
3C4
100
AcDbEntity
  8
KOTY
 62
     0
100
AcDbLine
 10
287.2192885494059
 20
195.7883105820185
 30
0.0
 11
287.2192885494059
 21
186.5430517786344
 31
0.0
  0
LINE
  5
3C8
330
3C4
100
AcDbEntity
  8
KOTY
 62
     0
100
AcDbLine
 10
359.2192885494059
 20
195.7883105820185
 30
0.0
 11
359.2192885494059
 21
186.5430517786344
 31
0.0
  0
LINE
  5
3C9
330
3C4
100
AcDbEntity
  8
KOTY
 62
     0
100
AcDbLine
 10
291.2192885494059
 20
186.7230517786344
 30
0.0
 11
355.2192885494059
 21
186.7230517786344
 31
0.0
  0
SOLID
  5
3CA
330
3C4
100
AcDbEntity
  8
KOTY
 62
     0
100
AcDbTrace
 10
291.2192885494059
 20
187.3897184453011
 30
0.0
 11
291.2192885494059
 21
186.0563851119678
 31
0.0
 12
287.2192885494059
 22
186.7230517786344
 32
0.0
 13
287.2192885494059
 23
186.7230517786344
 33
0.0
  0
SOLID
  5
3CB
330
3C4
100
AcDbEntity
  8
KOTY
 62
     0
100
AcDbTrace
 10
355.2192885494059
 20
186.0563851119678
 30
0.0
 11
355.2192885494059
 21
187.3897184453011
 31
0.0
 12
359.2192885494059
 22
186.7230517786344
 32
0.0
 13
359.2192885494059
 23
186.7230517786344
 33
0.0
  0
MTEXT
  5
3CC
330
3C4
100
AcDbEntity
  8
KOTY
 62
     0
100
AcDbMText
 10
323.2192885494059
 20
189.7310517786344
 30
0.0
 40
4.0
 41
0.0
 71
     5
 72
     1
  1
\A1;72
  0
POINT
  5
3CD
330
3C4
100
AcDbEntity
  8
DEFPOINTS
 62
     0
100
AcDbPoint
 10
287.2192885494059
 20
195.8508105820185
 30
0.0
  0
POINT
  5
3CE
330
3C4
100
AcDbEntity
  8
DEFPOINTS
 62
     0
100
AcDbPoint
 10
359.2192885494059
 20
195.8508105820185
 30
0.0
  0
POINT
  5
3CF
330
3C4
100
AcDbEntity
  8
DEFPOINTS
 62
     0
100
AcDbPoint
 10
359.2192885494059
 20
186.7230517786344
 30
0.0
  0
ENDBLK
  5
3C6
330
3C4
100
AcDbEntity
  8
0
100
AcDbBlockEnd
  0
BLOCK
  5
3D5
330
3D4
100
AcDbEntity
  8
0
100
AcDbBlockBegin
  2
*D3
 70
     1
 10
0.0
 20
0.0
 30
0.0
  3
*D3
  1
*D8
  0
LINE
  5
3D7
330
3D4
100
AcDbEntity
  8
KOTY
 62
     0
100
AcDbLine
 10
215.0678172840369
 20
219.1311323808115
 30
0.0
 11
215.0678172840369
 21
186.5430517786344
 31
0.0
  0
LINE
  5
3D8
330
3D4
100
AcDbEntity
  8
KOTY
 62
     0
100
AcDbLine
 10
272.0678172840369
 20
223.0311323808116
 30
0.0
 11
272.0678172840369
 21
186.5430517786344
 31
0.0
  0
LINE
  5
3D9
330
3D4
100
AcDbEntity
  8
KOTY
 62
     0
100
AcDbLine
 10
219.0678172840369
 20
186.7230517786344
 30
0.0
 11
268.0678172840369
 21
186.7230517786344
 31
0.0
  0
SOLID
  5
3DA
330
3D4
100
AcDbEntity
  8
KOTY
 62
     0
100
AcDbTrace
 10
219.0678172840369
 20
187.3897184453011
 30
0.0
 11
219.0678172840369
 21
186.0563851119678
 31
0.0
 12
215.0678172840369
 22
186.7230517786344
 32
0.0
 13
215.0678172840369
 23
186.7230517786344
 33
0.0
  0
SOLID
  5
3DB
330
3D4
100
AcDbEntity
  8
KOTY
 62
     0
100
AcDbTrace
 10
268.0678172840369
 20
186.0563851119678
 30
0.0
 11
268.0678172840369
 21
187.3897184453011
 31
0.0
 12
272.0678172840369
 22
186.7230517786344
 32
0.0
 13
272.0678172840369
 23
186.7230517786344
 33
0.0
  0
MTEXT
  5
3DC
330
3D4
100
AcDbEntity
  8
KOTY
 62
     0
100
AcDbMText
 10
243.5678172840369
 20
189.7570517786344
 30
0.0
 40
4.0
 41
0.0
 71
     5
 72
     1
  1
\A1;57
  0
POINT
  5
3DD
330
3D4
100
AcDbEntity
  8
DEFPOINTS
 62
     0
100
AcDbPoint
 10
215.0678172840369
 20
219.1936323808115
 30
0.0
  0
POINT
  5
3DE
330
3D4
100
AcDbEntity
  8
DEFPOINTS
 62
     0
100
AcDbPoint
 10
272.0678172840369
 20
223.0936323808116
 30
0.0
  0
POINT
  5
3DF
330
3D4
100
AcDbEntity
  8
DEFPOINTS
 62
     0
100
AcDbPoint
 10
272.0678172840369
 20
186.7230517786344
 30
0.0
  0
ENDBLK
  5
3D6
330
3D4
100
AcDbEntity
  8
0
100
AcDbBlockEnd
  0
BLOCK
  5
3E5
330
3E4
100
AcDbEntity
  8
0
100
AcDbBlockBegin
  2
*D4
 70
     1
 10
0.0
 20
0.0
 30
0.0
  3
*D4
  1
*D9
  0
LINE
  5
3E7
330
3E4
100
AcDbEntity
  8
KOTY
 62
     0
100
AcDbLine
 10
215.0053172840369
 20
264.1936323808106
 30
0.0
 11
207.5439610957121
 21
264.1936323808106
 31
0.0
  0
LINE
  5
3E8
330
3E4
100
AcDbEntity
  8
KOTY
 62
     0
100
AcDbLine
 10
215.0053172840369
 20
219.1311323808115
 30
0.0
 11
207.5439610957121
 21
219.1311323808115
 31
0.0
  0
LINE
  5
3E9
330
3E4
100
AcDbEntity
  8
KOTY
 62
     0
100
AcDbLine
 10
207.7239610957121
 20
260.1936323808106
 30
0.0
 11
207.7239610957121
 21
223.1311323808115
 31
0.0
  0
SOLID
  5
3EA
330
3E4
100
AcDbEntity
  8
KOTY
 62
     0
100
AcDbTrace
 10
208.3906277623788
 20
260.1936323808106
 30
0.0
 11
207.0572944290454
 21
260.1936323808106
 31
0.0
 12
207.7239610957121
 22
264.1936323808106
 32
0.0
 13
207.7239610957121
 23
264.1936323808106
 33
0.0
  0
SOLID
  5
3EB
330
3E4
100
AcDbEntity
  8
KOTY
 62
     0
100
AcDbTrace
 10
207.0572944290454
 20
223.1311323808115
 30
0.0
 11
208.3906277623788
 21
223.1311323808115
 31
0.0
 12
207.7239610957121
 22
219.1311323808115
 32
0.0
 13
207.7239610957121
 23
219.1311323808115
 33
0.0
  0
MTEXT
  5
3EC
330
3E4
100
AcDbEntity
  8
KOTY
 62
     0
100
AcDbMText
 10
204.6899610957121
 20
241.662382380811
 30
0.0
 40
4.0
 41
0.0
 71
     5
 72
     1
  1
\A1;45
 11
0.0
 21
1.0
 31
0.0
  0
POINT
  5
3ED
330
3E4
100
AcDbEntity
  8
DEFPOINTS
 62
     0
100
AcDbPoint
 10
215.0678172840369
 20
264.1936323808106
 30
0.0
  0
POINT
  5
3EE
330
3E4
100
AcDbEntity
  8
DEFPOINTS
 62
     0
100
AcDbPoint
 10
215.0678172840369
 20
219.1311323808115
 30
0.0
  0
POINT
  5
3EF
330
3E4
100
AcDbEntity
  8
DEFPOINTS
 62
     0
100
AcDbPoint
 10
207.7239610957121
 20
219.1311323808115
 30
0.0
  0
ENDBLK
  5
3E6
330
3E4
100
AcDbEntity
  8
0
100
AcDbBlockEnd
  0
BLOCK
  5
3F5
330
3F4
100
AcDbEntity
  8
0
100
AcDbBlockBegin
  2
*D5
 70
     1
 10
0.0
 20
0.0
 30
0.0
  3
*D5
  1
*D10
  0
LINE
  5
3F7
330
3F4
100
AcDbEntity
  8
KOTY
 62
     0
100
AcDbLine
 10
227.5053172840369
 20
286.6936323808106
 30
0.0
 11
198.1987196241677
 21
286.6936323808106
 31
0.0
  0
LINE
  5
3F8
330
3F4
100
AcDbEntity
  8
KOTY
 62
     0
100
AcDbLine
 10
227.5053172840369
 20
196.6936323808115
 30
0.0
 11
198.1987196241677
 21
196.6936323808115
 31
0.0
  0
LINE
  5
3F9
330
3F4
100
AcDbEntity
  8
KOTY
 62
     0
100
AcDbLine
 10
198.3787196241677
 20
282.6936323808106
 30
0.0
 11
198.3787196241677
 21
200.6936323808115
 31
0.0
  0
SOLID
  5
3FA
330
3F4
100
AcDbEntity
  8
KOTY
 62
     0
100
AcDbTrace
 10
199.0453862908344
 20
282.6936323808106
 30
0.0
 11
197.712052957501
 21
282.6936323808106
 31
0.0
 12
198.3787196241677
 22
286.6936323808106
 32
0.0
 13
198.3787196241677
 23
286.6936323808106
 33
0.0
  0
SOLID
  5
3FB
330
3F4
100
AcDbEntity
  8
KOTY
 62
     0
100
AcDbTrace
 10
197.712052957501
 20
200.6936323808115
 30
0.0
 11
199.0453862908344
 21
200.6936323808115
 31
0.0
 12
198.3787196241677
 22
196.6936323808115
 32
0.0
 13
198.3787196241677
 23
196.6936323808115
 33
0.0
  0
MTEXT
  5
3FC
330
3F4
100
AcDbEntity
  8
KOTY
 62
     0
100
AcDbMText
 10
195.3367196241677
 20
241.693632380811
 30
0.0
 40
4.0
 41
0.0
 71
     5
 72
     1
  1
\A1;90
 11
0.0
 21
1.0
 31
0.0
  0
POINT
  5
3FD
330
3F4
100
AcDbEntity
  8
DEFPOINTS
 62
     0
100
AcDbPoint
 10
227.5678172840369
 20
286.6936323808106
 30
0.0
  0
POINT
  5
3FE
330
3F4
100
AcDbEntity
  8
DEFPOINTS
 62
     0
100
AcDbPoint
 10
227.5678172840369
 20
196.6936323808115
 30
0.0
  0
POINT
  5
3FF
330
3F4
100
AcDbEntity
  8
DEFPOINTS
 62
     0
100
AcDbPoint
 10
198.3787196241677
 20
196.6936323808115
 30
0.0
  0
ENDBLK
  5
3F6
330
3F4
100
AcDbEntity
  8
0
100
AcDbBlockEnd
  0
ENDSEC
  0
SECTION
  2
ENTITIES
  0
CIRCLE
  5
22B
330
1F
100
AcDbEntity
  8
OBRYS
100
AcDbCircle
 10
296.2192885494059
 20
276.1008105820176
 30
0.0
 40
3.75
  0
CIRCLE
  5
22C
330
1F
100
AcDbEntity
  8
OBRYS
100
AcDbCircle
 10
296.2192885494059
 20
205.6008105820185
 30
0.0
 40
3.75
  0
LINE
  5
235
330
1F
100
AcDbEntity
  8
OBRYS
100
AcDbLine
 10
294.419288549406
 20
276.6008105820185
 30
0.0
 11
294.419288549406
 21
275.6008105820185
 31
0.0
  0
LINE
  5
236
330
1F
100
AcDbEntity
  8
OBRYS
100
AcDbLine
 10
294.419288549406
 20
275.6008105820185
 30
0.0
 11
295.5947887495659
 21
275.6008105820185
 31
0.0
  0
LINE
  5
237
330
1F
100
AcDbEntity
  8
OBRYS
100
AcDbLine
 10
294.419288549406
 20
276.6008105820185
 30
0.0
 11
295.5947887495659
 21
276.6008105820185
 31
0.0
  0
LINE
  5
238
330
1F
100
AcDbEntity
  8
OBRYS
100
AcDbLine
 10
295.5947887495659
 20
276.6008105820185
 30
0.0
 11
295.5947887495659
 21
279.7984449609157
 31
0.0
  0
LINE
  5
239
330
1F
100
AcDbEntity
  8
OBRYS
100
AcDbLine
 10
295.5947887495659
 20
275.6008105820185
 30
0.0
 11
295.5947887495659
 21
272.4031762031206
 31
0.0
  0
LINE
  5
23B
330
1F
100
AcDbEntity
  8
OBRYS
100
AcDbLine
 10
298.019288549406
 20
276.6008105820185
 30
0.0
 11
298.019288549406
 21
275.6008105820185
 31
0.0
  0
LINE
  5
23C
330
1F
100
AcDbEntity
  8
OBRYS
100
AcDbLine
 10
298.019288549406
 20
275.6008105820185
 30
0.0
 11
296.8437883492459
 21
275.6008105820185
 31
0.0
  0
LINE
  5
23D
330
1F
100
AcDbEntity
  8
OBRYS
100
AcDbLine
 10
296.8437883492459
 20
275.6008105820185
 30
0.0
 11
296.8437883492459
 21
272.4031762031206
 31
0.0
  0
LINE
  5
23E
330
1F
100
AcDbEntity
  8
OBRYS
100
AcDbLine
 10
298.019288549406
 20
276.6008105820185
 30
0.0
 11
296.8437883492459
 21
276.6008105820185
 31
0.0
  0
LINE
  5
23F
330
1F
100
AcDbEntity
  8
OBRYS
100
AcDbLine
 10
296.8437883492459
 20
276.6008105820185
 30
0.0
 11
296.8437883492459
 21
279.7984449609157
 31
0.0
  0
LINE
  5
244
330
1F
100
AcDbEntity
  8
OBRYS
100
AcDbLine
 10
287.2192885494059
 20
195.8508105820185
 30
0.0
 11
287.2192885494059
 21
285.8508105820176
 31
0.0
  0
CIRCLE
  5
24B
330
1F
100
AcDbEntity
  8
OBRYS
100
AcDbCircle
 10
314.2192885494059
 20
276.1008105820176
 30
0.0
 40
3.75
  0
CIRCLE
  5
24C
330
1F
100
AcDbEntity
  8
OBRYS
100
AcDbCircle
 10
314.2192885494059
 20
205.6008105820185
 30
0.0
 40
3.75
  0
LINE
  5
257
330
1F
100
AcDbEntity
  8
OBRYS
100
AcDbLine
 10
359.2192885494059
 20
285.8508105820176
 30
0.0
 11
287.2192885494059
 21
285.8508105820176
 31
0.0
  0
LINE
  5
25A
330
1F
100
AcDbEntity
  8
OBRYS
100
AcDbLine
 10
359.2192885494059
 20
263.3508105820185
 30
0.0
 11
287.2192885494059
 21
263.3508105820185
 31
0.0
  0
LINE
  5
25B
330
1F
100
AcDbEntity
  8
OBRYS
100
AcDbLine
 10
287.2192885494059
 20
218.3508105820176
 30
0.0
 11
359.2192885494059
 21
218.3508105820176
 31
0.0
  0
LINE
  5
25E
330
1F
100
AcDbEntity
  8
OBRYS
100
AcDbLine
 10
359.2192885494059
 20
212.0508105820185
 30
0.0
 11
287.2192885494059
 21
212.0508105820185
 31
0.0
  0
LINE
  5
260
330
1F
100
AcDbEntity
  8
OBRYS
100
AcDbLine
 10
359.2192885494059
 20
216.4508105820186
 30
0.0
 11
287.2192885494059
 21
216.4508105820186
 31
0.0
  0
LINE
  5
262
330
1F
100
AcDbEntity
  8
OBRYS
100
AcDbLine
 10
359.2192885494059
 20
212.9508105820175
 30
0.0
 11
287.2192885494059
 21
212.9508105820175
 31
0.0
  0
LINE
  5
263
330
1F
100
AcDbEntity
  8
OBRYS
100
AcDbLine
 10
359.2192885494059
 20
195.8508105820185
 30
0.0
 11
287.2192885494059
 21
195.8508105820185
 31
0.0
  0
CIRCLE
  5
26E
330
1F
100
AcDbEntity
  8
OBRYS
100
AcDbCircle
 10
332.2192885494059
 20
276.1008105820176
 30
0.0
 40
3.75
  0
CIRCLE
  5
26F
330
1F
100
AcDbEntity
  8
OBRYS
100
AcDbCircle
 10
332.2192885494059
 20
205.6008105820185
 30
0.0
 40
3.75
  0
LINE
  5
277
330
1F
100
AcDbEntity
  8
OBRYS
100
AcDbLine
 10
314.227360364056
 20
195.8508105820185
 30
0.0
 11
314.2192885494059
 21
201.8508105820185
 31
0.0
  0
LINE
  5
27A
330
1F
100
AcDbEntity
  8
OBRYS
100
AcDbLine
 10
359.2192885494059
 20
217.3508105820185
 30
0.0
 11
287.2192885494059
 21
217.3508105820185
 31
0.0
  0
LINE
  5
280
330
1F
100
AcDbEntity
  8
OBRYS
100
AcDbLine
 10
359.2192885494059
 20
195.8508105820185
 30
0.0
 11
359.2192885494059
 21
285.8508105820176
 31
0.0
  0
LINE
  5
281
330
1F
100
AcDbEntity
  8
OBRYS
100
AcDbLine
 10
345.2192885494059
 20
251.3988199829127
 30
0.0
 11
345.2192885494059
 21
251.3988199829127
 31
0.0
  0
LINE
  5
282
330
1F
100
AcDbEntity
  8
OBRYS
100
AcDbLine
 10
330.2192885494059
 20
276.6008105820185
 30
0.0
 11
330.2192885494059
 21
275.6008105820185
 31
0.0
  0
LINE
  5
283
330
1F
100
AcDbEntity
  8
OBRYS
100
AcDbLine
 10
334.2192885494059
 20
276.6008105820185
 30
0.0
 11
334.2192885494059
 21
275.6008105820185
 31
0.0
  0
LINE
  5
284
330
1F
100
AcDbEntity
  8
OBRYS
100
AcDbLine
 10
331.7192885494059
 20
276.6008105820185
 30
0.0
 11
331.7192885494059
 21
279.8173277688485
 31
0.0
  0
LINE
  5
285
330
1F
100
AcDbEntity
  8
OBRYS
100
AcDbLine
 10
330.2192885494059
 20
276.6008105820185
 30
0.0
 11
331.7192885494059
 21
276.6008105820185
 31
0.0
  0
LINE
  5
286
330
1F
100
AcDbEntity
  8
OBRYS
100
AcDbLine
 10
330.2192885494059
 20
275.6008105820185
 30
0.0
 11
331.7192885494059
 21
275.6008105820185
 31
0.0
  0
LINE
  5
287
330
1F
100
AcDbEntity
  8
OBRYS
100
AcDbLine
 10
331.7192885494059
 20
275.6008105820185
 30
0.0
 11
331.7192885494059
 21
272.3842933951886
 31
0.0
  0
LINE
  5
288
330
1F
100
AcDbEntity
  8
OBRYS
100
AcDbLine
 10
332.7192885494059
 20
276.6008105820185
 30
0.0
 11
332.7192885494059
 21
279.8173277688485
 31
0.0
  0
LINE
  5
289
330
1F
100
AcDbEntity
  8
OBRYS
100
AcDbLine
 10
334.2192885494059
 20
276.6008105820185
 30
0.0
 11
332.7192885494059
 21
276.6008105820185
 31
0.0
  0
LINE
  5
28B
330
1F
100
AcDbEntity
  8
OBRYS
100
AcDbLine
 10
334.2192885494059
 20
275.6008105820185
 30
0.0
 11
332.7192885494059
 21
275.6008105820185
 31
0.0
  0
LINE
  5
28C
330
1F
100
AcDbEntity
  8
OBRYS
100
AcDbLine
 10
332.7192885494059
 20
275.6008105820185
 30
0.0
 11
332.7192885494059
 21
272.3842933951886
 31
0.0
  0
CIRCLE
  5
28D
330
1F
100
AcDbEntity
  8
OBRYS
100
AcDbCircle
 10
350.2192885494059
 20
276.1008105820176
 30
0.0
 40
3.75
  0
CIRCLE
  5
28E
330
1F
100
AcDbEntity
  8
OBRYS
100
AcDbCircle
 10
350.2192885494059
 20
205.6008105820185
 30
0.0
 40
3.75
  0
LINE
  5
28F
330
1F
100
AcDbEntity
  8
OBRYS
100
AcDbLine
 10
314.227360364056
 20
279.8508018947816
 30
0.0
 11
314.227360364056
 21
285.8508105820176
 31
0.0
  0
LINE
  5
290
330
1F
100
AcDbEntity
  8
OBRYS
100
AcDbLine
 10
314.2192885494059
 20
209.3508105820185
 30
0.0
 11
314.227360364056
 21
272.3508192692527
 31
0.0
  0
LINE
  5
291
330
1F
100
AcDbEntity
  8
OBRYS
100
AcDbLine
 10
350.227360364056
 20
195.8508105820185
 30
0.0
 11
350.227360364056
 21
201.8508192692536
 31
0.0
  0
LINE
  5
292
330
1F
100
AcDbEntity
  8
OBRYS
100
AcDbLine
 10
350.227360364056
 20
209.3508018947827
 30
0.0
 11
350.2192885494059
 21
272.3508105820176
 31
0.0
  0
LINE
  5
293
330
1F
100
AcDbEntity
  8
OBRYS
100
AcDbLine
 10
350.2192885494059
 20
279.8508105820176
 30
0.0
 11
350.227360364056
 21
285.8508105820176
 31
0.0
  0
LINE
  5
294
330
1F
100
AcDbEntity
  8
OBRYS
100
AcDbLine
 10
332.227360364056
 20
195.8508105820185
 30
0.0
 11
332.227360364056
 21
201.8508192692536
 31
0.0
  0
LINE
  5
295
330
1F
100
AcDbEntity
  8
OBRYS
100
AcDbLine
 10
332.2192885494059
 20
209.3508105820185
 30
0.0
 11
332.227360364056
 21
272.3508192692527
 31
0.0
  0
LINE
  5
296
330
1F
100
AcDbEntity
  8
OBRYS
100
AcDbLine
 10
332.2192885494059
 20
279.8508105820176
 30
0.0
 11
332.227360364056
 21
285.8508105820176
 31
0.0
  0
LINE
  5
297
330
1F
100
AcDbEntity
  8
OBRYS
100
AcDbLine
 10
296.2284830147129
 20
195.8508105820185
 30
0.0
 11
296.2192885494059
 21
201.8508105820185
 31
0.0
  0
LINE
  5
298
330
1F
100
AcDbEntity
  8
OBRYS
100
AcDbLine
 10
296.2192885494059
 20
209.3508105820185
 30
0.0
 11
296.2284830147129
 21
272.3508192692527
 31
0.0
  0
LINE
  5
299
330
1F
100
AcDbEntity
  8
OBRYS
100
AcDbLine
 10
296.2284830147129
 20
279.8508018947816
 30
0.0
 11
296.2192885494059
 21
285.8508105820176
 31
0.0
  0
LINE
  5
29B
330
1F
100
AcDbEntity
  8
OBRYS
100
AcDbLine
 10
312.419288549406
 20
276.6008105820185
 30
0.0
 11
312.419288549406
 21
275.6008105820185
 31
0.0
  0
LINE
  5
29C
330
1F
100
AcDbEntity
  8
OBRYS
100
AcDbLine
 10
312.419288549406
 20
275.6008105820185
 30
0.0
 11
313.5947887495659
 21
275.6008105820185
 31
0.0
  0
LINE
  5
29D
330
1F
100
AcDbEntity
  8
OBRYS
100
AcDbLine
 10
312.419288549406
 20
276.6008105820185
 30
0.0
 11
313.5947887495659
 21
276.6008105820185
 31
0.0
  0
LINE
  5
29E
330
1F
100
AcDbEntity
  8
OBRYS
100
AcDbLine
 10
313.5947887495659
 20
276.6008105820185
 30
0.0
 11
313.5947887495659
 21
279.7984449609157
 31
0.0
  0
LINE
  5
29F
330
1F
100
AcDbEntity
  8
OBRYS
100
AcDbLine
 10
313.5947887495659
 20
275.6008105820185
 30
0.0
 11
313.5947887495659
 21
272.4031762031206
 31
0.0
  0
LINE
  5
2A1
330
1F
100
AcDbEntity
  8
OBRYS
100
AcDbLine
 10
316.019288549406
 20
276.6008105820185
 30
0.0
 11
316.019288549406
 21
275.6008105820185
 31
0.0
  0
LINE
  5
2A2
330
1F
100
AcDbEntity
  8
OBRYS
100
AcDbLine
 10
316.019288549406
 20
275.6008105820185
 30
0.0
 11
314.8437883492459
 21
275.6008105820185
 31
0.0
  0
LINE
  5
2A3
330
1F
100
AcDbEntity
  8
OBRYS
100
AcDbLine
 10
314.8437883492459
 20
275.6008105820185
 30
0.0
 11
314.8437883492459
 21
272.4031762031206
 31
0.0
  0
LINE
  5
2A4
330
1F
100
AcDbEntity
  8
OBRYS
100
AcDbLine
 10
316.019288549406
 20
276.6008105820185
 30
0.0
 11
314.8437883492459
 21
276.6008105820185
 31
0.0
  0
LINE
  5
2A5
330
1F
100
AcDbEntity
  8
OBRYS
100
AcDbLine
 10
314.8437883492459
 20
276.6008105820185
 30
0.0
 11
314.8437883492459
 21
279.7984449609157
 31
0.0
  0
LINE
  5
2A7
330
1F
100
AcDbEntity
  8
OBRYS
100
AcDbLine
 10
294.419288549406
 20
206.1008105820196
 30
0.0
 11
294.419288549406
 21
205.1008105820196
 31
0.0
  0
LINE
  5
2A8
330
1F
100
AcDbEntity
  8
OBRYS
100
AcDbLine
 10
294.419288549406
 20
205.1008105820196
 30
0.0
 11
295.5947887495659
 21
205.1008105820196
 31
0.0
  0
LINE
  5
2A9
330
1F
100
AcDbEntity
  8
OBRYS
100
AcDbLine
 10
294.419288549406
 20
206.1008105820196
 30
0.0
 11
295.5947887495659
 21
206.1008105820196
 31
0.0
  0
LINE
  5
2AA
330
1F
100
AcDbEntity
  8
OBRYS
100
AcDbLine
 10
295.5947887495659
 20
206.1008105820196
 30
0.0
 11
295.5947887495659
 21
209.2984449609166
 31
0.0
  0
LINE
  5
2AB
330
1F
100
AcDbEntity
  8
OBRYS
100
AcDbLine
 10
295.5947887495659
 20
205.1008105820196
 30
0.0
 11
295.5947887495659
 21
201.9031762031206
 31
0.0
  0
LINE
  5
2AD
330
1F
100
AcDbEntity
  8
OBRYS
100
AcDbLine
 10
298.019288549406
 20
206.1008105820196
 30
0.0
 11
298.019288549406
 21
205.1008105820196
 31
0.0
  0
LINE
  5
2AE
330
1F
100
AcDbEntity
  8
OBRYS
100
AcDbLine
 10
298.019288549406
 20
205.1008105820196
 30
0.0
 11
296.8437883492459
 21
205.1008105820196
 31
0.0
  0
LINE
  5
2AF
330
1F
100
AcDbEntity
  8
OBRYS
100
AcDbLine
 10
296.8437883492459
 20
205.1008105820196
 30
0.0
 11
296.8437883492459
 21
201.9031762031206
 31
0.0
  0
LINE
  5
2B0
330
1F
100
AcDbEntity
  8
OBRYS
100
AcDbLine
 10
298.019288549406
 20
206.1008105820196
 30
0.0
 11
296.8437883492459
 21
206.1008105820196
 31
0.0
  0
LINE
  5
2B1
330
1F
100
AcDbEntity
  8
OBRYS
100
AcDbLine
 10
296.8437883492459
 20
206.1008105820196
 30
0.0
 11
296.8437883492459
 21
209.2984449609166
 31
0.0
  0
LINE
  5
2B3
330
1F
100
AcDbEntity
  8
OBRYS
100
AcDbLine
 10
330.419288549406
 20
206.1008105820196
 30
0.0
 11
330.419288549406
 21
205.1008105820196
 31
0.0
  0
LINE
  5
2B4
330
1F
100
AcDbEntity
  8
OBRYS
100
AcDbLine
 10
330.419288549406
 20
205.1008105820196
 30
0.0
 11
331.5947887495659
 21
205.1008105820196
 31
0.0
  0
LINE
  5
2B5
330
1F
100
AcDbEntity
  8
OBRYS
100
AcDbLine
 10
330.419288549406
 20
206.1008105820196
 30
0.0
 11
331.5947887495659
 21
206.1008105820196
 31
0.0
  0
LINE
  5
2B6
330
1F
100
AcDbEntity
  8
OBRYS
100
AcDbLine
 10
331.5947887495659
 20
206.1008105820196
 30
0.0
 11
331.5947887495659
 21
209.2984449609166
 31
0.0
  0
LINE
  5
2B7
330
1F
100
AcDbEntity
  8
OBRYS
100
AcDbLine
 10
331.5947887495659
 20
205.1008105820196
 30
0.0
 11
331.5947887495659
 21
201.9031762031206
 31
0.0
  0
LINE
  5
2B9
330
1F
100
AcDbEntity
  8
OBRYS
100
AcDbLine
 10
334.019288549406
 20
206.1008105820196
 30
0.0
 11
334.019288549406
 21
205.1008105820196
 31
0.0
  0
LINE
  5
2BA
330
1F
100
AcDbEntity
  8
OBRYS
100
AcDbLine
 10
334.019288549406
 20
205.1008105820196
 30
0.0
 11
332.8437883492459
 21
205.1008105820196
 31
0.0
  0
LINE
  5
2BB
330
1F
100
AcDbEntity
  8
OBRYS
100
AcDbLine
 10
332.8437883492459
 20
205.1008105820196
 30
0.0
 11
332.8437883492459
 21
201.9031762031206
 31
0.0
  0
LINE
  5
2BC
330
1F
100
AcDbEntity
  8
OBRYS
100
AcDbLine
 10
334.019288549406
 20
206.1008105820196
 30
0.0
 11
332.8437883492459
 21
206.1008105820196
 31
0.0
  0
LINE
  5
2BD
330
1F
100
AcDbEntity
  8
OBRYS
100
AcDbLine
 10
332.8437883492459
 20
206.1008105820196
 30
0.0
 11
332.8437883492459
 21
209.2984449609166
 31
0.0
  0
CIRCLE
  5
2BE
330
1F
100
AcDbEntity
  8
OBRYS
100
AcDbCircle
 10
354.6526654289409
 20
258.3580930854825
 30
0.0
 40
2.568298135642
  0
LINE
  5
2BF
330
1F
100
AcDbEntity
  8
OBRYS
100
AcDbLine
 10
227.5678172840369
 20
264.1936323808106
 30
0.0
 11
227.5678172840369
 21
286.6936323808106
 31
0.0
  0
LINE
  5
2C0
330
1F
100
AcDbEntity
  8
OBRYS
100
AcDbLine
 10
265.5678172840369
 20
286.6936323808106
 30
0.0
 11
265.5678172840369
 21
286.1936323808115
 31
0.0
  0
LINE
  5
2C4
330
1F
100
AcDbEntity
  8
OBRYS
100
AcDbLine
 10
277.0678172840369
 20
196.6936323808115
 30
0.0
 11
227.5678172840369
 21
196.6936323808115
 31
0.0
  0
LINE
  5
2C9
330
1F
100
AcDbEntity
  8
OBRYS
100
AcDbLine
 10
277.0678172840369
 20
223.0936323808116
 30
0.0
 11
277.0678172840369
 21
196.6936323808115
 31
0.0
  0
LINE
  5
2CA
330
1F
100
AcDbEntity
  8
OBRYS
100
AcDbLine
 10
265.5678172840369
 20
286.1936323808115
 30
0.0
 11
277.0678172840369
 21
286.1936323808115
 31
0.0
  0
LINE
  5
2CB
330
1F
100
AcDbEntity
  8
OBRYS
100
AcDbLine
 10
277.0678172840369
 20
286.1936323808115
 30
0.0
 11
277.0678172840369
 21
257.4936323808117
 31
0.0
  0
LINE
  5
2CC
330
1F
100
AcDbEntity
  8
OBRYS
100
AcDbLine
 10
277.0678172840369
 20
223.0936323808116
 30
0.0
 11
272.0678172840369
 21
223.0936323808116
 31
0.0
  0
LINE
  5
2CD
330
1F
100
AcDbEntity
  8
OBRYS
100
AcDbLine
 10
277.0678172840369
 20
257.4936323808117
 30
0.0
 11
274.0678172840369
 21
257.4936323808117
 31
0.0
  0
LINE
  5
2CE
330
1F
100
AcDbEntity
  8
OBRYS
100
AcDbLine
 10
274.0678172840369
 20
257.4936323808117
 30
0.0
 11
272.5543226766289
 21
260.0838706079525
 31
0.0
  0
LINE
  5
2CF
330
1F
100
AcDbEntity
  8
OBRYS
100
AcDbLine
 10
272.5543226766289
 20
260.0838706079525
 30
0.0
 11
272.0678172840369
 21
260.0838706079525
 31
0.0
  0
LINE
  5
2D0
330
1F
100
AcDbEntity
  8
OBRYS
100
AcDbLine
 10
272.0678172840369
 20
223.0936323808116
 30
0.0
 11
272.0678172840369
 21
260.0838706079525
 31
0.0
  0
CIRCLE
  5
2D1
330
1F
100
AcDbEntity
  8
OBRYS
100
AcDbCircle
 10
268.167817284037
 20
266.4436323808115
 30
0.0
 40
2.25
  0
CIRCLE
  5
2D2
330
1F
100
AcDbEntity
  8
OBRYS
100
AcDbCircle
 10
232.0918517583439
 20
213.4064369345717
 30
0.0
 40
2.25
  0
CIRCLE
  5
2D3
330
1F
100
AcDbEntity
  8
OBRYS
100
AcDbCircle
 10
232.0918517583439
 20
268.7090633241045
 30
0.0
 40
2.25
  0
CIRCLE
  5
2D4
330
1F
100
AcDbEntity
  8
OBRYS
100
AcDbCircle
 10
268.167817284037
 20
216.9436323808106
 30
0.0
 40
2.25
  0
CIRCLE
  5
2D7
330
1F
100
AcDbEntity
  8
OBRYS
100
AcDbCircle
 10
268.167817284037
 20
266.4436323808115
 30
0.0
 40
1.5
  0
CIRCLE
  5
2D8
330
1F
100
AcDbEntity
  8
OBRYS
100
AcDbCircle
 10
232.0918517583439
 20
268.7090633241045
 30
0.0
 40
1.5
  0
CIRCLE
  5
2D9
330
1F
100
AcDbEntity
  8
OBRYS
100
AcDbCircle
 10
268.167817284037
 20
216.9436323808106
 30
0.0
 40
1.5
  0
CIRCLE
  5
2DA
330
1F
100
AcDbEntity
  8
OBRYS
100
AcDbCircle
 10
232.0918517583439
 20
213.4064369345717
 30
0.0
 40
1.5
  0
LINE
  5
2DB
330
1F
100
AcDbEntity
  8
OBRYS
100
AcDbLine
 10
227.5678172840369
 20
217.4697121791996
 30
0.0
 11
228.0678172840369
 21
217.4697121791996
 31
0.0
  0
LINE
  5
2DC
330
1F
100
AcDbEntity
  8
OBRYS
100
AcDbLine
 10
228.0678172840369
 20
217.4697121791996
 30
0.0
 11
228.0678172840369
 21
218.3697121792006
 31
0.0
  0
LINE
  5
2DD
330
1F
100
AcDbEntity
  8
OBRYS
100
AcDbLine
 10
228.0678172840369
 20
218.3697121792006
 30
0.0
 11
229.0694090650646
 21
218.3697
 31
0.0
  0
LINE
  5
2DE
330
1F
100
AcDbEntity
  8
OBRYS
100
AcDbLine
 10
229.0678172840369
 20
213.0697121792006
 30
0.0
 11
228.0678172840369
 21
213.0697121792006
 31
0.0
  0
LINE
  5
2DF
330
1F
100
AcDbEntity
  8
OBRYS
100
AcDbLine
 10
228.0678172840369
 20
213.0697121792006
 30
0.0
 11
228.0678172840369
 21
213.9697121791996
 31
0.0
  0
LINE
  5
2E0
330
1F
100
AcDbEntity
  8
OBRYS
100
AcDbLine
 10
228.0678172840369
 20
213.9697121791996
 30
0.0
 11
227.5678172840369
 21
213.9697121791996
 31
0.0
  0
LINE
  5
2E1
330
1F
100
AcDbEntity
  8
OBRYS
100
AcDbLine
 10
227.5678172840369
 20
213.9697121791996
 30
0.0
 11
227.5678172840369
 21
196.6936323808115
 31
0.0
  0
LINE
  5
2E2
330
1F
100
AcDbEntity
  8
OBRYS
100
AcDbLine
 10
227.5678172840369
 20
217.4697121791996
 30
0.0
 11
227.5678172840369
 21
219.1936323808115
 31
0.0
  0
ARC
  5
2E6
330
1F
100
AcDbEntity
  8
OBRYS
100
AcDbCircle
 10
230.190113312679
 20
215.6246111976106
 30
0.0
 40
2.244042321096
100
AcDbArc
 50
120.0081040670192
 51
239.9918959329968
  0
LINE
  5
2E7
330
1F
100
AcDbEntity
  8
OBRYS
100
AcDbLine
 10
229.0678172840369
 20
213.0697121792006
 30
0.0
 11
229.0678172840369
 21
213.6813722614626
 31
0.0
  0
LINE
  5
2E8
330
1F
100
AcDbEntity
  8
OBRYS
100
AcDbLine
 10
229.0694090650646
 20
218.3697
 30
0.0
 11
229.0694
 21
217.5678501337586
 31
0.0
  0
LINE
  5
2E9
330
1F
100
AcDbEntity
  8
OBRYS
100
AcDbLine
 10
277.0678172840369
 20
223.0936323808116
 30
0.0
 11
274.4430786091399
 21
225.4508845002806
 31
0.0
  0
LINE
  5
2EA
330
1F
100
AcDbEntity
  8
OBRYS
100
AcDbLine
 10
274.4430786091399
 20
225.4508845002806
 30
0.0
 11
272.0678172840369
 21
223.0936323808116
 31
0.0
  0
LINE
  5
2EB
330
1F
100
AcDbEntity
  8
OBRYS
100
AcDbLine
 10
272.6291711850179
 20
206.5470582830066
 30
0.0
 11
276.6291711850179
 21
206.5470582830066
 31
0.0
  0
LINE
  5
2EC
330
1F
100
AcDbEntity
  8
OBRYS
100
AcDbLine
 10
276.6291711850179
 20
196.0470582830066
 30
0.0
 11
272.6291711850179
 21
196.0470582830066
 31
0.0
  0
LINE
  5
2ED
330
1F
100
AcDbEntity
  8
OBRYS
100
AcDbLine
 10
276.6291711850179
 20
196.0470582830066
 30
0.0
 11
276.6291711850179
 21
196.6936323808115
 31
0.0
  0
LINE
  5
2EE
330
1F
100
AcDbEntity
  8
OBRYS
100
AcDbLine
 10
272.6291711850179
 20
196.0470582830066
 30
0.0
 11
272.6291711850179
 21
196.6936323808115
 31
0.0
  0
LINE
  5
2EF
330
1F
100
AcDbEntity
  8
OBRYS
100
AcDbLine
 10
272.6291711850179
 20
197.5470582830066
 30
0.0
 11
276.6291711850179
 21
197.5470582830066
 31
0.0
  0
LINE
  5
2F2
330
1F
100
AcDbEntity
  8
OBRYS
100
AcDbLine
 10
265.5678172840369
 20
286.6936323808106
 30
0.0
 11
227.5678172840369
 21
286.6936323808106
 31
0.0
  0
LINE
  5
2F3
330
1F
100
AcDbEntity
  8
OBRYS
100
AcDbLine
 10
239.3678172840369
 20
271.6936323808106
 30
0.0
 11
239.3678172840369
 21
286.6936323808106
 31
0.0
  0
LINE
  5
2F4
330
1F
100
AcDbEntity
  8
OBRYS
100
AcDbLine
 10
239.3678172840379
 20
211.6936323808115
 30
0.0
 11
239.3678172840379
 21
196.6936323808115
 31
0.0
  0
LINE
  5
2F5
330
1F
100
AcDbEntity
  8
OBRYS
100
AcDbLine
 10
276.6291711850179
 20
222.5470582830066
 30
0.0
 11
272.6291711850179
 21
222.5470582830066
 31
0.0
  0
LINE
  5
2F6
330
1F
100
AcDbEntity
  8
OBRYS
100
AcDbLine
 10
276.6291711850179
 20
204.5470582830066
 30
0.0
 11
272.6291711850179
 21
204.5470582830066
 31
0.0
  0
LINE
  5
2F7
330
1F
100
AcDbEntity
  8
OBRYS
100
AcDbLine
 10
276.6291711850179
 20
222.5470582830066
 30
0.0
 11
276.6291711850179
 21
197.5470582830066
 31
0.0
  0
LINE
  5
2F8
330
1F
100
AcDbEntity
  8
OBRYS
100
AcDbLine
 10
272.6291711850179
 20
222.5470582830066
 30
0.0
 11
272.6291711850179
 21
197.5470582830066
 31
0.0
  0
LINE
  5
2F9
330
1F
100
AcDbEntity
  8
OBRYS
100
AcDbLine
 10
239.3678172840369
 20
271.6936323808106
 30
0.0
 11
235.3678172840369
 21
271.6936323808106
 31
0.0
  0
LINE
  5
2FA
330
1F
100
AcDbEntity
  8
OBRYS
100
AcDbLine
 10
235.3678172840369
 20
271.6936323808106
 30
0.0
 11
235.3678172840369
 21
286.6936323808106
 31
0.0
  0
LINE
  5
2FB
330
1F
100
AcDbEntity
  8
OBRYS
100
AcDbLine
 10
239.3678172840379
 20
211.6936323808115
 30
0.0
 11
235.3678172840379
 21
211.6936323808115
 31
0.0
  0
LINE
  5
2FC
330
1F
100
AcDbEntity
  8
OBRYS
100
AcDbLine
 10
235.3678172840379
 20
211.6936323808115
 30
0.0
 11
235.3678172840379
 21
196.6936323808115
 31
0.0
  0
LINE
  5
2FD
330
1F
100
AcDbEntity
  8
OBRYS
100
AcDbLine
 10
227.5678172840369
 20
264.1936323808106
 30
0.0
 11
215.0678172840369
 21
264.1936323808106
 31
0.0
  0
LINE
  5
2FE
330
1F
100
AcDbEntity
  8
OBRYS
100
AcDbLine
 10
227.5678172840369
 20
219.1936323808115
 30
0.0
 11
215.0678172840369
 21
219.1936323808115
 31
0.0
  0
LINE
  5
2FF
330
1F
100
AcDbEntity
  8
OBRYS
100
AcDbLine
 10
215.0678172840369
 20
264.1936323808106
 30
0.0
 11
215.0678172840369
 21
219.1936323808115
 31
0.0
  0
MTEXT
  5
30C
330
1F
100
AcDbEntity
  8
POTISK
100
AcDbMText
 10
298.019288549406
 20
282.5938118059169
 30
0.0
 40
0.2
 41
2.137848070270422
 71
     1
 72
     1
  1
{\H12.5x;N}
1001
ACAD
1000
ACAD_MTEXT_DEFINED_HEIGHT_BEGIN
1070
    46
1040
2.5
1000
ACAD_MTEXT_DEFINED_HEIGHT_END
  0
MTEXT
  5
332
330
1F
100
AcDbEntity
  8
POTISK
100
AcDbMText
 10
316.019288549406
 20
282.5938118059169
 30
0.0
 40
0.2
 41
4.431299388658658
 71
     1
 72
     1
  1
{\H12.5x;PE}
1001
ACAD
1000
ACAD_MTEXT_DEFINED_HEIGHT_BEGIN
1070
    46
1040
2.5
1000
ACAD_MTEXT_DEFINED_HEIGHT_END
  0
MTEXT
  5
358
330
1F
100
AcDbEntity
  8
POTISK
100
AcDbMText
 10
334.2192885494059
 20
282.5938118059169
 30
0.0
 40
0.2
 41
1.792250217838898
 71
     1
 72
     1
  1
{\H12.5x;L}
1001
ACAD
1000
ACAD_MTEXT_DEFINED_HEIGHT_BEGIN
1070
    46
1040
2.5
1000
ACAD_MTEXT_DEFINED_HEIGHT_END
  0
MTEXT
  5
37E
330
1F
100
AcDbEntity
  8
POTISK
100
AcDbMText
 10
298.0688302505062
 20
201.6075762809267
 30
0.0
 40
0.2
 41
2.484754889042335
 71
     1
 72
     1
  1
{\H12.5x;N}
1001
ACAD
1000
ACAD_MTEXT_DEFINED_HEIGHT_BEGIN
1070
    46
1040
2.5
1000
ACAD_MTEXT_DEFINED_HEIGHT_END
  0
MTEXT
  5
3A4
330
1F
100
AcDbEntity
  8
POTISK
100
AcDbMText
 10
334.019288549406
 20
201.6075762809267
 30
0.0
 40
0.2
 41
1.781322112390455
 71
     1
 72
     1
  1
{\H12.5x;L}
1001
ACAD
1000
ACAD_MTEXT_DEFINED_HEIGHT_BEGIN
1070
    46
1040
2.5
1000
ACAD_MTEXT_DEFINED_HEIGHT_END
  0
DIMENSION
  5
3C1
330
1F
100
AcDbEntity
  8
KOTY
100
AcDbDimension
  2
*D2
 10
359.2192885494059
 20
186.7230517786344
 30
0.0
 11
323.2192885494059
 21
189.7310517786344
 31
0.0
 70
    32
  3
STANDARD
100
AcDbAlignedDimension
 13
287.2192885494059
 23
195.8508105820185
 33
0.0
 14
359.2192885494059
 24
195.8508105820185
 34
0.0
100
AcDbRotatedDimension
1001
ACAD
1000
DSTYLE
1002
{
1070
   271
1070
     0
1070
   278
1070
    44
1070
   140
1040
4.0
1070
    73
1070
     0
1070
    77
1070
     1
1070
   147
1040
1.0
1070
    41
1040
4.0
1002
}
  0
DIMENSION
  5
3D1
330
1F
100
AcDbEntity
  8
KOTY
100
AcDbDimension
  2
*D3
 10
272.0678172840369
 20
186.7230517786344
 30
0.0
 11
243.5678172840369
 21
189.7570517786344
 31
0.0
 70
    32
  3
STANDARD
100
AcDbAlignedDimension
 13
215.0678172840369
 23
219.1936323808115
 33
0.0
 14
272.0678172840369
 24
223.0936323808116
 34
0.0
100
AcDbRotatedDimension
1001
ACAD
1000
DSTYLE
1002
{
1070
   271
1070
     0
1070
   278
1070
    44
1070
   140
1040
4.0
1070
    73
1070
     0
1070
    77
1070
     1
1070
   147
1040
1.0
1070
    41
1040
4.0
1002
}
  0
DIMENSION
  5
3E1
330
1F
100
AcDbEntity
  8
KOTY
100
AcDbDimension
  2
*D4
 10
207.7239610957121
 20
219.1311323808115
 30
0.0
 11
204.6899610957121
 21
241.662382380811
 31
0.0
 70
    32
  3
STANDARD
100
AcDbAlignedDimension
 13
215.0678172840369
 23
264.1936323808106
 33
0.0
 14
215.0678172840369
 24
219.1311323808115
 34
0.0
 50
90.0
100
AcDbRotatedDimension
1001
ACAD
1000
DSTYLE
1002
{
1070
   271
1070
     0
1070
   278
1070
    44
1070
   140
1040
4.0
1070
    73
1070
     0
1070
    77
1070
     1
1070
   147
1040
1.0
1070
    41
1040
4.0
1002
}
  0
DIMENSION
  5
3F1
330
1F
100
AcDbEntity
  8
KOTY
100
AcDbDimension
  2
*D5
 10
198.3787196241677
 20
196.6936323808115
 30
0.0
 11
195.3367196241677
 21
241.693632380811
 31
0.0
 70
    32
  3
STANDARD
100
AcDbAlignedDimension
 13
227.5678172840369
 23
286.6936323808106
 33
0.0
 14
227.5678172840369
 24
196.6936323808115
 34
0.0
 50
90.0
100
AcDbRotatedDimension
1001
ACAD
1000
DSTYLE
1002
{
1070
   271
1070
     0
1070
   278
1070
    44
1070
   140
1040
4.0
1070
    73
1070
     0
1070
    77
1070
     1
1070
   147
1040
1.0
1070
    41
1040
4.0
1002
}
  0
VIEWPORT
  5
401
330
58
100
AcDbEntity
 67
     1
  8
0
100
AcDbViewport
 10
0.0
 20
0.0
 30
0.0
 40
8.976
 41
6.936000000000001
 68
     1
 69
     1
1001
ACAD
1000
MVIEW
1002
{
1070
    16
1010
0.0
1020
0.0
1030
0.0
1010
0.0
1020
0.0
1030
1.0
1040
0.0
1040
6.936000000000001
1040
5.25
1040
4.0
1040
50.0
1040
0.0
1040
0.0
1070
     0
1070
   100
1070
     0
1070
     3
1070
     0
1070
     0
1070
     0
1070
     0
1040
0.0
1040
0.0
1040
0.0
1040
0.5
1040
0.5
1040
0.0
1040
0.0
1070
     0
1002
{
1002
}
1002
}
  0
VIEWPORT
  5
402
330
58
100
AcDbEntity
 67
     1
  8
0
100
AcDbViewport
 10
5.25
 20
4.0
 30
0.0
 40
8.4
 41
6.4
 68
     2
 69
     2
1001
ACAD
1000
MVIEW
1002
{
1070
    16
1010
0.0
1020
0.0
1030
0.0
1010
0.0
1020
0.0
1030
1.0
1040
0.0
1040
128.1582935647566
1040
276.7645040867868
1040
236.4583420797225
1040
50.0
1040
0.0
1040
0.0
1070
     0
1070
   100
1070
     0
1070
     3
1070
     0
1070
     0
1070
     0
1070
     0
1040
0.0
1040
0.0
1040
0.0
1040
0.5
1040
0.5
1040
0.0
1040
0.0
1070
     0
1002
{
1002
}
1002
}
  0
ENDSEC
  0
SECTION
  2
OBJECTS
  0
DICTIONARY
  5
C
330
0
100
AcDbDictionary
  3
ACAD_DETAILVIEWSTYLE
350
122
  3
ACAD_GROUP
350
D
  3
ACAD_IMAGE_VARS
350
DC
  3
ACAD_MLINESTYLE
350
17
  3
ACAD_SCALELIST
350
405
  3
ACAD_SECTIONVIEWSTYLE
350
123
  3
ACDBVARIABLEDICTIONARY
350
66
  3
APPDATA
350
E1
  3
DWGPROPS
350
44B
  0
DICTIONARY
  5
300
330
2
100
AcDbDictionary
280
     1
  3
ACAD_LAYERSTATES
360
303
  3
ACLYDICTIONARY
360
3C0
  0
DICTIONARY
  5
122
102
{ACAD_REACTORS
330
C
102
}
330
C
100
AcDbDictionary
  0
DICTIONARY
  5
D
102
{ACAD_REACTORS
330
C
102
}
330
C
100
AcDbDictionary
  0
RASTERVARIABLES
  5
DC
102
{ACAD_REACTORS
330
C
102
}
330
C
100
AcDbRasterVariables
 90
        0
 70
     1
 71
     1
 72
     5
  0
DICTIONARY
  5
17
102
{ACAD_REACTORS
330
C
102
}
330
C
100
AcDbDictionary
  3
STANDARD
350
18
  0
DICTIONARY
  5
405
102
{ACAD_REACTORS
330
C
102
}
330
C
100
AcDbDictionary
  0
DICTIONARY
  5
123
102
{ACAD_REACTORS
330
C
102
}
330
C
100
AcDbDictionary
  0
DICTIONARY
  5
66
102
{ACAD_REACTORS
330
C
102
}
330
C
100
AcDbDictionary
  3
DIMASSOC
350
67
  3
HIDETEXT
350
6B
  0
DICTIONARY
  5
E1
102
{ACAD_REACTORS
330
C
102
}
330
C
100
AcDbDictionary
  0
XRECORD
  5
44B
102
{ACAD_REACTORS
330
C
102
}
330
C
100
AcDbXrecord
  1
DWGPROPS COOKIE
  2

  3

  4

  6

  7

  8
jaromir.podrabsky
  9

300
=
301
=
302
=
303
=
304
=
305
=
306
=
307
=
308
=
309
=
 40
0.0
 41
2452643.021717593
 42
2456764.47408787
  1

 90
        0
  0
DICTIONARY
  5
303
102
{ACAD_REACTORS
330
300
102
}
330
300
100
AcDbDictionary
  0
DICTIONARY
  5
3C0
102
{ACAD_REACTORS
330
300
102
}
330
300
100
AcDbDictionary
1001
ACAD
1000
<All
  0
MLINESTYLE
  5
18
102
{ACAD_REACTORS
330
17
102
}
330
17
100
AcDbMlineStyle
  2
STANDARD
 70
     0
  3

 62
   256
 51
90.0
 52
90.0
 71
     2
 49
0.5
 62
   256
  6
BYLAYER
 49
-0.5
 62
   256
  6
BYLAYER
  0
DICTIONARYVAR
  5
67
102
{ACAD_REACTORS
330
66
102
}
330
66
100
DictionaryVariables
280
     0
  1
2
  0
DICTIONARYVAR
  5
6B
102
{ACAD_REACTORS
330
66
102
}
330
66
100
DictionaryVariables
280
     0
  1
1
  0
ENDSEC
  0
EOF
