  0
SECTION
  2
HEADER
  9
$ACADVER
  1
AC1014
  9
$ACADMAINTVER
 70
     9
  9
$DWGCODEPAGE
  3
ANSI_1252
  9
$INSBASE
 10
0.0
 20
0.0
 30
0.0
  9
$EXTMIN
 10
262.496861976111
 20
80.1742157214034
 30
0.0
  9
$EXTMAX
 10
395.7549279978729
 20
237.2238112825813
 30
0.0
  9
$LIMMIN
 10
0.0
 20
0.0
  9
$LIMMAX
 10
12.0
 20
9.0
  9
$ORTHOMODE
 70
     0
  9
$REGENMODE
 70
     1
  9
$FILLMODE
 70
     1
  9
$QTEXTMODE
 70
     0
  9
$MIRRTEXT
 70
     0
  9
$DRAGMODE
 70
     2
  9
$LTSCALE
 40
1.0
  9
$OSMODE
 70
   511
  9
$ATTMODE
 70
     1
  9
$TEXTSIZE
 40
0.2
  9
$TRACEWID
 40
0.05
  9
$TEXTSTYLE
  7
STANDARD
  9
$CLAYER
  8
POPIS_VODICU
  9
$CELTYPE
  6
BYLAYER
  9
$CECOLOR
 62
   256
  9
$CELTSCALE
 40
1.0
  9
$DELOBJ
 70
     1
  9
$DISPSILH
 70
     0
  9
$DIMSCALE
 40
1.0
  9
$DIMASZ
 40
0.18
  9
$DIMEXO
 40
0.0625
  9
$DIMDLI
 40
0.38
  9
$DIMRND
 40
0.0
  9
$DIMDLE
 40
0.0
  9
$DIMEXE
 40
0.18
  9
$DIMTP
 40
0.0
  9
$DIMTM
 40
0.0
  9
$DIMTXT
 40
0.18
  9
$DIMCEN
 40
0.09
  9
$DIMTSZ
 40
0.0
  9
$DIMTOL
 70
     0
  9
$DIMLIM
 70
     0
  9
$DIMTIH
 70
     1
  9
$DIMTOH
 70
     1
  9
$DIMSE1
 70
     0
  9
$DIMSE2
 70
     0
  9
$DIMTAD
 70
     0
  9
$DIMZIN
 70
     0
  9
$DIMBLK
  1

  9
$DIMASO
 70
     1
  9
$DIMSHO
 70
     1
  9
$DIMPOST
  1

  9
$DIMAPOST
  1

  9
$DIMALT
 70
     0
  9
$DIMALTD
 70
     2
  9
$DIMALTF
 40
25.4
  9
$DIMLFAC
 40
1.0
  9
$DIMTOFL
 70
     0
  9
$DIMTVP
 40
0.0
  9
$DIMTIX
 70
     0
  9
$DIMSOXD
 70
     0
  9
$DIMSAH
 70
     0
  9
$DIMBLK1
  1

  9
$DIMBLK2
  1

  9
$DIMSTYLE
  2
STANDARD
  9
$DIMCLRD
 70
     0
  9
$DIMCLRE
 70
     0
  9
$DIMCLRT
 70
     0
  9
$DIMTFAC
 40
1.0
  9
$DIMGAP
 40
0.09
  9
$DIMJUST
 70
     0
  9
$DIMSD1
 70
     0
  9
$DIMSD2
 70
     0
  9
$DIMTOLJ
 70
     1
  9
$DIMTZIN
 70
     0
  9
$DIMALTZ
 70
     0
  9
$DIMALTTZ
 70
     0
  9
$DIMFIT
 70
     5
  9
$DIMUPT
 70
     0
  9
$DIMUNIT
 70
     2
  9
$DIMDEC
 70
     4
  9
$DIMTDEC
 70
     4
  9
$DIMALTU
 70
     2
  9
$DIMALTTD
 70
     2
  9
$DIMTXSTY
  7
STANDARD
  9
$DIMAUNIT
 70
     0
  9
$LUNITS
 70
     2
  9
$LUPREC
 70
     4
  9
$SKETCHINC
 40
0.1
  9
$FILLETRAD
 40
0.0
  9
$AUNITS
 70
     0
  9
$AUPREC
 70
     0
  9
$MENU
  1
.
  9
$ELEVATION
 40
0.0
  9
$PELEVATION
 40
0.0
  9
$THICKNESS
 40
0.0
  9
$LIMCHECK
 70
     0
  9
$CHAMFERA
 40
0.0
  9
$CHAMFERB
 40
0.0
  9
$CHAMFERC
 40
0.0
  9
$CHAMFERD
 40
0.0
  9
$SKPOLY
 70
     0
  9
$TDCREATE
 40
2452643.146717593
  9
$TDUPDATE
 40
2457953.583896586
  9
$TDINDWG
 40
0.0172189699
  9
$TDUSRTIMER
 40
2457953.500076423
  9
$USRTIMER
 70
     1
  9
$ANGBASE
 50
0.0
  9
$ANGDIR
 70
     0
  9
$PDMODE
 70
     0
  9
$PDSIZE
 40
0.0
  9
$PLINEWID
 40
0.0
  9
$COORDS
 70
     1
  9
$SPLFRAME
 70
     0
  9
$SPLINETYPE
 70
     6
  9
$SPLINESEGS
 70
     8
  9
$ATTDIA
 70
     0
  9
$ATTREQ
 70
     1
  9
$HANDLING
 70
     1
  9
$HANDSEED
  5
3DA
  9
$SURFTAB1
 70
     6
  9
$SURFTAB2
 70
     6
  9
$SURFTYPE
 70
     6
  9
$SURFU
 70
     6
  9
$SURFV
 70
     6
  9
$UCSNAME
  2

  9
$UCSORG
 10
0.0
 20
0.0
 30
0.0
  9
$UCSXDIR
 10
1.0
 20
0.0
 30
0.0
  9
$UCSYDIR
 10
0.0
 20
1.0
 30
0.0
  9
$PUCSNAME
  2

  9
$PUCSORG
 10
0.0
 20
0.0
 30
0.0
  9
$PUCSXDIR
 10
1.0
 20
0.0
 30
0.0
  9
$PUCSYDIR
 10
0.0
 20
1.0
 30
0.0
  9
$USERI1
 70
     0
  9
$USERI2
 70
     0
  9
$USERI3
 70
     0
  9
$USERI4
 70
     0
  9
$USERI5
 70
     0
  9
$USERR1
 40
0.0
  9
$USERR2
 40
0.0
  9
$USERR3
 40
0.0
  9
$USERR4
 40
0.0
  9
$USERR5
 40
0.0
  9
$WORLDVIEW
 70
     1
  9
$SHADEDGE
 70
     3
  9
$SHADEDIF
 70
    70
  9
$TILEMODE
 70
     1
  9
$MAXACTVP
 70
    64
  9
$PINSBASE
 10
0.0
 20
0.0
 30
0.0
  9
$PLIMCHECK
 70
     0
  9
$PEXTMIN
 10
0.0
 20
0.0
 30
0.0
  9
$PEXTMAX
 10
0.0
 20
0.0
 30
0.0
  9
$PLIMMIN
 10
0.0
 20
0.0
  9
$PLIMMAX
 10
0.0
 20
0.0
  9
$UNITMODE
 70
     0
  9
$VISRETAIN
 70
     1
  9
$PLINEGEN
 70
     0
  9
$PSLTSCALE
 70
     1
  9
$TREEDEPTH
 70
  3020
  9
$PICKSTYLE
 70
     1
  9
$CMLSTYLE
  2
STANDARD
  9
$CMLJUST
 70
     0
  9
$CMLSCALE
 40
1.0
  9
$PROXYGRAPHICS
 70
     1
  9
$MEASUREMENT
 70
     0
  0
ENDSEC
  0
SECTION
  2
CLASSES
  0
CLASS
  1
ACDBDICTIONARYWDFLT
  2
AcDbDictionaryWithDefault
  3
ObjectDBX Classes
 90
        0
280
     0
281
     0
  0
CLASS
  1
ACDBPLACEHOLDER
  2
AcDbPlaceHolder
  3
ObjectDBX Classes
 90
        0
280
     0
281
     0
  0
CLASS
  1
LAYOUT
  2
AcDbLayout
  3
ObjectDBX Classes
 90
        0
280
     0
281
     0
  0
CLASS
  1
DICTIONARYVAR
  2
AcDbDictionaryVar
  3
ObjectDBX Classes
 90
        0
280
     0
281
     0
  0
CLASS
  1
TABLESTYLE
  2
AcDbTableStyle
  3
ObjectDBX Classes
 90
     4095
280
     0
281
     0
  0
CLASS
  1
MATERIAL
  2
AcDbMaterial
  3
ObjectDBX Classes
 90
     1153
280
     0
281
     0
  0
CLASS
  1
VISUALSTYLE
  2
AcDbVisualStyle
  3
ObjectDBX Classes
 90
     4095
280
     0
281
     0
  0
CLASS
  1
SCALE
  2
AcDbScale
  3
ObjectDBX Classes
 90
     1153
280
     0
281
     0
  0
CLASS
  1
CELLSTYLEMAP
  2
AcDbCellStyleMap
  3
ObjectDBX Classes
 90
     1152
280
     0
281
     0
  0
CLASS
  1
RASTERVARIABLES
  2
AcDbRasterVariables
  3
ISM
 90
        0
280
     0
281
     0
  0
CLASS
  1
DIMASSOC
  2
AcDbDimAssoc
  3
"AcDbDimAssoc|Product Desc:     AcDim ARX App For Dimension|Company:          Autodesk, Inc.|WEB Address:      www.autodesk.com"
 90
        0
280
     0
281
     0
  0
CLASS
  1
XRECORD
  2
AcDbXrecord
  3
AutoCAD 2000
 90
        0
280
     0
281
     0
  0
CLASS
  1
LWPOLYLINE
  2
AcDbPolyline
  3
AutoCAD 2000
 90
        0
280
     0
281
     1
  0
CLASS
  1
HATCH
  2
AcDbHatch
  3
AutoCAD 2000
 90
        0
280
     0
281
     1
  0
ENDSEC
  0
SECTION
  2
TABLES
  0
TABLE
  2
VPORT
  5
8
330
0
100
AcDbSymbolTable
 70
     1
  0
VPORT
  5
94
330
8
100
AcDbSymbolTableRecord
100
AcDbViewportTableRecord
  2
*ACTIVE
 70
     0
 10
0.0
 20
0.0
 11
1.0
 21
1.0
 12
360.1995328090482
 22
174.6546821101003
 13
0.0
 23
0.0
 14
0.5
 24
0.5
 15
0.5
 25
0.5
 16
0.0
 26
0.0
 36
1.0
 17
-27.66959356597982
 27
-19.53870295786209
 37
0.0
 40
170.5227198939641
 41
1.031704095112285
 42
50.0
 43
0.0
 44
0.0
 50
0.0
 51
0.0
 71
    16
 72
  1000
 73
     1
 74
     3
 75
     0
 76
     0
 77
     0
 78
     0
  0
ENDTAB
  0
TABLE
  2
LTYPE
  5
5
330
0
100
AcDbSymbolTable
 70
     1
  0
LTYPE
  5
14
330
5
100
AcDbSymbolTableRecord
100
AcDbLinetypeTableRecord
  2
BYBLOCK
 70
     0
  3

 72
    65
 73
     0
 40
0.0
  0
LTYPE
  5
15
330
5
100
AcDbSymbolTableRecord
100
AcDbLinetypeTableRecord
  2
BYLAYER
 70
     0
  3

 72
    65
 73
     0
 40
0.0
  0
LTYPE
  5
16
330
5
100
AcDbSymbolTableRecord
100
AcDbLinetypeTableRecord
  2
CONTINUOUS
 70
     0
  3
Solid line
 72
    65
 73
     0
 40
0.0
  0
ENDTAB
  0
TABLE
  2
LAYER
  5
2
102
{ACAD_XDICTIONARY
360
373
102
}
330
0
100
AcDbSymbolTable
 70
     5
  0
LAYER
  5
10
330
2
100
AcDbSymbolTableRecord
100
AcDbLayerTableRecord
  2
0
 70
     0
 62
     7
  6
CONTINUOUS
  0
LAYER
  5
E4
330
2
100
AcDbSymbolTableRecord
100
AcDbLayerTableRecord
  2
DEFPOINTS
 70
     0
 62
     7
  6
CONTINUOUS
  0
LAYER
  5
E5
330
2
100
AcDbSymbolTableRecord
100
AcDbLayerTableRecord
  2
KOTY
 70
     0
 62
     1
  6
CONTINUOUS
1001
ACAECLAYERSTANDARD
1000

1000

  0
LAYER
  5
E8
330
2
100
AcDbSymbolTableRecord
100
AcDbLayerTableRecord
  2
OBRYS
 70
     0
 62
     5
  6
CONTINUOUS
1001
ACAECLAYERSTANDARD
1000

1000

  0
LAYER
  5
E9
330
2
100
AcDbSymbolTableRecord
100
AcDbLayerTableRecord
  2
POPIS_VODICU
 70
     0
 62
     3
  6
CONTINUOUS
  0
ENDTAB
  0
TABLE
  2
STYLE
  5
3
330
0
100
AcDbSymbolTable
 70
     1
  0
STYLE
  5
11
330
3
100
AcDbSymbolTableRecord
100
AcDbTextStyleTableRecord
  2
STANDARD
 70
     0
 40
0.0
 41
1.0
 50
0.0
 71
     0
 42
0.2
  3
arial.ttf
  4

1001
ACAD
1000
Arial
1071
        0
  0
ENDTAB
  0
TABLE
  2
VIEW
  5
6
330
0
100
AcDbSymbolTable
 70
     0
  0
ENDTAB
  0
TABLE
  2
UCS
  5
7
330
0
100
AcDbSymbolTable
 70
     0
  0
ENDTAB
  0
TABLE
  2
APPID
  5
9
330
0
100
AcDbSymbolTable
 70
     2
  0
APPID
  5
12
330
9
100
AcDbSymbolTableRecord
100
AcDbRegAppTableRecord
  2
ACAD
 70
     0
  0
APPID
  5
E7
330
9
100
AcDbSymbolTableRecord
100
AcDbRegAppTableRecord
  2
ACAECLAYERSTANDARD
 70
     0
  0
ENDTAB
  0
TABLE
  2
DIMSTYLE
  5
A
330
0
100
AcDbSymbolTable
 70
     1
  0
DIMSTYLE
105
27
102
{ACAD_REACTORS
330
306
330
307
330
308
330
309
330
30C
102
}
330
A
100
AcDbSymbolTableRecord
100
AcDbDimStyleTableRecord
  2
STANDARD
 70
     0
  3

  4

  5

  6

  7

 40
1.0
 41
0.18
 42
0.0625
 43
0.38
 44
0.18
 45
0.0
 46
0.0
 47
0.0
 48
0.0
140
0.18
141
0.09
142
0.0
143
25.4
144
1.0
145
0.0
146
1.0
147
0.09
 71
     0
 72
     0
 73
     1
 74
     1
 75
     0
 76
     0
 77
     0
 78
     0
170
     0
171
     2
172
     0
173
     0
174
     0
175
     0
176
     0
177
     0
178
     0
270
     2
271
     4
272
     4
273
     2
274
     2
340
11
275
     0
280
     0
281
     0
282
     0
283
     1
284
     0
285
     0
286
     0
287
     3
288
     0
  0
ENDTAB
  0
TABLE
  2
BLOCK_RECORD
  5
1
330
0
100
AcDbSymbolTable
 70
    13
  0
BLOCK_RECORD
  5
1F
330
1
100
AcDbSymbolTableRecord
100
AcDbBlockTableRecord
  2
*MODEL_SPACE
  0
BLOCK_RECORD
  5
58
330
1
100
AcDbSymbolTableRecord
100
AcDbBlockTableRecord
  2
*PAPER_SPACE
  0
BLOCK_RECORD
  5
5D
330
1
100
AcDbSymbolTableRecord
100
AcDbBlockTableRecord
  2
*PAPER_SPACE0
  0
BLOCK_RECORD
  5
1C2
330
1
100
AcDbSymbolTableRecord
100
AcDbBlockTableRecord
  2
*D1
  0
BLOCK_RECORD
  5
1CF
330
1
100
AcDbSymbolTableRecord
100
AcDbBlockTableRecord
  2
*D2
  0
BLOCK_RECORD
  5
1DC
330
1
100
AcDbSymbolTableRecord
100
AcDbBlockTableRecord
  2
*D3
  0
BLOCK_RECORD
  5
1EB
330
1
100
AcDbSymbolTableRecord
100
AcDbBlockTableRecord
  2
*D4
  0
BLOCK_RECORD
  5
1FA
330
1
100
AcDbSymbolTableRecord
100
AcDbBlockTableRecord
  2
*D5
  0
BLOCK_RECORD
  5
20F
330
1
100
AcDbSymbolTableRecord
100
AcDbBlockTableRecord
  2
BLOCK_143
  0
BLOCK_RECORD
  5
22B
330
1
100
AcDbSymbolTableRecord
100
AcDbBlockTableRecord
  2
BLOCK_142
  0
BLOCK_RECORD
  5
337
330
1
100
AcDbSymbolTableRecord
100
AcDbBlockTableRecord
  2
*D8
  0
BLOCK_RECORD
  5
341
330
1
100
AcDbSymbolTableRecord
100
AcDbBlockTableRecord
  2
*D9
  0
BLOCK_RECORD
  5
34B
330
1
100
AcDbSymbolTableRecord
100
AcDbBlockTableRecord
  2
*D10
  0
BLOCK_RECORD
  5
355
330
1
100
AcDbSymbolTableRecord
100
AcDbBlockTableRecord
  2
*D11
  0
BLOCK_RECORD
  5
35F
330
1
100
AcDbSymbolTableRecord
100
AcDbBlockTableRecord
  2
*D12
  0
ENDTAB
  0
ENDSEC
  0
SECTION
  2
BLOCKS
  0
BLOCK
  5
20
330
1F
100
AcDbEntity
  8
0
100
AcDbBlockBegin
  2
*MODEL_SPACE
 70
     0
 10
0.0
 20
0.0
 30
0.0
  3
*MODEL_SPACE
  1

  0
ENDBLK
  5
21
330
1F
100
AcDbEntity
  8
0
100
AcDbBlockEnd
  0
BLOCK
  5
5A
330
58
100
AcDbEntity
 67
     1
  8
0
100
AcDbBlockBegin
  2
*PAPER_SPACE
 70
     0
 10
0.0
 20
0.0
 30
0.0
  3
*PAPER_SPACE
  1

  0
ENDBLK
  5
5B
330
58
100
AcDbEntity
 67
     1
  8
0
100
AcDbBlockEnd
  0
BLOCK
  5
5F
330
5D
100
AcDbEntity
  8
0
100
AcDbBlockBegin
  2
*PAPER_SPACE0
 70
     0
 10
0.0
 20
0.0
 30
0.0
  3
*PAPER_SPACE0
  1

  0
ENDBLK
  5
60
330
5D
100
AcDbEntity
  8
0
100
AcDbBlockEnd
  0
BLOCK
  5
1C3
330
1C2
100
AcDbEntity
  8
0
100
AcDbBlockBegin
  2
*D1
 70
     1
 10
0.0
 20
0.0
 30
0.0
  3
*D1
  1

  0
LINE
  5
1C4
330
1C2
100
AcDbEntity
  8
KOTY
 62
     0
100
AcDbLine
 10
0.0
 20
102.9243296172698
 30
0.0
 11
0.0
 21
142.8206372128194
 31
0.0
  0
LINE
  5
1C5
330
1C2
100
AcDbEntity
  8
KOTY
 62
     0
100
AcDbLine
 10
21.30000590814981
 20
103.0435299996953
 30
0.0
 11
21.30000590814981
 21
142.8206372128194
 31
0.0
  0
LINE
  5
1C6
330
1C2
100
AcDbEntity
  8
KOTY
 62
     0
100
AcDbLine
 10
4.0
 20
142.6406372128194
 30
0.0
 11
17.30000590814981
 21
142.6406372128194
 31
0.0
  0
SOLID
  5
1C7
330
1C2
100
AcDbEntity
  8
KOTY
 62
     0
100
AcDbTrace
 10
4.0
 20
143.3073038794861
 30
0.0
 11
4.0
 21
141.9739705461527
 31
0.0
 12
0.0
 22
142.6406372128194
 32
0.0
 13
0.0
 23
142.6406372128194
 33
0.0
  0
SOLID
  5
1C8
330
1C2
100
AcDbEntity
  8
KOTY
 62
     0
100
AcDbTrace
 10
17.30000590814981
 20
141.9739705461527
 30
0.0
 11
17.30000590814981
 21
143.3073038794861
 31
0.0
 12
21.30000590814981
 22
142.6406372128194
 32
0.0
 13
21.30000590814981
 23
142.6406372128194
 33
0.0
  0
MTEXT
  5
1C9
330
1C2
100
AcDbEntity
  8
KOTY
 62
     0
100
AcDbMText
 10
10.65000295407491
 20
145.6486372128194
 30
0.0
 40
4.0
 41
0.0
 71
     5
 72
     1
  1
\A1;21
  0
POINT
  5
1CA
330
1C2
100
AcDbEntity
  8
DEFPOINTS
 62
     0
100
AcDbPoint
 10
0.0
 20
102.8618296172698
 30
0.0
  0
POINT
  5
1CB
330
1C2
100
AcDbEntity
  8
DEFPOINTS
 62
     0
100
AcDbPoint
 10
21.30000590814981
 20
102.9810299996953
 30
0.0
  0
POINT
  5
1CC
330
1C2
100
AcDbEntity
  8
DEFPOINTS
 62
     0
100
AcDbPoint
 10
21.30000590814981
 20
142.6406372128194
 30
0.0
  0
ENDBLK
  5
1CD
330
1C2
100
AcDbEntity
  8
0
100
AcDbBlockEnd
  0
BLOCK
  5
1D0
330
1CF
100
AcDbEntity
  8
0
100
AcDbBlockBegin
  2
*D2
 70
     1
 10
0.0
 20
0.0
 30
0.0
  3
*D2
  1

  0
LINE
  5
1D1
330
1CF
100
AcDbEntity
  8
KOTY
 62
     0
100
AcDbLine
 10
59.6370537587475
 20
101.1435585861794
 30
0.0
 11
59.6370537587475
 21
142.8206372128194
 31
0.0
  0
LINE
  5
1D2
330
1CF
100
AcDbEntity
  8
KOTY
 62
     0
100
AcDbLine
 10
112.1372430021014
 20
101.1435585861794
 30
0.0
 11
112.1372430021014
 21
142.8206372128194
 31
0.0
  0
LINE
  5
1D3
330
1CF
100
AcDbEntity
  8
KOTY
 62
     0
100
AcDbLine
 10
63.6370537587475
 20
142.6406372128194
 30
0.0
 11
108.1372430021014
 21
142.6406372128194
 31
0.0
  0
SOLID
  5
1D4
330
1CF
100
AcDbEntity
  8
KOTY
 62
     0
100
AcDbTrace
 10
63.6370537587475
 20
143.3073038794861
 30
0.0
 11
63.6370537587475
 21
141.9739705461527
 31
0.0
 12
59.6370537587475
 22
142.6406372128194
 32
0.0
 13
59.6370537587475
 23
142.6406372128194
 33
0.0
  0
SOLID
  5
1D5
330
1CF
100
AcDbEntity
  8
KOTY
 62
     0
100
AcDbTrace
 10
108.1372430021014
 20
141.9739705461527
 30
0.0
 11
108.1372430021014
 21
143.3073038794861
 31
0.0
 12
112.1372430021014
 22
142.6406372128194
 32
0.0
 13
112.1372430021014
 23
142.6406372128194
 33
0.0
  0
MTEXT
  5
1D6
330
1CF
100
AcDbEntity
  8
KOTY
 62
     0
100
AcDbMText
 10
85.88714838042445
 20
145.6826372128194
 30
0.0
 40
4.0
 41
0.0
 71
     5
 72
     1
  1
\A1;53
  0
POINT
  5
1D7
330
1CF
100
AcDbEntity
  8
DEFPOINTS
 62
     0
100
AcDbPoint
 10
59.6370537587475
 20
101.0810585861794
 30
0.0
  0
POINT
  5
1D8
330
1CF
100
AcDbEntity
  8
DEFPOINTS
 62
     0
100
AcDbPoint
 10
112.1372430021014
 20
101.0810585861794
 30
0.0
  0
POINT
  5
1D9
330
1CF
100
AcDbEntity
  8
DEFPOINTS
 62
     0
100
AcDbPoint
 10
112.1372430021014
 20
142.6406372128194
 30
0.0
  0
ENDBLK
  5
1DA
330
1CF
100
AcDbEntity
  8
0
100
AcDbBlockEnd
  0
BLOCK
  5
1DD
330
1DC
100
AcDbEntity
  8
0
100
AcDbBlockBegin
  2
*D3
 70
     1
 10
0.0
 20
0.0
 30
0.0
  3
*D3
  1

  0
LINE
  5
1DE
330
1DC
100
AcDbEntity
  8
KOTY
 62
     0
100
AcDbLine
 10
110.0997682043821
 20
103.1810179303984
 30
0.0
 11
132.7713993550952
 21
103.1810179303984
 31
0.0
  0
LINE
  5
1DF
330
1DC
100
AcDbEntity
  8
KOTY
 62
     0
100
AcDbLine
 10
97.96838867373754
 20
49.18117762715018
 30
0.0
 11
132.7713993550952
 21
49.18117762715018
 31
0.0
  0
LINE
  5
1E0
330
1DC
100
AcDbEntity
  8
KOTY
 62
     0
100
AcDbLine
 10
132.5913993550952
 20
99.18101793039841
 30
0.0
 11
132.5913993550952
 21
53.18117762715018
 31
0.0
  0
SOLID
  5
1E1
330
1DC
100
AcDbEntity
  8
KOTY
 62
     0
100
AcDbTrace
 10
133.2580660217619
 20
99.18101793039841
 30
0.0
 11
131.9247326884286
 21
99.18101793039841
 31
0.0
 12
132.5913993550952
 22
103.1810179303984
 32
0.0
 13
132.5913993550952
 23
103.1810179303984
 33
0.0
  0
SOLID
  5
1E2
330
1DC
100
AcDbEntity
  8
KOTY
 62
     0
100
AcDbTrace
 10
131.9247326884286
 20
53.18117762715018
 30
0.0
 11
133.2580660217619
 21
53.18117762715018
 31
0.0
 12
132.5913993550952
 22
49.18117762715018
 32
0.0
 13
132.5913993550952
 23
49.18117762715018
 33
0.0
  0
MTEXT
  5
1E3
330
1DC
100
AcDbEntity
  8
KOTY
 62
     0
100
AcDbMText
 10
129.5573993550952
 20
75.35722778279069
 30
0.0
 40
4.0
 41
0.0
 71
     5
 72
     1
  1
\A1;54
 11
0.0
 21
1.0
 31
0.0
  0
POINT
  5
1E4
330
1DC
100
AcDbEntity
  8
DEFPOINTS
 62
     0
100
AcDbPoint
 10
110.0372682043821
 20
103.1810179303984
 30
0.0
  0
POINT
  5
1E5
330
1DC
100
AcDbEntity
  8
DEFPOINTS
 62
     0
100
AcDbPoint
 10
97.90588867373754
 20
49.18117762715018
 30
0.0
  0
POINT
  5
1E6
330
1DC
100
AcDbEntity
  8
DEFPOINTS
 62
     0
100
AcDbPoint
 10
132.5913993550952
 20
49.18117762715018
 30
0.0
  0
ENDBLK
  5
1E7
330
1DC
100
AcDbEntity
  8
0
100
AcDbBlockEnd
  0
BLOCK
  5
1EC
330
1EB
100
AcDbEntity
  8
0
100
AcDbBlockBegin
  2
*D4
 70
     1
 10
0.0
 20
0.0
 30
0.0
  3
*D4
  1

  0
LINE
  5
1ED
330
1EB
100
AcDbEntity
  8
KOTY
 62
     0
100
AcDbLine
 10
95.49963162038222
 20
136.5865805895084
 30
0.0
 11
132.7713993550952
 21
136.5865805895084
 31
0.0
  0
LINE
  5
1EE
330
1EB
100
AcDbEntity
  8
KOTY
 62
     0
100
AcDbLine
 10
110.099611408848
 20
103.1810179245449
 30
0.0
 11
132.7713993550952
 21
103.1810179245449
 31
0.0
  0
LINE
  5
1EF
330
1EB
100
AcDbEntity
  8
KOTY
 62
     0
100
AcDbLine
 10
132.5913993550952
 20
132.5865805895084
 30
0.0
 11
132.5913993550952
 21
107.1810179245449
 31
0.0
  0
SOLID
  5
1F0
330
1EB
100
AcDbEntity
  8
KOTY
 62
     0
100
AcDbTrace
 10
133.2580660217619
 20
132.5865805895084
 30
0.0
 11
131.9247326884286
 21
132.5865805895084
 31
0.0
 12
132.5913993550952
 22
136.5865805895084
 32
0.0
 13
132.5913993550952
 23
136.5865805895084
 33
0.0
  0
SOLID
  5
1F1
330
1EB
100
AcDbEntity
  8
KOTY
 62
     0
100
AcDbTrace
 10
131.9247326884286
 20
107.1810179245449
 30
0.0
 11
133.2580660217619
 21
107.1810179245449
 31
0.0
 12
132.5913993550952
 22
103.1810179245449
 32
0.0
 13
132.5913993550952
 23
103.1810179245449
 33
0.0
  0
MTEXT
  5
1F2
330
1EB
100
AcDbEntity
  8
KOTY
 62
     0
100
AcDbMText
 10
129.5493993550952
 20
119.8837992570267
 30
0.0
 40
4.0
 41
0.0
 71
     5
 72
     1
  1
\A1;150
 11
0.0
 21
1.0
 31
0.0
  0
POINT
  5
1F3
330
1EB
100
AcDbEntity
  8
DEFPOINTS
 62
     0
100
AcDbPoint
 10
95.43713162038222
 20
136.5865805895084
 30
0.0
  0
POINT
  5
1F4
330
1EB
100
AcDbEntity
  8
DEFPOINTS
 62
     0
100
AcDbPoint
 10
110.037111408848
 20
103.1810179245449
 30
0.0
  0
POINT
  5
1F5
330
1EB
100
AcDbEntity
  8
DEFPOINTS
 62
     0
100
AcDbPoint
 10
132.5913993550952
 20
103.1810179245449
 30
0.0
  0
ENDBLK
  5
1F6
330
1EB
100
AcDbEntity
  8
0
100
AcDbBlockEnd
  0
BLOCK
  5
1FB
330
1FA
100
AcDbEntity
  8
0
100
AcDbBlockBegin
  2
*D5
 70
     1
 10
0.0
 20
0.0
 30
0.0
  3
*D5
  1

  0
LINE
  5
1FC
330
1FA
100
AcDbEntity
  8
KOTY
 62
     0
100
AcDbLine
 10
97.96838867373765
 20
49.18083311737444
 30
0.0
 11
132.7713993550952
 21
49.18083311737444
 31
0.0
  0
LINE
  5
1FD
330
1FA
100
AcDbEntity
  8
KOTY
 62
     0
100
AcDbLine
 10
91.74964271084082
 20
14.0115526552226
 30
0.0
 11
132.7713993550952
 21
14.0115526552226
 31
0.0
  0
LINE
  5
1FE
330
1FA
100
AcDbEntity
  8
KOTY
 62
     0
100
AcDbLine
 10
132.5913993550952
 20
45.18083311737444
 30
0.0
 11
132.5913993550952
 21
18.0115526552226
 31
0.0
  0
SOLID
  5
1FF
330
1FA
100
AcDbEntity
  8
KOTY
 62
     0
100
AcDbTrace
 10
133.2580660217619
 20
45.18083311737444
 30
0.0
 11
131.9247326884286
 21
45.18083311737444
 31
0.0
 12
132.5913993550952
 22
49.18083311737444
 32
0.0
 13
132.5913993550952
 23
49.18083311737444
 33
0.0
  0
SOLID
  5
200
330
1FA
100
AcDbEntity
  8
KOTY
 62
     0
100
AcDbTrace
 10
131.9247326884286
 20
18.0115526552226
 30
0.0
 11
133.2580660217619
 21
18.0115526552226
 31
0.0
 12
132.5913993550952
 22
14.0115526552226
 32
0.0
 13
132.5913993550952
 23
14.0115526552226
 33
0.0
  0
MTEXT
  5
201
330
1FA
100
AcDbEntity
  8
KOTY
 62
     0
100
AcDbMText
 10
129.5493993550952
 20
31.59619288629852
 30
0.0
 40
4.0
 41
0.0
 71
     5
 72
     1
  1
\A1;150
 11
0.0
 21
1.0
 31
0.0
  0
POINT
  5
202
330
1FA
100
AcDbEntity
  8
DEFPOINTS
 62
     0
100
AcDbPoint
 10
97.90588867373765
 20
49.18083311737444
 30
0.0
  0
POINT
  5
203
330
1FA
100
AcDbEntity
  8
DEFPOINTS
 62
     0
100
AcDbPoint
 10
91.68714271084082
 20
14.0115526552226
 30
0.0
  0
POINT
  5
204
330
1FA
100
AcDbEntity
  8
DEFPOINTS
 62
     0
100
AcDbPoint
 10
132.5913993550952
 20
14.0115526552226
 30
0.0
  0
ENDBLK
  5
205
330
1FA
100
AcDbEntity
  8
0
100
AcDbBlockEnd
  0
BLOCK
  5
210
330
20F
100
AcDbEntity
  8
0
100
AcDbBlockBegin
  2
BLOCK_143
 70
     0
 10
0.0
 20
0.0
 30
0.0
  3
BLOCK_143
  1

  0
SPLINE
  5
211
330
20F
100
AcDbEntity
  8
POPIS_VODICU
100
AcDbSpline
210
0.0
220
0.0
230
1.0
 70
    11
 71
     3
 72
    29
 73
    25
 74
     0
 42
0.0000000001
 43
0.0000000001
 40
0.0
 40
0.0
 40
0.0
 40
0.0
 40
1.0
 40
1.0
 40
1.0
 40
2.0
 40
2.0
 40
2.0
 40
3.0
 40
3.0
 40
3.0
 40
4.0
 40
4.0
 40
4.0
 40
5.0
 40
5.0
 40
5.0
 40
6.0
 40
6.0
 40
6.0
 40
7.0
 40
7.0
 40
7.0
 40
8.0
 40
8.0
 40
8.0
 40
8.0
 10
141.2793249366993
 20
139.9887913165668
 30
0.0
 10
141.2793249366993
 20
139.9887913165668
 30
0.0
 10
140.3112524667121
 20
139.9887913165668
 30
0.0
 10
140.3112524667121
 20
139.9887913165668
 30
0.0
 10
140.3112524667121
 20
139.9887913165668
 30
0.0
 10
140.3112524667121
 20
143.6371498422483
 30
0.0
 10
140.3112524667121
 20
143.6371498422483
 30
0.0
 10
139.9576131818573
 20
143.3064204574839
 30
0.0
 10
139.5407563531439
 20
143.0618185166687
 30
0.0
 10
139.060681980572
 20
142.9033440198024
 30
0.0
 10
139.060681980572
 20
142.9033440198024
 30
0.0
 10
139.060681980572
 20
143.7818439480827
 30
0.0
 10
139.060681980572
 20
143.7818439480827
 30
0.0
 10
139.3133799011185
 20
143.8645262942737
 30
0.0
 10
139.5877819375401
 20
144.021278242261
 30
0.0
 10
139.8840603447248
 20
144.2520997920444
 30
0.0
 10
140.1803387519095
 20
144.4829213418279
 30
0.0
 10
140.3835995196293
 20
144.7519834767247
 30
0.0
 10
140.493842647884
 20
145.0599752162865
 30
0.0
 10
140.493842647884
 20
145.0599752162865
 30
0.0
 10
141.2793249366993
 20
145.0599752162865
 30
0.0
 10
141.2793249366993
 20
145.0599752162865
 30
0.0
 10
141.2793249366993
 20
145.0599752162865
 30
0.0
 10
141.2793249366993
 20
139.9887913165668
 30
0.0
 10
141.2793249366993
 20
139.9887913165668
 30
0.0
  0
HATCH
  5
212
330
20F
100
AcDbEntity
  8
POPIS_VODICU
 62
    98
100
AcDbHatch
 10
0.0
 20
0.0
 30
0.0
210
0.0
220
0.0
230
1.0
  2
SOLID
 70
     1
 71
     0
 91
        1
 92
        1
 93
        1
 72
     4
 94
        3
 73
     0
 74
     1
 95
       29
 96
       25
 40
0.0
 40
0.0
 40
0.0
 40
0.0
 40
1.0
 40
1.0
 40
1.0
 40
2.0
 40
2.0
 40
2.0
 40
3.0
 40
3.0
 40
3.0
 40
4.0
 40
4.0
 40
4.0
 40
5.0
 40
5.0
 40
5.0
 40
6.0
 40
6.0
 40
6.0
 40
7.0
 40
7.0
 40
7.0
 40
8.0
 40
8.0
 40
8.0
 40
8.0
 10
141.2793249366993
 20
139.9887913165668
 10
141.2793249366993
 20
139.9887913165668
 10
140.3112524667121
 20
139.9887913165668
 10
140.3112524667121
 20
139.9887913165668
 10
140.3112524667121
 20
139.9887913165668
 10
140.3112524667121
 20
143.6371498422483
 10
140.3112524667121
 20
143.6371498422483
 10
139.9576131818573
 20
143.3064204574839
 10
139.5407563531439
 20
143.0618185166687
 10
139.060681980572
 20
142.9033440198024
 10
139.060681980572
 20
142.9033440198024
 10
139.060681980572
 20
143.7818439480827
 10
139.060681980572
 20
143.7818439480827
 10
139.3133799011185
 20
143.8645262942737
 10
139.5877819375401
 20
144.021278242261
 10
139.8840603447248
 20
144.2520997920444
 10
140.1803387519095
 20
144.4829213418279
 10
140.3835995196293
 20
144.7519834767247
 10
140.493842647884
 20
145.0599752162865
 10
140.493842647884
 20
145.0599752162865
 10
141.2793249366993
 20
145.0599752162865
 10
141.2793249366993
 20
145.0599752162865
 10
141.2793249366993
 20
145.0599752162865
 10
141.2793249366993
 20
139.9887913165668
 10
141.2793249366993
 20
139.9887913165668
 97
        0
 75
     2
 76
     1
 98
        0
  0
SPLINE
  5
213
330
20F
100
AcDbEntity
  8
POPIS_VODICU
100
AcDbSpline
210
0.0
220
0.0
230
1.0
 70
    11
 71
     3
 72
    95
 73
    91
 74
     0
 42
0.0000000001
 43
0.0000000001
 40
0.0
 40
0.0
 40
0.0
 40
0.0
 40
1.0
 40
1.0
 40
1.0
 40
2.0
 40
2.0
 40
2.0
 40
3.0
 40
3.0
 40
3.0
 40
4.0
 40
4.0
 40
4.0
 40
5.0
 40
5.0
 40
5.0
 40
6.0
 40
6.0
 40
6.0
 40
7.0
 40
7.0
 40
7.0
 40
8.0
 40
8.0
 40
8.0
 40
9.0
 40
9.0
 40
9.0
 40
10.0
 40
10.0
 40
10.0
 40
11.0
 40
11.0
 40
11.0
 40
12.0
 40
12.0
 40
12.0
 40
13.0
 40
13.0
 40
13.0
 40
14.0
 40
14.0
 40
14.0
 40
15.0
 40
15.0
 40
15.0
 40
16.0
 40
16.0
 40
16.0
 40
17.0
 40
17.0
 40
17.0
 40
18.0
 40
18.0
 40
18.0
 40
19.0
 40
19.0
 40
19.0
 40
20.0
 40
20.0
 40
20.0
 40
21.0
 40
21.0
 40
21.0
 40
22.0
 40
22.0
 40
22.0
 40
23.0
 40
23.0
 40
23.0
 40
24.0
 40
24.0
 40
24.0
 40
25.0
 40
25.0
 40
25.0
 40
26.0
 40
26.0
 40
26.0
 40
27.0
 40
27.0
 40
27.0
 40
28.0
 40
28.0
 40
28.0
 40
29.0
 40
29.0
 40
29.0
 40
30.0
 40
30.0
 40
30.0
 40
30.0
 10
144.8208854318839
 20
143.6474851355221
 30
0.0
 10
144.8208854318839
 20
143.6474851355221
 30
0.0
 10
145.713165751196
 20
143.6474851355221
 30
0.0
 10
145.713165751196
 20
143.6474851355221
 30
0.0
 10
145.713165751196
 20
143.6474851355221
 30
0.0
 10
145.713165751196
 20
143.1479459606177
 30
0.0
 10
145.713165751196
 20
143.1479459606177
 30
0.0
 10
146.0323540584711
 20
143.5358639681642
 30
0.0
 10
146.4125205960622
 20
143.7301674817132
 30
0.0
 10
146.8534931090813
 20
143.7301674817132
 30
0.0
 10
147.0877597566227
 20
143.7301674817132
 30
0.0
 10
147.2910205243424
 20
143.6819361131018
 30
0.0
 10
147.4632754122405
 20
143.5854733758788
 30
0.0
 10
147.6355303001386
 20
143.4890106386559
 30
0.0
 10
147.776779308215
 20
143.3429384937183
 30
0.0
 10
147.8870224364698
 20
143.1479459606177
 30
0.0
 10
148.0477362468787
 20
143.3429384937183
 30
0.0
 10
148.2211969189921
 20
143.4890106386559
 30
0.0
 10
148.407232197922
 20
143.5854733758788
 30
0.0
 10
148.593267476852
 20
143.6819361131018
 30
0.0
 10
148.7918773625985
 20
143.7301674817132
 30
0.0
 10
149.0032341100494
 20
143.7301674817132
 30
0.0
 10
149.2719517351704
 20
143.7301674817132
 30
0.0
 10
149.4993281871959
 20
143.6757349371374
 30
0.0
 10
149.6853634661258
 20
143.5665253382101
 30
0.0
 10
149.8713987450557
 20
143.4573157392827
 30
0.0
 10
150.0104084395895
 20
143.2974632033132
 30
0.0
 10
150.1022202948392
 20
143.0859342009744
 30
0.0
 10
150.1688829364557
 20
142.9295267627629
 30
0.0
 10
150.2021281298201
 20
142.6773456068802
 30
0.0
 10
150.2021281298201
 20
142.3280126942228
 30
0.0
 10
150.2021281298201
 20
142.3280126942228
 30
0.0
 10
150.2021281298201
 20
139.9887913165668
 30
0.0
 10
150.2021281298201
 20
139.9887913165668
 30
0.0
 10
150.2021281298201
 20
139.9887913165668
 30
0.0
 10
149.2340556598328
 20
139.9887913165668
 30
0.0
 10
149.2340556598328
 20
139.9887913165668
 30
0.0
 10
149.2340556598328
 20
139.9887913165668
 30
0.0
 10
149.2340556598328
 20
142.0799656556496
 30
0.0
 10
149.2340556598328
 20
142.0799656556496
 30
0.0
 10
149.2340556598328
 20
142.4430789593387
 30
0.0
 10
149.2008104664685
 20
142.6773456068802
 30
0.0
 10
149.1341478248519
 20
142.7827655982738
 30
0.0
 10
149.0445752831449
 20
142.9205695085923
 30
0.0
 10
148.9067713728265
 20
142.9894714637515
 30
0.0
 10
148.7207360938965
 20
142.9894714637515
 30
0.0
 10
148.5851714971207
 20
142.9894714637515
 30
0.0
 10
148.4577028800762
 20
142.9481302906559
 30
0.0
 10
148.3383302427628
 20
142.8654479444648
 30
0.0
 10
148.2189576054494
 20
142.7827655982738
 30
0.0
 10
148.1328301615004
 20
142.6614981571935
 30
0.0
 10
148.0799479109156
 20
142.5019901309999
 30
0.0
 10
148.0270656603309
 20
142.3424821048063
 30
0.0
 10
148.0007106624825
 20
142.0903009489235
 30
0.0
 10
148.0007106624825
 20
141.7457911731273
 30
0.0
 10
148.0007106624825
 20
141.7457911731273
 30
0.0
 10
148.0007106624825
 20
139.9887913165668
 30
0.0
 10
148.0007106624825
 20
139.9887913165668
 30
0.0
 10
148.0007106624825
 20
139.9887913165668
 30
0.0
 10
147.0326381924953
 20
139.9887913165668
 30
0.0
 10
147.0326381924953
 20
139.9887913165668
 30
0.0
 10
147.0326381924953
 20
139.9887913165668
 30
0.0
 10
147.0326381924953
 20
141.9938382117005
 30
0.0
 10
147.0326381924953
 20
141.9938382117005
 30
0.0
 10
147.0326381924953
 20
142.3500613198738
 30
0.0
 10
147.0154127037055
 20
142.579504830554
 30
0.0
 10
146.9809617261259
 20
142.6828577632929
 30
0.0
 10
146.9465107485463
 20
142.7862106960317
 30
0.0
 10
146.8931117332979
 20
142.8633808858101
 30
0.0
 10
146.8207646803807
 20
142.9136793130763
 30
0.0
 10
146.7484176274635
 20
142.9639777403426
 30
0.0
 10
146.6502323413616
 20
142.9894714637515
 30
0.0
 10
146.5262088220749
 20
142.9894714637515
 30
0.0
 10
146.3768638342673
 20
142.9894714637515
 30
0.0
 10
146.2425050217068
 20
142.9495083297591
 30
0.0
 10
146.1231323843934
 20
142.8688930422228
 30
0.0
 10
146.00375974708
 20
142.7882777546865
 30
0.0
 10
145.9181490677947
 20
142.672522470019
 30
0.0
 10
145.8664726014253
 20
142.5209381686687
 30
0.0
 10
145.8147961350558
 20
142.3693538673184
 30
0.0
 10
145.7889579018711
 20
142.1178617309872
 30
0.0
 10
145.7889579018711
 20
141.7664617596751
 30
0.0
 10
145.7889579018711
 20
141.7664617596751
 30
0.0
 10
145.7889579018711
 20
139.9887913165668
 30
0.0
 10
145.7889579018711
 20
139.9887913165668
 30
0.0
 10
145.7889579018711
 20
139.9887913165668
 30
0.0
 10
144.8208854318839
 20
139.9887913165668
 30
0.0
 10
144.8208854318839
 20
139.9887913165668
 30
0.0
 10
144.8208854318839
 20
139.9887913165668
 30
0.0
 10
144.8208854318839
 20
143.6474851355221
 30
0.0
 10
144.8208854318839
 20
143.6474851355221
 30
0.0
  0
HATCH
  5
214
330
20F
100
AcDbEntity
  8
POPIS_VODICU
 62
    98
100
AcDbHatch
 10
0.0
 20
0.0
 30
0.0
210
0.0
220
0.0
230
1.0
  2
SOLID
 70
     1
 71
     0
 91
        1
 92
        1
 93
        1
 72
     4
 94
        3
 73
     0
 74
     1
 95
       95
 96
       91
 40
0.0
 40
0.0
 40
0.0
 40
0.0
 40
1.0
 40
1.0
 40
1.0
 40
2.0
 40
2.0
 40
2.0
 40
3.0
 40
3.0
 40
3.0
 40
4.0
 40
4.0
 40
4.0
 40
5.0
 40
5.0
 40
5.0
 40
6.0
 40
6.0
 40
6.0
 40
7.0
 40
7.0
 40
7.0
 40
8.0
 40
8.0
 40
8.0
 40
9.0
 40
9.0
 40
9.0
 40
10.0
 40
10.0
 40
10.0
 40
11.0
 40
11.0
 40
11.0
 40
12.0
 40
12.0
 40
12.0
 40
13.0
 40
13.0
 40
13.0
 40
14.0
 40
14.0
 40
14.0
 40
15.0
 40
15.0
 40
15.0
 40
16.0
 40
16.0
 40
16.0
 40
17.0
 40
17.0
 40
17.0
 40
18.0
 40
18.0
 40
18.0
 40
19.0
 40
19.0
 40
19.0
 40
20.0
 40
20.0
 40
20.0
 40
21.0
 40
21.0
 40
21.0
 40
22.0
 40
22.0
 40
22.0
 40
23.0
 40
23.0
 40
23.0
 40
24.0
 40
24.0
 40
24.0
 40
25.0
 40
25.0
 40
25.0
 40
26.0
 40
26.0
 40
26.0
 40
27.0
 40
27.0
 40
27.0
 40
28.0
 40
28.0
 40
28.0
 40
29.0
 40
29.0
 40
29.0
 40
30.0
 40
30.0
 40
30.0
 40
30.0
 10
144.8208854318839
 20
143.6474851355221
 10
144.8208854318839
 20
143.6474851355221
 10
145.713165751196
 20
143.6474851355221
 10
145.713165751196
 20
143.6474851355221
 10
145.713165751196
 20
143.6474851355221
 10
145.713165751196
 20
143.1479459606177
 10
145.713165751196
 20
143.1479459606177
 10
146.0323540584711
 20
143.5358639681642
 10
146.4125205960622
 20
143.7301674817132
 10
146.8534931090813
 20
143.7301674817132
 10
147.0877597566227
 20
143.7301674817132
 10
147.2910205243424
 20
143.6819361131018
 10
147.4632754122405
 20
143.5854733758788
 10
147.6355303001386
 20
143.4890106386559
 10
147.776779308215
 20
143.3429384937183
 10
147.8870224364698
 20
143.1479459606177
 10
148.0477362468787
 20
143.3429384937183
 10
148.2211969189921
 20
143.4890106386559
 10
148.407232197922
 20
143.5854733758788
 10
148.593267476852
 20
143.6819361131018
 10
148.7918773625985
 20
143.7301674817132
 10
149.0032341100494
 20
143.7301674817132
 10
149.2719517351704
 20
143.7301674817132
 10
149.4993281871959
 20
143.6757349371374
 10
149.6853634661258
 20
143.5665253382101
 10
149.8713987450557
 20
143.4573157392827
 10
150.0104084395895
 20
143.2974632033132
 10
150.1022202948392
 20
143.0859342009744
 10
150.1688829364557
 20
142.9295267627629
 10
150.2021281298201
 20
142.6773456068802
 10
150.2021281298201
 20
142.3280126942228
 10
150.2021281298201
 20
142.3280126942228
 10
150.2021281298201
 20
139.9887913165668
 10
150.2021281298201
 20
139.9887913165668
 10
150.2021281298201
 20
139.9887913165668
 10
149.2340556598328
 20
139.9887913165668
 10
149.2340556598328
 20
139.9887913165668
 10
149.2340556598328
 20
139.9887913165668
 10
149.2340556598328
 20
142.0799656556496
 10
149.2340556598328
 20
142.0799656556496
 10
149.2340556598328
 20
142.4430789593387
 10
149.2008104664685
 20
142.6773456068802
 10
149.1341478248519
 20
142.7827655982738
 10
149.0445752831449
 20
142.9205695085923
 10
148.9067713728265
 20
142.9894714637515
 10
148.7207360938965
 20
142.9894714637515
 10
148.5851714971207
 20
142.9894714637515
 10
148.4577028800762
 20
142.9481302906559
 10
148.3383302427628
 20
142.8654479444648
 10
148.2189576054494
 20
142.7827655982738
 10
148.1328301615004
 20
142.6614981571935
 10
148.0799479109156
 20
142.5019901309999
 10
148.0270656603309
 20
142.3424821048063
 10
148.0007106624825
 20
142.0903009489235
 10
148.0007106624825
 20
141.7457911731273
 10
148.0007106624825
 20
141.7457911731273
 10
148.0007106624825
 20
139.9887913165668
 10
148.0007106624825
 20
139.9887913165668
 10
148.0007106624825
 20
139.9887913165668
 10
147.0326381924953
 20
139.9887913165668
 10
147.0326381924953
 20
139.9887913165668
 10
147.0326381924953
 20
139.9887913165668
 10
147.0326381924953
 20
141.9938382117005
 10
147.0326381924953
 20
141.9938382117005
 10
147.0326381924953
 20
142.3500613198738
 10
147.0154127037055
 20
142.579504830554
 10
146.9809617261259
 20
142.6828577632929
 10
146.9465107485463
 20
142.7862106960317
 10
146.8931117332979
 20
142.8633808858101
 10
146.8207646803807
 20
142.9136793130763
 10
146.7484176274635
 20
142.9639777403426
 10
146.6502323413616
 20
142.9894714637515
 10
146.5262088220749
 20
142.9894714637515
 10
146.3768638342673
 20
142.9894714637515
 10
146.2425050217068
 20
142.9495083297591
 10
146.1231323843934
 20
142.8688930422228
 10
146.00375974708
 20
142.7882777546865
 10
145.9181490677947
 20
142.672522470019
 10
145.8664726014253
 20
142.5209381686687
 10
145.8147961350558
 20
142.3693538673184
 10
145.7889579018711
 20
142.1178617309872
 10
145.7889579018711
 20
141.7664617596751
 10
145.7889579018711
 20
141.7664617596751
 10
145.7889579018711
 20
139.9887913165668
 10
145.7889579018711
 20
139.9887913165668
 10
145.7889579018711
 20
139.9887913165668
 10
144.8208854318839
 20
139.9887913165668
 10
144.8208854318839
 20
139.9887913165668
 10
144.8208854318839
 20
139.9887913165668
 10
144.8208854318839
 20
143.6474851355221
 10
144.8208854318839
 20
143.6474851355221
 97
        0
 75
     2
 76
     1
 98
        0
  0
SPLINE
  5
215
330
20F
100
AcDbEntity
  8
POPIS_VODICU
100
AcDbSpline
210
0.0
220
0.0
230
1.0
 70
    11
 71
     3
 72
    95
 73
    91
 74
     0
 42
0.0000000001
 43
0.0000000001
 40
0.0
 40
0.0
 40
0.0
 40
0.0
 40
1.0
 40
1.0
 40
1.0
 40
2.0
 40
2.0
 40
2.0
 40
3.0
 40
3.0
 40
3.0
 40
4.0
 40
4.0
 40
4.0
 40
5.0
 40
5.0
 40
5.0
 40
6.0
 40
6.0
 40
6.0
 40
7.0
 40
7.0
 40
7.0
 40
8.0
 40
8.0
 40
8.0
 40
9.0
 40
9.0
 40
9.0
 40
10.0
 40
10.0
 40
10.0
 40
11.0
 40
11.0
 40
11.0
 40
12.0
 40
12.0
 40
12.0
 40
13.0
 40
13.0
 40
13.0
 40
14.0
 40
14.0
 40
14.0
 40
15.0
 40
15.0
 40
15.0
 40
16.0
 40
16.0
 40
16.0
 40
17.0
 40
17.0
 40
17.0
 40
18.0
 40
18.0
 40
18.0
 40
19.0
 40
19.0
 40
19.0
 40
20.0
 40
20.0
 40
20.0
 40
21.0
 40
21.0
 40
21.0
 40
22.0
 40
22.0
 40
22.0
 40
23.0
 40
23.0
 40
23.0
 40
24.0
 40
24.0
 40
24.0
 40
25.0
 40
25.0
 40
25.0
 40
26.0
 40
26.0
 40
26.0
 40
27.0
 40
27.0
 40
27.0
 40
28.0
 40
28.0
 40
28.0
 40
29.0
 40
29.0
 40
29.0
 40
30.0
 40
30.0
 40
30.0
 40
30.0
 10
151.0944084491321
 20
143.6474851355221
 30
0.0
 10
151.0944084491321
 20
143.6474851355221
 30
0.0
 10
151.9866887684442
 20
143.6474851355221
 30
0.0
 10
151.9866887684442
 20
143.6474851355221
 30
0.0
 10
151.9866887684442
 20
143.6474851355221
 30
0.0
 10
151.9866887684442
 20
143.1479459606177
 30
0.0
 10
151.9866887684442
 20
143.1479459606177
 30
0.0
 10
152.3058770757194
 20
143.5358639681642
 30
0.0
 10
152.6860436133104
 20
143.7301674817132
 30
0.0
 10
153.1270161263296
 20
143.7301674817132
 30
0.0
 10
153.3612827738709
 20
143.7301674817132
 30
0.0
 10
153.5645435415907
 20
143.6819361131018
 30
0.0
 10
153.7367984294887
 20
143.5854733758788
 30
0.0
 10
153.9090533173868
 20
143.4890106386559
 30
0.0
 10
154.0503023254633
 20
143.3429384937183
 30
0.0
 10
154.160545453718
 20
143.1479459606177
 30
0.0
 10
154.321259264127
 20
143.3429384937183
 30
0.0
 10
154.4947199362403
 20
143.4890106386559
 30
0.0
 10
154.6807552151703
 20
143.5854733758788
 30
0.0
 10
154.8667904941002
 20
143.6819361131018
 30
0.0
 10
155.0654003798467
 20
143.7301674817132
 30
0.0
 10
155.2767571272976
 20
143.7301674817132
 30
0.0
 10
155.5454747524186
 20
143.7301674817132
 30
0.0
 10
155.7728512044441
 20
143.6757349371374
 30
0.0
 10
155.958886483374
 20
143.5665253382101
 30
0.0
 10
156.144921762304
 20
143.4573157392827
 30
0.0
 10
156.2839314568377
 20
143.2974632033132
 30
0.0
 10
156.3757433120874
 20
143.0859342009744
 30
0.0
 10
156.442405953704
 20
142.9295267627629
 30
0.0
 10
156.4756511470683
 20
142.6773456068802
 30
0.0
 10
156.4756511470683
 20
142.3280126942228
 30
0.0
 10
156.4756511470683
 20
142.3280126942228
 30
0.0
 10
156.4756511470683
 20
139.9887913165668
 30
0.0
 10
156.4756511470683
 20
139.9887913165668
 30
0.0
 10
156.4756511470683
 20
139.9887913165668
 30
0.0
 10
155.5075786770811
 20
139.9887913165668
 30
0.0
 10
155.5075786770811
 20
139.9887913165668
 30
0.0
 10
155.5075786770811
 20
139.9887913165668
 30
0.0
 10
155.5075786770811
 20
142.0799656556496
 30
0.0
 10
155.5075786770811
 20
142.0799656556496
 30
0.0
 10
155.5075786770811
 20
142.4430789593387
 30
0.0
 10
155.4743334837167
 20
142.6773456068802
 30
0.0
 10
155.4076708421002
 20
142.7827655982738
 30
0.0
 10
155.3180983003932
 20
142.9205695085923
 30
0.0
 10
155.1802943900747
 20
142.9894714637515
 30
0.0
 10
154.9942591111448
 20
142.9894714637515
 30
0.0
 10
154.858694514369
 20
142.9894714637515
 30
0.0
 10
154.7312258973244
 20
142.9481302906559
 30
0.0
 10
154.611853260011
 20
142.8654479444648
 30
0.0
 10
154.4924806226977
 20
142.7827655982738
 30
0.0
 10
154.4063531787486
 20
142.6614981571935
 30
0.0
 10
154.3534709281639
 20
142.5019901309999
 30
0.0
 10
154.3005886775792
 20
142.3424821048063
 30
0.0
 10
154.2742336797308
 20
142.0903009489235
 30
0.0
 10
154.2742336797308
 20
141.7457911731273
 30
0.0
 10
154.2742336797308
 20
141.7457911731273
 30
0.0
 10
154.2742336797308
 20
139.9887913165668
 30
0.0
 10
154.2742336797308
 20
139.9887913165668
 30
0.0
 10
154.2742336797308
 20
139.9887913165668
 30
0.0
 10
153.3061612097435
 20
139.9887913165668
 30
0.0
 10
153.3061612097435
 20
139.9887913165668
 30
0.0
 10
153.3061612097435
 20
139.9887913165668
 30
0.0
 10
153.3061612097435
 20
141.9938382117005
 30
0.0
 10
153.3061612097435
 20
141.9938382117005
 30
0.0
 10
153.3061612097435
 20
142.3500613198738
 30
0.0
 10
153.2889357209537
 20
142.579504830554
 30
0.0
 10
153.2544847433741
 20
142.6828577632929
 30
0.0
 10
153.2200337657945
 20
142.7862106960317
 30
0.0
 10
153.1666347505461
 20
142.8633808858101
 30
0.0
 10
153.0942876976289
 20
142.9136793130763
 30
0.0
 10
153.0219406447117
 20
142.9639777403426
 30
0.0
 10
152.9237553586098
 20
142.9894714637515
 30
0.0
 10
152.7997318393232
 20
142.9894714637515
 30
0.0
 10
152.6503868515155
 20
142.9894714637515
 30
0.0
 10
152.516028038955
 20
142.9495083297591
 30
0.0
 10
152.3966554016417
 20
142.8688930422228
 30
0.0
 10
152.2772827643283
 20
142.7882777546865
 30
0.0
 10
152.1916720850429
 20
142.672522470019
 30
0.0
 10
152.1399956186735
 20
142.5209381686687
 30
0.0
 10
152.0883191523041
 20
142.3693538673184
 30
0.0
 10
152.0624809191194
 20
142.1178617309872
 30
0.0
 10
152.0624809191194
 20
141.7664617596751
 30
0.0
 10
152.0624809191194
 20
141.7664617596751
 30
0.0
 10
152.0624809191194
 20
139.9887913165668
 30
0.0
 10
152.0624809191194
 20
139.9887913165668
 30
0.0
 10
152.0624809191194
 20
139.9887913165668
 30
0.0
 10
151.0944084491321
 20
139.9887913165668
 30
0.0
 10
151.0944084491321
 20
139.9887913165668
 30
0.0
 10
151.0944084491321
 20
139.9887913165668
 30
0.0
 10
151.0944084491321
 20
143.6474851355221
 30
0.0
 10
151.0944084491321
 20
143.6474851355221
 30
0.0
  0
HATCH
  5
216
330
20F
100
AcDbEntity
  8
POPIS_VODICU
 62
    98
100
AcDbHatch
 10
0.0
 20
0.0
 30
0.0
210
0.0
220
0.0
230
1.0
  2
SOLID
 70
     1
 71
     0
 91
        1
 92
        1
 93
        1
 72
     4
 94
        3
 73
     0
 74
     1
 95
       95
 96
       91
 40
0.0
 40
0.0
 40
0.0
 40
0.0
 40
1.0
 40
1.0
 40
1.0
 40
2.0
 40
2.0
 40
2.0
 40
3.0
 40
3.0
 40
3.0
 40
4.0
 40
4.0
 40
4.0
 40
5.0
 40
5.0
 40
5.0
 40
6.0
 40
6.0
 40
6.0
 40
7.0
 40
7.0
 40
7.0
 40
8.0
 40
8.0
 40
8.0
 40
9.0
 40
9.0
 40
9.0
 40
10.0
 40
10.0
 40
10.0
 40
11.0
 40
11.0
 40
11.0
 40
12.0
 40
12.0
 40
12.0
 40
13.0
 40
13.0
 40
13.0
 40
14.0
 40
14.0
 40
14.0
 40
15.0
 40
15.0
 40
15.0
 40
16.0
 40
16.0
 40
16.0
 40
17.0
 40
17.0
 40
17.0
 40
18.0
 40
18.0
 40
18.0
 40
19.0
 40
19.0
 40
19.0
 40
20.0
 40
20.0
 40
20.0
 40
21.0
 40
21.0
 40
21.0
 40
22.0
 40
22.0
 40
22.0
 40
23.0
 40
23.0
 40
23.0
 40
24.0
 40
24.0
 40
24.0
 40
25.0
 40
25.0
 40
25.0
 40
26.0
 40
26.0
 40
26.0
 40
27.0
 40
27.0
 40
27.0
 40
28.0
 40
28.0
 40
28.0
 40
29.0
 40
29.0
 40
29.0
 40
30.0
 40
30.0
 40
30.0
 40
30.0
 10
151.0944084491321
 20
143.6474851355221
 10
151.0944084491321
 20
143.6474851355221
 10
151.9866887684442
 20
143.6474851355221
 10
151.9866887684442
 20
143.6474851355221
 10
151.9866887684442
 20
143.6474851355221
 10
151.9866887684442
 20
143.1479459606177
 10
151.9866887684442
 20
143.1479459606177
 10
152.3058770757194
 20
143.5358639681642
 10
152.6860436133104
 20
143.7301674817132
 10
153.1270161263296
 20
143.7301674817132
 10
153.3612827738709
 20
143.7301674817132
 10
153.5645435415907
 20
143.6819361131018
 10
153.7367984294887
 20
143.5854733758788
 10
153.9090533173868
 20
143.4890106386559
 10
154.0503023254633
 20
143.3429384937183
 10
154.160545453718
 20
143.1479459606177
 10
154.321259264127
 20
143.3429384937183
 10
154.4947199362403
 20
143.4890106386559
 10
154.6807552151703
 20
143.5854733758788
 10
154.8667904941002
 20
143.6819361131018
 10
155.0654003798467
 20
143.7301674817132
 10
155.2767571272976
 20
143.7301674817132
 10
155.5454747524186
 20
143.7301674817132
 10
155.7728512044441
 20
143.6757349371374
 10
155.958886483374
 20
143.5665253382101
 10
156.144921762304
 20
143.4573157392827
 10
156.2839314568377
 20
143.2974632033132
 10
156.3757433120874
 20
143.0859342009744
 10
156.442405953704
 20
142.9295267627629
 10
156.4756511470683
 20
142.6773456068802
 10
156.4756511470683
 20
142.3280126942228
 10
156.4756511470683
 20
142.3280126942228
 10
156.4756511470683
 20
139.9887913165668
 10
156.4756511470683
 20
139.9887913165668
 10
156.4756511470683
 20
139.9887913165668
 10
155.5075786770811
 20
139.9887913165668
 10
155.5075786770811
 20
139.9887913165668
 10
155.5075786770811
 20
139.9887913165668
 10
155.5075786770811
 20
142.0799656556496
 10
155.5075786770811
 20
142.0799656556496
 10
155.5075786770811
 20
142.4430789593387
 10
155.4743334837167
 20
142.6773456068802
 10
155.4076708421002
 20
142.7827655982738
 10
155.3180983003932
 20
142.9205695085923
 10
155.1802943900747
 20
142.9894714637515
 10
154.9942591111448
 20
142.9894714637515
 10
154.858694514369
 20
142.9894714637515
 10
154.7312258973244
 20
142.9481302906559
 10
154.611853260011
 20
142.8654479444648
 10
154.4924806226977
 20
142.7827655982738
 10
154.4063531787486
 20
142.6614981571935
 10
154.3534709281639
 20
142.5019901309999
 10
154.3005886775792
 20
142.3424821048063
 10
154.2742336797308
 20
142.0903009489235
 10
154.2742336797308
 20
141.7457911731273
 10
154.2742336797308
 20
141.7457911731273
 10
154.2742336797308
 20
139.9887913165668
 10
154.2742336797308
 20
139.9887913165668
 10
154.2742336797308
 20
139.9887913165668
 10
153.3061612097435
 20
139.9887913165668
 10
153.3061612097435
 20
139.9887913165668
 10
153.3061612097435
 20
139.9887913165668
 10
153.3061612097435
 20
141.9938382117005
 10
153.3061612097435
 20
141.9938382117005
 10
153.3061612097435
 20
142.3500613198738
 10
153.2889357209537
 20
142.579504830554
 10
153.2544847433741
 20
142.6828577632929
 10
153.2200337657945
 20
142.7862106960317
 10
153.1666347505461
 20
142.8633808858101
 10
153.0942876976289
 20
142.9136793130763
 10
153.0219406447117
 20
142.9639777403426
 10
152.9237553586098
 20
142.9894714637515
 10
152.7997318393232
 20
142.9894714637515
 10
152.6503868515155
 20
142.9894714637515
 10
152.516028038955
 20
142.9495083297591
 10
152.3966554016417
 20
142.8688930422228
 10
152.2772827643283
 20
142.7882777546865
 10
152.1916720850429
 20
142.672522470019
 10
152.1399956186735
 20
142.5209381686687
 10
152.0883191523041
 20
142.3693538673184
 10
152.0624809191194
 20
142.1178617309872
 10
152.0624809191194
 20
141.7664617596751
 10
152.0624809191194
 20
141.7664617596751
 10
152.0624809191194
 20
139.9887913165668
 10
152.0624809191194
 20
139.9887913165668
 10
152.0624809191194
 20
139.9887913165668
 10
151.0944084491321
 20
139.9887913165668
 10
151.0944084491321
 20
139.9887913165668
 10
151.0944084491321
 20
139.9887913165668
 10
151.0944084491321
 20
143.6474851355221
 10
151.0944084491321
 20
143.6474851355221
 97
        0
 75
     2
 76
     1
 98
        0
  0
SPLINE
  5
217
330
20F
100
AcDbEntity
  8
POPIS_VODICU
100
AcDbSpline
210
0.0
220
0.0
230
1.0
 70
    11
 71
     3
 72
    68
 73
    64
 74
     0
 42
0.0000000001
 43
0.0000000001
 40
0.0
 40
0.0
 40
0.0
 40
0.0
 40
1.0
 40
1.0
 40
1.0
 40
2.0
 40
2.0
 40
2.0
 40
3.0
 40
3.0
 40
3.0
 40
4.0
 40
4.0
 40
4.0
 40
5.0
 40
5.0
 40
5.0
 40
6.0
 40
6.0
 40
6.0
 40
7.0
 40
7.0
 40
7.0
 40
8.0
 40
8.0
 40
8.0
 40
9.0
 40
9.0
 40
9.0
 40
10.0
 40
10.0
 40
10.0
 40
11.0
 40
11.0
 40
11.0
 40
12.0
 40
12.0
 40
12.0
 40
13.0
 40
13.0
 40
13.0
 40
14.0
 40
14.0
 40
14.0
 40
15.0
 40
15.0
 40
15.0
 40
16.0
 40
16.0
 40
16.0
 40
17.0
 40
17.0
 40
17.0
 40
18.0
 40
18.0
 40
18.0
 40
19.0
 40
19.0
 40
19.0
 40
20.0
 40
20.0
 40
20.0
 40
21.0
 40
21.0
 40
21.0
 40
21.0
 10
159.432234042951
 20
143.0876567498534
 30
0.0
 10
159.432234042951
 20
143.0876567498534
 30
0.0
 10
159.432234042951
 20
142.4582373894738
 30
0.0
 10
159.432234042951
 20
142.4582373894738
 30
0.0
 10
159.432234042951
 20
142.4582373894738
 30
0.0
 10
157.0568391388364
 20
142.4582373894738
 30
0.0
 10
157.0568391388364
 20
142.4582373894738
 30
0.0
 10
157.0825051171333
 20
142.6959491347731
 30
0.0
 10
157.1596753069116
 20
142.9216030379196
 30
0.0
 10
157.2883497081715
 20
143.1348545891375
 30
0.0
 10
157.4170241094313
 20
143.3477616305795
 30
0.0
 10
157.6709278141931
 20
143.6302596467324
 30
0.0
 10
158.0504053322326
 20
143.982348637596
 30
0.0
 10
158.3558132484759
 20
144.2669137124037
 30
0.0
 10
158.543226566509
 20
144.4598391868495
 30
0.0
 10
158.6123007765561
 20
144.5611250609336
 30
0.0
 10
158.705490670909
 20
144.7009960299068
 30
0.0
 10
158.7521717455294
 20
144.8394889597769
 30
0.0
 10
158.7521717455294
 20
144.9759148309922
 30
0.0
 10
158.7521717455294
 20
145.1268101127909
 30
0.0
 10
158.7115195919854
 20
145.24325441701
 30
0.0
 10
158.6303875397854
 20
145.3245587240979
 30
0.0
 10
158.5492554875854
 20
145.40551852141
 30
0.0
 10
158.4371175555638
 20
145.4461706749539
 30
0.0
 10
158.2939737437205
 20
145.4461706749539
 30
0.0
 10
158.1525524807562
 20
145.4461706749539
 30
0.0
 10
158.0398977840708
 20
145.403795972531
 30
0.0
 10
157.9563541634402
 20
145.3183575481336
 30
0.0
 10
157.8728105428097
 20
145.2329191237361
 30
0.0
 10
157.8245791741982
 20
145.0916701156597
 30
0.0
 10
157.8116600576058
 20
144.8939215043527
 30
0.0
 10
157.8116600576058
 20
144.8939215043527
 30
0.0
 10
157.1364208970454
 20
144.9614454204088
 30
0.0
 10
157.1364208970454
 20
144.9614454204088
 30
0.0
 10
157.1765562859256
 20
145.3342049978202
 30
0.0
 10
157.3028191187549
 20
145.6022336033896
 30
0.0
 10
157.5150371406453
 20
145.7644977077896
 30
0.0
 10
157.7272551625358
 20
145.9267618121896
 30
0.0
 10
157.9925276898988
 20
146.0080661192775
 30
0.0
 10
158.3108547227345
 20
146.0080661192775
 30
0.0
 10
158.6596708707281
 20
146.0080661192775
 30
0.0
 10
158.9339006522619
 20
145.9140149504852
 30
0.0
 10
159.1331995575599
 20
145.7259126129004
 30
0.0
 10
159.332498462858
 20
145.5378102753157
 30
0.0
 10
159.432234042951
 20
145.3038881375501
 30
0.0
 10
159.432234042951
 20
145.0241461996036
 30
0.0
 10
159.432234042951
 20
144.8649826831858
 30
0.0
 10
159.4036397315599
 20
144.7133983818355
 30
0.0
 10
159.3466233636657
 20
144.5693932955527
 30
0.0
 10
159.2896069957714
 20
144.4257327190457
 30
0.0
 10
159.1991731796249
 20
144.2751819470228
 30
0.0
 10
159.0753219152262
 20
144.1173964697081
 30
0.0
 10
158.9933285885867
 20
144.0126654978661
 30
0.0
 10
158.8453616398822
 20
143.862459235619
 30
0.0
 10
158.6315933240007
 20
143.6664331731909
 30
0.0
 10
158.4178250081192
 20
143.4704071107629
 30
0.0
 10
158.2822604113434
 20
143.340182415512
 30
0.0
 10
158.2252440434492
 20
143.2757590874381
 30
0.0
 10
158.1682276755549
 20
143.2113357593642
 30
0.0
 10
158.1218911107103
 20
143.1486349801693
 30
0.0
 10
158.0865788586912
 20
143.0876567498534
 30
0.0
 10
158.0865788586912
 20
143.0876567498534
 30
0.0
 10
159.432234042951
 20
143.0876567498534
 30
0.0
 10
159.432234042951
 20
143.0876567498534
 30
0.0
  0
HATCH
  5
218
330
20F
100
AcDbEntity
  8
POPIS_VODICU
 62
    98
100
AcDbHatch
 10
0.0
 20
0.0
 30
0.0
210
0.0
220
0.0
230
1.0
  2
SOLID
 70
     1
 71
     0
 91
        1
 92
        1
 93
        1
 72
     4
 94
        3
 73
     0
 74
     1
 95
       68
 96
       64
 40
0.0
 40
0.0
 40
0.0
 40
0.0
 40
1.0
 40
1.0
 40
1.0
 40
2.0
 40
2.0
 40
2.0
 40
3.0
 40
3.0
 40
3.0
 40
4.0
 40
4.0
 40
4.0
 40
5.0
 40
5.0
 40
5.0
 40
6.0
 40
6.0
 40
6.0
 40
7.0
 40
7.0
 40
7.0
 40
8.0
 40
8.0
 40
8.0
 40
9.0
 40
9.0
 40
9.0
 40
10.0
 40
10.0
 40
10.0
 40
11.0
 40
11.0
 40
11.0
 40
12.0
 40
12.0
 40
12.0
 40
13.0
 40
13.0
 40
13.0
 40
14.0
 40
14.0
 40
14.0
 40
15.0
 40
15.0
 40
15.0
 40
16.0
 40
16.0
 40
16.0
 40
17.0
 40
17.0
 40
17.0
 40
18.0
 40
18.0
 40
18.0
 40
19.0
 40
19.0
 40
19.0
 40
20.0
 40
20.0
 40
20.0
 40
21.0
 40
21.0
 40
21.0
 40
21.0
 10
159.432234042951
 20
143.0876567498534
 10
159.432234042951
 20
143.0876567498534
 10
159.432234042951
 20
142.4582373894738
 10
159.432234042951
 20
142.4582373894738
 10
159.432234042951
 20
142.4582373894738
 10
157.0568391388364
 20
142.4582373894738
 10
157.0568391388364
 20
142.4582373894738
 10
157.0825051171333
 20
142.6959491347731
 10
157.1596753069116
 20
142.9216030379196
 10
157.2883497081715
 20
143.1348545891375
 10
157.4170241094313
 20
143.3477616305795
 10
157.6709278141931
 20
143.6302596467324
 10
158.0504053322326
 20
143.982348637596
 10
158.3558132484759
 20
144.2669137124037
 10
158.543226566509
 20
144.4598391868495
 10
158.6123007765561
 20
144.5611250609336
 10
158.705490670909
 20
144.7009960299068
 10
158.7521717455294
 20
144.8394889597769
 10
158.7521717455294
 20
144.9759148309922
 10
158.7521717455294
 20
145.1268101127909
 10
158.7115195919854
 20
145.24325441701
 10
158.6303875397854
 20
145.3245587240979
 10
158.5492554875854
 20
145.40551852141
 10
158.4371175555638
 20
145.4461706749539
 10
158.2939737437205
 20
145.4461706749539
 10
158.1525524807562
 20
145.4461706749539
 10
158.0398977840708
 20
145.403795972531
 10
157.9563541634402
 20
145.3183575481336
 10
157.8728105428097
 20
145.2329191237361
 10
157.8245791741982
 20
145.0916701156597
 10
157.8116600576058
 20
144.8939215043527
 10
157.8116600576058
 20
144.8939215043527
 10
157.1364208970454
 20
144.9614454204088
 10
157.1364208970454
 20
144.9614454204088
 10
157.1765562859256
 20
145.3342049978202
 10
157.3028191187549
 20
145.6022336033896
 10
157.5150371406453
 20
145.7644977077896
 10
157.7272551625358
 20
145.9267618121896
 10
157.9925276898988
 20
146.0080661192775
 10
158.3108547227345
 20
146.0080661192775
 10
158.6596708707281
 20
146.0080661192775
 10
158.9339006522619
 20
145.9140149504852
 10
159.1331995575599
 20
145.7259126129004
 10
159.332498462858
 20
145.5378102753157
 10
159.432234042951
 20
145.3038881375501
 10
159.432234042951
 20
145.0241461996036
 10
159.432234042951
 20
144.8649826831858
 10
159.4036397315599
 20
144.7133983818355
 10
159.3466233636657
 20
144.5693932955527
 10
159.2896069957714
 20
144.4257327190457
 10
159.1991731796249
 20
144.2751819470228
 10
159.0753219152262
 20
144.1173964697081
 10
158.9933285885867
 20
144.0126654978661
 10
158.8453616398822
 20
143.862459235619
 10
158.6315933240007
 20
143.6664331731909
 10
158.4178250081192
 20
143.4704071107629
 10
158.2822604113434
 20
143.340182415512
 10
158.2252440434492
 20
143.2757590874381
 10
158.1682276755549
 20
143.2113357593642
 10
158.1218911107103
 20
143.1486349801693
 10
158.0865788586912
 20
143.0876567498534
 10
158.0865788586912
 20
143.0876567498534
 10
159.432234042951
 20
143.0876567498534
 10
159.432234042951
 20
143.0876567498534
 97
        0
 75
     2
 76
     1
 98
        0
  0
ENDBLK
  5
219
330
20F
100
AcDbEntity
  8
0
100
AcDbBlockEnd
  0
BLOCK
  5
22C
330
22B
100
AcDbEntity
  8
0
100
AcDbBlockBegin
  2
BLOCK_142
 70
     0
 10
0.0
 20
0.0
 30
0.0
  3
BLOCK_142
  1

  0
SPLINE
  5
22D
330
22B
100
AcDbEntity
  8
POPIS_VODICU
100
AcDbSpline
210
0.0
220
0.0
230
1.0
 70
    11
 71
     3
 72
    29
 73
    25
 74
     0
 42
0.0000000001
 43
0.0000000001
 40
0.0
 40
0.0
 40
0.0
 40
0.0
 40
1.0
 40
1.0
 40
1.0
 40
2.0
 40
2.0
 40
2.0
 40
3.0
 40
3.0
 40
3.0
 40
4.0
 40
4.0
 40
4.0
 40
5.0
 40
5.0
 40
5.0
 40
6.0
 40
6.0
 40
6.0
 40
7.0
 40
7.0
 40
7.0
 40
8.0
 40
8.0
 40
8.0
 40
8.0
 10
141.1721823964267
 20
288.4725046847156
 30
0.0
 10
141.1721823964267
 20
288.4725046847156
 30
0.0
 10
140.2041099264395
 20
288.4725046847156
 30
0.0
 10
140.2041099264395
 20
288.4725046847156
 30
0.0
 10
140.2041099264395
 20
288.4725046847156
 30
0.0
 10
140.2041099264395
 20
292.120863210397
 30
0.0
 10
140.2041099264395
 20
292.120863210397
 30
0.0
 10
139.8504706415847
 20
291.7901338256327
 30
0.0
 10
139.4336138128713
 20
291.5455318848174
 30
0.0
 10
138.9535394402994
 20
291.3870573879512
 30
0.0
 10
138.9535394402994
 20
291.3870573879512
 30
0.0
 10
138.9535394402994
 20
292.2655573162314
 30
0.0
 10
138.9535394402994
 20
292.2655573162314
 30
0.0
 10
139.2062373608458
 20
292.3482396624225
 30
0.0
 10
139.4806393972675
 20
292.5049916104098
 30
0.0
 10
139.7769178044522
 20
292.7358131601932
 30
0.0
 10
140.0731962116369
 20
292.9666347099766
 30
0.0
 10
140.2764569793567
 20
293.2358690997613
 30
0.0
 10
140.3867001076114
 20
293.5436885844352
 30
0.0
 10
140.3867001076114
 20
293.5436885844352
 30
0.0
 10
141.1721823964267
 20
293.5436885844352
 30
0.0
 10
141.1721823964267
 20
293.5436885844352
 30
0.0
 10
141.1721823964267
 20
293.5436885844352
 30
0.0
 10
141.1721823964267
 20
288.4725046847156
 30
0.0
 10
141.1721823964267
 20
288.4725046847156
 30
0.0
  0
HATCH
  5
22E
330
22B
100
AcDbEntity
  8
POPIS_VODICU
 62
    98
100
AcDbHatch
 10
0.0
 20
0.0
 30
0.0
210
0.0
220
0.0
230
1.0
  2
SOLID
 70
     1
 71
     0
 91
        1
 92
        1
 93
        1
 72
     4
 94
        3
 73
     0
 74
     1
 95
       29
 96
       25
 40
0.0
 40
0.0
 40
0.0
 40
0.0
 40
1.0
 40
1.0
 40
1.0
 40
2.0
 40
2.0
 40
2.0
 40
3.0
 40
3.0
 40
3.0
 40
4.0
 40
4.0
 40
4.0
 40
5.0
 40
5.0
 40
5.0
 40
6.0
 40
6.0
 40
6.0
 40
7.0
 40
7.0
 40
7.0
 40
8.0
 40
8.0
 40
8.0
 40
8.0
 10
141.1721823964267
 20
288.4725046847156
 10
141.1721823964267
 20
288.4725046847156
 10
140.2041099264395
 20
288.4725046847156
 10
140.2041099264395
 20
288.4725046847156
 10
140.2041099264395
 20
288.4725046847156
 10
140.2041099264395
 20
292.120863210397
 10
140.2041099264395
 20
292.120863210397
 10
139.8504706415847
 20
291.7901338256327
 10
139.4336138128713
 20
291.5455318848174
 10
138.9535394402994
 20
291.3870573879512
 10
138.9535394402994
 20
291.3870573879512
 10
138.9535394402994
 20
292.2655573162314
 10
138.9535394402994
 20
292.2655573162314
 10
139.2062373608458
 20
292.3482396624225
 10
139.4806393972675
 20
292.5049916104098
 10
139.7769178044522
 20
292.7358131601932
 10
140.0731962116369
 20
292.9666347099766
 10
140.2764569793567
 20
293.2358690997613
 10
140.3867001076114
 20
293.5436885844352
 10
140.3867001076114
 20
293.5436885844352
 10
141.1721823964267
 20
293.5436885844352
 10
141.1721823964267
 20
293.5436885844352
 10
141.1721823964267
 20
293.5436885844352
 10
141.1721823964267
 20
288.4725046847156
 10
141.1721823964267
 20
288.4725046847156
 97
        0
 75
     2
 76
     1
 98
        0
  0
SPLINE
  5
22F
330
22B
100
AcDbEntity
  8
POPIS_VODICU
100
AcDbSpline
210
0.0
220
0.0
230
1.0
 70
    11
 71
     3
 72
    95
 73
    91
 74
     0
 42
0.0000000001
 43
0.0000000001
 40
0.0
 40
0.0
 40
0.0
 40
0.0
 40
1.0
 40
1.0
 40
1.0
 40
2.0
 40
2.0
 40
2.0
 40
3.0
 40
3.0
 40
3.0
 40
4.0
 40
4.0
 40
4.0
 40
5.0
 40
5.0
 40
5.0
 40
6.0
 40
6.0
 40
6.0
 40
7.0
 40
7.0
 40
7.0
 40
8.0
 40
8.0
 40
8.0
 40
9.0
 40
9.0
 40
9.0
 40
10.0
 40
10.0
 40
10.0
 40
11.0
 40
11.0
 40
11.0
 40
12.0
 40
12.0
 40
12.0
 40
13.0
 40
13.0
 40
13.0
 40
14.0
 40
14.0
 40
14.0
 40
15.0
 40
15.0
 40
15.0
 40
16.0
 40
16.0
 40
16.0
 40
17.0
 40
17.0
 40
17.0
 40
18.0
 40
18.0
 40
18.0
 40
19.0
 40
19.0
 40
19.0
 40
20.0
 40
20.0
 40
20.0
 40
21.0
 40
21.0
 40
21.0
 40
22.0
 40
22.0
 40
22.0
 40
23.0
 40
23.0
 40
23.0
 40
24.0
 40
24.0
 40
24.0
 40
25.0
 40
25.0
 40
25.0
 40
26.0
 40
26.0
 40
26.0
 40
27.0
 40
27.0
 40
27.0
 40
28.0
 40
28.0
 40
28.0
 40
29.0
 40
29.0
 40
29.0
 40
30.0
 40
30.0
 40
30.0
 40
30.0
 10
144.7137428916113
 20
292.1311985036709
 30
0.0
 10
144.7137428916113
 20
292.1311985036709
 30
0.0
 10
145.6060232109234
 20
292.1311985036709
 30
0.0
 10
145.6060232109234
 20
292.1311985036709
 30
0.0
 10
145.6060232109234
 20
292.1311985036709
 30
0.0
 10
145.6060232109234
 20
291.6316593287665
 30
0.0
 10
145.6060232109234
 20
291.6316593287665
 30
0.0
 10
145.9252115181985
 20
292.0197495912009
 30
0.0
 10
146.3053780557896
 20
292.213880849862
 30
0.0
 10
146.7463505688087
 20
292.213880849862
 30
0.0
 10
146.9806172163501
 20
292.213880849862
 30
0.0
 10
147.1838779840698
 20
292.1656494812506
 30
0.0
 10
147.3561328719679
 20
292.0691867440276
 30
0.0
 10
147.528387759866
 20
291.9727240068047
 30
0.0
 10
147.6696367679424
 20
291.826824116755
 30
0.0
 10
147.7798798961972
 20
291.6316593287665
 30
0.0
 10
147.9405937066061
 20
291.826824116755
 30
0.0
 10
148.1140543787195
 20
291.9727240068047
 30
0.0
 10
148.3000896576494
 20
292.0691867440276
 30
0.0
 10
148.4861249365794
 20
292.1656494812506
 30
0.0
 10
148.6847348223259
 20
292.213880849862
 30
0.0
 10
148.8960915697768
 20
292.213880849862
 30
0.0
 10
149.1648091948978
 20
292.213880849862
 30
0.0
 10
149.3921856469233
 20
292.1592760503983
 30
0.0
 10
149.5782209258532
 20
292.0502387063588
 30
0.0
 10
149.7642562047831
 20
291.9412013623194
 30
0.0
 10
149.9032658993169
 20
291.7810043165741
 30
0.0
 10
149.9950777545666
 20
291.5696475691232
 30
0.0
 10
150.0617403961831
 20
291.4134123857996
 30
0.0
 10
150.0949855895475
 20
291.160886720141
 30
0.0
 10
150.0949855895475
 20
290.8117260623716
 30
0.0
 10
150.0949855895475
 20
290.8117260623716
 30
0.0
 10
150.0949855895475
 20
288.4725046847156
 30
0.0
 10
150.0949855895475
 20
288.4725046847156
 30
0.0
 10
150.0949855895475
 20
288.4725046847156
 30
0.0
 10
149.1269131195602
 20
288.4725046847156
 30
0.0
 10
149.1269131195602
 20
288.4725046847156
 30
0.0
 10
149.1269131195602
 20
288.4725046847156
 30
0.0
 10
149.1269131195602
 20
290.5636790237984
 30
0.0
 10
149.1269131195602
 20
290.5636790237984
 30
0.0
 10
149.1269131195602
 20
290.9266200725996
 30
0.0
 10
149.0936679261959
 20
291.160886720141
 30
0.0
 10
149.0270052845793
 20
291.2664789664225
 30
0.0
 10
148.9374327428723
 20
291.404282876741
 30
0.0
 10
148.7996288325539
 20
291.4731848319003
 30
0.0
 10
148.6135935536239
 20
291.4731848319003
 30
0.0
 10
148.4780289568481
 20
291.4731848319003
 30
0.0
 10
148.3505603398036
 20
291.4318436588047
 30
0.0
 10
148.2311877024902
 20
291.3491613126136
 30
0.0
 10
148.1118150651768
 20
291.2664789664225
 30
0.0
 10
148.0256876212278
 20
291.1453837802302
 30
0.0
 10
147.972805370643
 20
290.9857034991487
 30
0.0
 10
147.9199231200583
 20
290.8260232180671
 30
0.0
 10
147.8935681222099
 20
290.5740143170722
 30
0.0
 10
147.8935681222099
 20
290.2295045412761
 30
0.0
 10
147.8935681222099
 20
290.2295045412761
 30
0.0
 10
147.8935681222099
 20
288.4725046847156
 30
0.0
 10
147.8935681222099
 20
288.4725046847156
 30
0.0
 10
147.8935681222099
 20
288.4725046847156
 30
0.0
 10
146.9254956522227
 20
288.4725046847156
 30
0.0
 10
146.9254956522227
 20
288.4725046847156
 30
0.0
 10
146.9254956522227
 20
288.4725046847156
 30
0.0
 10
146.9254956522227
 20
290.4775515798493
 30
0.0
 10
146.9254956522227
 20
290.4775515798493
 30
0.0
 10
146.9254956522227
 20
290.8336024331347
 30
0.0
 10
146.9082701634329
 20
291.0632181987028
 30
0.0
 10
146.8738191858533
 20
291.1665711314416
 30
0.0
 10
146.8393682082737
 20
291.2699240641805
 30
0.0
 10
146.7859691930253
 20
291.346921999071
 30
0.0
 10
146.713622140108
 20
291.3973926812251
 30
0.0
 10
146.6412750871908
 20
291.4478633633792
 30
0.0
 10
146.543089801089
 20
291.4731848319003
 30
0.0
 10
146.4190662818023
 20
291.4731848319003
 30
0.0
 10
146.2697212939947
 20
291.4731848319003
 30
0.0
 10
146.1353624814342
 20
291.43304944302
 30
0.0
 10
146.0159898441208
 20
291.3526064103716
 30
0.0
 10
145.8966172068074
 20
291.2721633777232
 30
0.0
 10
145.8110065275221
 20
291.1562358381678
 30
0.0
 10
145.7593300611527
 20
291.0046515368174
 30
0.0
 10
145.7076535947832
 20
290.8530672354672
 30
0.0
 10
145.6818153615985
 20
290.6015750991359
 30
0.0
 10
145.6818153615985
 20
290.2501751278239
 30
0.0
 10
145.6818153615985
 20
290.2501751278239
 30
0.0
 10
145.6818153615985
 20
288.4725046847156
 30
0.0
 10
145.6818153615985
 20
288.4725046847156
 30
0.0
 10
145.6818153615985
 20
288.4725046847156
 30
0.0
 10
144.7137428916113
 20
288.4725046847156
 30
0.0
 10
144.7137428916113
 20
288.4725046847156
 30
0.0
 10
144.7137428916113
 20
288.4725046847156
 30
0.0
 10
144.7137428916113
 20
292.1311985036709
 30
0.0
 10
144.7137428916113
 20
292.1311985036709
 30
0.0
  0
HATCH
  5
230
330
22B
100
AcDbEntity
  8
POPIS_VODICU
 62
    98
100
AcDbHatch
 10
0.0
 20
0.0
 30
0.0
210
0.0
220
0.0
230
1.0
  2
SOLID
 70
     1
 71
     0
 91
        1
 92
        1
 93
        1
 72
     4
 94
        3
 73
     0
 74
     1
 95
       95
 96
       91
 40
0.0
 40
0.0
 40
0.0
 40
0.0
 40
1.0
 40
1.0
 40
1.0
 40
2.0
 40
2.0
 40
2.0
 40
3.0
 40
3.0
 40
3.0
 40
4.0
 40
4.0
 40
4.0
 40
5.0
 40
5.0
 40
5.0
 40
6.0
 40
6.0
 40
6.0
 40
7.0
 40
7.0
 40
7.0
 40
8.0
 40
8.0
 40
8.0
 40
9.0
 40
9.0
 40
9.0
 40
10.0
 40
10.0
 40
10.0
 40
11.0
 40
11.0
 40
11.0
 40
12.0
 40
12.0
 40
12.0
 40
13.0
 40
13.0
 40
13.0
 40
14.0
 40
14.0
 40
14.0
 40
15.0
 40
15.0
 40
15.0
 40
16.0
 40
16.0
 40
16.0
 40
17.0
 40
17.0
 40
17.0
 40
18.0
 40
18.0
 40
18.0
 40
19.0
 40
19.0
 40
19.0
 40
20.0
 40
20.0
 40
20.0
 40
21.0
 40
21.0
 40
21.0
 40
22.0
 40
22.0
 40
22.0
 40
23.0
 40
23.0
 40
23.0
 40
24.0
 40
24.0
 40
24.0
 40
25.0
 40
25.0
 40
25.0
 40
26.0
 40
26.0
 40
26.0
 40
27.0
 40
27.0
 40
27.0
 40
28.0
 40
28.0
 40
28.0
 40
29.0
 40
29.0
 40
29.0
 40
30.0
 40
30.0
 40
30.0
 40
30.0
 10
144.7137428916113
 20
292.1311985036709
 10
144.7137428916113
 20
292.1311985036709
 10
145.6060232109234
 20
292.1311985036709
 10
145.6060232109234
 20
292.1311985036709
 10
145.6060232109234
 20
292.1311985036709
 10
145.6060232109234
 20
291.6316593287665
 10
145.6060232109234
 20
291.6316593287665
 10
145.9252115181985
 20
292.0197495912009
 10
146.3053780557896
 20
292.213880849862
 10
146.7463505688087
 20
292.213880849862
 10
146.9806172163501
 20
292.213880849862
 10
147.1838779840698
 20
292.1656494812506
 10
147.3561328719679
 20
292.0691867440276
 10
147.528387759866
 20
291.9727240068047
 10
147.6696367679424
 20
291.826824116755
 10
147.7798798961972
 20
291.6316593287665
 10
147.9405937066061
 20
291.826824116755
 10
148.1140543787195
 20
291.9727240068047
 10
148.3000896576494
 20
292.0691867440276
 10
148.4861249365794
 20
292.1656494812506
 10
148.6847348223259
 20
292.213880849862
 10
148.8960915697768
 20
292.213880849862
 10
149.1648091948978
 20
292.213880849862
 10
149.3921856469233
 20
292.1592760503983
 10
149.5782209258532
 20
292.0502387063588
 10
149.7642562047831
 20
291.9412013623194
 10
149.9032658993169
 20
291.7810043165741
 10
149.9950777545666
 20
291.5696475691232
 10
150.0617403961831
 20
291.4134123857996
 10
150.0949855895475
 20
291.160886720141
 10
150.0949855895475
 20
290.8117260623716
 10
150.0949855895475
 20
290.8117260623716
 10
150.0949855895475
 20
288.4725046847156
 10
150.0949855895475
 20
288.4725046847156
 10
150.0949855895475
 20
288.4725046847156
 10
149.1269131195602
 20
288.4725046847156
 10
149.1269131195602
 20
288.4725046847156
 10
149.1269131195602
 20
288.4725046847156
 10
149.1269131195602
 20
290.5636790237984
 10
149.1269131195602
 20
290.5636790237984
 10
149.1269131195602
 20
290.9266200725996
 10
149.0936679261959
 20
291.160886720141
 10
149.0270052845793
 20
291.2664789664225
 10
148.9374327428723
 20
291.404282876741
 10
148.7996288325539
 20
291.4731848319003
 10
148.6135935536239
 20
291.4731848319003
 10
148.4780289568481
 20
291.4731848319003
 10
148.3505603398036
 20
291.4318436588047
 10
148.2311877024902
 20
291.3491613126136
 10
148.1118150651768
 20
291.2664789664225
 10
148.0256876212278
 20
291.1453837802302
 10
147.972805370643
 20
290.9857034991487
 10
147.9199231200583
 20
290.8260232180671
 10
147.8935681222099
 20
290.5740143170722
 10
147.8935681222099
 20
290.2295045412761
 10
147.8935681222099
 20
290.2295045412761
 10
147.8935681222099
 20
288.4725046847156
 10
147.8935681222099
 20
288.4725046847156
 10
147.8935681222099
 20
288.4725046847156
 10
146.9254956522227
 20
288.4725046847156
 10
146.9254956522227
 20
288.4725046847156
 10
146.9254956522227
 20
288.4725046847156
 10
146.9254956522227
 20
290.4775515798493
 10
146.9254956522227
 20
290.4775515798493
 10
146.9254956522227
 20
290.8336024331347
 10
146.9082701634329
 20
291.0632181987028
 10
146.8738191858533
 20
291.1665711314416
 10
146.8393682082737
 20
291.2699240641805
 10
146.7859691930253
 20
291.346921999071
 10
146.713622140108
 20
291.3973926812251
 10
146.6412750871908
 20
291.4478633633792
 10
146.543089801089
 20
291.4731848319003
 10
146.4190662818023
 20
291.4731848319003
 10
146.2697212939947
 20
291.4731848319003
 10
146.1353624814342
 20
291.43304944302
 10
146.0159898441208
 20
291.3526064103716
 10
145.8966172068074
 20
291.2721633777232
 10
145.8110065275221
 20
291.1562358381678
 10
145.7593300611527
 20
291.0046515368174
 10
145.7076535947832
 20
290.8530672354672
 10
145.6818153615985
 20
290.6015750991359
 10
145.6818153615985
 20
290.2501751278239
 10
145.6818153615985
 20
290.2501751278239
 10
145.6818153615985
 20
288.4725046847156
 10
145.6818153615985
 20
288.4725046847156
 10
145.6818153615985
 20
288.4725046847156
 10
144.7137428916113
 20
288.4725046847156
 10
144.7137428916113
 20
288.4725046847156
 10
144.7137428916113
 20
288.4725046847156
 10
144.7137428916113
 20
292.1311985036709
 10
144.7137428916113
 20
292.1311985036709
 97
        0
 75
     2
 76
     1
 98
        0
  0
SPLINE
  5
231
330
22B
100
AcDbEntity
  8
POPIS_VODICU
100
AcDbSpline
210
0.0
220
0.0
230
1.0
 70
    11
 71
     3
 72
    95
 73
    91
 74
     0
 42
0.0000000001
 43
0.0000000001
 40
0.0
 40
0.0
 40
0.0
 40
0.0
 40
1.0
 40
1.0
 40
1.0
 40
2.0
 40
2.0
 40
2.0
 40
3.0
 40
3.0
 40
3.0
 40
4.0
 40
4.0
 40
4.0
 40
5.0
 40
5.0
 40
5.0
 40
6.0
 40
6.0
 40
6.0
 40
7.0
 40
7.0
 40
7.0
 40
8.0
 40
8.0
 40
8.0
 40
9.0
 40
9.0
 40
9.0
 40
10.0
 40
10.0
 40
10.0
 40
11.0
 40
11.0
 40
11.0
 40
12.0
 40
12.0
 40
12.0
 40
13.0
 40
13.0
 40
13.0
 40
14.0
 40
14.0
 40
14.0
 40
15.0
 40
15.0
 40
15.0
 40
16.0
 40
16.0
 40
16.0
 40
17.0
 40
17.0
 40
17.0
 40
18.0
 40
18.0
 40
18.0
 40
19.0
 40
19.0
 40
19.0
 40
20.0
 40
20.0
 40
20.0
 40
21.0
 40
21.0
 40
21.0
 40
22.0
 40
22.0
 40
22.0
 40
23.0
 40
23.0
 40
23.0
 40
24.0
 40
24.0
 40
24.0
 40
25.0
 40
25.0
 40
25.0
 40
26.0
 40
26.0
 40
26.0
 40
27.0
 40
27.0
 40
27.0
 40
28.0
 40
28.0
 40
28.0
 40
29.0
 40
29.0
 40
29.0
 40
30.0
 40
30.0
 40
30.0
 40
30.0
 10
150.9872659088595
 20
292.1311985036709
 30
0.0
 10
150.9872659088595
 20
292.1311985036709
 30
0.0
 10
151.8795462281716
 20
292.1311985036709
 30
0.0
 10
151.8795462281716
 20
292.1311985036709
 30
0.0
 10
151.8795462281716
 20
292.1311985036709
 30
0.0
 10
151.8795462281716
 20
291.6316593287665
 30
0.0
 10
151.8795462281716
 20
291.6316593287665
 30
0.0
 10
152.1987345354468
 20
292.0197495912009
 30
0.0
 10
152.5789010730378
 20
292.213880849862
 30
0.0
 10
153.0198735860569
 20
292.213880849862
 30
0.0
 10
153.2541402335983
 20
292.213880849862
 30
0.0
 10
153.4574010013181
 20
292.1656494812506
 30
0.0
 10
153.6296558892161
 20
292.0691867440276
 30
0.0
 10
153.8019107771142
 20
291.9727240068047
 30
0.0
 10
153.9431597851907
 20
291.826824116755
 30
0.0
 10
154.0534029134454
 20
291.6316593287665
 30
0.0
 10
154.2141167238543
 20
291.826824116755
 30
0.0
 10
154.3875773959677
 20
291.9727240068047
 30
0.0
 10
154.5736126748976
 20
292.0691867440276
 30
0.0
 10
154.7596479538276
 20
292.1656494812506
 30
0.0
 10
154.9582578395741
 20
292.213880849862
 30
0.0
 10
155.169614587025
 20
292.213880849862
 30
0.0
 10
155.438332212146
 20
292.213880849862
 30
0.0
 10
155.6657086641715
 20
292.1592760503983
 30
0.0
 10
155.8517439431014
 20
292.0502387063588
 30
0.0
 10
156.0377792220314
 20
291.9412013623194
 30
0.0
 10
156.1767889165651
 20
291.7810043165741
 30
0.0
 10
156.2686007718148
 20
291.5696475691232
 30
0.0
 10
156.3352634134314
 20
291.4134123857996
 30
0.0
 10
156.3685086067957
 20
291.160886720141
 30
0.0
 10
156.3685086067957
 20
290.8117260623716
 30
0.0
 10
156.3685086067957
 20
290.8117260623716
 30
0.0
 10
156.3685086067957
 20
288.4725046847156
 30
0.0
 10
156.3685086067957
 20
288.4725046847156
 30
0.0
 10
156.3685086067957
 20
288.4725046847156
 30
0.0
 10
155.4004361368085
 20
288.4725046847156
 30
0.0
 10
155.4004361368085
 20
288.4725046847156
 30
0.0
 10
155.4004361368085
 20
288.4725046847156
 30
0.0
 10
155.4004361368085
 20
290.5636790237984
 30
0.0
 10
155.4004361368085
 20
290.5636790237984
 30
0.0
 10
155.4004361368085
 20
290.9266200725996
 30
0.0
 10
155.3671909434441
 20
291.160886720141
 30
0.0
 10
155.3005283018276
 20
291.2664789664225
 30
0.0
 10
155.2109557601206
 20
291.404282876741
 30
0.0
 10
155.0731518498021
 20
291.4731848319003
 30
0.0
 10
154.8871165708722
 20
291.4731848319003
 30
0.0
 10
154.7515519740964
 20
291.4731848319003
 30
0.0
 10
154.6240833570518
 20
291.4318436588047
 30
0.0
 10
154.5047107197384
 20
291.3491613126136
 30
0.0
 10
154.3853380824251
 20
291.2664789664225
 30
0.0
 10
154.299210638476
 20
291.1453837802302
 30
0.0
 10
154.2463283878913
 20
290.9857034991487
 30
0.0
 10
154.1934461373066
 20
290.8260232180671
 30
0.0
 10
154.1670911394582
 20
290.5740143170722
 30
0.0
 10
154.1670911394582
 20
290.2295045412761
 30
0.0
 10
154.1670911394582
 20
290.2295045412761
 30
0.0
 10
154.1670911394582
 20
288.4725046847156
 30
0.0
 10
154.1670911394582
 20
288.4725046847156
 30
0.0
 10
154.1670911394582
 20
288.4725046847156
 30
0.0
 10
153.1990186694709
 20
288.4725046847156
 30
0.0
 10
153.1990186694709
 20
288.4725046847156
 30
0.0
 10
153.1990186694709
 20
288.4725046847156
 30
0.0
 10
153.1990186694709
 20
290.4775515798493
 30
0.0
 10
153.1990186694709
 20
290.4775515798493
 30
0.0
 10
153.1990186694709
 20
290.8336024331347
 30
0.0
 10
153.1817931806811
 20
291.0632181987028
 30
0.0
 10
153.1473422031015
 20
291.1665711314416
 30
0.0
 10
153.1128912255219
 20
291.2699240641805
 30
0.0
 10
153.0594922102735
 20
291.346921999071
 30
0.0
 10
152.9871451573563
 20
291.3973926812251
 30
0.0
 10
152.9147981044391
 20
291.4478633633792
 30
0.0
 10
152.8166128183372
 20
291.4731848319003
 30
0.0
 10
152.6925892990506
 20
291.4731848319003
 30
0.0
 10
152.5432443112429
 20
291.4731848319003
 30
0.0
 10
152.4088854986824
 20
291.43304944302
 30
0.0
 10
152.289512861369
 20
291.3526064103716
 30
0.0
 10
152.1701402240557
 20
291.2721633777232
 30
0.0
 10
152.0845295447703
 20
291.1562358381678
 30
0.0
 10
152.0328530784009
 20
291.0046515368174
 30
0.0
 10
151.9811766120315
 20
290.8530672354672
 30
0.0
 10
151.9553383788468
 20
290.6015750991359
 30
0.0
 10
151.9553383788468
 20
290.2501751278239
 30
0.0
 10
151.9553383788468
 20
290.2501751278239
 30
0.0
 10
151.9553383788468
 20
288.4725046847156
 30
0.0
 10
151.9553383788468
 20
288.4725046847156
 30
0.0
 10
151.9553383788468
 20
288.4725046847156
 30
0.0
 10
150.9872659088595
 20
288.4725046847156
 30
0.0
 10
150.9872659088595
 20
288.4725046847156
 30
0.0
 10
150.9872659088595
 20
288.4725046847156
 30
0.0
 10
150.9872659088595
 20
292.1311985036709
 30
0.0
 10
150.9872659088595
 20
292.1311985036709
 30
0.0
  0
HATCH
  5
232
330
22B
100
AcDbEntity
  8
POPIS_VODICU
 62
    98
100
AcDbHatch
 10
0.0
 20
0.0
 30
0.0
210
0.0
220
0.0
230
1.0
  2
SOLID
 70
     1
 71
     0
 91
        1
 92
        1
 93
        1
 72
     4
 94
        3
 73
     0
 74
     1
 95
       95
 96
       91
 40
0.0
 40
0.0
 40
0.0
 40
0.0
 40
1.0
 40
1.0
 40
1.0
 40
2.0
 40
2.0
 40
2.0
 40
3.0
 40
3.0
 40
3.0
 40
4.0
 40
4.0
 40
4.0
 40
5.0
 40
5.0
 40
5.0
 40
6.0
 40
6.0
 40
6.0
 40
7.0
 40
7.0
 40
7.0
 40
8.0
 40
8.0
 40
8.0
 40
9.0
 40
9.0
 40
9.0
 40
10.0
 40
10.0
 40
10.0
 40
11.0
 40
11.0
 40
11.0
 40
12.0
 40
12.0
 40
12.0
 40
13.0
 40
13.0
 40
13.0
 40
14.0
 40
14.0
 40
14.0
 40
15.0
 40
15.0
 40
15.0
 40
16.0
 40
16.0
 40
16.0
 40
17.0
 40
17.0
 40
17.0
 40
18.0
 40
18.0
 40
18.0
 40
19.0
 40
19.0
 40
19.0
 40
20.0
 40
20.0
 40
20.0
 40
21.0
 40
21.0
 40
21.0
 40
22.0
 40
22.0
 40
22.0
 40
23.0
 40
23.0
 40
23.0
 40
24.0
 40
24.0
 40
24.0
 40
25.0
 40
25.0
 40
25.0
 40
26.0
 40
26.0
 40
26.0
 40
27.0
 40
27.0
 40
27.0
 40
28.0
 40
28.0
 40
28.0
 40
29.0
 40
29.0
 40
29.0
 40
30.0
 40
30.0
 40
30.0
 40
30.0
 10
150.9872659088595
 20
292.1311985036709
 10
150.9872659088595
 20
292.1311985036709
 10
151.8795462281716
 20
292.1311985036709
 10
151.8795462281716
 20
292.1311985036709
 10
151.8795462281716
 20
292.1311985036709
 10
151.8795462281716
 20
291.6316593287665
 10
151.8795462281716
 20
291.6316593287665
 10
152.1987345354468
 20
292.0197495912009
 10
152.5789010730378
 20
292.213880849862
 10
153.0198735860569
 20
292.213880849862
 10
153.2541402335983
 20
292.213880849862
 10
153.4574010013181
 20
292.1656494812506
 10
153.6296558892161
 20
292.0691867440276
 10
153.8019107771142
 20
291.9727240068047
 10
153.9431597851907
 20
291.826824116755
 10
154.0534029134454
 20
291.6316593287665
 10
154.2141167238543
 20
291.826824116755
 10
154.3875773959677
 20
291.9727240068047
 10
154.5736126748976
 20
292.0691867440276
 10
154.7596479538276
 20
292.1656494812506
 10
154.9582578395741
 20
292.213880849862
 10
155.169614587025
 20
292.213880849862
 10
155.438332212146
 20
292.213880849862
 10
155.6657086641715
 20
292.1592760503983
 10
155.8517439431014
 20
292.0502387063588
 10
156.0377792220314
 20
291.9412013623194
 10
156.1767889165651
 20
291.7810043165741
 10
156.2686007718148
 20
291.5696475691232
 10
156.3352634134314
 20
291.4134123857996
 10
156.3685086067957
 20
291.160886720141
 10
156.3685086067957
 20
290.8117260623716
 10
156.3685086067957
 20
290.8117260623716
 10
156.3685086067957
 20
288.4725046847156
 10
156.3685086067957
 20
288.4725046847156
 10
156.3685086067957
 20
288.4725046847156
 10
155.4004361368085
 20
288.4725046847156
 10
155.4004361368085
 20
288.4725046847156
 10
155.4004361368085
 20
288.4725046847156
 10
155.4004361368085
 20
290.5636790237984
 10
155.4004361368085
 20
290.5636790237984
 10
155.4004361368085
 20
290.9266200725996
 10
155.3671909434441
 20
291.160886720141
 10
155.3005283018276
 20
291.2664789664225
 10
155.2109557601206
 20
291.404282876741
 10
155.0731518498021
 20
291.4731848319003
 10
154.8871165708722
 20
291.4731848319003
 10
154.7515519740964
 20
291.4731848319003
 10
154.6240833570518
 20
291.4318436588047
 10
154.5047107197384
 20
291.3491613126136
 10
154.3853380824251
 20
291.2664789664225
 10
154.299210638476
 20
291.1453837802302
 10
154.2463283878913
 20
290.9857034991487
 10
154.1934461373066
 20
290.8260232180671
 10
154.1670911394582
 20
290.5740143170722
 10
154.1670911394582
 20
290.2295045412761
 10
154.1670911394582
 20
290.2295045412761
 10
154.1670911394582
 20
288.4725046847156
 10
154.1670911394582
 20
288.4725046847156
 10
154.1670911394582
 20
288.4725046847156
 10
153.1990186694709
 20
288.4725046847156
 10
153.1990186694709
 20
288.4725046847156
 10
153.1990186694709
 20
288.4725046847156
 10
153.1990186694709
 20
290.4775515798493
 10
153.1990186694709
 20
290.4775515798493
 10
153.1990186694709
 20
290.8336024331347
 10
153.1817931806811
 20
291.0632181987028
 10
153.1473422031015
 20
291.1665711314416
 10
153.1128912255219
 20
291.2699240641805
 10
153.0594922102735
 20
291.346921999071
 10
152.9871451573563
 20
291.3973926812251
 10
152.9147981044391
 20
291.4478633633792
 10
152.8166128183372
 20
291.4731848319003
 10
152.6925892990506
 20
291.4731848319003
 10
152.5432443112429
 20
291.4731848319003
 10
152.4088854986824
 20
291.43304944302
 10
152.289512861369
 20
291.3526064103716
 10
152.1701402240557
 20
291.2721633777232
 10
152.0845295447703
 20
291.1562358381678
 10
152.0328530784009
 20
291.0046515368174
 10
151.9811766120315
 20
290.8530672354672
 10
151.9553383788468
 20
290.6015750991359
 10
151.9553383788468
 20
290.2501751278239
 10
151.9553383788468
 20
290.2501751278239
 10
151.9553383788468
 20
288.4725046847156
 10
151.9553383788468
 20
288.4725046847156
 10
151.9553383788468
 20
288.4725046847156
 10
150.9872659088595
 20
288.4725046847156
 10
150.9872659088595
 20
288.4725046847156
 10
150.9872659088595
 20
288.4725046847156
 10
150.9872659088595
 20
292.1311985036709
 10
150.9872659088595
 20
292.1311985036709
 97
        0
 75
     2
 76
     1
 98
        0
  0
SPLINE
  5
233
330
22B
100
AcDbEntity
  8
POPIS_VODICU
100
AcDbSpline
210
0.0
220
0.0
230
1.0
 70
    11
 71
     3
 72
    68
 73
    64
 74
     0
 42
0.0000000001
 43
0.0000000001
 40
0.0
 40
0.0
 40
0.0
 40
0.0
 40
1.0
 40
1.0
 40
1.0
 40
2.0
 40
2.0
 40
2.0
 40
3.0
 40
3.0
 40
3.0
 40
4.0
 40
4.0
 40
4.0
 40
5.0
 40
5.0
 40
5.0
 40
6.0
 40
6.0
 40
6.0
 40
7.0
 40
7.0
 40
7.0
 40
8.0
 40
8.0
 40
8.0
 40
9.0
 40
9.0
 40
9.0
 40
10.0
 40
10.0
 40
10.0
 40
11.0
 40
11.0
 40
11.0
 40
12.0
 40
12.0
 40
12.0
 40
13.0
 40
13.0
 40
13.0
 40
14.0
 40
14.0
 40
14.0
 40
15.0
 40
15.0
 40
15.0
 40
16.0
 40
16.0
 40
16.0
 40
17.0
 40
17.0
 40
17.0
 40
18.0
 40
18.0
 40
18.0
 40
19.0
 40
19.0
 40
19.0
 40
20.0
 40
20.0
 40
20.0
 40
21.0
 40
21.0
 40
21.0
 40
21.0
 10
159.3250915026784
 20
291.5713701180022
 30
0.0
 10
159.3250915026784
 20
291.5713701180022
 30
0.0
 10
159.3250915026784
 20
290.9419507576226
 30
0.0
 10
159.3250915026784
 20
290.9419507576226
 30
0.0
 10
159.3250915026784
 20
290.9419507576226
 30
0.0
 10
156.9496965985638
 20
290.9419507576226
 30
0.0
 10
156.9496965985638
 20
290.9419507576226
 30
0.0
 10
156.9753625768606
 20
291.1798347578098
 30
0.0
 10
157.052532766639
 20
291.4053164060684
 30
0.0
 10
157.1812071678989
 20
291.6183957023983
 30
0.0
 10
157.3098815691587
 20
291.8314749987283
 30
0.0
 10
157.5637852739205
 20
292.1139730148811
 30
0.0
 10
157.94326279196
 20
292.4660620057448
 30
0.0
 10
158.2486707082033
 20
292.7506270805524
 30
0.0
 10
158.4360840262364
 20
292.9435525549983
 30
0.0
 10
158.5051582362835
 20
293.0448384290823
 30
0.0
 10
158.5983481306364
 20
293.1847093980556
 30
0.0
 10
158.6450292052568
 20
293.3230300730378
 30
0.0
 10
158.6450292052568
 20
293.459628199141
 30
0.0
 10
158.6450292052568
 20
293.6106957358276
 30
0.0
 10
158.6043770517128
 20
293.7269677851588
 30
0.0
 10
158.5232449995128
 20
293.8080998373588
 30
0.0
 10
158.4421129473128
 20
293.8892318895588
 30
0.0
 10
158.3299750152912
 20
293.9298840431027
 30
0.0
 10
158.1868312034479
 20
293.9298840431027
 30
0.0
 10
158.0454099404836
 20
293.9298840431027
 30
0.0
 10
157.9327552437982
 20
293.8873370857919
 30
0.0
 10
157.8492116231676
 20
293.8020709162823
 30
0.0
 10
157.765668002537
 20
293.7168047467728
 30
0.0
 10
157.7174366339256
 20
293.5753834838085
 30
0.0
 10
157.7045175173332
 20
293.3776348725015
 30
0.0
 10
157.7045175173332
 20
293.3776348725015
 30
0.0
 10
157.0292783567727
 20
293.4451587885575
 30
0.0
 10
157.0292783567727
 20
293.4451587885575
 30
0.0
 10
157.069413745653
 20
293.8180906208569
 30
0.0
 10
157.1956765784823
 20
294.0857747166505
 30
0.0
 10
157.4078946003727
 20
294.2482110759384
 30
0.0
 10
157.6201126222632
 20
294.4106474352263
 30
0.0
 10
157.8853851496262
 20
294.4917794874263
 30
0.0
 10
158.2037121824619
 20
294.4917794874263
 30
0.0
 10
158.5525283304555
 20
294.4917794874263
 30
0.0
 10
158.8267581119892
 20
294.3977283186339
 30
0.0
 10
159.0260570172873
 20
294.2096259810492
 30
0.0
 10
159.2253559225854
 20
294.0215236434645
 30
0.0
 10
159.3250915026784
 20
293.7876015056989
 30
0.0
 10
159.3250915026784
 20
293.5078595677524
 30
0.0
 10
159.3250915026784
 20
293.3486960513346
 30
0.0
 10
159.2964971912873
 20
293.1971117499843
 30
0.0
 10
159.2394808233931
 20
293.0532789185894
 30
0.0
 10
159.1824644554988
 20
292.9094460871945
 30
0.0
 10
159.0920306393523
 20
292.7587230602837
 30
0.0
 10
158.9681793749536
 20
292.6011098378569
 30
0.0
 10
158.8861860483141
 20
292.4965511209028
 30
0.0
 10
158.7382190996096
 20
292.3463448586556
 30
0.0
 10
158.5244507837281
 20
292.1501465413397
 30
0.0
 10
158.3106824678466
 20
291.9539482240238
 30
0.0
 10
158.1751178710708
 20
291.8237235287729
 30
0.0
 10
158.1181015031765
 20
291.7594724555869
 30
0.0
 10
158.0610851352823
 20
291.6952213824009
 30
0.0
 10
158.0147485704377
 20
291.632520603206
 30
0.0
 10
157.9794363184186
 20
291.5713701180022
 30
0.0
 10
157.9794363184186
 20
291.5713701180022
 30
0.0
 10
159.3250915026784
 20
291.5713701180022
 30
0.0
 10
159.3250915026784
 20
291.5713701180022
 30
0.0
  0
HATCH
  5
234
330
22B
100
AcDbEntity
  8
POPIS_VODICU
 62
    98
100
AcDbHatch
 10
0.0
 20
0.0
 30
0.0
210
0.0
220
0.0
230
1.0
  2
SOLID
 70
     1
 71
     0
 91
        1
 92
        1
 93
        1
 72
     4
 94
        3
 73
     0
 74
     1
 95
       68
 96
       64
 40
0.0
 40
0.0
 40
0.0
 40
0.0
 40
1.0
 40
1.0
 40
1.0
 40
2.0
 40
2.0
 40
2.0
 40
3.0
 40
3.0
 40
3.0
 40
4.0
 40
4.0
 40
4.0
 40
5.0
 40
5.0
 40
5.0
 40
6.0
 40
6.0
 40
6.0
 40
7.0
 40
7.0
 40
7.0
 40
8.0
 40
8.0
 40
8.0
 40
9.0
 40
9.0
 40
9.0
 40
10.0
 40
10.0
 40
10.0
 40
11.0
 40
11.0
 40
11.0
 40
12.0
 40
12.0
 40
12.0
 40
13.0
 40
13.0
 40
13.0
 40
14.0
 40
14.0
 40
14.0
 40
15.0
 40
15.0
 40
15.0
 40
16.0
 40
16.0
 40
16.0
 40
17.0
 40
17.0
 40
17.0
 40
18.0
 40
18.0
 40
18.0
 40
19.0
 40
19.0
 40
19.0
 40
20.0
 40
20.0
 40
20.0
 40
21.0
 40
21.0
 40
21.0
 40
21.0
 10
159.3250915026784
 20
291.5713701180022
 10
159.3250915026784
 20
291.5713701180022
 10
159.3250915026784
 20
290.9419507576226
 10
159.3250915026784
 20
290.9419507576226
 10
159.3250915026784
 20
290.9419507576226
 10
156.9496965985638
 20
290.9419507576226
 10
156.9496965985638
 20
290.9419507576226
 10
156.9753625768606
 20
291.1798347578098
 10
157.052532766639
 20
291.4053164060684
 10
157.1812071678989
 20
291.6183957023983
 10
157.3098815691587
 20
291.8314749987283
 10
157.5637852739205
 20
292.1139730148811
 10
157.94326279196
 20
292.4660620057448
 10
158.2486707082033
 20
292.7506270805524
 10
158.4360840262364
 20
292.9435525549983
 10
158.5051582362835
 20
293.0448384290823
 10
158.5983481306364
 20
293.1847093980556
 10
158.6450292052568
 20
293.3230300730378
 10
158.6450292052568
 20
293.459628199141
 10
158.6450292052568
 20
293.6106957358276
 10
158.6043770517128
 20
293.7269677851588
 10
158.5232449995128
 20
293.8080998373588
 10
158.4421129473128
 20
293.8892318895588
 10
158.3299750152912
 20
293.9298840431027
 10
158.1868312034479
 20
293.9298840431027
 10
158.0454099404836
 20
293.9298840431027
 10
157.9327552437982
 20
293.8873370857919
 10
157.8492116231676
 20
293.8020709162823
 10
157.765668002537
 20
293.7168047467728
 10
157.7174366339256
 20
293.5753834838085
 10
157.7045175173332
 20
293.3776348725015
 10
157.7045175173332
 20
293.3776348725015
 10
157.0292783567727
 20
293.4451587885575
 10
157.0292783567727
 20
293.4451587885575
 10
157.069413745653
 20
293.8180906208569
 10
157.1956765784823
 20
294.0857747166505
 10
157.4078946003727
 20
294.2482110759384
 10
157.6201126222632
 20
294.4106474352263
 10
157.8853851496262
 20
294.4917794874263
 10
158.2037121824619
 20
294.4917794874263
 10
158.5525283304555
 20
294.4917794874263
 10
158.8267581119892
 20
294.3977283186339
 10
159.0260570172873
 20
294.2096259810492
 10
159.2253559225854
 20
294.0215236434645
 10
159.3250915026784
 20
293.7876015056989
 10
159.3250915026784
 20
293.5078595677524
 10
159.3250915026784
 20
293.3486960513346
 10
159.2964971912873
 20
293.1971117499843
 10
159.2394808233931
 20
293.0532789185894
 10
159.1824644554988
 20
292.9094460871945
 10
159.0920306393523
 20
292.7587230602837
 10
158.9681793749536
 20
292.6011098378569
 10
158.8861860483141
 20
292.4965511209028
 10
158.7382190996096
 20
292.3463448586556
 10
158.5244507837281
 20
292.1501465413397
 10
158.3106824678466
 20
291.9539482240238
 10
158.1751178710708
 20
291.8237235287729
 10
158.1181015031765
 20
291.7594724555869
 10
158.0610851352823
 20
291.6952213824009
 10
158.0147485704377
 20
291.632520603206
 10
157.9794363184186
 20
291.5713701180022
 10
157.9794363184186
 20
291.5713701180022
 10
159.3250915026784
 20
291.5713701180022
 10
159.3250915026784
 20
291.5713701180022
 97
        0
 75
     2
 76
     1
 98
        0
  0
ENDBLK
  5
235
330
22B
100
AcDbEntity
  8
0
100
AcDbBlockEnd
  0
BLOCK
  5
369
330
337
100
AcDbEntity
  8
0
100
AcDbBlockBegin
  2
*D8
 70
     1
 10
0.0
 20
0.0
 30
0.0
  3
*D8
  1

  0
LINE
  5
338
330
337
100
AcDbEntity
  8
KOTY
 62
     0
100
AcDbLine
 10
262.496861976111
 20
183.0985453386732
 30
0.0
 11
262.496861976111
 21
222.9948529342228
 31
0.0
  0
LINE
  5
339
330
337
100
AcDbEntity
  8
KOTY
 62
     0
100
AcDbLine
 10
283.7968678842608
 20
183.2177457210987
 30
0.0
 11
283.7968678842608
 21
222.9948529342228
 31
0.0
  0
LINE
  5
33A
330
337
100
AcDbEntity
  8
KOTY
 62
     0
100
AcDbLine
 10
266.496861976111
 20
222.8148529342228
 30
0.0
 11
279.7968678842608
 21
222.8148529342228
 31
0.0
  0
SOLID
  5
33B
330
337
100
AcDbEntity
  8
KOTY
 62
     0
100
AcDbTrace
 10
266.496861976111
 20
223.4815196008895
 30
0.0
 11
266.496861976111
 21
222.1481862675562
 31
0.0
 12
262.496861976111
 22
222.8148529342228
 32
0.0
 13
262.496861976111
 23
222.8148529342228
 33
0.0
  0
SOLID
  5
33C
330
337
100
AcDbEntity
  8
KOTY
 62
     0
100
AcDbTrace
 10
279.7968678842608
 20
222.1481862675562
 30
0.0
 11
279.7968678842608
 21
223.4815196008895
 31
0.0
 12
283.7968678842608
 22
222.8148529342228
 32
0.0
 13
283.7968678842608
 23
222.8148529342228
 33
0.0
  0
MTEXT
  5
33D
330
337
100
AcDbEntity
  8
KOTY
 62
     0
100
AcDbMText
 10
273.1468649301859
 20
225.8228529342228
 30
0.0
 40
4.0
 41
0.0
 71
     5
 72
     1
  1
\A1;21
  0
POINT
  5
33E
330
337
100
AcDbEntity
  8
DEFPOINTS
 62
     0
100
AcDbPoint
 10
262.496861976111
 20
183.0360453386732
 30
0.0
  0
POINT
  5
33F
330
337
100
AcDbEntity
  8
DEFPOINTS
 62
     0
100
AcDbPoint
 10
283.7968678842608
 20
183.1552457210987
 30
0.0
  0
POINT
  5
340
330
337
100
AcDbEntity
  8
DEFPOINTS
 62
     0
100
AcDbPoint
 10
283.7968678842608
 20
222.8148529342228
 30
0.0
  0
ENDBLK
  5
36A
330
337
100
AcDbEntity
  8
0
100
AcDbBlockEnd
  0
BLOCK
  5
36B
330
341
100
AcDbEntity
  8
0
100
AcDbBlockBegin
  2
*D9
 70
     1
 10
0.0
 20
0.0
 30
0.0
  3
*D9
  1

  0
LINE
  5
342
330
341
100
AcDbEntity
  8
KOTY
 62
     0
100
AcDbLine
 10
322.1339157348585
 20
181.3177743075828
 30
0.0
 11
322.1339157348585
 21
222.9948529342228
 31
0.0
  0
LINE
  5
343
330
341
100
AcDbEntity
  8
KOTY
 62
     0
100
AcDbLine
 10
374.6341049782124
 20
181.3177743075828
 30
0.0
 11
374.6341049782124
 21
222.9948529342228
 31
0.0
  0
LINE
  5
344
330
341
100
AcDbEntity
  8
KOTY
 62
     0
100
AcDbLine
 10
326.1339157348585
 20
222.8148529342228
 30
0.0
 11
370.6341049782124
 21
222.8148529342228
 31
0.0
  0
SOLID
  5
345
330
341
100
AcDbEntity
  8
KOTY
 62
     0
100
AcDbTrace
 10
326.1339157348585
 20
223.4815196008895
 30
0.0
 11
326.1339157348585
 21
222.1481862675562
 31
0.0
 12
322.1339157348585
 22
222.8148529342228
 32
0.0
 13
322.1339157348585
 23
222.8148529342228
 33
0.0
  0
SOLID
  5
346
330
341
100
AcDbEntity
  8
KOTY
 62
     0
100
AcDbTrace
 10
370.6341049782124
 20
222.1481862675562
 30
0.0
 11
370.6341049782124
 21
223.4815196008895
 31
0.0
 12
374.6341049782124
 22
222.8148529342228
 32
0.0
 13
374.6341049782124
 23
222.8148529342228
 33
0.0
  0
MTEXT
  5
347
330
341
100
AcDbEntity
  8
KOTY
 62
     0
100
AcDbMText
 10
348.3840103565354
 20
225.8568529342228
 30
0.0
 40
4.0
 41
0.0
 71
     5
 72
     1
  1
\A1;53
  0
POINT
  5
348
330
341
100
AcDbEntity
  8
DEFPOINTS
 62
     0
100
AcDbPoint
 10
322.1339157348585
 20
181.2552743075828
 30
0.0
  0
POINT
  5
349
330
341
100
AcDbEntity
  8
DEFPOINTS
 62
     0
100
AcDbPoint
 10
374.6341049782124
 20
181.2552743075828
 30
0.0
  0
POINT
  5
34A
330
341
100
AcDbEntity
  8
DEFPOINTS
 62
     0
100
AcDbPoint
 10
374.6341049782124
 20
222.8148529342228
 30
0.0
  0
ENDBLK
  5
36C
330
341
100
AcDbEntity
  8
0
100
AcDbBlockEnd
  0
BLOCK
  5
36D
330
34B
100
AcDbEntity
  8
0
100
AcDbBlockBegin
  2
*D10
 70
     1
 10
0.0
 20
0.0
 30
0.0
  3
*D10
  1

  0
LINE
  5
34C
330
34B
100
AcDbEntity
  8
KOTY
 62
     0
100
AcDbLine
 10
372.5966301804931
 20
183.3552336518018
 30
0.0
 11
395.2682613312062
 21
183.3552336518018
 31
0.0
  0
LINE
  5
34D
330
34B
100
AcDbEntity
  8
KOTY
 62
     0
100
AcDbLine
 10
360.4652506498485
 20
129.3553933485536
 30
0.0
 11
395.2682613312062
 21
129.3553933485536
 31
0.0
  0
LINE
  5
34E
330
34B
100
AcDbEntity
  8
KOTY
 62
     0
100
AcDbLine
 10
395.0882613312062
 20
179.3552336518018
 30
0.0
 11
395.0882613312062
 21
133.3553933485536
 31
0.0
  0
SOLID
  5
34F
330
34B
100
AcDbEntity
  8
KOTY
 62
     0
100
AcDbTrace
 10
395.7549279978729
 20
179.3552336518018
 30
0.0
 11
394.4215946645396
 21
179.3552336518018
 31
0.0
 12
395.0882613312062
 22
183.3552336518018
 32
0.0
 13
395.0882613312062
 23
183.3552336518018
 33
0.0
  0
SOLID
  5
350
330
34B
100
AcDbEntity
  8
KOTY
 62
     0
100
AcDbTrace
 10
394.4215946645396
 20
133.3553933485536
 30
0.0
 11
395.7549279978729
 21
133.3553933485536
 31
0.0
 12
395.0882613312062
 22
129.3553933485536
 32
0.0
 13
395.0882613312062
 23
129.3553933485536
 33
0.0
  0
MTEXT
  5
351
330
34B
100
AcDbEntity
  8
KOTY
 62
     0
100
AcDbMText
 10
392.0542613312062
 20
155.5314435041941
 30
0.0
 40
4.0
 41
0.0
 71
     5
 72
     1
  1
\A1;54
 11
0.0
 21
1.0
 31
0.0
  0
POINT
  5
352
330
34B
100
AcDbEntity
  8
DEFPOINTS
 62
     0
100
AcDbPoint
 10
372.5341301804931
 20
183.3552336518018
 30
0.0
  0
POINT
  5
353
330
34B
100
AcDbEntity
  8
DEFPOINTS
 62
     0
100
AcDbPoint
 10
360.4027506498485
 20
129.3553933485536
 30
0.0
  0
POINT
  5
354
330
34B
100
AcDbEntity
  8
DEFPOINTS
 62
     0
100
AcDbPoint
 10
395.0882613312062
 20
129.3553933485536
 30
0.0
  0
ENDBLK
  5
36E
330
34B
100
AcDbEntity
  8
0
100
AcDbBlockEnd
  0
BLOCK
  5
36F
330
355
100
AcDbEntity
  8
0
100
AcDbBlockBegin
  2
*D11
 70
     1
 10
0.0
 20
0.0
 30
0.0
  3
*D11
  1

  0
LINE
  5
356
330
355
100
AcDbEntity
  8
KOTY
 62
     0
100
AcDbLine
 10
357.9964935964932
 20
216.7607963109118
 30
0.0
 11
395.2682613312062
 21
216.7607963109118
 31
0.0
  0
LINE
  5
357
330
355
100
AcDbEntity
  8
KOTY
 62
     0
100
AcDbLine
 10
372.596473384959
 20
183.3552336459483
 30
0.0
 11
395.2682613312062
 21
183.3552336459483
 31
0.0
  0
LINE
  5
358
330
355
100
AcDbEntity
  8
KOTY
 62
     0
100
AcDbLine
 10
395.0882613312062
 20
212.7607963109118
 30
0.0
 11
395.0882613312062
 21
187.3552336459483
 31
0.0
  0
SOLID
  5
359
330
355
100
AcDbEntity
  8
KOTY
 62
     0
100
AcDbTrace
 10
395.7549279978729
 20
212.7607963109118
 30
0.0
 11
394.4215946645396
 21
212.7607963109118
 31
0.0
 12
395.0882613312062
 22
216.7607963109118
 32
0.0
 13
395.0882613312062
 23
216.7607963109118
 33
0.0
  0
SOLID
  5
35A
330
355
100
AcDbEntity
  8
KOTY
 62
     0
100
AcDbTrace
 10
394.4215946645396
 20
187.3552336459483
 30
0.0
 11
395.7549279978729
 21
187.3552336459483
 31
0.0
 12
395.0882613312062
 22
183.3552336459483
 32
0.0
 13
395.0882613312062
 23
183.3552336459483
 33
0.0
  0
MTEXT
  5
35B
330
355
100
AcDbEntity
  8
KOTY
 62
     0
100
AcDbMText
 10
392.0462613312062
 20
200.0580149784301
 30
0.0
 40
4.0
 41
0.0
 71
     5
 72
     1
  1
\A1;150
 11
0.0
 21
1.0
 31
0.0
  0
POINT
  5
35C
330
355
100
AcDbEntity
  8
DEFPOINTS
 62
     0
100
AcDbPoint
 10
357.9339935964932
 20
216.7607963109118
 30
0.0
  0
POINT
  5
35D
330
355
100
AcDbEntity
  8
DEFPOINTS
 62
     0
100
AcDbPoint
 10
372.533973384959
 20
183.3552336459483
 30
0.0
  0
POINT
  5
35E
330
355
100
AcDbEntity
  8
DEFPOINTS
 62
     0
100
AcDbPoint
 10
395.0882613312062
 20
183.3552336459483
 30
0.0
  0
ENDBLK
  5
370
330
355
100
AcDbEntity
  8
0
100
AcDbBlockEnd
  0
BLOCK
  5
371
330
35F
100
AcDbEntity
  8
0
100
AcDbBlockBegin
  2
*D12
 70
     1
 10
0.0
 20
0.0
 30
0.0
  3
*D12
  1

  0
LINE
  5
360
330
35F
100
AcDbEntity
  8
KOTY
 62
     0
100
AcDbLine
 10
360.4652506498487
 20
129.3550488387778
 30
0.0
 11
395.2682613312062
 21
129.3550488387778
 31
0.0
  0
LINE
  5
361
330
35F
100
AcDbEntity
  8
KOTY
 62
     0
100
AcDbLine
 10
354.2465046869518
 20
94.185768376626
 30
0.0
 11
395.2682613312062
 21
94.185768376626
 31
0.0
  0
LINE
  5
362
330
35F
100
AcDbEntity
  8
KOTY
 62
     0
100
AcDbLine
 10
395.0882613312062
 20
125.3550488387778
 30
0.0
 11
395.0882613312062
 21
98.185768376626
 31
0.0
  0
SOLID
  5
363
330
35F
100
AcDbEntity
  8
KOTY
 62
     0
100
AcDbTrace
 10
395.7549279978729
 20
125.3550488387778
 30
0.0
 11
394.4215946645396
 21
125.3550488387778
 31
0.0
 12
395.0882613312062
 22
129.3550488387778
 32
0.0
 13
395.0882613312062
 23
129.3550488387778
 33
0.0
  0
SOLID
  5
364
330
35F
100
AcDbEntity
  8
KOTY
 62
     0
100
AcDbTrace
 10
394.4215946645396
 20
98.185768376626
 30
0.0
 11
395.7549279978729
 21
98.185768376626
 31
0.0
 12
395.0882613312062
 22
94.185768376626
 32
0.0
 13
395.0882613312062
 23
94.185768376626
 33
0.0
  0
MTEXT
  5
365
330
35F
100
AcDbEntity
  8
KOTY
 62
     0
100
AcDbMText
 10
392.0462613312062
 20
111.7704086077019
 30
0.0
 40
4.0
 41
0.0
 71
     5
 72
     1
  1
\A1;150
 11
0.0
 21
1.0
 31
0.0
  0
POINT
  5
366
330
35F
100
AcDbEntity
  8
DEFPOINTS
 62
     0
100
AcDbPoint
 10
360.4027506498487
 20
129.3550488387778
 30
0.0
  0
POINT
  5
367
330
35F
100
AcDbEntity
  8
DEFPOINTS
 62
     0
100
AcDbPoint
 10
354.1840046869518
 20
94.185768376626
 30
0.0
  0
POINT
  5
368
330
35F
100
AcDbEntity
  8
DEFPOINTS
 62
     0
100
AcDbPoint
 10
395.0882613312062
 20
94.185768376626
 30
0.0
  0
ENDBLK
  5
372
330
35F
100
AcDbEntity
  8
0
100
AcDbBlockEnd
  0
ENDSEC
  0
SECTION
  2
ENTITIES
  0
LINE
  5
247
330
1F
100
AcDbEntity
  8
OBRYS
100
AcDbLine
 10
271.7969033737286
 20
105.4105858916167
 30
0.0
 11
272.3519086225363
 21
107.8369682425491
 31
0.0
  0
LINE
  5
248
330
1F
100
AcDbEntity
  8
OBRYS
100
AcDbLine
 10
273.1827285688189
 20
107.8369682425491
 30
0.0
 11
274.5110890203885
 21
102.9842035406843
 31
0.0
  0
ARC
  5
249
330
1F
100
AcDbEntity
  8
OBRYS
100
AcDbCircle
 10
272.7673185956776
 20
107.6684344010758
 30
0.0
 40
0.4482957745808294
100
AcDbArc
 50
22.0826332398771
 51
157.9173667601202
  0
LINE
  5
24A
330
1F
100
AcDbEntity
  8
OBRYS
100
AcDbLine
 10
275.8969142154788
 20
105.4105858916167
 30
0.0
 11
275.3419089666712
 21
102.9842035406843
 31
0.0
  0
ARC
  5
24B
330
1F
100
AcDbEntity
  8
OBRYS
100
AcDbCircle
 10
274.9264989935298
 20
103.1527373821576
 30
0.0
 40
0.4482957745808294
100
AcDbArc
 50
202.0826332398798
 51
337.9173667601229
  0
LINE
  5
24C
330
1F
100
AcDbEntity
  8
OBRYS
100
AcDbLine
 10
271.7969033737286
 20
111.4109126566586
 30
0.0
 11
272.3519086225363
 21
113.837295007591
 31
0.0
  0
LINE
  5
24D
330
1F
100
AcDbEntity
  8
OBRYS
100
AcDbLine
 10
273.1827285688189
 20
113.837295007591
 30
0.0
 11
274.5110890203885
 21
108.9845303057262
 31
0.0
  0
ARC
  5
24E
330
1F
100
AcDbEntity
  8
OBRYS
100
AcDbCircle
 10
272.7673185956776
 20
113.6687611661177
 30
0.0
 40
0.4482957745808294
100
AcDbArc
 50
22.08263323987878
 51
157.9173667601185
  0
LINE
  5
24F
330
1F
100
AcDbEntity
  8
OBRYS
100
AcDbLine
 10
275.8969142154788
 20
111.4109126566586
 30
0.0
 11
275.3419089666712
 21
108.9845303057262
 31
0.0
  0
ARC
  5
250
330
1F
100
AcDbEntity
  8
OBRYS
100
AcDbCircle
 10
274.9264989935298
 20
109.1530641471995
 30
0.0
 40
0.4482957745808294
100
AcDbArc
 50
202.0826332398798
 51
337.9173667601229
  0
LINE
  5
251
330
1F
100
AcDbEntity
  8
OBRYS
100
AcDbLine
 10
271.7969033737286
 20
199.4031880220855
 30
0.0
 11
272.3519086225363
 21
201.8295703730179
 31
0.0
  0
ARC
  5
252
330
1F
100
AcDbEntity
  8
OBRYS
100
AcDbCircle
 10
272.7673185956776
 20
201.6610365315446
 30
0.0
 40
0.4482957745808294
100
AcDbArc
 50
22.08263323987878
 51
157.9173667601185
  0
LINE
  5
253
330
1F
100
AcDbEntity
  8
OBRYS
100
AcDbLine
 10
273.1827285688189
 20
201.8295703730179
 30
0.0
 11
274.5110890203885
 21
196.9768056711531
 31
0.0
  0
ARC
  5
254
330
1F
100
AcDbEntity
  8
OBRYS
100
AcDbCircle
 10
274.9264989935298
 20
197.1453395126264
 30
0.0
 40
0.4482957745808294
100
AcDbArc
 50
202.0826332398815
 51
337.9173667601212
  0
LINE
  5
255
330
1F
100
AcDbEntity
  8
OBRYS
100
AcDbLine
 10
275.8969142154788
 20
199.4031880220855
 30
0.0
 11
275.3419089666712
 21
196.9768056711531
 31
0.0
  0
LINE
  5
256
330
1F
100
AcDbEntity
  8
OBRYS
100
AcDbLine
 10
271.7969033737286
 20
205.4031702773516
 30
0.0
 11
272.3519086225363
 21
207.829552628284
 31
0.0
  0
ARC
  5
257
330
1F
100
AcDbEntity
  8
OBRYS
100
AcDbCircle
 10
272.7673185956776
 20
207.6610187868107
 30
0.0
 40
0.4482957745808294
100
AcDbArc
 50
22.08263323987878
 51
157.9173667601185
  0
LINE
  5
258
330
1F
100
AcDbEntity
  8
OBRYS
100
AcDbLine
 10
273.1827285688189
 20
207.829552628284
 30
0.0
 11
274.5110890203885
 21
202.9767879264192
 31
0.0
  0
ARC
  5
259
330
1F
100
AcDbEntity
  8
OBRYS
100
AcDbCircle
 10
274.9264989935298
 20
203.1453217678925
 30
0.0
 40
0.4482957745808294
100
AcDbArc
 50
202.0826332398815
 51
337.9173667601212
  0
LINE
  5
25A
330
1F
100
AcDbEntity
  8
OBRYS
100
AcDbLine
 10
275.8969142154788
 20
205.4031702773516
 30
0.0
 11
275.3419089666712
 21
202.9767879264192
 31
0.0
  0
LINE
  5
25B
330
1F
100
AcDbEntity
  8
OBRYS
100
AcDbLine
 10
271.7969033737286
 20
105.4105858916167
 30
0.0
 11
271.7969033737286
 21
94.185768376626
 31
0.0
  0
LINE
  5
25C
330
1F
100
AcDbEntity
  8
OBRYS
100
AcDbLine
 10
271.7969033737286
 20
217.3337160680608
 30
0.0
 11
271.7969033737286
 21
205.4031702773516
 31
0.0
  0
LINE
  5
25D
330
1F
100
AcDbEntity
  8
OBRYS
100
AcDbLine
 10
275.8969142154788
 20
205.4031702773516
 30
0.0
 11
275.8969142154788
 21
217.3337160680608
 31
0.0
  0
LINE
  5
25E
330
1F
100
AcDbEntity
  8
OBRYS
100
AcDbLine
 10
278.1810140290074
 20
152.8385577059237
 30
0.0
 11
281.1468986888367
 21
152.8902341722931
 31
0.0
  0
LINE
  5
25F
330
1F
100
AcDbEntity
  8
OBRYS
100
AcDbLine
 10
278.1810140290074
 20
149.4716636670677
 30
0.0
 11
281.1468986888367
 21
149.4199872006983
 31
0.0
  0
LINE
  5
260
330
1F
100
AcDbEntity
  8
OBRYS
100
AcDbLine
 10
278.1810140290074
 20
152.8385577059237
 30
0.0
 11
278.1810140290074
 21
149.4716636670677
 31
0.0
  0
LINE
  5
261
330
1F
100
AcDbEntity
  8
OBRYS
100
AcDbLine
 10
278.1810140290074
 20
174.9886414858505
 30
0.0
 11
281.1468986888367
 21
175.033427756704
 31
0.0
  0
LINE
  5
262
330
1F
100
AcDbEntity
  8
OBRYS
100
AcDbLine
 10
278.1810140290074
 20
171.6219197018824
 30
0.0
 11
281.1468986888367
 21
171.5698987257372
 31
0.0
  0
LINE
  5
263
330
1F
100
AcDbEntity
  8
OBRYS
100
AcDbLine
 10
278.1810140290074
 20
171.6219197018824
 30
0.0
 11
278.1810140290074
 21
174.9886414858505
 31
0.0
  0
LINE
  5
264
330
1F
100
AcDbEntity
  8
OBRYS
100
AcDbLine
 10
281.1468986888367
 20
171.5698987257372
 30
0.0
 11
281.1468986888367
 21
175.0404902071078
 31
0.0
  0
LINE
  5
265
330
1F
100
AcDbEntity
  8
OBRYS
100
AcDbLine
 10
280.7431332316035
 20
171.5771334310289
 30
0.0
 11
280.7431332316035
 21
175.033427756704
 31
0.0
  0
LINE
  5
266
330
1F
100
AcDbEntity
  8
OBRYS
100
AcDbLine
 10
280.7431332316035
 20
152.8833439767772
 30
0.0
 11
280.7431332316035
 21
149.42722190599
 31
0.0
  0
LINE
  5
267
330
1F
100
AcDbEntity
  8
OBRYS
100
AcDbLine
 10
281.1468986888367
 20
152.8902341722931
 30
0.0
 11
281.1468986888367
 21
149.4199872006983
 31
0.0
  0
LINE
  5
268
330
1F
100
AcDbEntity
  8
OBRYS
100
AcDbLine
 10
262.7969299908295
 20
129.669241754304
 30
0.0
 11
262.7969299908295
 21
129.7533021395982
 31
0.0
  0
LINE
  5
269
330
1F
100
AcDbEntity
  8
OBRYS
100
AcDbLine
 10
263.7970418699658
 20
129.4553011835345
 30
0.0
 11
262.9933005630334
 21
129.4694260843422
 31
0.0
  0
LINE
  5
26A
330
1F
100
AcDbEntity
  8
OBRYS
100
AcDbLine
 10
283.597052214299
 20
129.3550488387779
 30
0.0
 11
263.7970418699658
 21
129.3553933485536
 31
0.0
  0
LINE
  5
26B
330
1F
100
AcDbEntity
  8
OBRYS
100
AcDbLine
 10
263.7970418699658
 20
141.2051515968387
 30
0.0
 11
262.6935770580907
 21
141.2244441442833
 31
0.0
  0
LINE
  5
26C
330
1F
100
AcDbEntity
  8
OBRYS
100
AcDbLine
 10
262.6935770580907
 20
183.2360332635229
 30
0.0
 11
262.7524882297518
 21
183.2370667928502
 31
0.0
  0
LINE
  5
26D
330
1F
100
AcDbEntity
  8
OBRYS
100
AcDbLine
 10
262.7524882297518
 20
183.2370667928502
 30
0.0
 11
262.811399401413
 21
183.2381003221776
 31
0.0
  0
LINE
  5
26E
330
1F
100
AcDbEntity
  8
OBRYS
100
AcDbLine
 10
262.811399401413
 20
183.2381003221776
 30
0.0
 11
263.7970418699658
 21
183.2553258109674
 31
0.0
  0
LINE
  5
26F
330
1F
100
AcDbEntity
  8
OBRYS
100
AcDbLine
 10
281.796988635764
 20
141.1052437618578
 30
0.0
 11
263.7970418699658
 21
141.1052437618578
 31
0.0
  0
LINE
  5
270
330
1F
100
AcDbEntity
  8
OBRYS
100
AcDbLine
 10
263.7970418699658
 20
183.3552336459483
 30
0.0
 11
283.597052214299
 21
183.3552336459483
 31
0.0
  0
LINE
  5
271
330
1F
100
AcDbEntity
  8
OBRYS
100
AcDbLine
 10
281.796988635764
 20
129.3553933485536
 30
0.0
 11
281.796988635764
 21
129.5080111792313
 31
0.0
  0
LINE
  5
272
330
1F
100
AcDbEntity
  8
OBRYS
100
AcDbLine
 10
281.796988635764
 20
129.5080111792313
 30
0.0
 11
281.796988635764
 21
129.9445050651651
 31
0.0
  0
LINE
  5
273
330
1F
100
AcDbEntity
  8
OBRYS
100
AcDbLine
 10
281.796988635764
 20
129.9445050651651
 30
0.0
 11
281.796988635764
 21
130.6011406978326
 31
0.0
  0
LINE
  5
274
330
1F
100
AcDbEntity
  8
OBRYS
100
AcDbLine
 10
281.796988635764
 20
130.6011406978326
 30
0.0
 11
281.796988635764
 21
131.3817998497867
 31
0.0
  0
LINE
  5
275
330
1F
100
AcDbEntity
  8
OBRYS
100
AcDbLine
 10
281.796988635764
 20
131.3817998497867
 30
0.0
 11
281.796988635764
 21
136.1350012264465
 31
0.0
  0
LINE
  5
276
330
1F
100
AcDbEntity
  8
OBRYS
100
AcDbLine
 10
281.796988635764
 20
136.1350012264465
 30
0.0
 11
281.796988635764
 21
137.2508683902502
 31
0.0
  0
LINE
  5
277
330
1F
100
AcDbEntity
  8
OBRYS
100
AcDbLine
 10
281.796988635764
 20
137.2508683902502
 30
0.0
 11
281.796988635764
 21
138.3047237944107
 31
0.0
  0
LINE
  5
278
330
1F
100
AcDbEntity
  8
OBRYS
100
AcDbLine
 10
281.796988635764
 20
138.3047237944107
 30
0.0
 11
281.796988635764
 21
139.2459245018859
 31
0.0
  0
LINE
  5
279
330
1F
100
AcDbEntity
  8
OBRYS
100
AcDbLine
 10
281.796988635764
 20
139.2459245018859
 30
0.0
 11
281.796988635764
 21
140.0293397320463
 31
0.0
  0
LINE
  5
27A
330
1F
100
AcDbEntity
  8
OBRYS
100
AcDbLine
 10
281.796988635764
 20
140.0293397320463
 30
0.0
 11
281.796988635764
 21
140.6170734095546
 31
0.0
  0
LINE
  5
27B
330
1F
100
AcDbEntity
  8
OBRYS
100
AcDbLine
 10
281.796988635764
 20
140.6170734095546
 30
0.0
 11
281.796988635764
 21
140.981564752347
 31
0.0
  0
LINE
  5
27C
330
1F
100
AcDbEntity
  8
OBRYS
100
AcDbLine
 10
281.796988635764
 20
140.981564752347
 30
0.0
 11
281.796988635764
 21
141.1052437618578
 31
0.0
  0
LINE
  5
27D
330
1F
100
AcDbEntity
  8
OBRYS
100
AcDbLine
 10
278.1286485430865
 20
171.337010117299
 30
0.0
 11
281.315363969201
 21
171.337010117299
 31
0.0
  0
LINE
  5
27E
330
1F
100
AcDbEntity
  8
OBRYS
100
AcDbLine
 10
278.1286485430865
 20
149.1867540824843
 30
0.0
 11
281.315363969201
 21
149.1867540824843
 31
0.0
  0
LINE
  5
27F
330
1F
100
AcDbEntity
  8
OBRYS
100
AcDbLine
 10
281.315363969201
 20
171.337010117299
 30
0.0
 11
281.315363969201
 21
175.2735510704339
 31
0.0
  0
LINE
  5
280
330
1F
100
AcDbEntity
  8
OBRYS
100
AcDbLine
 10
281.315363969201
 20
175.2735510704339
 30
0.0
 11
278.1286485430865
 21
175.2735510704339
 31
0.0
  0
LINE
  5
281
330
1F
100
AcDbEntity
  8
OBRYS
100
AcDbLine
 10
281.315363969201
 20
149.1867540824843
 30
0.0
 11
281.315363969201
 21
153.1234672905071
 31
0.0
  0
LINE
  5
282
330
1F
100
AcDbEntity
  8
OBRYS
100
AcDbLine
 10
281.796988635764
 20
141.1052437618578
 30
0.0
 11
281.796988635764
 21
141.207907675045
 31
0.0
  0
LINE
  5
283
330
1F
100
AcDbEntity
  8
OBRYS
100
AcDbLine
 10
281.796988635764
 20
141.207907675045
 30
0.0
 11
281.796988635764
 21
141.5062531408845
 31
0.0
  0
LINE
  5
284
330
1F
100
AcDbEntity
  8
OBRYS
100
AcDbLine
 10
281.796988635764
 20
141.5062531408845
 30
0.0
 11
281.796988635764
 21
141.9709968284336
 31
0.0
  0
LINE
  5
285
330
1F
100
AcDbEntity
  8
OBRYS
100
AcDbLine
 10
281.796988635764
 20
141.9709968284336
 30
0.0
 11
281.796988635764
 21
142.5563189375112
 31
0.0
  0
LINE
  5
286
330
1F
100
AcDbEntity
  8
OBRYS
100
AcDbLine
 10
281.796988635764
 20
142.5563189375112
 30
0.0
 11
281.796988635764
 21
143.2053753551112
 31
0.0
  0
LINE
  5
287
330
1F
100
AcDbEntity
  8
OBRYS
100
AcDbLine
 10
281.315363969201
 20
153.1234672905071
 30
0.0
 11
278.1286485430865
 21
153.1234672905071
 31
0.0
  0
LINE
  5
288
330
1F
100
AcDbEntity
  8
OBRYS
100
AcDbLine
 10
278.1286485430865
 20
153.1234672905071
 30
0.0
 11
278.1286485430865
 21
149.1867540824843
 31
0.0
  0
LINE
  5
289
330
1F
100
AcDbEntity
  8
OBRYS
100
AcDbLine
 10
281.796988635764
 20
143.2053753551112
 30
0.0
 11
281.796988635764
 21
145.3330677304284
 31
0.0
  0
LINE
  5
28A
330
1F
100
AcDbEntity
  8
OBRYS
100
AcDbLine
 10
278.1286485430865
 20
175.2735510704339
 30
0.0
 11
278.1286485430865
 21
171.337010117299
 31
0.0
  0
LINE
  5
28B
330
1F
100
AcDbEntity
  8
OBRYS
100
AcDbLine
 10
275.8969142154788
 20
111.4109126566586
 30
0.0
 11
275.8969142154788
 21
129.3536707996747
 31
0.0
  0
LINE
  5
28C
330
1F
100
AcDbEntity
  8
OBRYS
100
AcDbLine
 10
271.7969033737286
 20
129.3536707996747
 30
0.0
 11
271.7969033737286
 21
111.4109126566586
 31
0.0
  0
LINE
  5
28D
330
1F
100
AcDbEntity
  8
OBRYS
100
AcDbLine
 10
271.7969033737286
 20
199.4031880220855
 30
0.0
 11
271.7969033737286
 21
183.3567839399394
 31
0.0
  0
LINE
  5
28E
330
1F
100
AcDbEntity
  8
OBRYS
100
AcDbLine
 10
275.8969142154788
 20
183.3567839399394
 30
0.0
 11
275.8969142154788
 21
199.4031880220855
 31
0.0
  0
LINE
  5
28F
330
1F
100
AcDbEntity
  8
OBRYS
100
AcDbLine
 10
275.8969142154788
 20
94.185768376626
 30
0.0
 11
275.8969142154788
 21
105.4105858916167
 31
0.0
  0
LINE
  5
290
330
1F
100
AcDbEntity
  8
OBRYS
100
AcDbLine
 10
346.3343494454361
 20
206.1756677182529
 30
0.0
 11
346.3343494454361
 21
216.7607963109118
 31
0.0
  0
LINE
  5
291
330
1F
100
AcDbEntity
  8
OBRYS
100
AcDbLine
 10
350.4340157774105
 20
216.7607963109118
 30
0.0
 11
350.4340157774105
 21
202.7795272145476
 31
0.0
  0
LINE
  5
292
330
1F
100
AcDbEntity
  8
OBRYS
100
AcDbLine
 10
353.8339827547429
 20
216.7607963109118
 30
0.0
 11
353.8339827547429
 21
201.4931525647594
 31
0.0
  0
LINE
  5
293
330
1F
100
AcDbEntity
  8
OBRYS
100
AcDbLine
 10
357.9339935964932
 20
204.4774725097872
 30
0.0
 11
357.9339935964932
 21
216.7607963109118
 31
0.0
  0
LINE
  5
294
330
1F
100
AcDbEntity
  8
OBRYS
100
AcDbLine
 10
338.8340271165777
 20
216.7607963109118
 30
0.0
 11
338.8340271165777
 21
204.4774725097872
 31
0.0
  0
LINE
  5
295
330
1F
100
AcDbEntity
  8
OBRYS
100
AcDbLine
 10
342.9340379583279
 20
207.4615548124559
 30
0.0
 11
342.9340379583279
 21
216.7607963109118
 31
0.0
  0
LINE
  5
296
330
1F
100
AcDbEntity
  8
OBRYS
100
AcDbLine
 10
334.2665165090721
 20
131.3817998497867
 30
0.0
 11
334.1004627971384
 21
136.1350012264465
 31
0.0
  0
LINE
  5
297
330
1F
100
AcDbEntity
  8
OBRYS
100
AcDbLine
 10
360.4027506498485
 20
129.3553933485536
 30
0.0
 11
336.3652700632224
 21
129.3553933485536
 31
0.0
  0
LINE
  5
298
330
1F
100
AcDbEntity
  8
OBRYS
100
AcDbLine
 10
362.6675579159325
 20
136.1350012264465
 30
0.0
 11
362.5015042039987
 21
131.3817998497867
 31
0.0
  0
LINE
  5
299
330
1F
100
AcDbEntity
  8
OBRYS
100
AcDbLine
 10
372.533973384959
 20
141.1052437618578
 30
0.0
 11
367.8145339663272
 21
141.1052437618578
 31
0.0
  0
LINE
  5
29A
330
1F
100
AcDbEntity
  8
OBRYS
100
AcDbLine
 10
374.6341049782124
 20
181.2552743075828
 30
0.0
 11
374.6341049782124
 21
143.2053753551112
 31
0.0
  0
LINE
  5
29B
330
1F
100
AcDbEntity
  8
OBRYS
100
AcDbLine
 10
324.2340473281119
 20
183.3552336459483
 30
0.0
 11
372.533973384959
 21
183.3552336459483
 31
0.0
  0
LINE
  5
29C
330
1F
100
AcDbEntity
  8
OBRYS
100
AcDbLine
 10
322.1339157348584
 20
143.2053753551112
 30
0.0
 11
322.1339157348584
 21
181.2552743075828
 31
0.0
  0
LINE
  5
29D
330
1F
100
AcDbEntity
  8
OBRYS
100
AcDbLine
 10
328.9538312565194
 20
141.1052437618578
 30
0.0
 11
324.2340473281119
 21
141.1052437618578
 31
0.0
  0
LINE
  5
29E
330
1F
100
AcDbEntity
  8
OBRYS
100
AcDbLine
 10
361.3842590010917
 20
155.5553617978523
 30
0.0
 11
361.3842590010917
 21
157.1552651966497
 31
0.0
  0
LINE
  5
29F
330
1F
100
AcDbEntity
  8
OBRYS
100
AcDbLine
 10
361.0841909863733
 20
157.4553332113682
 30
0.0
 11
357.6842240090409
 21
157.4553332113682
 31
0.0
  0
LINE
  5
2A0
330
1F
100
AcDbEntity
  8
OBRYS
100
AcDbLine
 10
339.3842092285242
 20
155.5553617978523
 30
0.0
 11
339.3842092285242
 21
157.1552651966497
 31
0.0
  0
LINE
  5
2A1
330
1F
100
AcDbEntity
  8
OBRYS
100
AcDbLine
 10
357.6842240090409
 20
155.2552937831338
 30
0.0
 11
361.0841909863733
 21
155.2552937831338
 31
0.0
  0
LINE
  5
2A2
330
1F
100
AcDbEntity
  8
OBRYS
100
AcDbLine
 10
335.6841742364734
 20
155.2552937831338
 30
0.0
 11
339.0841412138057
 21
155.2552937831338
 31
0.0
  0
LINE
  5
2A3
330
1F
100
AcDbEntity
  8
OBRYS
100
AcDbLine
 10
339.0841412138057
 20
157.4553332113682
 30
0.0
 11
335.6841742364734
 21
157.4553332113682
 31
0.0
  0
LINE
  5
2A4
330
1F
100
AcDbEntity
  8
OBRYS
100
AcDbLine
 10
357.3841559943224
 20
157.1552651966497
 30
0.0
 11
357.3841559943224
 21
155.5553617978523
 31
0.0
  0
LINE
  5
2A5
330
1F
100
AcDbEntity
  8
OBRYS
100
AcDbLine
 10
335.3841062217549
 20
157.1552651966497
 30
0.0
 11
335.3841062217549
 21
155.5553617978523
 31
0.0
  0
LINE
  5
2A6
330
1F
100
AcDbEntity
  8
OBRYS
100
AcDbLine
 10
346.3343494454361
 20
183.3567839399394
 30
0.0
 11
346.3343494454361
 21
200.1757291486673
 31
0.0
  0
LINE
  5
2A7
330
1F
100
AcDbEntity
  8
OBRYS
100
AcDbLine
 10
350.4340157774105
 20
196.7795449592816
 30
0.0
 11
350.4340157774105
 21
183.3567839399394
 31
0.0
  0
LINE
  5
2A8
330
1F
100
AcDbEntity
  8
OBRYS
100
AcDbLine
 10
353.8339827547429
 20
195.4931703094934
 30
0.0
 11
353.8339827547429
 21
183.3567839399394
 31
0.0
  0
LINE
  5
2A9
330
1F
100
AcDbEntity
  8
OBRYS
100
AcDbLine
 10
357.9339935964932
 20
183.3567839399394
 30
0.0
 11
357.9339935964932
 21
198.4774902545212
 31
0.0
  0
LINE
  5
2AA
330
1F
100
AcDbEntity
  8
OBRYS
100
AcDbLine
 10
346.6840268678692
 20
113.7872108943554
 30
0.0
 11
346.6840268678692
 21
129.3536707996747
 31
0.0
  0
LINE
  5
2AB
330
1F
100
AcDbEntity
  8
OBRYS
100
AcDbLine
 10
342.584016026119
 20
129.3536707996747
 30
0.0
 11
342.584016026119
 21
111.4109126566586
 31
0.0
  0
LINE
  5
2AC
330
1F
100
AcDbEntity
  8
OBRYS
100
AcDbLine
 10
354.1840046869518
 20
111.4109126566586
 30
0.0
 11
354.1840046869518
 21
129.3536707996747
 31
0.0
  0
LINE
  5
2AD
330
1F
100
AcDbEntity
  8
OBRYS
100
AcDbLine
 10
350.0839938452016
 20
129.3536707996747
 30
0.0
 11
350.0839938452016
 21
109.0347215260697
 31
0.0
  0
LINE
  5
2AE
330
1F
100
AcDbEntity
  8
OBRYS
100
AcDbLine
 10
328.6341261845806
 20
129.4604688301715
 30
0.0
 11
335.7082899207791
 21
129.4604688301715
 31
0.0
  0
LINE
  5
2AF
330
1F
100
AcDbEntity
  8
OBRYS
100
AcDbLine
 10
361.0597307922918
 20
129.4604688301715
 30
0.0
 11
368.1342390382661
 21
129.4604688301715
 31
0.0
  0
LINE
  5
2B0
330
1F
100
AcDbEntity
  8
OBRYS
100
AcDbLine
 10
322.2393357262521
 20
142.5483952126679
 30
0.0
 11
322.2393357262521
 21
135.8552592885
 31
0.0
  0
LINE
  5
2B1
330
1F
100
AcDbEntity
  8
OBRYS
100
AcDbLine
 10
374.5286849868188
 20
135.8552592885
 30
0.0
 11
374.5286849868188
 21
142.5483952126679
 31
0.0
  0
LINE
  5
2B2
330
1F
100
AcDbEntity
  8
OBRYS
100
AcDbLine
 10
338.8340271165777
 20
198.4774902545212
 30
0.0
 11
338.8340271165777
 21
183.3567839399394
 31
0.0
  0
LINE
  5
2B3
330
1F
100
AcDbEntity
  8
OBRYS
100
AcDbLine
 10
342.9340379583279
 20
183.3567839399394
 30
0.0
 11
342.9340379583279
 21
201.4615725571899
 31
0.0
  0
LINE
  5
2B4
330
1F
100
AcDbEntity
  8
OBRYS
100
AcDbLine
 10
346.6840268678692
 20
94.185768376626
 30
0.0
 11
346.6840268678692
 21
107.7868841293134
 31
0.0
  0
LINE
  5
2B5
330
1F
100
AcDbEntity
  8
OBRYS
100
AcDbLine
 10
342.584016026119
 20
105.4105858916167
 30
0.0
 11
342.584016026119
 21
94.185768376626
 31
0.0
  0
LINE
  5
2B6
330
1F
100
AcDbEntity
  8
OBRYS
100
AcDbLine
 10
354.1840046869518
 20
94.185768376626
 30
0.0
 11
354.1840046869518
 21
105.4105858916167
 31
0.0
  0
LINE
  5
2B7
330
1F
100
AcDbEntity
  8
OBRYS
100
AcDbLine
 10
350.0839938452016
 20
103.0343947610278
 30
0.0
 11
350.0839938452016
 21
94.185768376626
 31
0.0
  0
LINE
  5
2B8
330
1F
100
AcDbEntity
  8
OBRYS
100
AcDbLine
 10
332.8839987788021
 20
169.3050914596532
 30
0.0
 11
363.8840219342688
 21
169.3050914596532
 31
0.0
  0
LINE
  5
2B9
330
1F
100
AcDbEntity
  8
OBRYS
100
AcDbLine
 10
329.6841919812073
 20
146.6053423324436
 30
0.0
 11
329.6841919812073
 21
166.1052846620584
 31
0.0
  0
LINE
  5
2BA
330
1F
100
AcDbEntity
  8
OBRYS
100
AcDbLine
 10
367.0841732416394
 20
166.1052846620584
 30
0.0
 11
367.0841732416394
 21
146.6053423324436
 31
0.0
  0
LINE
  5
2BB
330
1F
100
AcDbEntity
  8
OBRYS
100
AcDbLine
 10
363.8840219342688
 20
143.405191025073
 30
0.0
 11
332.8839987788021
 21
143.405191025073
 31
0.0
  0
LINE
  5
2BC
330
1F
100
AcDbEntity
  8
OBRYS
100
AcDbLine
 10
368.5927815498508
 20
160.6768441248381
 30
0.0
 11
368.5927815498508
 21
141.1052437618578
 31
0.0
  0
LINE
  5
2BD
330
1F
100
AcDbEntity
  8
OBRYS
100
AcDbLine
 10
370.9898805698405
 20
163.8780289615361
 30
0.0
 11
369.1612226799145
 21
162.0497155813859
 31
0.0
  0
LINE
  5
2BE
330
1F
100
AcDbEntity
  8
OBRYS
100
AcDbLine
 10
371.5927726774838
 20
183.3552336459483
 30
0.0
 11
371.5927726774838
 21
165.3335827642749
 31
0.0
  0
LINE
  5
2BF
330
1F
100
AcDbEntity
  8
OBRYS
100
AcDbLine
 10
275.8969142154788
 20
94.185768376626
 30
0.0
 11
271.7969033737286
 21
94.185768376626
 31
0.0
  0
LINE
  5
2C0
330
1F
100
AcDbEntity
  8
OBRYS
100
AcDbLine
 10
283.7968678842608
 20
183.1552457210987
 30
0.0
 11
283.7968678842608
 21
129.5552090185154
 31
0.0
  0
ARC
  5
2C1
330
1F
100
AcDbEntity
  8
OBRYS
100
AcDbCircle
 10
283.5968350542647
 20
129.5550815914846
 30
0.0
 40
0.2000328705835669
100
AcDbArc
 50
270.0622015564374
 51
0.0364991590306267
  0
LINE
  5
2C2
330
1F
100
AcDbEntity
  8
OBRYS
100
AcDbLine
 10
283.7968678842608
 20
145.3330677304284
 30
0.0
 11
281.796988635764
 21
145.3330677304284
 31
0.0
  0
ARC
  5
2C3
330
1F
100
AcDbEntity
  8
OBRYS
100
AcDbCircle
 10
283.5968718982958
 20
183.1552377411104
 30
0.0
 40
0.1999959861242201
100
AcDbArc
 50
0.0022861441523152
 51
89.948342226437
  0
LINE
  5
2C4
330
1F
100
AcDbEntity
  8
OBRYS
100
AcDbLine
 10
283.597052214299
 20
129.3550488387779
 30
0.0
 11
283.597052214299
 21
183.3552336459483
 31
0.0
  0
ARC
  5
2C5
330
1F
100
AcDbEntity
  8
OBRYS
100
AcDbCircle
 10
262.9965518627196
 20
129.6690215984597
 30
0.0
 40
0.1996219932910792
100
AcDbArc
 50
179.9368105534846
 51
269.0667662212799
  0
LINE
  5
2C6
330
1F
100
AcDbEntity
  8
OBRYS
100
AcDbLine
 10
262.9933005630334
 20
141.2192764976463
 30
0.0
 11
262.9933005630334
 21
129.4694260843422
 31
0.0
  0
LINE
  5
2C7
330
1F
100
AcDbEntity
  8
OBRYS
100
AcDbLine
 10
262.7969299908295
 20
141.2227215954043
 30
0.0
 11
262.7969299908295
 21
129.7533021395982
 31
0.0
  0
LINE
  5
2C8
330
1F
100
AcDbEntity
  8
OBRYS
100
AcDbLine
 10
263.7970418699658
 20
183.3552336459483
 30
0.0
 11
263.7970418699658
 21
129.3553933485536
 31
0.0
  0
ARC
  5
2C9
330
1F
100
AcDbEntity
  8
OBRYS
100
AcDbCircle
 10
262.6995419820628
 20
141.4270511317308
 30
0.0
 40
0.2026947746750418
100
AcDbArc
 50
180.6916565080085
 51
268.3136500812511
  0
LINE
  5
2CA
330
1F
100
AcDbEntity
  8
OBRYS
100
AcDbLine
 10
262.6935770580907
 20
183.2360332635229
 30
0.0
 11
262.6935770580907
 21
141.2244441442833
 31
0.0
  0
LINE
  5
2CB
330
1F
100
AcDbEntity
  8
OBRYS
100
AcDbLine
 10
262.496861976111
 20
183.0360453386732
 30
0.0
 11
262.496861976111
 21
141.4246043240208
 31
0.0
  0
ARC
  5
2CC
330
1F
100
AcDbEntity
  8
OBRYS
100
AcDbCircle
 10
262.6996500697605
 20
183.0333177755707
 30
0.0
 40
0.2028064361070356
100
AcDbArc
 50
91.71597098848115
 51
179.2294003646005
  0
LINE
  5
2CD
330
1F
100
AcDbEntity
  8
OBRYS
100
AcDbLine
 10
271.7969033737286
 20
217.3337160680608
 30
0.0
 11
275.8969142154788
 21
217.3337160680608
 31
0.0
  0
LINE
  5
2CE
330
1F
100
AcDbEntity
  8
OBRYS
100
AcDbLine
 10
338.8340271165777
 20
216.7607963109118
 30
0.0
 11
342.9340379583279
 21
216.7607963109118
 31
0.0
  0
LINE
  5
2CF
330
1F
100
AcDbEntity
  8
OBRYS
100
AcDbLine
 10
346.3343494454361
 20
216.7607963109118
 30
0.0
 11
350.4340157774105
 21
216.7607963109118
 31
0.0
  0
LINE
  5
2D0
330
1F
100
AcDbEntity
  8
OBRYS
100
AcDbLine
 10
353.8339827547429
 20
216.7607963109118
 30
0.0
 11
357.9339935964932
 21
216.7607963109118
 31
0.0
  0
CIRCLE
  5
2D1
330
1F
100
AcDbEntity
  8
OBRYS
100
AcDbCircle
 10
328.6341261845806
 20
135.8552592885
 30
0.0
 40
2.15
  0
CIRCLE
  5
2D2
330
1F
100
AcDbEntity
  8
OBRYS
100
AcDbCircle
 10
344.6341937018821
 20
135.3050771765535
 30
0.0
 40
2.15
  0
CIRCLE
  5
2D3
330
1F
100
AcDbEntity
  8
OBRYS
100
AcDbCircle
 10
352.1341715209646
 20
135.3050771765535
 30
0.0
 40
2.15
  0
CIRCLE
  5
2D4
330
1F
100
AcDbEntity
  8
OBRYS
100
AcDbCircle
 10
368.1340667833782
 20
135.8552592885
 30
0.0
 40
2.15
  0
ARC
  5
2D5
330
1F
100
AcDbEntity
  8
OBRYS
100
AcDbCircle
 10
328.6339098522454
 20
135.8550429561648
 30
0.0
 40
6.394574129652628
100
AcDbArc
 50
179.9980616489025
 51
270.0019383510972
  0
ARC
  5
2D6
330
1F
100
AcDbEntity
  8
OBRYS
100
AcDbCircle
 10
336.3654919252706
 20
131.4553111213586
 30
0.0
 40
2.100262294299001
100
AcDbArc
 50
182.0058190203942
 51
269.9939475373812
  0
ARC
  5
2D7
330
1F
100
AcDbEntity
  8
OBRYS
100
AcDbCircle
 10
328.9536174958425
 20
135.9552609384991
 30
0.0
 40
5.149982827794959
100
AcDbArc
 50
2.000094392602839
 51
89.99762182030013
  0
ARC
  5
2D8
330
1F
100
AcDbEntity
  8
OBRYS
100
AcDbCircle
 10
324.2341478239876
 20
143.205475850987
 30
0.0
 40
2.100232091533566
100
AcDbArc
 50
180.0027415967818
 51
269.9972584032205
  0
ARC
  5
2D9
330
1F
100
AcDbEntity
  8
OBRYS
100
AcDbCircle
 10
324.234111070292
 20
181.2550382982213
 30
0.0
 40
2.100195348694325
100
AcDbArc
 50
90.00173896104423
 51
179.9935613892407
  0
ARC
  5
2DA
330
1F
100
AcDbEntity
  8
OBRYS
100
AcDbCircle
 10
369.5334582692873
 20
165.3339170156052
 30
0.0
 40
2.059314435322977
100
AcDbArc
 50
315.0105105791239
 51
359.9907002105761
  0
ARC
  5
2DB
330
1F
100
AcDbEntity
  8
OBRYS
100
AcDbCircle
 10
370.7134889854137
 20
160.6028775102322
 30
0.0
 40
2.121996957426671
100
AcDbArc
 50
137.0133032175913
 51
178.0024318613283
  0
ARC
  5
2DC
330
1F
100
AcDbEntity
  8
OBRYS
100
AcDbCircle
 10
372.5341301804931
 20
181.2552588540257
 30
0.0
 40
2.099974797776166
100
AcDbArc
 50
0.0004216353450741
 51
90.00427801436743
  0
ARC
  5
2DD
330
1F
100
AcDbEntity
  8
OBRYS
100
AcDbCircle
 10
372.5340934249242
 20
143.205255315146
 30
0.0
 40
2.100011556719063
100
AcDbArc
 50
269.9967248830804
 51
0.0032751169211513
  0
ARC
  5
2DE
330
1F
100
AcDbEntity
  8
OBRYS
100
AcDbCircle
 10
367.8144772513056
 20
135.9551842690169
 30
0.0
 40
5.150059493153169
100
AcDbArc
 50
89.99936903032375
 51
177.9990819049851
  0
ARC
  5
2DF
330
1F
100
AcDbEntity
  8
OBRYS
100
AcDbCircle
 10
360.4027509509468
 20
131.4550810656237
 30
0.0
 40
2.100032226845847
100
AcDbArc
 50
269.9999917850526
 51
358.0002416571731
  0
ARC
  5
2E0
330
1F
100
AcDbEntity
  8
OBRYS
100
AcDbCircle
 10
368.1341843791629
 20
135.8549694441627
 30
0.0
 40
6.394500614224847
100
AcDbArc
 50
270.0004897545739
 51
0.0025970530379673
  0
CIRCLE
  5
2E1
330
1F
100
AcDbEntity
  8
OBRYS
100
AcDbCircle
 10
340.8840325374528
 20
177.4052053081727
 30
0.0
 40
2.15
  0
CIRCLE
  5
2E2
330
1F
100
AcDbEntity
  8
OBRYS
100
AcDbCircle
 10
348.3840103565354
 20
177.4052053081727
 30
0.0
 40
2.15
  0
CIRCLE
  5
2E3
330
1F
100
AcDbEntity
  8
OBRYS
100
AcDbCircle
 10
355.8841604305059
 20
177.4052053081727
 30
0.0
 40
2.15
  0
LINE
  5
2E4
330
1F
100
AcDbEntity
  8
OBRYS
100
AcDbLine
 10
346.6840268678692
 20
94.185768376626
 30
0.0
 11
342.584016026119
 21
94.185768376626
 31
0.0
  0
LINE
  5
2E5
330
1F
100
AcDbEntity
  8
OBRYS
100
AcDbLine
 10
354.1840046869518
 20
94.185768376626
 30
0.0
 11
350.0839938452016
 21
94.185768376626
 31
0.0
  0
ARC
  5
2E6
330
1F
100
AcDbEntity
  8
OBRYS
100
AcDbCircle
 10
332.8838315102399
 20
166.1054519306205
 30
0.0
 40
3.199639533404799
100
AcDbArc
 50
89.99700473051368
 51
180.0029952694863
  0
ARC
  5
2E7
330
1F
100
AcDbEntity
  8
OBRYS
100
AcDbCircle
 10
363.8826769802742
 20
166.1013846786114
 30
0.0
 40
3.203707063355558
100
AcDbArc
 50
357.8713163121053
 51
89.975946555578
  0
ARC
  5
2E8
330
1F
100
AcDbEntity
  8
OBRYS
100
AcDbCircle
 10
363.8839456059902
 20
146.6054186607222
 30
0.0
 40
3.200227636559462
100
AcDbArc
 50
270.0013665553568
 51
359.9986334446422
  0
ARC
  5
2E9
330
1F
100
AcDbEntity
  8
OBRYS
100
AcDbCircle
 10
332.8841255611005
 20
146.6051246098616
 30
0.0
 40
3.199933587300143
100
AcDbArc
 50
179.9961016112604
 51
269.9977299245686
  0
ARC
  5
2EA
330
1F
100
AcDbEntity
  8
OBRYS
100
AcDbCircle
 10
335.6841918887198
 20
157.1552475444033
 30
0.0
 40
0.3000856674840494
100
AcDbArc
 50
90.00337036828252
 51
179.9966296317067
  0
ARC
  5
2EB
330
1F
100
AcDbEntity
  8
OBRYS
100
AcDbCircle
 10
335.6841918887197
 20
155.5553794500986
 30
0.0
 40
0.3000856674840209
100
AcDbArc
 50
180.0033703682825
 51
269.9966296317284
  0
ARC
  5
2EC
330
1F
100
AcDbEntity
  8
OBRYS
100
AcDbCircle
 10
339.0841235615593
 20
155.5553794500987
 30
0.0
 40
0.3000856674840778
100
AcDbArc
 50
270.0033703682824
 51
359.9966296317176
  0
ARC
  5
2ED
330
1F
100
AcDbEntity
  8
OBRYS
100
AcDbCircle
 10
339.0841235615593
 20
157.1552475444033
 30
0.0
 40
0.3000856674840778
100
AcDbArc
 50
0.0033703682933436
 51
89.99662963171751
  0
ARC
  5
2EE
330
1F
100
AcDbEntity
  8
OBRYS
100
AcDbCircle
 10
357.6842416612872
 20
155.5553794500986
 30
0.0
 40
0.3000856674840209
100
AcDbArc
 50
180.0033703682825
 51
269.9966296317174
  0
ARC
  5
2EF
330
1F
100
AcDbEntity
  8
OBRYS
100
AcDbCircle
 10
357.6842416612872
 20
157.1552475444033
 30
0.0
 40
0.3000856674840494
100
AcDbArc
 50
90.00337036828252
 51
179.9966296317067
  0
ARC
  5
2F0
330
1F
100
AcDbEntity
  8
OBRYS
100
AcDbCircle
 10
361.0841733341268
 20
157.1552475444033
 30
0.0
 40
0.3000856674840778
100
AcDbArc
 50
0.0033703682933436
 51
89.99662963170665
  0
ARC
  5
2F1
330
1F
100
AcDbEntity
  8
OBRYS
100
AcDbCircle
 10
361.0841733341268
 20
155.5553794500987
 30
0.0
 40
0.3000856674840778
100
AcDbArc
 50
270.0033703682933
 51
359.9966296317176
  0
LINE
  5
2F2
330
1F
100
AcDbEntity
  8
OBRYS
100
AcDbLine
 10
338.8340271165777
 20
204.4774725097872
 30
0.0
 11
340.8022114657012
 21
206.4835529342483
 31
0.0
  0
LINE
  5
2F3
330
1F
100
AcDbEntity
  8
OBRYS
100
AcDbLine
 10
345.970081850694
 20
206.4774725097872
 30
0.0
 11
350.7986377868385
 21
202.4774725097872
 31
0.0
  0
ARC
  5
2F4
330
1F
100
AcDbEntity
  8
OBRYS
100
AcDbCircle
 10
343.3831638774191
 20
203.6718065020497
 30
0.0
 40
3.816268641936283
100
AcDbArc
 50
47.32290706868544
 51
132.6770929313146
  0
LINE
  5
2F5
330
1F
100
AcDbEntity
  8
OBRYS
100
AcDbLine
 10
357.9339935964932
 20
204.4774725097872
 30
0.0
 11
355.9716656535959
 21
202.4774725097872
 31
0.0
  0
ARC
  5
2F6
330
1F
100
AcDbEntity
  8
OBRYS
100
AcDbCircle
 10
353.3851517202173
 20
205.2812962582098
 30
0.0
 40
3.814640473200779
100
AcDbArc
 50
227.3086116598812
 51
312.6913883401177
  0
LINE
  5
2F7
330
1F
100
AcDbEntity
  8
OBRYS
100
AcDbLine
 10
338.8340271165777
 20
198.4774902545212
 30
0.0
 11
340.8022114657012
 21
200.4835706789823
 31
0.0
  0
ARC
  5
2F8
330
1F
100
AcDbEntity
  8
OBRYS
100
AcDbCircle
 10
343.3831638774191
 20
197.6718242467837
 30
0.0
 40
3.816268641936283
100
AcDbArc
 50
47.32290706868544
 51
132.6770929313146
  0
LINE
  5
2F9
330
1F
100
AcDbEntity
  8
OBRYS
100
AcDbLine
 10
345.970081850694
 20
200.4774902545212
 30
0.0
 11
350.7986377868385
 21
196.4774902545212
 31
0.0
  0
ARC
  5
2FA
330
1F
100
AcDbEntity
  8
OBRYS
100
AcDbCircle
 10
353.3851517202173
 20
199.2813140029438
 30
0.0
 40
3.814640473200779
100
AcDbArc
 50
227.3086116598812
 51
312.6913883401177
  0
LINE
  5
2FB
330
1F
100
AcDbEntity
  8
OBRYS
100
AcDbLine
 10
357.9339935964932
 20
198.4774902545212
 30
0.0
 11
355.9716656535959
 21
196.4774902545212
 31
0.0
  0
LINE
  5
2FC
330
1F
100
AcDbEntity
  8
OBRYS
100
AcDbLine
 10
342.584016026119
 20
111.4109126566586
 30
0.0
 11
343.7762966973652
 21
113.4109126566586
 31
0.0
  0
LINE
  5
2FD
330
1F
100
AcDbEntity
  8
OBRYS
100
AcDbLine
 10
346.9179665564799
 20
113.4109126566586
 30
0.0
 11
349.8501415192978
 21
109.4109126566586
 31
0.0
  0
LINE
  5
2FE
330
1F
100
AcDbEntity
  8
OBRYS
100
AcDbLine
 10
352.9920217975649
 20
109.4109126566586
 30
0.0
 11
354.1840046869518
 21
111.4109126566586
 31
0.0
  0
ARC
  5
2FF
330
1F
100
AcDbEntity
  8
OBRYS
100
AcDbCircle
 10
345.3471316269225
 20
112.6952128831829
 30
0.0
 40
1.726194815677096
100
AcDbArc
 50
24.49483681963444
 51
155.5051631803656
  0
ARC
  5
300
330
1F
100
AcDbEntity
  8
OBRYS
100
AcDbCircle
 10
351.4210816584314
 20
110.126678247512
 30
0.0
 40
1.726317844949382
100
AcDbArc
 50
204.4953769022343
 51
335.5046230977657
  0
LINE
  5
301
330
1F
100
AcDbEntity
  8
OBRYS
100
AcDbLine
 10
342.584016026119
 20
105.4105858916167
 30
0.0
 11
343.7762966973652
 21
107.4105858916167
 31
0.0
  0
ARC
  5
302
330
1F
100
AcDbEntity
  8
OBRYS
100
AcDbCircle
 10
345.3471316269225
 20
106.694886118141
 30
0.0
 40
1.726194815677096
100
AcDbArc
 50
24.49483681963444
 51
155.5051631803656
  0
LINE
  5
303
330
1F
100
AcDbEntity
  8
OBRYS
100
AcDbLine
 10
346.9179665564799
 20
107.4105858916167
 30
0.0
 11
349.8501415192978
 21
103.4105858916167
 31
0.0
  0
ARC
  5
304
330
1F
100
AcDbEntity
  8
OBRYS
100
AcDbCircle
 10
351.4210816584314
 20
104.1263514824701
 30
0.0
 40
1.726317844949382
100
AcDbArc
 50
204.4953769022343
 51
335.5046230977657
  0
LINE
  5
305
330
1F
100
AcDbEntity
  8
OBRYS
100
AcDbLine
 10
352.9920217975649
 20
103.4105858916167
 30
0.0
 11
354.1840046869518
 21
105.4105858916167
 31
0.0
  0
DIMENSION
  5
306
330
1F
100
AcDbEntity
  8
KOTY
100
AcDbDimension
  2
*D8
 10
283.7968678842608
 20
222.8148529342228
 30
0.0
 11
273.1468649301859
 21
225.8228529342228
 31
0.0
 70
    32
  3
STANDARD
100
AcDbAlignedDimension
 13
262.496861976111
 23
183.0360453386732
 33
0.0
 14
283.7968678842608
 24
183.1552457210987
 34
0.0
100
AcDbRotatedDimension
1001
ACAD
1000
DSTYLE
1002
{
1070
   271
1070
     0
1070
   278
1070
    44
1070
    73
1070
     0
1070
    77
1070
     1
1070
   140
1040
4.0
1070
   147
1040
1.0
1070
    41
1040
4.0
1002
}
  0
DIMENSION
  5
307
330
1F
100
AcDbEntity
  8
KOTY
100
AcDbDimension
  2
*D9
 10
374.6341049782124
 20
222.8148529342228
 30
0.0
 11
348.3840103565354
 21
225.8568529342228
 31
0.0
 70
    32
  3
STANDARD
100
AcDbAlignedDimension
 13
322.1339157348585
 23
181.2552743075828
 33
0.0
 14
374.6341049782124
 24
181.2552743075828
 34
0.0
100
AcDbRotatedDimension
1001
ACAD
1000
DSTYLE
1002
{
1070
   271
1070
     0
1070
   278
1070
    44
1070
    73
1070
     0
1070
    77
1070
     1
1070
   140
1040
4.0
1070
   147
1040
1.0
1070
    41
1040
4.0
1002
}
  0
DIMENSION
  5
308
330
1F
100
AcDbEntity
  8
KOTY
100
AcDbDimension
  2
*D10
 10
395.0882613312062
 20
129.3553933485536
 30
0.0
 11
395.0882613312062
 21
155.5314435041941
 31
0.0
 70
   160
  3
STANDARD
100
AcDbAlignedDimension
 13
372.5341301804931
 23
183.3552336518018
 33
0.0
 14
360.4027506498485
 24
129.3553933485536
 34
0.0
 50
90.0
100
AcDbRotatedDimension
1001
ACAD
1000
DSTYLE
1002
{
1070
   271
1070
     0
1070
   278
1070
    44
1070
    73
1070
     0
1070
    77
1070
     1
1070
   140
1040
4.0
1070
   147
1040
1.0
1070
    41
1040
4.0
1002
}
  0
DIMENSION
  5
309
330
1F
100
AcDbEntity
  8
KOTY
100
AcDbDimension
  2
*D11
 10
395.0882613312062
 20
183.3552336459483
 30
0.0
 11
392.0462613312062
 21
200.0580149784301
 31
0.0
 70
    32
  1
150
  3
STANDARD
100
AcDbAlignedDimension
 13
357.9339935964932
 23
216.7607963109118
 33
0.0
 14
372.533973384959
 24
183.3552336459483
 34
0.0
 50
90.0
100
AcDbRotatedDimension
1001
ACAD
1000
DSTYLE
1002
{
1070
   287
1070
     5
1070
   140
1040
4.0
1070
    73
1070
     0
1070
    77
1070
     1
1070
   147
1040
1.0
1070
    41
1040
4.0
1070
   279
1070
     2
1002
}
  0
DIMENSION
  5
30C
330
1F
100
AcDbEntity
  8
KOTY
100
AcDbDimension
  2
*D12
 10
395.0882613312062
 20
94.185768376626
 30
0.0
 11
392.0462613312062
 21
111.7704086077019
 31
0.0
 70
    32
  1
150
  3
STANDARD
100
AcDbAlignedDimension
 13
360.4027506498487
 23
129.3550488387778
 33
0.0
 14
354.1840046869518
 24
94.185768376626
 34
0.0
 50
90.0
100
AcDbRotatedDimension
1001
ACAD
1000
DSTYLE
1002
{
1070
   287
1070
     5
1070
   140
1040
4.0
1070
    73
1070
     0
1070
    77
1070
     1
1070
   147
1040
1.0
1070
    41
1040
4.0
1070
   279
1070
     2
1002
}
  0
INSERT
  5
317
330
1F
100
AcDbEntity
  8
POPIS_VODICU
100
AcDbBlockReference
  2
BLOCK_143
 10
236.174075791741
 20
-57.25107835346411
 30
0.0
  0
HATCH
  5
31D
330
1F
100
AcDbEntity
  8
POPIS_VODICU
100
AcDbHatch
 10
0.0
 20
0.0
 30
0.0
210
0.0
220
0.0
230
1.0
  2
SOLID
 70
     1
 71
     0
 91
        1
 92
        1
 93
        1
 72
     4
 94
        3
 73
     0
 74
     1
 95
       17
 96
       13
 40
0.0
 40
0.0
 40
0.0
 40
0.0
 40
1.0
 40
1.0
 40
1.0
 40
2.0
 40
2.0
 40
2.0
 40
3.0
 40
3.0
 40
3.0
 40
4.0
 40
4.0
 40
4.0
 40
4.0
 10
344.9337449519367
 20
95.68559612173816
 10
344.9337449519367
 20
95.52023142935595
 10
344.7993861393762
 20
95.38587261679545
 10
344.6340214469941
 20
95.38587261679545
 10
344.4683122448361
 20
95.38587261679545
 10
344.3339534322756
 20
95.52023142935595
 10
344.3339534322756
 20
95.68559612173816
 10
344.3339534322756
 20
95.85164983367186
 10
344.4683122448361
 20
95.98566413645655
 10
344.6340214469941
 20
95.98566413645655
 10
344.7993861393762
 20
95.98566413645655
 10
344.9337449519367
 20
95.85164983367186
 10
344.9337449519367
 20
95.68559612173816
 97
        0
 75
     0
 76
     1
 98
        0
  0
HATCH
  5
31F
330
1F
100
AcDbEntity
  8
POPIS_VODICU
100
AcDbHatch
 10
0.0
 20
0.0
 30
0.0
210
0.0
220
0.0
230
1.0
  2
SOLID
 70
     1
 71
     0
 91
        1
 92
        1
 93
        1
 72
     4
 94
        3
 73
     0
 74
     1
 95
       17
 96
       13
 40
0.0
 40
0.0
 40
0.0
 40
0.0
 40
1.0
 40
1.0
 40
1.0
 40
2.0
 40
2.0
 40
2.0
 40
3.0
 40
3.0
 40
3.0
 40
4.0
 40
4.0
 40
4.0
 40
4.0
 10
352.4338950259073
 20
95.68611288640186
 10
352.4338950259073
 20
95.52005917446805
 10
352.2995362133468
 20
95.38570036190755
 10
352.1341715209646
 20
95.38570036190755
 10
351.9684623188066
 20
95.38570036190755
 10
351.8341035062461
 20
95.52005917446805
 10
351.8341035062461
 20
95.68611288640186
 10
351.8341035062461
 20
95.85147757878396
 10
351.9684623188066
 20
95.98583639134445
 10
352.1341715209646
 20
95.98583639134445
 10
352.2995362133468
 20
95.98583639134445
 10
352.4338950259073
 20
95.85147757878396
 10
352.4338950259073
 20
95.68611288640186
 97
        0
 75
     0
 76
     1
 98
        0
  0
INSERT
  5
328
330
1F
100
AcDbEntity
  8
POPIS_VODICU
100
AcDbBlockReference
  2
BLOCK_142
 10
236.3046449967678
 20
-57.26796820484499
 30
0.0
  0
HATCH
  5
332
330
1F
100
AcDbEntity
  8
POPIS_VODICU
100
AcDbHatch
 10
0.0
 20
0.0
 30
0.0
210
0.0
220
0.0
230
1.0
  2
SOLID
 70
     1
 71
     0
 91
        1
 92
        1
 93
        1
 72
     4
 94
        3
 73
     0
 74
     1
 95
       17
 96
       13
 40
0.0
 40
0.0
 40
0.0
 40
0.0
 40
1.0
 40
1.0
 40
1.0
 40
2.0
 40
2.0
 40
2.0
 40
3.0
 40
3.0
 40
3.0
 40
4.0
 40
4.0
 40
4.0
 40
4.0
 10
356.1838839354486
 20
215.2606240560238
 10
356.1838839354486
 20
215.0945703440902
 10
356.0495251228881
 20
214.9605560413055
 10
355.8841604305059
 20
214.9605560413055
 10
355.718451228348
 20
214.9605560413055
 10
355.5840924157875
 20
215.0945703440902
 10
355.5840924157875
 20
215.2606240560238
 10
355.5840924157875
 20
215.425988748406
 10
355.718451228348
 20
215.5603475609666
 10
355.8841604305059
 20
215.5603475609666
 10
356.0495251228881
 20
215.5603475609666
 10
356.1838839354486
 20
215.425988748406
 10
356.1838839354486
 20
215.2606240560238
 97
        0
 75
     0
 76
     1
 98
        0
  0
HATCH
  5
334
330
1F
100
AcDbEntity
  8
POPIS_VODICU
100
AcDbHatch
 10
0.0
 20
0.0
 30
0.0
210
0.0
220
0.0
230
1.0
  2
SOLID
 70
     1
 71
     0
 91
        1
 92
        1
 93
        1
 72
     4
 94
        3
 73
     0
 74
     1
 95
       17
 96
       13
 40
0.0
 40
0.0
 40
0.0
 40
0.0
 40
1.0
 40
1.0
 40
1.0
 40
2.0
 40
2.0
 40
2.0
 40
3.0
 40
3.0
 40
3.0
 40
4.0
 40
4.0
 40
4.0
 40
4.0
 10
348.6840783712538
 20
215.2606240560238
 10
348.6840783712538
 20
215.0945703440902
 10
348.5497195586933
 20
214.9605560413055
 10
348.3843548663112
 20
214.9605560413055
 10
348.2186456641532
 20
214.9605560413055
 10
348.0842868515927
 20
215.0945703440902
 10
348.0842868515927
 20
215.2606240560238
 10
348.0842868515927
 20
215.425988748406
 10
348.2186456641532
 20
215.5603475609666
 10
348.3843548663112
 20
215.5603475609666
 10
348.5497195586933
 20
215.5603475609666
 10
348.6840783712538
 20
215.425988748406
 10
348.6840783712538
 20
215.2606240560238
 97
        0
 75
     0
 76
     1
 98
        0
  0
HATCH
  5
336
330
1F
100
AcDbEntity
  8
POPIS_VODICU
100
AcDbHatch
 10
0.0
 20
0.0
 30
0.0
210
0.0
220
0.0
230
1.0
  2
SOLID
 70
     1
 71
     0
 91
        1
 92
        1
 93
        1
 72
     4
 94
        3
 73
     0
 74
     1
 95
       17
 96
       13
 40
0.0
 40
0.0
 40
0.0
 40
0.0
 40
1.0
 40
1.0
 40
1.0
 40
2.0
 40
2.0
 40
2.0
 40
3.0
 40
3.0
 40
3.0
 40
4.0
 40
4.0
 40
4.0
 40
4.0
 10
341.1837560423955
 20
215.2607963109117
 10
341.1837560423955
 20
215.0950871087539
 10
341.049397229835
 20
214.9609005510813
 10
340.8840325374528
 20
214.9609005510813
 10
340.7183233352949
 20
214.9609005510813
 10
340.5839645227344
 20
215.0950871087539
 10
340.5839645227344
 20
215.2607963109117
 10
340.5839645227344
 20
215.4265055130697
 10
340.7183233352949
 20
215.5606920707424
 10
340.8840325374528
 20
215.5606920707424
 10
341.049397229835
 20
215.5606920707424
 10
341.1837560423955
 20
215.4265055130697
 10
341.1837560423955
 20
215.2607963109117
 97
        0
 75
     0
 76
     1
 98
        0
  0
LINE
  5
37E
330
1F
100
AcDbEntity
  8
POPIS_VODICU
100
AcDbLine
 10
392.9777002453673
 20
228.6768682548541
 30
0.0
 11
374.6818195821602
 21
228.6768682548541
 31
0.0
  0
LINE
  5
37F
330
1F
100
AcDbEntity
  8
POPIS_VODICU
100
AcDbLine
 10
340.8838602825649
 20
215.2607963109118
 30
0.0
 11
374.6818195821602
 21
228.6768682548541
 31
0.0
  0
LINE
  5
380
330
1F
100
AcDbEntity
  8
POPIS_VODICU
100
AcDbLine
 10
348.3841826114233
 20
215.260451801136
 30
0.0
 11
374.6818195821602
 21
228.6768682548541
 31
0.0
  0
LINE
  5
381
330
1F
100
AcDbEntity
  8
POPIS_VODICU
100
AcDbLine
 10
355.8839881756181
 20
215.260451801136
 30
0.0
 11
374.6818195821602
 21
228.6768682548541
 31
0.0
  0
LINE
  5
38C
330
1F
100
AcDbEntity
  8
POPIS_VODICU
100
AcDbLine
 10
392.8471310403405
 20
80.1742157214034
 30
0.0
 11
374.5695093952506
 21
80.1742157214034
 31
0.0
  0
LINE
  5
38D
330
1F
100
AcDbEntity
  8
POPIS_VODICU
100
AcDbLine
 10
374.5695093952506
 20
80.1742157214034
 30
0.0
 11
352.1339992660767
 21
95.685768376626
 31
0.0
  0
LINE
  5
38E
330
1F
100
AcDbEntity
  8
POPIS_VODICU
100
AcDbLine
 10
374.5695093952506
 20
80.1742157214034
 30
0.0
 11
344.6338491921061
 21
95.685768376626
 31
0.0
  0
ENDSEC
  0
SECTION
  2
OBJECTS
  0
DICTIONARY
  5
C
330
0
100
AcDbDictionary
  3
ACAD_GROUP
350
D
  3
ACAD_IMAGE_VARS
350
DC
  3
ACAD_MLINESTYLE
350
17
  3
ACAD_SCALELIST
350
39C
  3
ACDBVARIABLEDICTIONARY
350
66
  3
APPDATA
350
E1
  3
DWGPROPS
350
3D8
  0
DICTIONARY
  5
373
330
2
100
AcDbDictionary
280
     1
  3
ACAD_LAYERSTATES
360
376
  3
ACLYDICTIONARY
360
38B
  0
DICTIONARY
  5
D
102
{ACAD_REACTORS
330
C
102
}
330
C
100
AcDbDictionary
  0
RASTERVARIABLES
  5
DC
102
{ACAD_REACTORS
330
C
102
}
330
C
100
AcDbRasterVariables
 90
        0
 70
     1
 71
     1
 72
     5
  0
DICTIONARY
  5
17
102
{ACAD_REACTORS
330
C
102
}
330
C
100
AcDbDictionary
  3
STANDARD
350
18
  0
DICTIONARY
  5
39C
102
{ACAD_REACTORS
330
C
102
}
330
C
100
AcDbDictionary
  0
DICTIONARY
  5
66
102
{ACAD_REACTORS
330
C
102
}
330
C
100
AcDbDictionary
  3
CANNOSCALE
350
3D9
  3
DIMASSOC
350
67
  3
HIDETEXT
350
6B
  0
DICTIONARY
  5
E1
102
{ACAD_REACTORS
330
C
102
}
330
C
100
AcDbDictionary
  0
XRECORD
  5
3D8
102
{ACAD_REACTORS
330
C
102
}
330
C
100
AcDbXrecord
  1
DWGPROPS COOKIE
  2

  3

  4

  6

  7

  8
jaromir.podrabsky
  9

300
=
301
=
302
=
303
=
304
=
305
=
306
=
307
=
308
=
309
=
 40
0.0
 41
2452643.063384259
 42
2457953.500563252
  1

 90
        0
  0
DICTIONARY
  5
376
102
{ACAD_REACTORS
330
373
102
}
330
373
100
AcDbDictionary
  0
DICTIONARY
  5
38B
102
{ACAD_REACTORS
330
373
102
}
330
373
100
AcDbDictionary
1001
ACAD
1000
<All
  0
MLINESTYLE
  5
18
102
{ACAD_REACTORS
330
17
102
}
330
17
100
AcDbMlineStyle
  2
STANDARD
 70
     0
  3

 62
   256
 51
90.0
 52
90.0
 71
     2
 49
0.5
 62
   256
  6
BYLAYER
 49
-0.5
 62
   256
  6
BYLAYER
  0
DICTIONARYVAR
  5
3D9
102
{ACAD_REACTORS
330
66
102
}
330
66
100
DictionaryVariables
280
     0
  1
1:1
  0
DICTIONARYVAR
  5
67
102
{ACAD_REACTORS
330
66
102
}
330
66
100
DictionaryVariables
280
     0
  1
2
  0
DICTIONARYVAR
  5
6B
102
{ACAD_REACTORS
330
66
102
}
330
66
100
DictionaryVariables
280
     0
  1
1
  0
ENDSEC
  0
EOF
